999
DXF file: 101-65-88_plain_bend.dxf
999
Pro/ENGINEER 2006320 by Parametric Technology Corporation
  0
SECTION
  2
HEADER
  9
$EXTMAX
 10
420.0
 20
297.0
 30
0.0
  9
$EXTMIN
 10
0.0
 20
0.0
 30
0.0
  9
$LIMMIN
 10
0.0
 20
0.0
  9
$LIMMAX
 10
420.0
 20
297.0
  9
$VIEWCTR
 10
210.0
 20
148.5
  9
$VIEWSIZE
 40
297.0
  9
$CLAYER
  8
0
  9
$LTSCALE
 40
23.1
  9
$CELTYPE
  6
BYLAYER
  9
$DIMSCALE
 40
1.0
  9
$DIMASZ
 40
3.0
  9
$DIMEXO
 40
2.625
  9
$DIMDLI
 40
15.96
  9
$DIMEXE
 40
7.56
  9
$DIMCEN
 40
3.78
  9
$DIMLFAC
 40
1.0
  9
$DIMBLK
  1
_FILLED
  9
$DIMTXT
 40
3.0
  9
$PDMODE
 70
3
  9
$PDSIZE
 40
0.3125
  0
ENDSEC
  0
SECTION
  2
TABLES
  0
TABLE
  2
LTYPE
 70
6
  0
LTYPE
  2
BYBLOCK
 70
0
  3

 72
65
 73
0
 40
0.0
  0
LTYPE
  2
BYLAYER
 70
0
  3

 72
65
 73
0
 40
0.0
  0
LTYPE
  2
CONTINUOUS
 70
64
  3
Solid line
 72
65
 73
0
 40
0.0
  0
LTYPE
  2
CENTER
 70
64
  3
____ _ ____ _ ____ _ ____ _ ____ _ ____ _ ____
 72
65
 73
4
 40
0.6
 49
0.375
 49
-0.075
 49
0.075
 49
-0.075
  0
LTYPE
  2
HIDDEN
 70
64
  3
- - - - - - - - - - - - - - - - - - - -
 72
65
 73
2
 40
0.2
 49
0.1
 49
-0.1
  0
LTYPE
  2
PHANTOM
 70
64
  3
_____ _ _ _____ _ _ _____ _ _ _____
 72
65
 73
6
 40
0.8
 49
0.45
 49
-0.05
 49
0.1
 49
-0.05
 49
0.1
 49
-0.05
  0
LTYPE
  2
DOT
 70
64
  3
. . . . . . . . . . . . . . . . . . . .
 72
65
 73
2
 40
0.2
 49
0.1
 49
-0.1
  0
LTYPE
  2
DASHED
 70
64
  3
- - - - - - - - - - - - - - - - - - - -
 72
65
 73
2
 40
0.2
 49
0.1
 49
-0.1
  0
ENDTAB
  0
TABLE
  2
LAYER
 70
36
  0
LAYER
  2
0
 70
0
 62
7
  6
CONTINUOUS
  0
LAYER
  2
DEFAULT_1
 70
0
 62
7
  6
CENTER
  0
LAYER
  2
DEFAULT_2
 70
0
 62
8
  6
HIDDEN
  0
LAYER
  2
DEFAULT_3
 70
0
 62
7
  6
PHANTOM
  0
LAYER
  2
_2D_DELETED_OBJS
 70
0
 62
7
  6
CONTINUOUS
  0
LAYER
  2
01___PRT_ALL_DTM_PLN
 70
0
 62
7
  6
CONTINUOUS
  0
LAYER
  2
01___PRT_DEF_DTM_PLN
 70
0
 62
7
  6
CONTINUOUS
  0
LAYER
  2
02___PRT_ALL_AXES
 70
0
 62
7
  6
CONTINUOUS
  0
LAYER
  2
03___PRT_ALL_CURVES
 70
0
 62
7
  6
CONTINUOUS
  0
LAYER
  2
04___PRT_ALL_DTM_PNT
 70
0
 62
7
  6
CONTINUOUS
  0
LAYER
  2
05___PRT_ALL_DTM_CSYS
 70
0
 62
7
  6
CONTINUOUS
  0
LAYER
  2
05___PRT_DEF_DTM_CSYS
 70
0
 62
7
  6
CONTINUOUS
  0
LAYER
  2
06___PRT_ALL_SURFS
 70
0
 62
7
  6
CONTINUOUS
  0
LAYER
  2
CURVES
 70
0
 62
7
  6
CONTINUOUS
  0
LAYER
  2
DATUM_POINT
 70
0
 62
7
  6
CONTINUOUS
  0
ENDTAB
  0
TABLE
  2
STYLE
 70
1
  0
STYLE
  2
STANDARD
 70
0
 40
0.0
 41
0.6
 50
0.0
 71
0
 42
0.2
  3
txt
  4

  0
ENDTAB
  0
ENDSEC
  0
SECTION
  2
BLOCKS
  0
BLOCK
  8
0
 62
7
  6
CONTINUOUS
  2
*D0
 70
65
 10
0.0
 20
0.0
  0
TEXT
  8
0
 62
7
  6
CONTINUOUS
 10
174.8984478759
 20
79.4984060112
  7
STANDARD
 40
3.0
  1
74.5
 41
0.6
 72
0
  0
LINE
  8
0
 62
7
  6
CONTINUOUS
 10
141.2484478759
 20
93.765513316
 11
141.2484478759
 21
77.9984060112
  0
LINE
  8
0
 62
7
  6
CONTINUOUS
 10
215.7484478759
 20
93.765513316
 11
215.7484478759
 21
77.9984060112
  0
LINE
  8
0
 62
7
  6
CONTINUOUS
 10
141.2484478759
 20
80.9984060112
 11
173.3984478759
 21
80.9984060112
  0
LINE
  8
0
 62
7
  6
CONTINUOUS
 10
215.7484478759
 20
80.9984060112
 11
183.5984478759
 21
80.9984060112
  0
INSERT
  8
0
 62
7
  6
CONTINUOUS
  2
_FILLED
 10
141.2484478759
 20
80.9984060112
 41
3.0
 42
3.0
 43
3.0
 50
180.0
  0
INSERT
  8
0
 62
7
  6
CONTINUOUS
  2
_FILLED
 10
215.7484478759
 20
80.9984060112
 41
3.0
 42
3.0
 43
3.0
  0
ENDBLK
  8
0
  6
BYBLOCK
 62
0
  0
BLOCK
  8
0
 62
7
  6
CONTINUOUS
  2
*D1
 70
65
 10
0.0
 20
0.0
  0
TEXT
  8
0
 62
7
  6
CONTINUOUS
 10
200.2688651394
 20
69.3895683794
  7
STANDARD
 40
3.0
  1
123
 41
0.6
 72
0
  0
LINE
  8
0
 62
7
  6
CONTINUOUS
 10
141.2484478759
 20
93.765513316
 11
141.2484478759
 21
67.8895683794
  0
LINE
  8
0
 62
7
  6
CONTINUOUS
 10
264.6892824028
 20
141.8083291762
 11
264.6892824028
 21
67.8895683794
  0
LINE
  8
0
 62
7
  6
CONTINUOUS
 10
141.2484478759
 20
70.8895683794
 11
198.7688651394
 21
70.8895683794
  0
LINE
  8
0
 62
7
  6
CONTINUOUS
 10
264.6892824028
 20
70.8895683794
 11
207.1688651394
 21
70.8895683794
  0
INSERT
  8
0
 62
7
  6
CONTINUOUS
  2
_FILLED
 10
141.2484478759
 20
70.8895683794
 41
3.0
 42
3.0
 43
3.0
 50
180.0
  0
INSERT
  8
0
 62
7
  6
CONTINUOUS
  2
_FILLED
 10
264.6892824028
 20
70.8895683794
 41
3.0
 42
3.0
 43
3.0
  0
ENDBLK
  8
0
  6
BYBLOCK
 62
0
  0
BLOCK
  8
0
 62
7
  6
CONTINUOUS
  2
*D2
 70
65
 10
0.0
 20
0.0
  0
TEXT
  8
0
 62
7
  6
CONTINUOUS
 10
123.7410010445
 20
156.0940043755
  7
STANDARD
 40
3.0
  1
127
 41
0.6
 72
0
  0
LINE
  8
0
 62
7
  6
CONTINUOUS
 10
140.7484478815
 20
94.265513316
 11
123.4410010445
 21
94.265513316
  0
LINE
  8
0
 62
7
  6
CONTINUOUS
 10
260.4789359936
 20
220.9224954351
 11
123.4410010445
 21
220.9224954351
  0
LINE
  8
0
 62
7
  6
CONTINUOUS
 10
126.4410010445
 20
94.265513316
 11
126.4410010445
 21
154.5940043755
  0
LINE
  8
0
 62
7
  6
CONTINUOUS
 10
126.4410010445
 20
220.9224954351
 11
126.4410010445
 21
160.5940043755
  0
INSERT
  8
0
 62
7
  6
CONTINUOUS
  2
_FILLED
 10
126.4410010445
 20
94.265513316
 41
3.0
 42
3.0
 43
3.0
 50
270.0
  0
INSERT
  8
0
 62
7
  6
CONTINUOUS
  2
_FILLED
 10
126.4410010445
 20
220.9224954351
 41
3.0
 42
3.0
 43
3.0
 50
90.0
  0
ENDBLK
  8
0
  6
BYBLOCK
 62
0
  0
BLOCK
  8
0
 62
7
  6
CONTINUOUS
  2
*D3
 70
65
 10
0.0
 20
0.0
  0
TEXT
  8
0
 62
7
  6
CONTINUOUS
 10
196.9734094786
 20
199.6837533962
  7
STANDARD
 40
3.0
  1
88%%d
 41
0.6222222222
 72
0
  0
LINE
  8
0
 62
7
  6
CONTINUOUS
 10
196.9946856885
 20
179.798788589
 11
212.1044736199
 21
180.3264340105
  0
LINE
  8
0
 62
7
  6
CONTINUOUS
 10
178.4984478759
 20
195.6052940101
 11
178.4984478759
 21
212.7793958373
  0
ARC
  8
0
 62
7
  6
CONTINUOUS
 10
178.4984478759
 20
179.1528857319
 40
30.6265101053
 50
2.0
 51
38.41737787
  0
ARC
  8
0
 62
7
  6
CONTINUOUS
 10
178.4984478759
 20
179.1528857319
 40
30.6265101053
 50
54.8148383172
 51
90.0
  0
SOLID
  8
0
 62
7
  6
CONTINUOUS
 10
208.1075820081
 20
183.1483479132
 11
209.1063011388
 21
180.2217355203
 12
209.6023077378
 22
183.2740260461
 13
209.6023077378
 23
183.2740260461
  0
SOLID
  8
0
 62
7
  6
CONTINUOUS
 10
181.5315686481
 20
210.3816236855
 11
178.4984478759
 21
209.7793958373
 12
181.4581322506
 22
208.8834223988
 13
181.4581322506
 23
208.8834223988
  0
ENDBLK
  8
0
  6
BYBLOCK
 62
0
  0
BLOCK
  8
0
  2
_FILLED
 70
64
 10
0.0
 20
0.0
  0
SOLID
  8
0
  6
BYBLOCK
 62
0
 10
0.0
 20
0.0
 11
-1.0
 21
0.25
 12
-1.0
 22
-0.25
 13
-1.0
 23
-0.25
  0
ENDBLK
  8
0
  6
BYBLOCK
 62
0
  0
ENDSEC
  0
SECTION
  2
ENTITIES
  0
DIMENSION
  8
0
 62
7
  6
CONTINUOUS
  2
*D0
 10
215.7484478759
 20
80.9984060112
 11
178.4984478759
 21
80.9984060112
 70
128
 13
141.2484478759
 23
93.765513316
 14
215.7484478759
 24
93.765513316
  0
DIMENSION
  8
0
 62
7
  6
CONTINUOUS
  2
*D1
 10
264.6892824028
 20
70.8895683794
 11
202.9688651394
 21
70.8895683794
 70
128
 13
141.2484478759
 23
93.765513316
 14
264.6892824028
 24
141.8083291762
  0
DIMENSION
  8
0
 62
7
  6
CONTINUOUS
  2
*D2
 10
126.4410010445
 20
220.9224954351
 11
126.4410010445
 21
157.5940043755
 70
128
 13
140.7484478815
 23
94.265513316
 14
260.4789359936
 24
220.9224954351
 50
90.0
  0
DIMENSION
  8
0
 62
7
  6
CONTINUOUS
  2
*D3
 10
178.4984478759
 20
195.6052940101
 11
199.7734094786
 21
201.1837533962
 70
130
 13
196.9946856885
 23
179.798788589
 14
212.1044736199
 24
180.3264340105
 15
178.4984478759
 25
212.7793958373
 16
199.7734094786
 26
201.1837533962
  0
LINE
  8
0
 62
7
  6
CONTINUOUS
 10
0.0
 20
0.0
 11
0.0
 21
297.0
  0
LINE
  8
0
 62
7
  6
CONTINUOUS
 10
0.0
 20
0.0
 11
420.0
 21
0.0
  0
LINE
  8
0
 62
7
  6
CONTINUOUS
 10
0.0
 20
297.0
 11
420.0
 21
297.0
  0
LINE
  8
0
 62
7
  6
CONTINUOUS
 10
420.0
 20
0.0
 11
420.0
 21
297.0
  0
LINE
  8
02___PRT_ALL_AXES
 62
7
  6
CONTINUOUS
 10
141.2484478759
 20
134.765513316
 11
141.2484478759
 21
95.265513316
  0
LINE
  8
0
 62
7
  6
CONTINUOUS
 10
214.7484478759
 20
94.265513316
 11
142.2484478759
 21
94.265513316
  0
LINE
  8
0
 62
9
  6
CONTINUOUS
 10
215.7484478759
 20
95.265513316
 11
141.2484478759
 21
95.265513316
  0
LINE
  8
02___PRT_ALL_AXES
 62
7
  6
CENTER
 10
178.4984478759
 20
91.765513316
 11
178.4984478759
 21
218.2966593705
  0
LINE
  8
0
 62
9
  6
CONTINUOUS
 10
215.2486709232
 20
134.765513316
 11
141.2484478759
 21
134.765513316
  0
LINE
  8
0
 62
7
  6
CONTINUOUS
 10
256.7087878276
 20
142.6101263715
 11
263.7439289328
 21
143.2256214645
  0
LINE
  8
0
 62
7
  6
CONTINUOUS
 10
208.5134243831
 20
135.765513316
 11
142.2484478759
 21
135.765513316
  0
POLYLINE
  8
0
 62
7
  6
CONTINUOUS
 66
1
 70
0
  0
VERTEX
  8
0
 62
7
  6
CONTINUOUS
 10
208.5134243831
 20
135.765513316
  0
VERTEX
  8
0
 62
7
  6
CONTINUOUS
 10
209.7541920937
 20
135.7397496377
  0
VERTEX
  8
0
 62
7
  6
CONTINUOUS
 10
210.9000691581
 20
135.669132904
  0
VERTEX
  8
0
 62
7
  6
CONTINUOUS
 10
211.9346155784
 20
135.5628774975
  0
VERTEX
  8
0
 62
7
  6
CONTINUOUS
 10
212.8489895281
 20
135.4293694936
  0
VERTEX
  8
0
 62
7
  6
CONTINUOUS
 10
213.6381405374
 20
135.2764042016
  0
VERTEX
  8
0
 62
7
  6
CONTINUOUS
 10
214.3033936822
 20
135.1101495883
  0
VERTEX
  8
0
 62
7
  6
CONTINUOUS
 10
214.8418845978
 20
134.9371809145
  0
VERTEX
  8
0
 62
7
  6
CONTINUOUS
 10
215.2486709232
 20
134.765513316
  0
SEQEND
  0
LINE
  8
02___PRT_ALL_AXES
 62
7
  6
CONTINUOUS
 10
255.4849917082
 20
144.5686095579
 11
224.4042372806
 21
143.4832456969
  0
LINE
  8
0
 62
7
  6
CONTINUOUS
 10
215.2486709232
 20
134.765513316
 11
215.7484478759
 21
134.5199133786
  0
LINE
  8
0
 62
7
  6
CONTINUOUS
 10
224.141344992
 20
143.9741468848
 11
224.4042372806
 21
143.4832456969
  0
LINE
  8
02___PRT_ALL_AXES
 62
7
  6
CONTINUOUS
 10
215.7484478759
 20
134.5199133786
 11
215.7484478759
 21
95.265513316
  0
LINE
  8
0
 62
7
  6
CONTINUOUS
 10
252.8849792039
 20
219.0232261708
 11
253.9691773365
 21
221.0623062925
  0
POLYLINE
  8
0
 62
7
  6
CONTINUOUS
 66
1
 70
0
  0
VERTEX
  8
0
 62
7
  6
CONTINUOUS
 10
224.141344992
 20
143.9741468848
  0
VERTEX
  8
0
 62
7
  6
CONTINUOUS
 10
223.9555970847
 20
144.374665435
  0
VERTEX
  8
0
 62
7
  6
CONTINUOUS
 10
223.7639212118
 20
144.9068447638
  0
VERTEX
  8
0
 62
7
  6
CONTINUOUS
 10
223.5745382615
 20
145.5659453581
  0
VERTEX
  8
0
 62
7
  6
CONTINUOUS
 10
223.3941355393
 20
146.3492468639
  0
VERTEX
  8
0
 62
7
  6
CONTINUOUS
 10
223.2288001008
 20
147.2584031921
  0
VERTEX
  8
0
 62
7
  6
CONTINUOUS
 10
223.086505154
 20
148.2886206989
  0
VERTEX
  8
0
 62
7
  6
CONTINUOUS
 10
222.9759408554
 20
149.4313663078
  0
VERTEX
  8
0
 62
7
  6
CONTINUOUS
 10
222.9068974505
 20
150.670390998
  0
SEQEND
  0
LINE
  8
0
 62
7
  6
CONTINUOUS
 10
222.9068974505
 20
150.670390998
 11
220.5942831214
 21
216.8950006719
  0
LINE
  8
0
 62
9
  6
CONTINUOUS
 10
221.5587744517
 20
217.9292909956
 11
224.141344992
 21
143.9741468848
  0
LINE
  8
02___PRT_ALL_AXES
 62
7
  6
CENTER
 10
265.8325862657
 20
182.2026610474
 11
141.3216426194
 21
177.8546430851
  0
LINE
  8
0
 62
7
  6
CONTINUOUS
 10
255.4849917082
 20
144.5686095579
 11
256.7087878276
 21
142.6101263715
  0
LINE
  8
0
 62
7
  6
CONTINUOUS
 10
255.4849917082
 20
144.5686095579
 11
252.8849792039
 21
219.0232261708
  0
LINE
  8
0
 62
7
  6
CONTINUOUS
 10
256.7087878276
 20
142.6101263715
 11
253.9691773365
 21
221.0623062925
  0
LINE
  8
02___PRT_ALL_AXES
 62
7
  6
CONTINUOUS
 10
252.8849792039
 20
219.0232261708
 11
221.5587744517
 21
217.9292909956
  0
LINE
  8
0
 62
9
  6
CONTINUOUS
 10
263.7439289328
 20
143.2256214645
 11
261.0301159588
 21
220.9390571504
  0
LINE
  8
0
 62
7
  6
CONTINUOUS
 10
262.0120543793
 20
219.974108952
 11
264.656164017
 21
144.2567156593
  0
LINE
  8
0
 62
7
  6
CONTINUOUS
 10
253.9691773365
 20
221.0623062925
 11
261.0301159588
 21
220.9390571504
  0
ARC
  8
02___PRT_ALL_AXES
 62
7
  6
CONTINUOUS
 10
245.8009033586
 20
114.1596599553
 40
103.9
 50
104.0021585098
 51
167.9978414902
  0
ARC
  8
02___PRT_ALL_AXES
 62
7
  6
CONTINUOUS
 10
245.8009033586
 20
114.1596599553
 40
36.3
 50
126.1172673962
 51
145.8827326038
  0
ARC
  8
0
 62
7
  6
CONTINUOUS
 10
214.7484478759
 20
95.265513316
 40
1.0
 50
270.0
 51
360.0
  0
ARC
  8
0
 62
7
  6
CONTINUOUS
 10
142.2484478759
 20
95.265513316
 40
1.0
 50
180.0
 51
270.0
  0
ARC
  8
0
 62
7
  6
CONTINUOUS
 10
142.2484478759
 20
134.765513316
 40
1.0
 50
90.0
 51
180.0
  0
ARC
  8
0
 62
7
  6
CONTINUOUS
 10
221.5936739484
 20
216.9299001686
 40
1.0
 50
92.0
 51
182.0
  0
ARC
  8
0
 62
7
  6
CONTINUOUS
 10
261.0126635523
 20
219.9392094552
 40
1.0
 50
2.0
 51
89.0
  0
ARC
  8
0
 62
7
  6
CONTINUOUS
 10
263.65677319
 20
144.2218161626
 40
1.0
 50
275.0
 51
2.0
  0
ENDSEC
  0
EOF
