  0
SECTION
  2
HEADER
  9
$ACADVER
  1
AC1015
  9
$ACADMAINTVER
 70
    20
  9
$DWGCODEPAGE
  3
ANSI_1252
  9
$INSBASE
 10
0.0
 20
0.0
 30
0.0
  9
$EXTMIN
 10
10053.7759458746
 20
531.4430732847995
 30
0.0
  9
$EXTMAX
 10
10426.91767296058
 20
1071.492688923596
 30
0.0
  9
$LIMMIN
 10
0.0
 20
0.0
  9
$LIMMAX
 10
12.0
 20
9.0
  9
$ORTHOMODE
 70
     1
  9
$REGENMODE
 70
     1
  9
$FILLMODE
 70
     1
  9
$QTEXTMODE
 70
     0
  9
$MIRRTEXT
 70
     1
  9
$LTSCALE
 40
5.0
  9
$ATTMODE
 70
     1
  9
$TEXTSIZE
 40
0.2
  9
$TRACEWID
 40
0.05
  9
$TEXTSTYLE
  7
Standard
  9
$CLAYER
  8
0
  9
$CELTYPE
  6
ByLayer
  9
$CECOLOR
 62
   256
  9
$CELTSCALE
 40
1.0
  9
$DISPSILH
 70
     0
  9
$DIMSCALE
 40
1.0
  9
$DIMASZ
 40
0.18
  9
$DIMEXO
 40
0.0625
  9
$DIMDLI
 40
0.38
  9
$DIMRND
 40
0.0
  9
$DIMDLE
 40
0.0
  9
$DIMEXE
 40
0.18
  9
$DIMTP
 40
0.0
  9
$DIMTM
 40
0.0
  9
$DIMTXT
 40
0.18
  9
$DIMCEN
 40
0.09
  9
$DIMTSZ
 40
0.0
  9
$DIMTOL
 70
     0
  9
$DIMLIM
 70
     0
  9
$DIMTIH
 70
     1
  9
$DIMTOH
 70
     1
  9
$DIMSE1
 70
     0
  9
$DIMSE2
 70
     0
  9
$DIMTAD
 70
     0
  9
$DIMZIN
 70
     0
  9
$DIMBLK
  1

  9
$DIMASO
 70
     1
  9
$DIMSHO
 70
     1
  9
$DIMPOST
  1

  9
$DIMAPOST
  1

  9
$DIMALT
 70
     0
  9
$DIMALTD
 70
     2
  9
$DIMALTF
 40
25.4
  9
$DIMLFAC
 40
1.0
  9
$DIMTOFL
 70
     0
  9
$DIMTVP
 40
0.0
  9
$DIMTIX
 70
     0
  9
$DIMSOXD
 70
     0
  9
$DIMSAH
 70
     0
  9
$DIMBLK1
  1

  9
$DIMBLK2
  1

  9
$DIMSTYLE
  2
Standard
  9
$DIMCLRD
 70
     0
  9
$DIMCLRE
 70
     0
  9
$DIMCLRT
 70
     0
  9
$DIMTFAC
 40
1.0
  9
$DIMGAP
 40
0.09
  9
$DIMJUST
 70
     0
  9
$DIMSD1
 70
     0
  9
$DIMSD2
 70
     0
  9
$DIMTOLJ
 70
     1
  9
$DIMTZIN
 70
     0
  9
$DIMALTZ
 70
     0
  9
$DIMALTTZ
 70
     0
  9
$DIMUPT
 70
     0
  9
$DIMDEC
 70
     4
  9
$DIMTDEC
 70
     4
  9
$DIMALTU
 70
     2
  9
$DIMALTTD
 70
     2
  9
$DIMTXSTY
  7
Standard
  9
$DIMAUNIT
 70
     0
  9
$DIMADEC
 70
     0
  9
$DIMALTRND
 40
0.0
  9
$DIMAZIN
 70
     0
  9
$DIMDSEP
 70
    46
  9
$DIMATFIT
 70
     3
  9
$DIMFRAC
 70
     0
  9
$DIMLDRBLK
  1

  9
$DIMLUNIT
 70
     2
  9
$DIMLWD
 70
    -2
  9
$DIMLWE
 70
    -2
  9
$DIMTMOVE
 70
     0
  9
$LUNITS
 70
     2
  9
$LUPREC
 70
     4
  9
$SKETCHINC
 40
0.1
  9
$FILLETRAD
 40
0.5
  9
$AUNITS
 70
     0
  9
$AUPREC
 70
     0
  9
$MENU
  1
.
  9
$ELEVATION
 40
0.0
  9
$PELEVATION
 40
0.0
  9
$THICKNESS
 40
0.0
  9
$LIMCHECK
 70
     0
  9
$CHAMFERA
 40
0.5
  9
$CHAMFERB
 40
0.5
  9
$CHAMFERC
 40
1.0
  9
$CHAMFERD
 40
0.0
  9
$SKPOLY
 70
     0
  9
$TDCREATE
 40
2456216.552893009
  9
$TDUCREATE
 40
2456216.011226343
  9
$TDUPDATE
 40
2457071.449882361
  9
$TDUUPDATE
 40
2457070.908215694
  9
$TDINDWG
 40
0.0585935185
  9
$TDUSRTIMER
 40
0.0585935185
  9
$USRTIMER
 70
     1
  9
$ANGBASE
 50
0.0
  9
$ANGDIR
 70
     0
  9
$PDMODE
 70
     0
  9
$PDSIZE
 40
0.0
  9
$PLINEWID
 40
0.0
  9
$SPLFRAME
 70
     0
  9
$SPLINETYPE
 70
     6
  9
$SPLINESEGS
 70
     8
  9
$HANDSEED
  5
6A8
  9
$SURFTAB1
 70
     6
  9
$SURFTAB2
 70
     6
  9
$SURFTYPE
 70
     6
  9
$SURFU
 70
     6
  9
$SURFV
 70
     6
  9
$UCSBASE
  2

  9
$UCSNAME
  2

  9
$UCSORG
 10
0.0
 20
0.0
 30
0.0
  9
$UCSXDIR
 10
1.0
 20
0.0
 30
0.0
  9
$UCSYDIR
 10
0.0
 20
1.0
 30
0.0
  9
$UCSORTHOREF
  2

  9
$UCSORTHOVIEW
 70
     0
  9
$UCSORGTOP
 10
0.0
 20
0.0
 30
0.0
  9
$UCSORGBOTTOM
 10
0.0
 20
0.0
 30
0.0
  9
$UCSORGLEFT
 10
0.0
 20
0.0
 30
0.0
  9
$UCSORGRIGHT
 10
0.0
 20
0.0
 30
0.0
  9
$UCSORGFRONT
 10
0.0
 20
0.0
 30
0.0
  9
$UCSORGBACK
 10
0.0
 20
0.0
 30
0.0
  9
$PUCSBASE
  2

  9
$PUCSNAME
  2

  9
$PUCSORG
 10
0.0
 20
0.0
 30
0.0
  9
$PUCSXDIR
 10
1.0
 20
0.0
 30
0.0
  9
$PUCSYDIR
 10
0.0
 20
1.0
 30
0.0
  9
$PUCSORTHOREF
  2

  9
$PUCSORTHOVIEW
 70
     0
  9
$PUCSORGTOP
 10
0.0
 20
0.0
 30
0.0
  9
$PUCSORGBOTTOM
 10
0.0
 20
0.0
 30
0.0
  9
$PUCSORGLEFT
 10
0.0
 20
0.0
 30
0.0
  9
$PUCSORGRIGHT
 10
0.0
 20
0.0
 30
0.0
  9
$PUCSORGFRONT
 10
0.0
 20
0.0
 30
0.0
  9
$PUCSORGBACK
 10
0.0
 20
0.0
 30
0.0
  9
$USERI1
 70
     0
  9
$USERI2
 70
     0
  9
$USERI3
 70
     0
  9
$USERI4
 70
     0
  9
$USERI5
 70
     0
  9
$USERR1
 40
0.0
  9
$USERR2
 40
0.0
  9
$USERR3
 40
0.0
  9
$USERR4
 40
0.0
  9
$USERR5
 40
0.0
  9
$WORLDVIEW
 70
     1
  9
$SHADEDGE
 70
     3
  9
$SHADEDIF
 70
    70
  9
$TILEMODE
 70
     1
  9
$MAXACTVP
 70
    64
  9
$PINSBASE
 10
0.0
 20
0.0
 30
0.0
  9
$PLIMCHECK
 70
     0
  9
$PEXTMIN
 10
1.000000000000000E+20
 20
1.000000000000000E+20
 30
1.000000000000000E+20
  9
$PEXTMAX
 10
-1.000000000000000E+20
 20
-1.000000000000000E+20
 30
-1.000000000000000E+20
  9
$PLIMMIN
 10
0.0
 20
0.0
  9
$PLIMMAX
 10
12.0
 20
9.0
  9
$UNITMODE
 70
     0
  9
$VISRETAIN
 70
     1
  9
$PLINEGEN
 70
     0
  9
$PSLTSCALE
 70
     1
  9
$TREEDEPTH
 70
  3020
  9
$CMLSTYLE
  2
Standard
  9
$CMLJUST
 70
     0
  9
$CMLSCALE
 40
1.0
  9
$PROXYGRAPHICS
 70
     1
  9
$MEASUREMENT
 70
     0
  9
$CELWEIGHT
370
    -1
  9
$ENDCAPS
280
     0
  9
$JOINSTYLE
280
     0
  9
$LWDISPLAY
290
     1
  9
$INSUNITS
 70
     0
  9
$HYPERLINKBASE
  1

  9
$STYLESHEET
  1

  9
$XEDIT
290
     1
  9
$CEPSNTYPE
380
     0
  9
$PSTYLEMODE
290
     1
  9
$FINGERPRINTGUID
  2
{49DCA992-CA37-4EFF-9AF0-F699DA9F94EA}
  9
$VERSIONGUID
  2
{7C81D61E-7B9D-4584-AC81-7033FBF51401}
  9
$EXTNAMES
290
     1
  9
$PSVPSCALE
 40
0.0
  9
$OLESTARTUP
290
     0
  0
ENDSEC
  0
SECTION
  2
CLASSES
  0
CLASS
  1
ACDBDICTIONARYWDFLT
  2
AcDbDictionaryWithDefault
  3
ObjectDBX Classes
 90
        0
280
     0
281
     0
  0
CLASS
  1
VISUALSTYLE
  2
AcDbVisualStyle
  3
ObjectDBX Classes
 90
     4095
280
     0
281
     0
  0
CLASS
  1
MATERIAL
  2
AcDbMaterial
  3
ObjectDBX Classes
 90
     1153
280
     0
281
     0
  0
CLASS
  1
SCALE
  2
AcDbScale
  3
ObjectDBX Classes
 90
     1153
280
     0
281
     0
  0
CLASS
  1
DICTIONARYVAR
  2
AcDbDictionaryVar
  3
ObjectDBX Classes
 90
        0
280
     0
281
     0
  0
CLASS
  1
TABLESTYLE
  2
AcDbTableStyle
  3
ObjectDBX Classes
 90
     4095
280
     0
281
     0
  0
CLASS
  1
MLEADERSTYLE
  2
AcDbMLeaderStyle
  3
ACDB_MLEADERSTYLE_CLASS
 90
     4095
280
     0
281
     0
  0
CLASS
  1
ACDBSECTIONVIEWSTYLE
  2
AcDbSectionViewStyle
  3
ObjectDBX Classes
 90
     1025
280
     0
281
     0
  0
CLASS
  1
ACDBDETAILVIEWSTYLE
  2
AcDbDetailViewStyle
  3
ObjectDBX Classes
 90
     1025
280
     0
281
     0
  0
CLASS
  1
EXACXREFPANELOBJECT
  2
ExAcXREFPanelObject
  3
EXAC_ESW
 90
     1025
280
     0
281
     0
  0
CLASS
  1
NPOCOLLECTION
  2
AcDbImpNonPersistentObjectsCollection
  3
ObjectDBX Classes
 90
     1153
280
     0
281
     0
  0
CLASS
  1
IMAGE
  2
AcDbRasterImage
  3
ISM
 90
    34943
280
     0
281
     1
  0
CLASS
  1
IMAGEDEF_REACTOR
  2
AcDbRasterImageDefReactor
  3
ISM
 90
        1
280
     0
281
     0
  0
CLASS
  1
SORTENTSTABLE
  2
AcDbSortentsTable
  3
ObjectDBX Classes
 90
        0
280
     0
281
     0
  0
CLASS
  1
IMAGEDEF
  2
AcDbRasterImageDef
  3
ISM
 90
    32768
280
     0
281
     0
  0
CLASS
  1
RASTERVARIABLES
  2
AcDbRasterVariables
  3
ISM
 90
        0
280
     0
281
     0
  0
CLASS
  1
ACAD_EVALUATION_GRAPH
  2
AcDbEvalGraph
  3
ObjectDBX Classes
 90
    33921
280
     0
281
     0
  0
CLASS
  1
ACAECUSTOBJ
  2
AcAeEditorObj
  3
AcAeEditorObj
 90
    33792
280
     0
281
     0
  0
CLASS
  1
ACDB_DYNAMICBLOCKPURGEPREVENTER_VERSION
  2
AcDbDynamicBlockPurgePreventer
  3
ObjectDBX Classes
 90
     1153
280
     0
281
     0
  0
CLASS
  1
PDFDEFINITION
  2
AcDbPdfDefinition
  3
ObjectDBX Classes
 90
    33921
280
     0
281
     0
  0
CLASS
  1
PDFUNDERLAY
  2
AcDbPdfReference
  3
ObjectDBX Classes
 90
    36863
280
     0
281
     1
  0
CLASS
  1
ACDBASSOCNETWORK
  2
AcDbAssocNetwork
  3
ObjectDBX Classes
 90
     1025
280
     0
281
     0
  0
CLASS
  1
ACDBASSOC2DCONSTRAINTGROUP
  2
AcDbAssoc2dConstraintGroup
  3
ObjectDBX Classes
 90
     1025
280
     0
281
     0
  0
CLASS
  1
ACDBASSOCGEOMDEPENDENCY
  2
AcDbAssocGeomDependency
  3
ObjectDBX Classes
 90
     1025
280
     0
281
     0
  0
CLASS
  1
SPATIAL_FILTER
  2
AcDbSpatialFilter
  3
ObjectDBX Classes
 90
        0
280
     0
281
     0
  0
CLASS
  1
CELLSTYLEMAP
  2
AcDbCellStyleMap
  3
ObjectDBX Classes
 90
     1152
280
     0
281
     0
  0
CLASS
  1
ACDBPLACEHOLDER
  2
AcDbPlaceHolder
  3
ObjectDBX Classes
 90
        0
280
     0
281
     0
  0
CLASS
  1
LAYOUT
  2
AcDbLayout
  3
ObjectDBX Classes
 90
        0
280
     0
281
     0
  0
ENDSEC
  0
SECTION
  2
TABLES
  0
TABLE
  2
VPORT
  5
8
330
0
100
AcDbSymbolTable
 70
     1
  0
VPORT
  5
29
330
8
100
AcDbSymbolTableRecord
100
AcDbViewportTableRecord
  2
*Active
 70
     0
 10
0.0
 20
0.0
 11
1.0
 21
1.0
 12
10310.6933537628
 22
774.7499597515225
 13
0.0
 23
0.0
 14
0.5
 24
0.5
 15
0.5
 25
0.5
 16
0.0
 26
0.0
 36
1.0
 17
0.0
 27
0.0
 37
0.0
 40
729.2337163382286
 41
1.710191082802547
 42
50.0
 43
0.0
 44
0.0
 50
0.0
 51
0.0
 71
     0
 72
   100
 73
     1
 74
     3
 75
     0
 76
     0
 77
     0
 78
     0
281
     0
 65
     1
110
0.0
120
0.0
130
0.0
111
1.0
121
0.0
131
0.0
112
0.0
122
1.0
132
0.0
 79
     0
146
0.0
1001
ACAD_NAV_VCDISPLAY
1070
     3
  0
ENDTAB
  0
TABLE
  2
LTYPE
  5
5
330
0
100
AcDbSymbolTable
 70
     7
  0
LTYPE
  5
14
330
5
100
AcDbSymbolTableRecord
100
AcDbLinetypeTableRecord
  2
ByBlock
 70
     0
  3

 72
    65
 73
     0
 40
0.0
  0
LTYPE
  5
15
330
5
100
AcDbSymbolTableRecord
100
AcDbLinetypeTableRecord
  2
ByLayer
 70
     0
  3

 72
    65
 73
     0
 40
0.0
  0
LTYPE
  5
16
330
5
100
AcDbSymbolTableRecord
100
AcDbLinetypeTableRecord
  2
Continuous
 70
     0
  3
Solid line
 72
    65
 73
     0
 40
0.0
  0
LTYPE
  5
1DE
330
5
100
AcDbSymbolTableRecord
100
AcDbLinetypeTableRecord
  2
Hidden
 70
     0
  3
- - - - - 
 72
    65
 73
     2
 40
4.938889980316162
 49
2.822222709655761
 74
     0
 49
-2.1166672706604
 74
     0
  0
LTYPE
  5
1F1
330
5
100
AcDbSymbolTableRecord
100
AcDbLinetypeTableRecord
  2
Above
 70
     0
  3
- - - - - 
 72
    65
 73
     2
 40
9.599999999999999
 49
6.0
 74
     0
 49
-3.6
 74
     0
  0
LTYPE
  5
1F5
330
5
100
AcDbSymbolTableRecord
100
AcDbLinetypeTableRecord
  2
Sketch
 70
     0
  3
??????????
 72
    65
 73
     3
 40
40.0
 49
0.0
 74
     4
 75
     1
340
1F6
 46
0.3174603174603174
 50
0.0
 44
0.0
 45
0.0
 49
-40.0
 74
     0
 49
0.0
 74
     0
  0
LTYPE
  5
273
330
5
100
AcDbSymbolTableRecord
100
AcDbLinetypeTableRecord
  2
ZIGZAG
 70
     0
  3
Zig zag /\/\/\/\/\/\/\/\/\/\/\/\/\/\/\/\/\/\/\/
 72
    65
 73
     4
 40
0.8001000000000001
 49
0.0001
 74
     0
 49
-0.2
 74
     4
 75
   131
340
277
 46
0.2
 50
0.0
 44
-0.2
 45
0.0
 49
-0.4
 74
     4
 75
   131
340
277
 46
0.2
 50
180.0
 44
0.2
 45
0.0
 49
-0.2
 74
     0
  0
LTYPE
  5
274
330
5
100
AcDbSymbolTableRecord
100
AcDbLinetypeTableRecord
  2
DASHEDX2
 70
     0
  3
Dashed (2x) ____  ____  ____  ____  ____  ___
 72
    65
 73
     2
 40
1.5
 49
1.0
 74
     0
 49
-0.5
 74
     0
  0
LTYPE
  5
377
330
5
100
AcDbSymbolTableRecord
100
AcDbLinetypeTableRecord
  2
PLASTER
 70
     0
  3
PLASTER
 72
    65
 73
     2
 40
2.379214999999999
 49
0.000024
 74
     4
 75
     1
340
378
 46
0.2
 50
0.0
 44
0.0
 45
0.0
 49
-2.379191
 74
     0
  0
ENDTAB
  0
TABLE
  2
LAYER
  5
2
102
{ACAD_XDICTIONARY
360
27E
102
}
330
0
100
AcDbSymbolTable
 70
     7
  0
LAYER
  5
10
102
{ACAD_XDICTIONARY
360
2A9
102
}
330
2
100
AcDbSymbolTableRecord
100
AcDbLayerTableRecord
  2
0
 70
     0
 62
     7
  6
Continuous
370
    -3
390
F
  0
LAYER
  5
40
102
{ACAD_XDICTIONARY
360
2AB
102
}
330
2
100
AcDbSymbolTableRecord
100
AcDbLayerTableRecord
  2
Specialized_Fills
 70
     0
 62
     7
  6
Continuous
370
    -3
390
F
  0
LAYER
  5
1E0
102
{ACAD_XDICTIONARY
360
2AD
102
}
330
2
100
AcDbSymbolTableRecord
100
AcDbLayerTableRecord
  2
Specialized_Lines
 70
     0
 62
     7
  6
Continuous
370
    -3
390
F
  0
LAYER
  5
212
102
{ACAD_XDICTIONARY
360
2AF
102
}
330
2
100
AcDbSymbolTableRecord
100
AcDbLayerTableRecord
  2
Specialized_Text
 70
     0
 62
     7
  6
Continuous
370
    -3
390
F
  0
LAYER
  5
275
102
{ACAD_XDICTIONARY
360
276
102
}
330
2
100
AcDbSymbolTableRecord
100
AcDbLayerTableRecord
  2
Viewport
 70
     0
 62
     7
  6
Continuous
370
    -3
390
F
1001
AcAecLayerStandard
1000

1000

1001
AcCmTransparency
1071
        0
  0
LAYER
  5
327
330
2
100
AcDbSymbolTableRecord
100
AcDbLayerTableRecord
  2
Defpoints
 70
     0
 62
     7
  6
Continuous
290
     0
370
    -3
390
F
  0
LAYER
  5
433
330
2
100
AcDbSymbolTableRecord
100
AcDbLayerTableRecord
  2
eps
 70
     0
 62
   254
  6
Continuous
370
    -3
390
F
1001
AcAecLayerStandard
1000

1000

1001
AcCmTransparency
1071
        0
  0
ENDTAB
  0
TABLE
  2
STYLE
  5
3
330
0
100
AcDbSymbolTable
 70
     6
  0
STYLE
  5
11
330
3
100
AcDbSymbolTableRecord
100
AcDbTextStyleTableRecord
  2
Standard
 70
     0
 40
0.0
 41
1.0
 50
0.0
 71
     0
 42
0.2
  3
txt
  4
BIGFONT.SHX
  0
STYLE
  5
1F6
330
3
100
AcDbSymbolTableRecord
100
AcDbTextStyleTableRecord
  2

 70
     1
 40
0.2
 41
1.0
 50
0.0
 71
     0
 42
0.2
  3
17A Wall_ Vertical Control Joint1.Shx
  4

  0
STYLE
  5
207
330
3
100
AcDbSymbolTableRecord
100
AcDbTextStyleTableRecord
  2
GENERATED_STYLE_1
 70
     0
 40
0.0
 41
1.0
 50
0.0
 71
     0
 42
0.2
  3
comic.ttf
  4

1001
ACAD
1000
Comic Sans MS
1071
       66
  0
STYLE
  5
210
330
3
100
AcDbSymbolTableRecord
100
AcDbTextStyleTableRecord
  2
GENERATED_STYLE_2
 70
     0
 40
0.0
 41
1.0
 50
0.0
 71
     0
 42
0.2
  3
ARIALUNI.TTF
  4

1001
ACAD
1000
Arial Unicode MS
1071
       34
  0
STYLE
  5
277
330
3
100
AcDbSymbolTableRecord
100
AcDbTextStyleTableRecord
  2

 70
     1
 40
0.0
 41
1.0
 50
0.0
 71
     0
 42
0.2
  3
ltypeshp.shx
  4

  0
STYLE
  5
378
330
3
100
AcDbSymbolTableRecord
100
AcDbTextStyleTableRecord
  2

 70
     1
 40
0.0
 41
1.0
 50
0.0
 71
     0
 42
0.2
  3
P:\VERT-X CONSULTING LTD\2013\10 OCT\1310-015- SPECIALIZED CONSTRUCTION PRODUCTS - CONTRACT DRAUGHTING\DRAWINGS\PLASTER.SHX
  4

  0
ENDTAB
  0
TABLE
  2
VIEW
  5
6
330
0
100
AcDbSymbolTable
 70
     0
  0
ENDTAB
  0
TABLE
  2
UCS
  5
7
330
0
100
AcDbSymbolTable
 70
     0
  0
ENDTAB
  0
TABLE
  2
APPID
  5
9
330
0
100
AcDbSymbolTable
 70
    18
  0
APPID
  5
12
330
9
100
AcDbSymbolTableRecord
100
AcDbRegAppTableRecord
  2
ACAD
 70
     0
  0
APPID
  5
278
330
9
100
AcDbSymbolTableRecord
100
AcDbRegAppTableRecord
  2
ACAD_PSEXT
 70
     0
  0
APPID
  5
279
330
9
100
AcDbSymbolTableRecord
100
AcDbRegAppTableRecord
  2
ACAD_NAV_VCDISPLAY
 70
     0
  0
APPID
  5
27A
330
9
100
AcDbSymbolTableRecord
100
AcDbRegAppTableRecord
  2
AcAecLayerStandard
 70
     0
  0
APPID
  5
27B
330
9
100
AcDbSymbolTableRecord
100
AcDbRegAppTableRecord
  2
AcCmTransparency
 70
     0
  0
APPID
  5
27C
330
9
100
AcDbSymbolTableRecord
100
AcDbRegAppTableRecord
  2
GradientColor1ACI
 70
     0
  0
APPID
  5
27D
330
9
100
AcDbSymbolTableRecord
100
AcDbRegAppTableRecord
  2
GradientColor2ACI
 70
     0
  0
APPID
  5
2D6
330
9
100
AcDbSymbolTableRecord
100
AcDbRegAppTableRecord
  2
ACAD_EXEMPT_FROM_CAD_STANDARDS
 70
     0
  0
APPID
  5
2E0
330
9
100
AcDbSymbolTableRecord
100
AcDbRegAppTableRecord
  2
ACAUTHENVIRON
 70
     0
  0
APPID
  5
2EF
330
9
100
AcDbSymbolTableRecord
100
AcDbRegAppTableRecord
  2
AcDbDynamicBlockTrueName
 70
     0
  0
APPID
  5
2F0
330
9
100
AcDbSymbolTableRecord
100
AcDbRegAppTableRecord
  2
AcDbDynamicBlockGUID
 70
     0
  0
APPID
  5
436
330
9
100
AcDbSymbolTableRecord
100
AcDbRegAppTableRecord
  2
AcadAnnotative
 70
     0
  0
APPID
  5
437
330
9
100
AcDbSymbolTableRecord
100
AcDbRegAppTableRecord
  2
ACAD_DSTYLE_DIMJAG
 70
     0
  0
APPID
  5
438
330
9
100
AcDbSymbolTableRecord
100
AcDbRegAppTableRecord
  2
ACAD_DSTYLE_DIMTALN
 70
     0
  0
APPID
  5
446
330
9
100
AcDbSymbolTableRecord
100
AcDbRegAppTableRecord
  2
AdeskUnderlayLayerOverrideData
 70
     0
  0
APPID
  5
4A5
330
9
100
AcDbSymbolTableRecord
100
AcDbRegAppTableRecord
  2
AcDbDynamicBlockTrueName2
 70
     0
  0
APPID
  5
4BC
330
9
100
AcDbSymbolTableRecord
100
AcDbRegAppTableRecord
  2
BNS_SPRHATCH
 70
     0
  0
APPID
  5
69C
330
9
100
AcDbSymbolTableRecord
100
AcDbRegAppTableRecord
  2
ACAD_MLEADERVER
 70
     0
  0
ENDTAB
  0
TABLE
  2
DIMSTYLE
  5
A
330
0
100
AcDbSymbolTable
 70
     5
100
AcDbDimStyleTable
 71
     1
340
27
  0
DIMSTYLE
105
27
330
A
100
AcDbSymbolTableRecord
100
AcDbDimStyleTableRecord
  2
Standard
 70
     0
340
11
  0
DIMSTYLE
105
20A
102
{ACAD_REACTORS
330
209
102
}
330
A
100
AcDbSymbolTableRecord
100
AcDbDimStyleTableRecord
  2
GENERATED_STYLE__1
 70
     0
 41
3.799999999999999
 42
3.105243665848078
 77
     1
140
5.0
172
     1
176
     7
177
     7
178
     7
179
     2
271
     0
340
207
342
20B
343
20B
344
20B
  0
DIMSTYLE
105
214
330
A
100
AcDbSymbolTableRecord
100
AcDbDimStyleTableRecord
  2
GENERATED_STYLE__2
 70
     0
 41
7.295999999999999
172
     1
341
215
  0
DIMSTYLE
105
434
330
A
100
AcDbSymbolTableRecord
100
AcDbDimStyleTableRecord
  2
Annotative
 70
     0
 40
0.0
 41
2.5
 42
0.625
 43
3.75
 44
1.25
 73
     0
 74
     0
 77
     1
 78
     8
140
2.5
141
2.5
143
0.03937007874016
147
0.625
171
     3
172
     1
271
     2
272
     2
274
     3
278
    44
283
     0
284
     8
340
11
1001
AcadAnnotative
1000
AnnotativeData
1002
{
1070
     1
1070
     1
1002
}
1001
ACAD_DSTYLE_DIMJAG
1070
   388
1040
1.5
1001
ACAD_DSTYLE_DIMTALN
1070
   392
1070
     0
  0
DIMSTYLE
105
435
330
A
100
AcDbSymbolTableRecord
100
AcDbDimStyleTableRecord
  2
ISO-25
 70
     0
 41
2.5
 42
0.625
 43
3.75
 44
1.25
 73
     0
 74
     0
 77
     1
 78
     8
140
2.5
141
2.5
143
0.03937007874016
147
0.625
171
     3
172
     1
271
     2
272
     2
274
     3
278
    44
283
     0
284
     8
340
11
  0
ENDTAB
  0
TABLE
  2
BLOCK_RECORD
  5
1
330
0
100
AcDbSymbolTable
 70
     9
  0
BLOCK_RECORD
  5
1F
102
{ACAD_XDICTIONARY
360
36A
102
}
330
1
100
AcDbSymbolTableRecord
100
AcDbBlockTableRecord
  2
*Model_Space
340
22
  0
BLOCK_RECORD
  5
1B
330
1
100
AcDbSymbolTableRecord
100
AcDbBlockTableRecord
  2
*Paper_Space
340
1E
  0
BLOCK_RECORD
  5
23
330
1
100
AcDbSymbolTableRecord
100
AcDbBlockTableRecord
  2
*Paper_Space0
340
26
  0
BLOCK_RECORD
  5
4C
102
{ACAD_XDICTIONARY
360
2FA
102
}
330
1
100
AcDbSymbolTableRecord
100
AcDbBlockTableRecord
  2
Fill_1
340
0
1001
AcDbDynamicBlockGUID
1000
{55503136-EDBF-426F-B1DE-FFA2628D4762}
  0
BLOCK_RECORD
  5
12E
102
{ACAD_XDICTIONARY
360
2E1
102
}
330
1
100
AcDbSymbolTableRecord
100
AcDbBlockTableRecord
  2
Fill_2
340
0
1001
AcDbDynamicBlockGUID
1000
{0AA1CAEA-B525-4C55-A42E-2B6D7B1AFCBF}
  0
BLOCK_RECORD
  5
1FD
330
1
100
AcDbSymbolTableRecord
100
AcDbBlockTableRecord
  2
*D3
340
0
  0
BLOCK_RECORD
  5
20B
330
1
100
AcDbSymbolTableRecord
100
AcDbBlockTableRecord
  2
ARROWHEAD_6
340
0
102
{BLKREFS
331
599
331
59A
102
}
  0
BLOCK_RECORD
  5
215
330
1
100
AcDbSymbolTableRecord
100
AcDbBlockTableRecord
  2
ARROWHEAD_5
340
0
  0
BLOCK_RECORD
  5
22C
330
1
100
AcDbSymbolTableRecord
100
AcDbBlockTableRecord
  2
17A Wall_ Vertical Control Join_STORY_MARKER
340
0
  0
BLOCK_RECORD
  5
420
102
{ACAD_XDICTIONARY
360
6A3
102
}
330
1
100
AcDbSymbolTableRecord
100
AcDbBlockTableRecord
  2
therma
340
0
310
2800000020000000200000000100080000000000000400000000000000000000000000000000000000000000000080000080000000808000800000008000800080800000C0C0C000C0DCC000F0CAA6000020400000206000002080000020A0000020C0000020E00000400000004020000040400000406000004080000040A0
310
000040C0000040E00000600000006020000060400000606000006080000060A0000060C0000060E00000800000008020000080400000806000008080000080A0000080C0000080E00000A0000000A0200000A0400000A0600000A0800000A0A00000A0C00000A0E00000C0000000C0200000C0400000C0600000C0800000C0
310
A00000C0C00000C0E00000E0000000E0200000E0400000E0600000E0800000E0A00000E0C00000E0E00040000000400020004000400040006000400080004000A0004000C0004000E00040200000402020004020400040206000402080004020A0004020C0004020E000404000004040200040404000404060004040800040
310
40A0004040C0004040E00040600000406020004060400040606000406080004060A0004060C0004060E00040800000408020004080400040806000408080004080A0004080C0004080E00040A0000040A0200040A0400040A0600040A0800040A0A00040A0C00040A0E00040C0000040C0200040C0400040C0600040C08000
310
40C0A00040C0C00040C0E00040E0000040E0200040E0400040E0600040E0800040E0A00040E0C00040E0E00080000000800020008000400080006000800080008000A0008000C0008000E00080200000802020008020400080206000802080008020A0008020C0008020E00080400000804020008040400080406000804080
310
008040A0008040C0008040E00080600000806020008060400080606000806080008060A0008060C0008060E00080800000808020008080400080806000808080008080A0008080C0008080E00080A0000080A0200080A0400080A0600080A0800080A0A00080A0C00080A0E00080C0000080C0200080C0400080C0600080C0
310
800080C0A00080C0C00080C0E00080E0000080E0200080E0400080E0600080E0800080E0A00080E0C00080E0E000C0000000C0002000C0004000C0006000C0008000C000A000C000C000C000E000C0200000C0202000C0204000C0206000C0208000C020A000C020C000C020E000C0400000C0402000C0404000C0406000C0
310
408000C040A000C040C000C040E000C0600000C0602000C0604000C0606000C0608000C060A000C060C000C060E000C0800000C0802000C0804000C0806000C0808000C080A000C080C000C080E000C0A00000C0A02000C0A04000C0A06000C0A08000C0A0A000C0A0C000C0A0E000C0C00000C0C02000C0C04000C0C06000
310
C0C08000C0C0A000F0FBFF00A4A0A000808080000000FF0000FF000000FFFF00FF000000FF00FF00FFFF0000FFFFFF0049494949494949494949494949494949494949494949494949494949494949494949494949494949494949494949494949494949494949494949070749494949494949494949494949070707074949
310
49494907494949494949070707070749494949494949494949490749490707490707070707074949490707070707074949494949070707070749074949070749070707070707074949070707070707074949494907070707070707070707490707070707070707074907070707070707494949070707070707074907074949
310
07070707070707070749070707070707494949490707070707070749494949490707070707070707074949070707074949494949490707070707074907074949070707070707070707070707494949494949494949070707070707070707070749070707070707070707070749494949494949494949494949490707070707
310
07494907070707070707070707494949494949494907070707494907070707070749494949494949490707070749494949494949490707070749490707070707074949494949494949070707074949494949494907070707074949070707070707494949494949494949494949494949494949494907070707494949070707
310
07494949494949494949494949490749494949494949070707070707070749494949070707070749494949490707070707494949494949494907070707070749490707494949070749494949070707070707494949494949070707070707070749074949494949074949490707070707070749494949494907070707070707
310
07490749494949490749494907070707070707494949494949070707070707070749070749494907494949494907070707070749494949494907070707070707074949070707070707070707490707070707494949494949490707070707070707494949494949490707070749494949494949494949494949490707070707
310
07494949494949494907070707494907074949494949494949494949070707074949494949494949490707070707070707074949494949494907070707494949070707494949070707070707070707070707074949494949070707070707490707070707490707070707074907070707070707494949494907070707070749
310
07070707074907070707070749070707070707074949494949070707070707490707070707490707070707074907070707070749494949494907070707070749490707074949070707070707494907070707074949494949490707070707494949494949494949070707070749494949494949494949494949494907074949
310
4949494949494949490707494949494949494949494949494949494949494949494949494949494949494949494949494949494949494949
102
{BLKREFS
331
4D5
331
4D6
331
4D7
331
4D8
331
4D9
331
4DA
331
4DB
331
4DC
331
4DD
331
4DE
331
4DF
331
4E0
331
53A
331
53B
331
53C
331
53D
331
53E
331
53F
331
540
331
541
331
542
331
543
331
544
331
545
331
546
331
547
331
548
102
}
  0
BLOCK_RECORD
  5
48B
102
{ACAD_XDICTIONARY
360
4A0
102
}
330
1
100
AcDbSymbolTableRecord
100
AcDbBlockTableRecord
  2
*U8
340
0
310
2800000020000000200000000100080000000000000400000000000000000000000000000000000000000000000080000080000000808000800000008000800080800000C0C0C000C0DCC000F0CAA6000020400000206000002080000020A0000020C0000020E00000400000004020000040400000406000004080000040A0
310
000040C0000040E00000600000006020000060400000606000006080000060A0000060C0000060E00000800000008020000080400000806000008080000080A0000080C0000080E00000A0000000A0200000A0400000A0600000A0800000A0A00000A0C00000A0E00000C0000000C0200000C0400000C0600000C0800000C0
310
A00000C0C00000C0E00000E0000000E0200000E0400000E0600000E0800000E0A00000E0C00000E0E00040000000400020004000400040006000400080004000A0004000C0004000E00040200000402020004020400040206000402080004020A0004020C0004020E000404000004040200040404000404060004040800040
310
40A0004040C0004040E00040600000406020004060400040606000406080004060A0004060C0004060E00040800000408020004080400040806000408080004080A0004080C0004080E00040A0000040A0200040A0400040A0600040A0800040A0A00040A0C00040A0E00040C0000040C0200040C0400040C0600040C08000
310
40C0A00040C0C00040C0E00040E0000040E0200040E0400040E0600040E0800040E0A00040E0C00040E0E00080000000800020008000400080006000800080008000A0008000C0008000E00080200000802020008020400080206000802080008020A0008020C0008020E00080400000804020008040400080406000804080
310
008040A0008040C0008040E00080600000806020008060400080606000806080008060A0008060C0008060E00080800000808020008080400080806000808080008080A0008080C0008080E00080A0000080A0200080A0400080A0600080A0800080A0A00080A0C00080A0E00080C0000080C0200080C0400080C0600080C0
310
800080C0A00080C0C00080C0E00080E0000080E0200080E0400080E0600080E0800080E0A00080E0C00080E0E000C0000000C0002000C0004000C0006000C0008000C000A000C000C000C000E000C0200000C0202000C0204000C0206000C0208000C020A000C020C000C020E000C0400000C0402000C0404000C0406000C0
310
408000C040A000C040C000C040E000C0600000C0602000C0604000C0606000C0608000C060A000C060C000C060E000C0800000C0802000C0804000C0806000C0808000C080A000C080C000C080E000C0A00000C0A02000C0A04000C0A06000C0A08000C0A0A000C0A0C000C0A0E000C0C00000C0C02000C0C04000C0C06000
310
C0C08000C0C0A000F0FBFF00A4A0A000808080000000FF0000FF000000FFFF00FF000000FF00FF00FFFF0000FFFFFF00494949494949494949494949494949494949494949494949494949494949494949FFFFFFFFFFFFFFFFFFFFFFFFFFFFFFFFFFFFFFFFFFFFFFFFFFFFFFFFFFFF4949FF27272727272727272727272727
310
272727272727272727272727272727FF4949FFFFFFFFFFFFFFFFFFFFFFFFFFFFFFFFFFFFFFFFFFFFFFFFFFFFFFFF27FF4949494949494949494949494949494949494949494949494949494949FF27FF4949494949494949494949494949494949494949494949494949494949FF27FF494949494949494949494949494949
310
4949494949494949494949494949FF27FF4949494949494949494949494949494949494949494949494949494949FF27FF4949494949494949494949494949494949494949494949494949494949FF27FF4949494949494949494949494949494949494949494949494949494949FF27FF4949494949494949494949494949
310
494949494949494949494949494949FF27FF4949494949494949494949494949494949494949494949494949494949FF27FF4949494949494949494949494949494949494949494949494949494949FF27FF4949494949494949494949494949494949494949494949494949494949FF27FF49494949494949494949494949
310
49494949494949494949494949494949FF27FF4949494949494949494949494949494949494949494949494949494949FF27FF4949494949494949494949494949494949494949494949494949494949FF27FF4949494949494949494949494949494949494949494949494949494949FF27FF494949494949494949494949
310
4949494949494949494949494949494949FF27FF4949494949494949494949494949494949494949494949494949494949FF27FF4949494949494949494949494949494949494949494949494949494949FF27FF4949494949494949494949494949494949494949494949494949494949FF27FF4949494949494949494949
310
494949494949494949494949494949494949FF27FF4949494949494949494949494949494949494949494949494949494949FF27FF4949494949494949494949494949494949494949494949494949494949FF27FF4949494949494949494949494949494949494949494949494949494949FF27FF49494949494949494949
310
49494949494949494949494949494949494949FF27FF4949494949494949494949494949494949494949494949494949494949FF27FF4949494949494949494949494949494949494949494949494949494949FF27FF4949494949494949494949494949494949494949494949494949494949FF27FF494949494949494949
310
4949494949494949494949494949494949494949FFFFFF494949494949494949494949494949494949494949494949494949494949494949
1001
AcDbDynamicBlockTrueName2
1000
LBEAD
1001
AcDbDynamicBlockGUID
1000
{99272BF9-1C71-4F06-AFBD-C09FCEACD37D}
  0
ENDTAB
  0
ENDSEC
  0
SECTION
  2
BLOCKS
  0
BLOCK
  5
20
330
1F
100
AcDbEntity
  8
0
100
AcDbBlockBegin
  2
*Model_Space
 70
     0
 10
0.0
 20
0.0
 30
0.0
  3
*Model_Space
  1

  0
ENDBLK
  5
21
330
1F
100
AcDbEntity
  8
0
100
AcDbBlockEnd
  0
BLOCK
  5
1C
330
1B
100
AcDbEntity
 67
     1
  8
0
100
AcDbBlockBegin
  2
*Paper_Space
 70
     0
 10
0.0
 20
0.0
 30
0.0
  3
*Paper_Space
  1

  0
ENDBLK
  5
1D
330
1B
100
AcDbEntity
 67
     1
  8
0
100
AcDbBlockEnd
  0
BLOCK
  5
24
330
23
100
AcDbEntity
 67
     1
  8
0
100
AcDbBlockBegin
  2
*Paper_Space0
 70
     0
 10
0.0
 20
0.0
 30
0.0
  3
*Paper_Space0
  1

  0
ENDBLK
  5
25
330
23
100
AcDbEntity
 67
     1
  8
0
100
AcDbBlockEnd
  0
BLOCK
  5
4D
330
4C
100
AcDbEntity
  8
0
100
AcDbBlockBegin
  2
Fill_1
 70
     0
 10
0.0
 20
0.0
 30
0.0
  3
Fill_1
  1

  0
LINE
  5
2F6
102
{ACAD_REACTORS
330
306
102
}
330
4C
100
AcDbEntity
  8
Specialized_Fills
  6
Continuous
100
AcDbLine
 10
10180.08449495772
 20
736.4904309614018
 30
0.0
 11
10180.08449495772
 21
786.4904309614018
 31
0.0
  0
LINE
  5
2F7
102
{ACAD_REACTORS
330
306
102
}
330
4C
100
AcDbEntity
  8
Specialized_Fills
  6
Continuous
100
AcDbLine
 10
10180.08449495772
 20
786.4904309614018
 30
0.0
 11
10061.9485496941
 21
786.4904309614018
 31
0.0
  0
LINE
  5
2F8
102
{ACAD_REACTORS
330
306
102
}
330
4C
100
AcDbEntity
  8
Specialized_Fills
  6
Continuous
100
AcDbLine
 10
10061.9485496941
 20
786.4904309614018
 30
0.0
 11
10061.9485496941
 21
736.4904309614018
 31
0.0
  0
LINE
  5
2F9
102
{ACAD_REACTORS
330
306
102
}
330
4C
100
AcDbEntity
  8
Specialized_Fills
  6
Continuous
100
AcDbLine
 10
10061.9485496941
 20
736.4904309614018
 30
0.0
 11
10180.08449495772
 21
736.4904309614018
 31
0.0
  0
HATCH
  5
306
330
4C
100
AcDbEntity
  8
0
 62
   251
100
AcDbHatch
 10
0.0
 20
0.0
 30
0.0
210
0.0
220
0.0
230
1.0
  2
HPCRC1E0
 70
     0
 71
     1
 91
        1
 92
        7
 72
     0
 73
     1
 93
        4
 10
10180.08449495772
 20
786.4904309614018
 10
10061.9485496941
 20
786.4904309614018
 10
10061.9485496941
 20
736.4904309614018
 10
10180.08449495772
 20
736.4904309614018
 97
        4
330
2F7
330
2F8
330
2F9
330
2F6
 75
     1
 76
     2
 52
0.0
 41
0.12
 77
     0
 78
    78
 53
82.8749847
 43
0.0
 44
4.2
 45
-0.0000004961129005
 46
8.399999852931037
 79
     2
 49
0.9674709324
 49
-66.75549316799998
 53
75.96376039999999
 43
0.12
 44
5.16
 45
-0.000000348785556
 46
8.399999709154096
 79
     2
 49
0.4947726600000001
 49
-34.139315184
 53
63.43495179999999
 43
0.24
 44
5.639999999999999
 45
-0.0000000286036308
 46
8.400000041591663
 79
     2
 49
1.073312639999999
 49
-17.70965881199999
 53
45.0
 43
0.72
 44
6.599999999999999
 45
0.0000000000000009
 46
8.400000002875099
 79
     2
 49
1.527350688
 49
-10.352043456
 53
33.6900673
 43
1.799999999999999
 44
7.679999999999999
 45
0.0000001596020127
 46
8.399999824188462
 79
     2
 49
0.4326661440000001
 49
-29.85396423600001
 53
33.6900673
 43
10.2
 44
7.679999999999999
 45
0.0000001596020127
 46
8.399999824188462
 79
     2
 49
0.4326661440000001
 49
-29.85396423600001
 53
33.6900673
 43
18.6
 44
7.679999999999999
 45
0.0000001596020127
 46
8.399999824188462
 79
     2
 49
0.4326661440000001
 49
-29.85396423600001
 53
26.5650501
 43
2.16
 44
7.919999999999999
 45
-0.0000000460215162
 46
8.400000143556356
 79
     2
 49
0.26832816
 49
-18.514643556
 53
26.5650501
 43
10.56
 44
7.919999999999999
 45
-0.0000000460215162
 46
8.400000143556356
 79
     2
 49
0.26832816
 49
-18.514643556
 53
18.434948
 43
2.399999999999999
 44
8.039999999999999
 45
0.0000002686412607
 46
8.399999851558131
 79
     2
 49
0.3794733239999999
 49
-26.183659056
 53
18.434948
 43
10.8
 44
8.039999999999999
 45
0.0000002686412607
 46
8.399999851558131
 79
     2
 49
0.3794733239999999
 49
-26.183659056
 53
18.434948
 43
19.2
 44
8.039999999999999
 45
0.0000002686412607
 46
8.399999851558131
 79
     2
 49
0.3794733239999999
 49
-26.183659056
 53
26.5650501
 43
2.759999999999999
 44
8.16
 45
-0.0000000460215162
 46
8.400000143556356
 79
     2
 49
0.26832816
 49
-18.514643556
 53
26.5650501
 43
11.16
 44
8.16
 45
-0.0000000460215162
 46
8.400000143556356
 79
     2
 49
0.26832816
 49
-18.514643556
 53
11.3099327
 43
3.0
 44
8.279999999999999
 45
-0.0000000543109101
 46
8.400000069389928
 79
     2
 49
0.6118823435999998
 49
-42.21988036799999
 53
11.3099327
 43
11.4
 44
8.279999999999999
 45
-0.0000000543109101
 46
8.400000069389928
 79
     2
 49
0.6118823435999998
 49
-42.21988036799999
 53
11.3099327
 43
19.8
 44
8.279999999999999
 45
-0.0000000543109101
 46
8.400000069389928
 79
     2
 49
0.6118823435999998
 49
-42.21988036799999
 53
11.3099327
 43
28.2
 44
8.279999999999999
 45
-0.0000000543109101
 46
8.400000069389928
 79
     2
 49
0.6118823435999998
 49
-42.21988036799999
 53
11.3099327
 43
36.6
 44
8.279999999999999
 45
-0.0000000543109101
 46
8.400000069389928
 79
     2
 49
0.6118823435999998
 49
-42.21988036799999
 53
0.0
 43
3.599999999999999
 44
8.4
 45
0.0
 46
8.4
 79
     2
 49
1.199999999999999
 49
-7.199999999999999
 53
348.6900673
 43
4.799999999999999
 44
8.4
 45
0.0000000543109101
 46
8.400000069389928
 79
     2
 49
0.6118823435999998
 49
-42.21988036799999
 53
348.6900673
 43
13.2
 44
8.4
 45
0.0000000543109101
 46
8.400000069389928
 79
     2
 49
0.6118823435999998
 49
-42.21988036799999
 53
348.6900673
 43
21.6
 44
8.4
 45
0.0000000543109101
 46
8.400000069389928
 79
     2
 49
0.6118823435999998
 49
-42.21988036799999
 53
348.6900673
 43
30.0
 44
8.4
 45
0.0000000543109101
 46
8.400000069389928
 79
     2
 49
0.6118823435999998
 49
-42.21988036799999
 53
348.6900673
 43
38.4
 44
8.4
 45
0.0000000543109101
 46
8.400000069389928
 79
     2
 49
0.6118823435999998
 49
-42.21988036799999
 53
333.4349499
 43
5.399999999999999
 44
8.279999999999999
 45
0.0000000460215162
 46
8.400000143556356
 79
     2
 49
0.2683281599999999
 49
-18.514643556
 53
333.4349499
 43
13.8
 44
8.279999999999999
 45
0.0000000460215162
 46
8.400000143556356
 79
     2
 49
0.2683281599999999
 49
-18.514643556
 53
341.565052
 43
5.639999999999999
 44
8.16
 45
-0.0000002686412607
 46
8.399999851558131
 79
     2
 49
0.379473324
 49
-26.183659056
 53
341.565052
 43
14.04
 44
8.16
 45
-0.0000002686412607
 46
8.399999851558131
 79
     2
 49
0.379473324
 49
-26.183659056
 53
341.565052
 43
22.44
 44
8.16
 45
-0.0000002686412607
 46
8.399999851558131
 79
     2
 49
0.379473324
 49
-26.183659056
 53
333.4349499
 43
6.0
 44
8.039999999999999
 45
0.0000000460215162
 46
8.400000143556356
 79
     2
 49
0.2683281599999999
 49
-18.514643556
 53
333.4349499
 43
14.4
 44
8.039999999999999
 45
0.0000000460215162
 46
8.400000143556356
 79
     2
 49
0.2683281599999999
 49
-18.514643556
 53
326.3099327
 43
6.24
 44
7.919999999999999
 45
-0.0000001596020127
 46
8.399999824188462
 79
     2
 49
0.4326661440000001
 49
-29.85396423600001
 53
326.3099327
 43
14.64
 44
7.919999999999999
 45
-0.0000001596020127
 46
8.399999824188462
 79
     2
 49
0.4326661440000001
 49
-29.85396423600001
 53
326.3099327
 43
23.04
 44
7.919999999999999
 45
-0.0000001596020127
 46
8.399999824188462
 79
     2
 49
0.4326661440000001
 49
-29.85396423600001
 53
315.0
 43
6.599999999999999
 44
7.679999999999999
 45
-0.0000000000000009
 46
8.400000002875099
 79
     2
 49
1.527350688
 49
-10.352043456
 53
296.5650482
 43
7.679999999999999
 44
6.599999999999999
 45
0.0000000286036308
 46
8.400000041591663
 79
     2
 49
1.073312639999999
 49
-17.70965881199999
 53
284.0362396
 43
8.16
 44
5.639999999999999
 45
0.000000348785556
 46
8.399999709154096
 79
     2
 49
0.4947726600000001
 49
-34.139315184
 53
277.1250153
 43
8.279999999999999
 44
5.16
 45
0.0000004961129005
 46
8.399999852931037
 79
     2
 49
0.9674709324
 49
-66.75549316799998
 53
277.1250153
 43
0.0
 44
4.2
 45
0.0000004961129005
 46
8.399999852931037
 79
     2
 49
0.9674709324
 49
-66.75549316799998
 53
284.0362396
 43
0.12
 44
3.239999999999999
 45
0.000000348785556
 46
8.399999709154096
 79
     2
 49
0.4947726600000001
 49
-34.139315184
 53
296.5650482
 43
0.24
 44
2.759999999999999
 45
0.0000000286036308
 46
8.400000041591663
 79
     2
 49
1.073312639999999
 49
-17.70965881199999
 53
315.0
 43
0.72
 44
1.799999999999999
 45
-0.0000000000000009
 46
8.400000002875099
 79
     2
 49
1.527350688
 49
-10.352043456
 53
326.3099327
 43
1.799999999999999
 44
0.72
 45
-0.0000001596020127
 46
8.399999824188462
 79
     2
 49
0.4326661440000001
 49
-29.85396423600001
 53
326.3099327
 43
10.2
 44
0.72
 45
-0.0000001596020127
 46
8.399999824188462
 79
     2
 49
0.4326661440000001
 49
-29.85396423600001
 53
326.3099327
 43
18.6
 44
0.72
 45
-0.0000001596020127
 46
8.399999824188462
 79
     2
 49
0.4326661440000001
 49
-29.85396423600001
 53
333.4349499
 43
2.16
 44
0.48
 45
0.0000000460215162
 46
8.400000143556356
 79
     2
 49
0.2683281599999999
 49
-18.514643556
 53
333.4349499
 43
10.56
 44
0.48
 45
0.0000000460215162
 46
8.400000143556356
 79
     2
 49
0.2683281599999999
 49
-18.514643556
 53
341.565052
 43
2.399999999999999
 44
0.36
 45
-0.0000002686412607
 46
8.399999851558131
 79
     2
 49
0.379473324
 49
-26.183659056
 53
341.565052
 43
10.8
 44
0.36
 45
-0.0000002686412607
 46
8.399999851558131
 79
     2
 49
0.379473324
 49
-26.183659056
 53
341.565052
 43
19.2
 44
0.36
 45
-0.0000002686412607
 46
8.399999851558131
 79
     2
 49
0.379473324
 49
-26.183659056
 53
333.4349499
 43
2.759999999999999
 44
0.24
 45
0.0000000460215162
 46
8.400000143556356
 79
     2
 49
0.2683281599999999
 49
-18.514643556
 53
333.4349499
 43
11.16
 44
0.24
 45
0.0000000460215162
 46
8.400000143556356
 79
     2
 49
0.2683281599999999
 49
-18.514643556
 53
348.6900673
 43
3.0
 44
0.12
 45
0.0000000543109101
 46
8.400000069389928
 79
     2
 49
0.6118823435999998
 49
-42.21988036799999
 53
348.6900673
 43
11.4
 44
0.12
 45
0.0000000543109101
 46
8.400000069389928
 79
     2
 49
0.6118823435999998
 49
-42.21988036799999
 53
348.6900673
 43
19.8
 44
0.12
 45
0.0000000543109101
 46
8.400000069389928
 79
     2
 49
0.6118823435999998
 49
-42.21988036799999
 53
348.6900673
 43
28.2
 44
0.12
 45
0.0000000543109101
 46
8.400000069389928
 79
     2
 49
0.6118823435999998
 49
-42.21988036799999
 53
348.6900673
 43
36.6
 44
0.12
 45
0.0000000543109101
 46
8.400000069389928
 79
     2
 49
0.6118823435999998
 49
-42.21988036799999
 53
0.0
 43
3.599999999999999
 44
0.0
 45
0.0
 46
8.4
 79
     2
 49
1.199999999999999
 49
-7.199999999999999
 53
11.3099327
 43
4.799999999999999
 44
0.0
 45
-0.0000000543109101
 46
8.400000069389928
 79
     2
 49
0.6118823435999998
 49
-42.21988036799999
 53
11.3099327
 43
13.2
 44
0.0
 45
-0.0000000543109101
 46
8.400000069389928
 79
     2
 49
0.6118823435999998
 49
-42.21988036799999
 53
11.3099327
 43
21.6
 44
0.0
 45
-0.0000000543109101
 46
8.400000069389928
 79
     2
 49
0.6118823435999998
 49
-42.21988036799999
 53
11.3099327
 43
30.0
 44
0.0
 45
-0.0000000543109101
 46
8.400000069389928
 79
     2
 49
0.6118823435999998
 49
-42.21988036799999
 53
11.3099327
 43
38.4
 44
0.0
 45
-0.0000000543109101
 46
8.400000069389928
 79
     2
 49
0.6118823435999998
 49
-42.21988036799999
 53
26.5650501
 43
5.399999999999999
 44
0.12
 45
-0.0000000460215162
 46
8.400000143556356
 79
     2
 49
0.26832816
 49
-18.514643556
 53
26.5650501
 43
13.8
 44
0.12
 45
-0.0000000460215162
 46
8.400000143556356
 79
     2
 49
0.26832816
 49
-18.514643556
 53
18.434948
 43
5.639999999999999
 44
0.24
 45
0.0000002686412607
 46
8.399999851558131
 79
     2
 49
0.3794733239999999
 49
-26.183659056
 53
18.434948
 43
14.04
 44
0.24
 45
0.0000002686412607
 46
8.399999851558131
 79
     2
 49
0.3794733239999999
 49
-26.183659056
 53
18.434948
 43
22.44
 44
0.24
 45
0.0000002686412607
 46
8.399999851558131
 79
     2
 49
0.3794733239999999
 49
-26.183659056
 53
26.5650501
 43
6.0
 44
0.36
 45
-0.0000000460215162
 46
8.400000143556356
 79
     2
 49
0.26832816
 49
-18.514643556
 53
26.5650501
 43
14.4
 44
0.36
 45
-0.0000000460215162
 46
8.400000143556356
 79
     2
 49
0.26832816
 49
-18.514643556
 53
33.6900673
 43
6.24
 44
0.48
 45
0.0000001596020127
 46
8.399999824188462
 79
     2
 49
0.4326661440000001
 49
-29.85396423600001
 53
33.6900673
 43
14.64
 44
0.48
 45
0.0000001596020127
 46
8.399999824188462
 79
     2
 49
0.4326661440000001
 49
-29.85396423600001
 53
33.6900673
 43
23.04
 44
0.48
 45
0.0000001596020127
 46
8.399999824188462
 79
     2
 49
0.4326661440000001
 49
-29.85396423600001
 53
45.0
 43
6.599999999999999
 44
0.72
 45
0.0000000000000009
 46
8.400000002875099
 79
     2
 49
1.527350688
 49
-10.352043456
 53
63.43495179999999
 43
7.679999999999999
 44
1.799999999999999
 45
-0.0000000286036308
 46
8.400000041591663
 79
     2
 49
1.073312639999999
 49
-17.70965881199999
 53
75.96376039999999
 43
8.16
 44
2.759999999999999
 45
-0.000000348785556
 46
8.399999709154096
 79
     2
 49
0.4947726600000001
 49
-34.139315184
 53
82.8749847
 43
8.279999999999999
 44
3.239999999999999
 45
-0.0000004961129005
 46
8.399999852931037
 79
     2
 49
0.9674709324
 49
-66.75549316799998
 47
0.0996837351136964
 98
        1
 10
10081.63096162343
 20
774.5608483428566
1001
GradientColor1ACI
1070
     5
1001
GradientColor2ACI
1070
     2
1001
ACAD
1010
0.0
1020
0.0
1030
0.0
  0
ENDBLK
  5
4E
330
4C
100
AcDbEntity
  8
0
100
AcDbBlockEnd
  0
BLOCK
  5
12F
330
12E
100
AcDbEntity
  8
0
100
AcDbBlockBegin
  2
Fill_2
 70
     0
 10
0.0
 20
0.0
 30
0.0
  3
Fill_2
  1

  0
LINE
  5
2DC
102
{ACAD_REACTORS
330
2EE
102
}
330
12E
100
AcDbEntity
  8
Specialized_Fills
  6
Continuous
100
AcDbLine
 10
10300.42668904304
 20
736.4904309614018
 30
0.0
 11
10300.42668904304
 21
786.4904309614018
 31
0.0
  0
LINE
  5
2DD
102
{ACAD_REACTORS
330
2EE
102
}
330
12E
100
AcDbEntity
  8
Specialized_Fills
  6
Continuous
100
AcDbLine
 10
10300.42668904304
 20
786.4904309614018
 30
0.0
 11
10192.71315380192
 21
786.4904309614018
 31
0.0
  0
LINE
  5
2DE
102
{ACAD_REACTORS
330
2EE
102
}
330
12E
100
AcDbEntity
  8
Specialized_Fills
  6
Continuous
100
AcDbLine
 10
10192.71315380192
 20
786.4904309614018
 30
0.0
 11
10192.71315380192
 21
736.4904309614018
 31
0.0
  0
LINE
  5
2DF
102
{ACAD_REACTORS
330
2EE
102
}
330
12E
100
AcDbEntity
  8
Specialized_Fills
  6
Continuous
100
AcDbLine
 10
10192.71315380192
 20
736.4904309614018
 30
0.0
 11
10300.42668904304
 21
736.4904309614018
 31
0.0
  0
HATCH
  5
2EE
330
12E
100
AcDbEntity
  8
0
 62
   251
100
AcDbHatch
 10
0.0
 20
0.0
 30
0.0
210
0.0
220
0.0
230
1.0
  2
HPCRC1E0
 70
     0
 71
     1
 91
        1
 92
        7
 72
     0
 73
     1
 93
        4
 10
10300.42668904304
 20
786.4904309614018
 10
10192.71315380192
 20
786.4904309614018
 10
10192.71315380192
 20
736.4904309614018
 10
10300.42668904304
 20
736.4904309614018
 97
        4
330
2DD
330
2DE
330
2DF
330
2DC
 75
     1
 76
     2
 52
0.0
 41
0.12
 77
     0
 78
    78
 53
82.8749847
 43
0.0
 44
4.2
 45
-0.0000004961129005
 46
8.399999852931037
 79
     2
 49
0.9674709324
 49
-66.75549316799998
 53
75.96376039999999
 43
0.12
 44
5.16
 45
-0.000000348785556
 46
8.399999709154096
 79
     2
 49
0.4947726600000001
 49
-34.139315184
 53
63.43495179999999
 43
0.24
 44
5.639999999999999
 45
-0.0000000286036308
 46
8.400000041591663
 79
     2
 49
1.073312639999999
 49
-17.70965881199999
 53
45.0
 43
0.72
 44
6.599999999999999
 45
0.0000000000000009
 46
8.400000002875099
 79
     2
 49
1.527350688
 49
-10.352043456
 53
33.6900673
 43
1.799999999999999
 44
7.679999999999999
 45
0.0000001596020127
 46
8.399999824188462
 79
     2
 49
0.4326661440000001
 49
-29.85396423600001
 53
33.6900673
 43
10.2
 44
7.679999999999999
 45
0.0000001596020127
 46
8.399999824188462
 79
     2
 49
0.4326661440000001
 49
-29.85396423600001
 53
33.6900673
 43
18.6
 44
7.679999999999999
 45
0.0000001596020127
 46
8.399999824188462
 79
     2
 49
0.4326661440000001
 49
-29.85396423600001
 53
26.5650501
 43
2.16
 44
7.919999999999999
 45
-0.0000000460215162
 46
8.400000143556356
 79
     2
 49
0.26832816
 49
-18.514643556
 53
26.5650501
 43
10.56
 44
7.919999999999999
 45
-0.0000000460215162
 46
8.400000143556356
 79
     2
 49
0.26832816
 49
-18.514643556
 53
18.434948
 43
2.399999999999999
 44
8.039999999999999
 45
0.0000002686412607
 46
8.399999851558131
 79
     2
 49
0.3794733239999999
 49
-26.183659056
 53
18.434948
 43
10.8
 44
8.039999999999999
 45
0.0000002686412607
 46
8.399999851558131
 79
     2
 49
0.3794733239999999
 49
-26.183659056
 53
18.434948
 43
19.2
 44
8.039999999999999
 45
0.0000002686412607
 46
8.399999851558131
 79
     2
 49
0.3794733239999999
 49
-26.183659056
 53
26.5650501
 43
2.759999999999999
 44
8.16
 45
-0.0000000460215162
 46
8.400000143556356
 79
     2
 49
0.26832816
 49
-18.514643556
 53
26.5650501
 43
11.16
 44
8.16
 45
-0.0000000460215162
 46
8.400000143556356
 79
     2
 49
0.26832816
 49
-18.514643556
 53
11.3099327
 43
3.0
 44
8.279999999999999
 45
-0.0000000543109101
 46
8.400000069389928
 79
     2
 49
0.6118823435999998
 49
-42.21988036799999
 53
11.3099327
 43
11.4
 44
8.279999999999999
 45
-0.0000000543109101
 46
8.400000069389928
 79
     2
 49
0.6118823435999998
 49
-42.21988036799999
 53
11.3099327
 43
19.8
 44
8.279999999999999
 45
-0.0000000543109101
 46
8.400000069389928
 79
     2
 49
0.6118823435999998
 49
-42.21988036799999
 53
11.3099327
 43
28.2
 44
8.279999999999999
 45
-0.0000000543109101
 46
8.400000069389928
 79
     2
 49
0.6118823435999998
 49
-42.21988036799999
 53
11.3099327
 43
36.6
 44
8.279999999999999
 45
-0.0000000543109101
 46
8.400000069389928
 79
     2
 49
0.6118823435999998
 49
-42.21988036799999
 53
0.0
 43
3.599999999999999
 44
8.4
 45
0.0
 46
8.4
 79
     2
 49
1.199999999999999
 49
-7.199999999999999
 53
348.6900673
 43
4.799999999999999
 44
8.4
 45
0.0000000543109101
 46
8.400000069389928
 79
     2
 49
0.6118823435999998
 49
-42.21988036799999
 53
348.6900673
 43
13.2
 44
8.4
 45
0.0000000543109101
 46
8.400000069389928
 79
     2
 49
0.6118823435999998
 49
-42.21988036799999
 53
348.6900673
 43
21.6
 44
8.4
 45
0.0000000543109101
 46
8.400000069389928
 79
     2
 49
0.6118823435999998
 49
-42.21988036799999
 53
348.6900673
 43
30.0
 44
8.4
 45
0.0000000543109101
 46
8.400000069389928
 79
     2
 49
0.6118823435999998
 49
-42.21988036799999
 53
348.6900673
 43
38.4
 44
8.4
 45
0.0000000543109101
 46
8.400000069389928
 79
     2
 49
0.6118823435999998
 49
-42.21988036799999
 53
333.4349499
 43
5.399999999999999
 44
8.279999999999999
 45
0.0000000460215162
 46
8.400000143556356
 79
     2
 49
0.2683281599999999
 49
-18.514643556
 53
333.4349499
 43
13.8
 44
8.279999999999999
 45
0.0000000460215162
 46
8.400000143556356
 79
     2
 49
0.2683281599999999
 49
-18.514643556
 53
341.565052
 43
5.639999999999999
 44
8.16
 45
-0.0000002686412607
 46
8.399999851558131
 79
     2
 49
0.379473324
 49
-26.183659056
 53
341.565052
 43
14.04
 44
8.16
 45
-0.0000002686412607
 46
8.399999851558131
 79
     2
 49
0.379473324
 49
-26.183659056
 53
341.565052
 43
22.44
 44
8.16
 45
-0.0000002686412607
 46
8.399999851558131
 79
     2
 49
0.379473324
 49
-26.183659056
 53
333.4349499
 43
6.0
 44
8.039999999999999
 45
0.0000000460215162
 46
8.400000143556356
 79
     2
 49
0.2683281599999999
 49
-18.514643556
 53
333.4349499
 43
14.4
 44
8.039999999999999
 45
0.0000000460215162
 46
8.400000143556356
 79
     2
 49
0.2683281599999999
 49
-18.514643556
 53
326.3099327
 43
6.24
 44
7.919999999999999
 45
-0.0000001596020127
 46
8.399999824188462
 79
     2
 49
0.4326661440000001
 49
-29.85396423600001
 53
326.3099327
 43
14.64
 44
7.919999999999999
 45
-0.0000001596020127
 46
8.399999824188462
 79
     2
 49
0.4326661440000001
 49
-29.85396423600001
 53
326.3099327
 43
23.04
 44
7.919999999999999
 45
-0.0000001596020127
 46
8.399999824188462
 79
     2
 49
0.4326661440000001
 49
-29.85396423600001
 53
315.0
 43
6.599999999999999
 44
7.679999999999999
 45
-0.0000000000000009
 46
8.400000002875099
 79
     2
 49
1.527350688
 49
-10.352043456
 53
296.5650482
 43
7.679999999999999
 44
6.599999999999999
 45
0.0000000286036308
 46
8.400000041591663
 79
     2
 49
1.073312639999999
 49
-17.70965881199999
 53
284.0362396
 43
8.16
 44
5.639999999999999
 45
0.000000348785556
 46
8.399999709154096
 79
     2
 49
0.4947726600000001
 49
-34.139315184
 53
277.1250153
 43
8.279999999999999
 44
5.16
 45
0.0000004961129005
 46
8.399999852931037
 79
     2
 49
0.9674709324
 49
-66.75549316799998
 53
277.1250153
 43
0.0
 44
4.2
 45
0.0000004961129005
 46
8.399999852931037
 79
     2
 49
0.9674709324
 49
-66.75549316799998
 53
284.0362396
 43
0.12
 44
3.239999999999999
 45
0.000000348785556
 46
8.399999709154096
 79
     2
 49
0.4947726600000001
 49
-34.139315184
 53
296.5650482
 43
0.24
 44
2.759999999999999
 45
0.0000000286036308
 46
8.400000041591663
 79
     2
 49
1.073312639999999
 49
-17.70965881199999
 53
315.0
 43
0.72
 44
1.799999999999999
 45
-0.0000000000000009
 46
8.400000002875099
 79
     2
 49
1.527350688
 49
-10.352043456
 53
326.3099327
 43
1.799999999999999
 44
0.72
 45
-0.0000001596020127
 46
8.399999824188462
 79
     2
 49
0.4326661440000001
 49
-29.85396423600001
 53
326.3099327
 43
10.2
 44
0.72
 45
-0.0000001596020127
 46
8.399999824188462
 79
     2
 49
0.4326661440000001
 49
-29.85396423600001
 53
326.3099327
 43
18.6
 44
0.72
 45
-0.0000001596020127
 46
8.399999824188462
 79
     2
 49
0.4326661440000001
 49
-29.85396423600001
 53
333.4349499
 43
2.16
 44
0.48
 45
0.0000000460215162
 46
8.400000143556356
 79
     2
 49
0.2683281599999999
 49
-18.514643556
 53
333.4349499
 43
10.56
 44
0.48
 45
0.0000000460215162
 46
8.400000143556356
 79
     2
 49
0.2683281599999999
 49
-18.514643556
 53
341.565052
 43
2.399999999999999
 44
0.36
 45
-0.0000002686412607
 46
8.399999851558131
 79
     2
 49
0.379473324
 49
-26.183659056
 53
341.565052
 43
10.8
 44
0.36
 45
-0.0000002686412607
 46
8.399999851558131
 79
     2
 49
0.379473324
 49
-26.183659056
 53
341.565052
 43
19.2
 44
0.36
 45
-0.0000002686412607
 46
8.399999851558131
 79
     2
 49
0.379473324
 49
-26.183659056
 53
333.4349499
 43
2.759999999999999
 44
0.24
 45
0.0000000460215162
 46
8.400000143556356
 79
     2
 49
0.2683281599999999
 49
-18.514643556
 53
333.4349499
 43
11.16
 44
0.24
 45
0.0000000460215162
 46
8.400000143556356
 79
     2
 49
0.2683281599999999
 49
-18.514643556
 53
348.6900673
 43
3.0
 44
0.12
 45
0.0000000543109101
 46
8.400000069389928
 79
     2
 49
0.6118823435999998
 49
-42.21988036799999
 53
348.6900673
 43
11.4
 44
0.12
 45
0.0000000543109101
 46
8.400000069389928
 79
     2
 49
0.6118823435999998
 49
-42.21988036799999
 53
348.6900673
 43
19.8
 44
0.12
 45
0.0000000543109101
 46
8.400000069389928
 79
     2
 49
0.6118823435999998
 49
-42.21988036799999
 53
348.6900673
 43
28.2
 44
0.12
 45
0.0000000543109101
 46
8.400000069389928
 79
     2
 49
0.6118823435999998
 49
-42.21988036799999
 53
348.6900673
 43
36.6
 44
0.12
 45
0.0000000543109101
 46
8.400000069389928
 79
     2
 49
0.6118823435999998
 49
-42.21988036799999
 53
0.0
 43
3.599999999999999
 44
0.0
 45
0.0
 46
8.4
 79
     2
 49
1.199999999999999
 49
-7.199999999999999
 53
11.3099327
 43
4.799999999999999
 44
0.0
 45
-0.0000000543109101
 46
8.400000069389928
 79
     2
 49
0.6118823435999998
 49
-42.21988036799999
 53
11.3099327
 43
13.2
 44
0.0
 45
-0.0000000543109101
 46
8.400000069389928
 79
     2
 49
0.6118823435999998
 49
-42.21988036799999
 53
11.3099327
 43
21.6
 44
0.0
 45
-0.0000000543109101
 46
8.400000069389928
 79
     2
 49
0.6118823435999998
 49
-42.21988036799999
 53
11.3099327
 43
30.0
 44
0.0
 45
-0.0000000543109101
 46
8.400000069389928
 79
     2
 49
0.6118823435999998
 49
-42.21988036799999
 53
11.3099327
 43
38.4
 44
0.0
 45
-0.0000000543109101
 46
8.400000069389928
 79
     2
 49
0.6118823435999998
 49
-42.21988036799999
 53
26.5650501
 43
5.399999999999999
 44
0.12
 45
-0.0000000460215162
 46
8.400000143556356
 79
     2
 49
0.26832816
 49
-18.514643556
 53
26.5650501
 43
13.8
 44
0.12
 45
-0.0000000460215162
 46
8.400000143556356
 79
     2
 49
0.26832816
 49
-18.514643556
 53
18.434948
 43
5.639999999999999
 44
0.24
 45
0.0000002686412607
 46
8.399999851558131
 79
     2
 49
0.3794733239999999
 49
-26.183659056
 53
18.434948
 43
14.04
 44
0.24
 45
0.0000002686412607
 46
8.399999851558131
 79
     2
 49
0.3794733239999999
 49
-26.183659056
 53
18.434948
 43
22.44
 44
0.24
 45
0.0000002686412607
 46
8.399999851558131
 79
     2
 49
0.3794733239999999
 49
-26.183659056
 53
26.5650501
 43
6.0
 44
0.36
 45
-0.0000000460215162
 46
8.400000143556356
 79
     2
 49
0.26832816
 49
-18.514643556
 53
26.5650501
 43
14.4
 44
0.36
 45
-0.0000000460215162
 46
8.400000143556356
 79
     2
 49
0.26832816
 49
-18.514643556
 53
33.6900673
 43
6.24
 44
0.48
 45
0.0000001596020127
 46
8.399999824188462
 79
     2
 49
0.4326661440000001
 49
-29.85396423600001
 53
33.6900673
 43
14.64
 44
0.48
 45
0.0000001596020127
 46
8.399999824188462
 79
     2
 49
0.4326661440000001
 49
-29.85396423600001
 53
33.6900673
 43
23.04
 44
0.48
 45
0.0000001596020127
 46
8.399999824188462
 79
     2
 49
0.4326661440000001
 49
-29.85396423600001
 53
45.0
 43
6.599999999999999
 44
0.72
 45
0.0000000000000009
 46
8.400000002875099
 79
     2
 49
1.527350688
 49
-10.352043456
 53
63.43495179999999
 43
7.679999999999999
 44
1.799999999999999
 45
-0.0000000286036308
 46
8.400000041591663
 79
     2
 49
1.073312639999999
 49
-17.70965881199999
 53
75.96376039999999
 43
8.16
 44
2.759999999999999
 45
-0.000000348785556
 46
8.399999709154096
 79
     2
 49
0.4947726600000001
 49
-34.139315184
 53
82.8749847
 43
8.279999999999999
 44
3.239999999999999
 45
-0.0000004961129005
 46
8.399999852931037
 79
     2
 49
0.9674709324
 49
-66.75549316799998
 47
0.0921588325016023
 98
        1
 10
10225.06510941248
 20
774.6208521728837
1001
GradientColor1ACI
1070
     5
1001
GradientColor2ACI
1070
     2
1001
ACAD
1010
0.0
1020
0.0
1030
0.0
  0
ENDBLK
  5
130
330
12E
100
AcDbEntity
  8
0
100
AcDbBlockEnd
  0
BLOCK
  5
1FE
330
1FD
100
AcDbEntity
  8
0
100
AcDbBlockBegin
  2
*D3
 70
     1
 10
0.0
 20
0.0
 30
0.0
  3
*D3
  1

  0
LINE
  5
594
330
1FD
100
AcDbEntity
  8
Specialized_Lines
  6
Continuous
 62
     7
370
    -2
100
AcDbLine
 10
10181.73125033897
 20
752.5272765743655
 30
0.0
 11
10181.73125033897
 21
709.5459307376423
 31
0.0
  0
LINE
  5
595
330
1FD
100
AcDbEntity
  8
Specialized_Lines
  6
Continuous
 62
     7
370
    -2
100
AcDbLine
 10
10192.01990918315
 20
752.5272765743655
 30
0.0
 11
10192.01990918315
 21
709.5459307376423
 31
0.0
  0
LINE
  5
596
330
1FD
100
AcDbEntity
  8
Specialized_Lines
  6
Continuous
 62
     7
370
    -2
100
AcDbLine
 10
10177.93125033897
 20
709.7259307376423
 30
0.0
 11
10174.13125033897
 21
709.7259307376423
 31
0.0
  0
LINE
  5
597
330
1FD
100
AcDbEntity
  8
Specialized_Lines
  6
Continuous
 62
     7
370
    -2
100
AcDbLine
 10
10195.81990918315
 20
709.7259307376423
 30
0.0
 11
10199.61990918315
 21
709.7259307376423
 31
0.0
  0
LINE
  5
598
330
1FD
100
AcDbEntity
  8
Specialized_Lines
  6
Continuous
 62
     7
370
    -2
100
AcDbLine
 10
10181.73125033897
 20
709.7259307376423
 30
0.0
 11
10192.01990918315
 21
709.7259307376423
 31
0.0
  0
INSERT
  5
599
330
1FD
100
AcDbEntity
  8
Specialized_Lines
  6
Continuous
 62
     7
370
    -2
100
AcDbBlockReference
  2
ARROWHEAD_6
 10
10181.73125033897
 20
709.7259307376423
 30
0.0
 41
3.799999999999999
 42
3.799999999999999
 43
3.799999999999999
  0
INSERT
  5
59A
330
1FD
100
AcDbEntity
  8
Specialized_Lines
  6
Continuous
 62
     7
370
    -2
100
AcDbBlockReference
  2
ARROWHEAD_6
 10
10192.01990918315
 20
709.7259307376423
 30
0.0
 41
3.799999999999999
 42
3.799999999999999
 43
3.799999999999999
 50
180.0
  0
MTEXT
  5
59B
330
1FD
100
AcDbEntity
  8
Specialized_Lines
  6
Continuous
 62
     7
100
AcDbMText
 10
10186.87557976106
 20
714.4289077335828
 30
0.0
 40
5.0
 41
0.0
 71
     5
 72
     1
  1
\A1;10
  7
GENERATED_STYLE_1
 73
     1
 44
1.0
1001
ACAD
1000
MTEXTBEGIN
1070
    73
1070
     1
1070
    44
1040
1.0
1070
    74
1070
     0
1000
MTEXTEND
  0
POINT
  5
59C
330
1FD
100
AcDbEntity
  8
Defpoints
  6
Continuous
 62
     0
100
AcDbPoint
 10
10181.73125033897
 20
755.6325202402136
 30
0.0
  0
POINT
  5
59D
330
1FD
100
AcDbEntity
  8
Defpoints
  6
Continuous
 62
     0
100
AcDbPoint
 10
10192.01990918315
 20
755.6325202402136
 30
0.0
  0
POINT
  5
59E
330
1FD
100
AcDbEntity
  8
Defpoints
  6
Continuous
 62
     0
100
AcDbPoint
 10
10192.01990918315
 20
709.7259307376423
 30
0.0
  0
ENDBLK
  5
1FF
330
1FD
100
AcDbEntity
  8
0
100
AcDbBlockEnd
  0
BLOCK
  5
20C
330
20B
100
AcDbEntity
  8
0
100
AcDbBlockBegin
  2
ARROWHEAD_6
 70
     0
 10
0.0
 20
0.0
 30
0.0
  3
ARROWHEAD_6
  1

  0
LINE
  5
20E
330
20B
100
AcDbEntity
  8
0
  6
Continuous
 62
     0
370
     0
100
AcDbLine
 10
-0.5
 20
-0.5
 30
0.0
 11
0.5
 21
0.5
 31
0.0
  0
LINE
  5
20F
330
20B
100
AcDbEntity
  8
0
  6
Continuous
 62
     0
370
     0
100
AcDbLine
 10
0.0
 20
0.0
 30
0.0
 11
-1.0
 21
0.0
 31
0.0
  0
ENDBLK
  5
20D
330
20B
100
AcDbEntity
  8
0
100
AcDbBlockEnd
  0
BLOCK
  5
216
330
215
100
AcDbEntity
  8
0
100
AcDbBlockBegin
  2
ARROWHEAD_5
 70
     0
 10
0.0
 20
0.0
 30
0.0
  3
ARROWHEAD_5
  1

  0
SOLID
  5
218
330
215
100
AcDbEntity
  8
0
  6
Continuous
 62
     0
370
     0
100
AcDbTrace
 10
-1.0
 20
0.2679
 30
0.0
 11
0.0
 21
0.0
 31
0.0
 12
-1.0
 22
-0.2679
 32
0.0
 13
-1.0
 23
0.2679
 33
0.0
  0
LINE
  5
219
330
215
100
AcDbEntity
  8
0
  6
Continuous
 62
     0
370
     0
100
AcDbLine
 10
0.0
 20
0.0
 30
0.0
 11
-1.0
 21
0.0
 31
0.0
  0
ENDBLK
  5
217
330
215
100
AcDbEntity
  8
0
100
AcDbBlockEnd
  0
BLOCK
  5
22D
330
22C
100
AcDbEntity
  8
0
100
AcDbBlockBegin
  2
17A Wall_ Vertical Control Join_STORY_MARKER
 70
     0
 10
0.0
 20
0.0
 30
0.0
  3
17A Wall_ Vertical Control Join_STORY_MARKER
  1

  0
ENDBLK
  5
22E
330
22C
100
AcDbEntity
  8
0
100
AcDbBlockEnd
  0
BLOCK
  5
421
330
420
100
AcDbEntity
  8
0
 62
     7
100
AcDbBlockBegin
  2
therma
 70
     0
 10
0.0
 20
0.0
 30
0.0
  3
therma
  1

  0
HATCH
  5
422
330
420
100
AcDbEntity
  8
eps
 62
   254
100
AcDbHatch
 10
0.0
 20
0.0
 30
0.0
210
0.0
220
0.0
230
1.0
  2
SOLID
 70
     1
 71
     1
 91
       13
 92
        7
 72
     1
 73
     1
 93
        2
 10
5.153274474768295
 20
-2.088877458424576
 42
1.0
 10
-0.8467255252317045
 20
-2.088877458424576
 42
1.0
 97
        1
330
423
 92
        7
 72
     1
 73
     1
 93
        2
 10
11.18338068794492
 20
-3.150707591624268
 42
1.0
 10
7.183380687944918
 20
-3.150707591624268
 42
1.0
 97
        1
330
424
 92
        7
 72
     1
 73
     1
 93
        2
 10
1.50424343474242
 20
-10.22395803436757
 42
1.0
 10
9.50424343474242
 20
-10.22395803436757
 42
1.0
 97
        1
330
425
 92
        7
 72
     1
 73
     1
 93
        2
 10
3.121692185625761
 20
-16.43286101922513
 42
1.0
 10
-0.8783078143742386
 20
-16.43286101922513
 42
1.0
 97
        1
330
426
 92
        7
 72
     1
 73
     1
 93
        2
 10
20.23028334799255
 20
-23.4014379273367
 42
1.0
 10
12.23028334799255
 20
-23.4014379273367
 42
1.0
 97
        1
330
42F
 92
        7
 72
     1
 73
     1
 93
        2
 10
5.872128148083902
 20
-23.17290683493138
 42
1.0
 10
-0.1278718519160975
 20
-23.17290683493138
 42
1.0
 97
        1
330
431
 92
        7
 72
     1
 73
     1
 93
        2
 10
5.625021722852579
 20
-18.32128648862363
 42
1.0
 10
11.62502172285258
 20
-18.32128648862363
 42
1.0
 97
        1
330
42A
 92
        7
 72
     1
 73
     1
 93
        2
 10
18.81562264413605
 20
-2.148910809607514
 42
1.0
 10
12.81562264413605
 20
-2.148910809607514
 42
1.0
 97
        1
330
42C
 92
        7
 72
     1
 73
     1
 93
        2
 10
21.01098252133033
 20
-7.164015699477204
 42
1.0
 10
17.01098252133033
 20
-7.164015699477204
 42
1.0
 97
        1
330
429
 92
        7
 72
     1
 73
     1
 93
        2
 10
26.60587034827131
 20
-3.646358717532166
 42
1.0
 10
20.60587034827131
 20
-3.646358717532166
 42
1.0
 97
        1
330
42E
 92
        7
 72
     1
 73
     1
 93
        2
 10
21.80413181950371
 20
-11.85245936021328
 42
1.0
 10
27.80413181950371
 20
-11.85245936021328
 42
1.0
 97
        1
330
430
 92
        7
 72
     1
 73
     1
 93
        2
 10
24.00715224641408
 20
-19.56290887698651
 42
1.0
 10
20.00715224641408
 20
-19.56290887698651
 42
1.0
 97
        1
330
428
 92
        7
 72
     1
 73
     1
 93
        2
 10
22.40377860212266
 20
-25.5089748094988
 42
1.0
 10
28.40377860212266
 20
-25.5089748094988
 42
1.0
 97
        1
330
42D
 75
     1
 76
     1
 47
0.1543695318342555
 98
       13
 10
3.629268677542313
 20
-2.522538144440659
 10
9.4972407657051
 20
-3.564040262551316
 10
6.236338855102985
 20
-10.02363147243977
 10
1.887609562473699
 20
-16.96595259413243
 10
15.59743406924917
 20
-23.78728337988377
 10
3.820206121295086
 20
-23.42523594603063
 10
7.987802866017773
 20
-17.81103782758236
 10
15.65781158521804
 20
-2.175576020331391
 10
18.73758094779714
 20
-7.427726734728821
 10
24.41461559220716
 20
-4.04707803234578
 10
24.23348304430056
 20
-10.38567890629292
 10
22.36126400144804
 20
-17.69035534963132
 10
25.07928431521668
 20
-24.14963870152951
1001
GradientColor1ACI
1070
     5
1001
GradientColor2ACI
1070
     2
1001
ACAD
1010
0.0
1020
0.0
1030
0.0
  0
CIRCLE
  5
423
102
{ACAD_REACTORS
330
422
102
}
330
420
100
AcDbEntity
  8
eps
 62
   254
100
AcDbCircle
 10
2.153274474768295
 20
-2.088877458424576
 30
0.0
 40
3.0
  0
CIRCLE
  5
424
102
{ACAD_REACTORS
330
422
102
}
330
420
100
AcDbEntity
  8
eps
 62
   254
100
AcDbCircle
 10
9.183380687944918
 20
-3.150707591624268
 30
0.0
 40
2.0
  0
CIRCLE
  5
425
102
{ACAD_REACTORS
330
422
102
}
330
420
100
AcDbEntity
  8
eps
 62
   254
100
AcDbCircle
 10
5.50424343474242
 20
-10.22395803436757
 30
0.0
 40
4.0
  0
CIRCLE
  5
426
102
{ACAD_REACTORS
330
422
102
}
330
420
100
AcDbEntity
  8
eps
 62
   254
100
AcDbCircle
 10
1.121692185625761
 20
-16.43286101922513
 30
0.0
 40
2.0
  0
CIRCLE
  5
427
330
420
100
AcDbEntity
  8
eps
 62
   254
100
AcDbCircle
 10
8.703972890144541
 20
-26.21122040256978
 30
0.0
 40
2.0
  0
CIRCLE
  5
428
102
{ACAD_REACTORS
330
422
102
}
330
420
100
AcDbEntity
  8
eps
 62
   254
100
AcDbCircle
 10
22.00715224641408
 20
-19.56290887698651
 30
0.0
 40
2.0
  0
CIRCLE
  5
429
102
{ACAD_REACTORS
330
422
102
}
330
420
100
AcDbEntity
  8
eps
 62
   254
100
AcDbCircle
 10
19.01098252133033
 20
-7.164015699477204
 30
0.0
 40
2.0
  0
CIRCLE
  5
42A
102
{ACAD_REACTORS
330
422
102
}
330
420
100
AcDbEntity
  8
eps
 62
   254
100
AcDbCircle
 10
8.625021722852579
 20
-18.32128648862363
 30
0.0
 40
3.0
  0
CIRCLE
  5
42B
330
420
100
AcDbEntity
  8
eps
 62
   254
100
AcDbCircle
 10
14.19781484395298
 20
-11.79242597922803
 30
0.0
 40
3.0
  0
CIRCLE
  5
42C
102
{ACAD_REACTORS
330
422
102
}
330
420
100
AcDbEntity
  8
eps
 62
   254
100
AcDbCircle
 10
15.81562264413605
 20
-2.148910809607514
 30
0.0
 40
3.0
  0
CIRCLE
  5
42D
102
{ACAD_REACTORS
330
422
102
}
330
420
100
AcDbEntity
  8
eps
 62
   254
100
AcDbCircle
 10
25.40377860212266
 20
-25.5089748094988
 30
0.0
 40
3.0
  0
CIRCLE
  5
42E
102
{ACAD_REACTORS
330
422
102
}
330
420
100
AcDbEntity
  8
eps
 62
   254
100
AcDbCircle
 10
23.60587034827131
 20
-3.646358717532166
 30
0.0
 40
3.0
  0
CIRCLE
  5
42F
102
{ACAD_REACTORS
330
422
102
}
330
420
100
AcDbEntity
  8
eps
 62
   254
100
AcDbCircle
 10
16.23028334799255
 20
-23.4014379273367
 30
0.0
 40
4.0
  0
CIRCLE
  5
430
102
{ACAD_REACTORS
330
422
102
}
330
420
100
AcDbEntity
  8
eps
 62
   254
100
AcDbCircle
 10
24.80413181950371
 20
-11.85245936021328
 30
0.0
 40
3.0
  0
CIRCLE
  5
431
102
{ACAD_REACTORS
330
422
102
}
330
420
100
AcDbEntity
  8
eps
 62
   254
100
AcDbCircle
 10
2.872128148083902
 20
-23.17290683493138
 30
0.0
 40
3.0
  0
ENDBLK
  5
432
330
420
100
AcDbEntity
  8
0
 62
     7
100
AcDbBlockEnd
  0
BLOCK
  5
48C
330
48B
100
AcDbEntity
  8
0
100
AcDbBlockBegin
  2
*U8
 70
     1
 10
0.0
 20
0.0
 30
0.0
  3
*U8
  1

  0
HATCH
  5
48E
330
48B
100
AcDbEntity
  8
0
 62
    30
100
AcDbHatch
 10
0.0
 20
0.0
 30
0.0
210
0.0
220
0.0
230
1.0
  2
SOLID
 70
     1
 71
     0
 91
        1
 92
        7
 72
     0
 73
     1
 93
        6
 10
10240.54956503833
 20
752.6753702146707
 10
10239.34956503833
 20
752.6753702146707
 10
10239.34956503833
 20
732.6753702146707
 10
10219.34956503833
 20
732.6753702146707
 10
10219.34956503833
 20
731.4753702146706
 10
10240.54956503833
 20
731.4753702146706
 97
        0
 75
     1
 76
     1
 47
0.0876443629352697
 98
        1
 10
10239.86953014327
 20
734.5656153976819
1001
GradientColor1ACI
1070
     5
1001
GradientColor2ACI
1070
     2
1001
ACAD
1010
0.0
1020
0.0
1030
0.0
  0
LINE
  5
48F
102
{ACAD_REACTORS
330
49B
102
}
330
48B
100
AcDbEntity
  8
0
100
AcDbLine
 10
10219.34956503833
 20
732.6753702146707
 30
0.0
 11
10239.34956503833
 21
732.6753702146707
 31
0.0
  0
LINE
  5
490
102
{ACAD_REACTORS
330
49A
102
}
330
48B
100
AcDbEntity
  8
0
100
AcDbLine
 10
10239.34956503833
 20
732.6753702146707
 30
0.0
 11
10239.34956503833
 21
752.6753702146707
 31
0.0
  0
LINE
  5
491
102
{ACAD_REACTORS
330
49C
102
}
330
48B
100
AcDbEntity
  8
0
100
AcDbLine
 10
10239.34956503833
 20
752.6753702146707
 30
0.0
 11
10240.54956503833
 21
752.6753702146707
 31
0.0
  0
LINE
  5
492
102
{ACAD_REACTORS
330
49D
102
}
330
48B
100
AcDbEntity
  8
0
100
AcDbLine
 10
10240.54956503833
 20
752.6753702146707
 30
0.0
 11
10240.54956503833
 21
731.4753702146706
 31
0.0
  0
LINE
  5
493
102
{ACAD_REACTORS
330
49E
102
}
330
48B
100
AcDbEntity
  8
0
100
AcDbLine
 10
10240.54956503833
 20
731.4753702146706
 30
0.0
 11
10219.34956503833
 21
731.4753702146706
 31
0.0
  0
LINE
  5
494
102
{ACAD_REACTORS
330
49F
102
}
330
48B
100
AcDbEntity
  8
0
100
AcDbLine
 10
10219.34956503833
 20
731.4753702146706
 30
0.0
 11
10219.34956503833
 21
732.6753702146707
 31
0.0
  0
ENDBLK
  5
48D
330
48B
100
AcDbEntity
  8
0
100
AcDbBlockEnd
  0
ENDSEC
  0
SECTION
  2
ENTITIES
  0
HATCH
  5
3F
330
1F
100
AcDbEntity
  8
Specialized_Fills
  6
Continuous
 62
   253
100
AcDbHatch
 10
0.0
 20
0.0
 30
0.0
210
0.0
220
0.0
230
1.0
  2
ANSI31
 70
     0
 71
     1
 91
        1
 92
        1
 93
        4
 72
     1
 10
10192.01990918315
 20
745.688492252603
 11
10181.83567504032
 21
745.9584892194884
 72
     1
 10
10181.83567504032
 20
745.9584892194884
 11
10181.83567504032
 21
735.3825202402195
 72
     2
 10
10186.92779211174
 20
728.1102326610049
 40
8.877827600476409
 50
234.9999656980098
 51
305.0000343019902
 73
     0
 72
     1
 10
10192.01990918315
 20
735.3825202402195
 11
10192.01990918315
 21
745.688492252603
 97
        1
330
41
 75
     0
 76
     1
 52
0.0
 41
10.0
 77
     0
 78
     1
 53
45.0
 43
0.0
 44
0.0
 45
-0.8838834764831842
 46
0.8838834764831844
 79
     0
 98
        0
  0
LWPOLYLINE
  5
41
102
{ACAD_REACTORS
330
3F
102
}
330
1F
100
AcDbEntity
  8
Specialized_Fills
  6
Continuous
100
AcDbPolyline
 90
        4
 70
   129
 43
0.0
 10
10192.01990918315
 20
745.688492252603
 10
10181.83567504032
 20
745.9584892194884
 10
10181.83567504032
 20
735.3825202402195
 42
-0.3152991179788672
 10
10192.01990918315
 20
735.3825202402195
  0
HATCH
  5
42
330
1F
100
AcDbEntity
  8
Specialized_Fills
  6
Continuous
100
AcDbHatch
 10
0.0
 20
0.0
 30
0.0
210
0.0
220
0.0
230
1.0
  2
APDCONC
 70
     0
 71
     1
 91
        1
 92
        1
 93
        4
 72
     1
 10
10181.83567504032
 20
752.4514988096682
 11
10181.83567504032
 21
745.9584892194884
 72
     2
 10
10187.02874216268
 20
749.349036420069
 40
6.201915547363181
 50
213.1404707596028
 51
323.991793264998
 73
     1
 72
     1
 10
10192.04567504028
 20
745.7029232898588
 11
10192.04567504028
 21
752.7070647393014
 72
     2
 10
10187.02874216268
 20
749.0609516090873
 40
6.201915547365589
 50
36.00820673504081
 51
146.8595292404037
 73
     1
 97
        1
330
43
 75
     0
 76
     2
 52
0.0
 41
1.0
 77
     0
 78
     5
 53
0.0
 43
0.4467553812519327
 44
-0.8579107211883183
 45
0.5
 46
0.5
 79
     2
 49
0.1
 49
-0.9000000000000001
 53
90.0
 43
0.5467553812518418
 44
-0.8579107211883183
 45
-0.5
 46
0.5
 79
     2
 49
0.1
 49
-0.9000000000000001
 53
44.99999999999999
 43
0.4467553812519327
 44
-0.8579107211883183
 45
0.0
 46
0.9999999997361818
 79
     2
 49
0.1414235625
 49
-0.5656854240000002
 53
7.600000000000001
 43
0.7467553812521146
 44
-0.8579107211883183
 45
0.2147397874986048
 46
0.280867982627166
 79
     2
 49
0.0
 49
-0.4999999999999992
 53
352.4
 43
0.7467553812521146
 44
-0.8579107211883183
 45
0.2808679826271661
 46
0.2147397874986046
 79
     2
 49
0.0
 49
-0.4999999999999992
 98
        0
  0
LWPOLYLINE
  5
43
102
{ACAD_REACTORS
330
42
102
}
330
1F
100
AcDbEntity
  8
Specialized_Fills
  6
Continuous
100
AcDbPolyline
 90
        4
 70
   129
 43
0.0
 10
10181.83567504032
 20
752.4514988096682
 10
10181.83567504032
 20
745.9584892194884
 42
0.5252974329569986
 10
10192.04567504028
 20
745.7029232898588
 10
10192.04567504028
 20
752.7070647393014
 42
0.5252974329568142
  0
HATCH
  5
44
330
1F
100
AcDbEntity
  8
Specialized_Fills
  6
Continuous
 62
   254
370
    13
100
AcDbHatch
 10
0.0
 20
0.0
 30
0.0
210
0.0
220
0.0
230
1.0
  2
SOLID
 70
     1
 71
     1
 91
        1
 92
        1
 93
        4
 72
     1
 10
10185.94777344462
 20
920.8825201402337
 11
10185.94777344462
 21
830.8825201402303
 72
     1
 10
10185.94777344462
 20
830.8825201402303
 11
10140.94777344463
 21
830.8825201402303
 72
     1
 10
10140.94777344463
 20
830.8825201402303
 11
10140.94777344463
 21
920.8825201402337
 72
     1
 10
10140.94777344463
 20
920.8825201402337
 11
10185.94777344462
 21
920.8825201402337
 97
        1
330
45
 75
     0
 76
     1
 98
        0
  0
LWPOLYLINE
  5
45
102
{ACAD_REACTORS
330
44
102
}
330
1F
100
AcDbEntity
  8
Specialized_Fills
  6
Continuous
100
AcDbPolyline
 90
        4
 70
   129
 43
0.0
 10
10185.94777344462
 20
920.8825201402337
 10
10185.94777344462
 20
830.8825201402303
 10
10140.94777344463
 20
830.8825201402303
 10
10140.94777344463
 20
920.8825201402337
  0
HATCH
  5
46
330
1F
100
AcDbEntity
  8
Specialized_Fills
  6
Continuous
 62
   254
370
    13
100
AcDbHatch
 10
0.0
 20
0.0
 30
0.0
210
0.0
220
0.0
230
1.0
  2
SOLID
 70
     1
 71
     1
 91
        1
 92
        1
 93
        4
 72
     1
 10
10230.94777344461
 20
920.8825201402337
 11
10230.94777344461
 21
830.8825201402303
 72
     1
 10
10230.94777344461
 20
830.8825201402303
 11
10185.94777344462
 21
830.8825201402303
 72
     1
 10
10185.94777344462
 20
830.8825201402303
 11
10185.94777344462
 21
920.8825201402337
 72
     1
 10
10185.94777344462
 20
920.8825201402337
 11
10230.94777344461
 21
920.8825201402337
 97
        1
330
47
 75
     0
 76
     1
 98
        0
  0
LWPOLYLINE
  5
47
102
{ACAD_REACTORS
330
46
102
}
330
1F
100
AcDbEntity
  8
Specialized_Fills
  6
Continuous
100
AcDbPolyline
 90
        4
 70
   129
 43
0.0
 10
10230.94777344461
 20
920.8825201402337
 10
10230.94777344461
 20
830.8825201402303
 10
10185.94777344462
 20
830.8825201402303
 10
10185.94777344462
 20
920.8825201402337
  0
HATCH
  5
48
330
1F
100
AcDbEntity
  8
Specialized_Fills
  6
Continuous
100
AcDbHatch
 10
0.0
 20
0.0
 30
0.0
210
0.0
220
0.0
230
1.0
  2
LINES___ANGLED
 70
     0
 71
     1
 91
        1
 92
        1
 93
        4
 72
     1
 10
10179.53125033897
 20
810.6325202402135
 11
10179.53125033897
 21
829.632520240219
 72
     1
 10
10179.53125033897
 20
829.632520240219
 11
10129.53125033899
 21
829.632520240219
 72
     1
 10
10129.53125033899
 20
829.632520240219
 11
10129.53125033899
 21
810.6325202402135
 72
     1
 10
10129.53125033899
 20
810.6325202402135
 11
10179.53125033897
 21
810.6325202402135
 97
        1
330
49
 75
     0
 76
     2
 52
0.0
 41
1.0
 77
     0
 78
     1
 53
44.99999999999999
 43
0.4467553812519327
 44
24.14208927881168
 45
-1.838477563650065
 46
1.838477563650065
 79
     0
 98
        0
  0
LWPOLYLINE
  5
49
102
{ACAD_REACTORS
330
48
102
}
330
1F
100
AcDbEntity
  8
Specialized_Fills
  6
Continuous
100
AcDbPolyline
 90
        4
 70
   129
 43
0.0
 10
10179.53125033897
 20
810.6325202402135
 10
10179.53125033897
 20
829.632520240219
 10
10129.53125033899
 20
829.632520240219
 10
10129.53125033899
 20
810.6325202402135
  0
HATCH
  5
4A
330
1F
100
AcDbEntity
  8
Specialized_Fills
  6
Continuous
100
AcDbHatch
 10
0.0
 20
0.0
 30
0.0
210
0.0
220
0.0
230
1.0
  2
LINES___ANGLED
 70
     0
 71
     1
 91
        1
 92
        1
 93
        4
 72
     1
 10
10194.15990918318
 20
829.632520240219
 11
10194.15990918318
 21
810.6325202402135
 72
     1
 10
10194.15990918318
 20
810.6325202402135
 11
10244.15990918319
 21
810.6325202402135
 72
     1
 10
10244.15990918319
 20
810.6325202402135
 11
10244.15990918319
 21
829.632520240219
 72
     1
 10
10244.15990918319
 20
829.632520240219
 11
10194.15990918318
 21
829.632520240219
 97
        1
330
4B
 75
     0
 76
     2
 52
0.0
 41
1.0
 77
     0
 78
     1
 53
44.99999999999999
 43
0.4467553812519327
 44
24.14208927881168
 45
-1.838477563650065
 46
1.838477563650065
 79
     0
 98
        0
  0
LWPOLYLINE
  5
4B
102
{ACAD_REACTORS
330
4A
102
}
330
1F
100
AcDbEntity
  8
Specialized_Fills
  6
Continuous
100
AcDbPolyline
 90
        4
 70
   129
 43
0.0
 10
10194.15990918318
 20
829.632520240219
 10
10194.15990918318
 20
810.6325202402135
 10
10244.15990918319
 20
810.6325202402135
 10
10244.15990918319
 20
829.632520240219
  0
HATCH
  5
1DC
330
1F
100
AcDbEntity
  8
Specialized_Fills
  6
Continuous
 62
   254
370
    13
100
AcDbHatch
 10
0.0
 20
0.0
 30
0.0
210
0.0
220
0.0
230
1.0
  2
SOLID
 70
     1
 71
     0
 91
        1
 92
        1
 93
        8
 72
     1
 10
10185.95298824035
 20
920.8773220032197
 11
10230.95298824034
 21
920.8773220032197
 72
     1
 10
10230.95298824034
 20
920.8773220032197
 11
10298.2500003758
 21
920.8773220032197
 72
     1
 10
10298.2500003758
 20
920.8773220032197
 11
10298.2500003758
 21
930.8773220032197
 72
     1
 10
10298.2500003758
 20
930.8773220032197
 11
10062.25959376469
 21
930.8773220032197
 72
     1
 10
10062.25959376469
 20
930.8773220032197
 11
10062.25959376469
 21
920.8773220032197
 72
     1
 10
10062.25959376469
 20
920.8773220032197
 11
10092.61877373251
 21
920.8773220032197
 72
     1
 10
10092.61877373251
 20
920.8773220032197
 11
10137.61877311054
 21
920.8773220032197
 72
     1
 10
10137.61877311054
 20
920.8773220032197
 11
10185.95298824035
 21
920.8773220032197
 97
        0
 75
     0
 76
     1
 98
        0
  0
LWPOLYLINE
  5
1DD
330
1F
100
AcDbEntity
  8
Specialized_Fills
  6
Continuous
100
AcDbPolyline
 90
       10
 70
   129
 43
0.0
 10
10185.94777344462
 20
920.8825201402337
 10
10230.94777344461
 20
920.8825201402337
 10
10298.24478558008
 20
920.8825201402337
 10
10298.24478558008
 20
930.8825201402337
 10
10062.25437896897
 20
930.8825201402337
 10
10062.25437896897
 20
920.8825201402337
 10
10092.61355893678
 20
920.8825201402337
 42
-0.037097808905766
 10
10095.94777303871
 20
920.8825201402337
 10
10137.61355831481
 20
920.8825201402337
 42
-0.037097820373835
 10
10140.94777344462
 20
920.8825201402337
  0
LINE
  5
1DF
330
1F
100
AcDbEntity
  8
Specialized_Lines
  6
DASHEDX2
100
AcDbLine
 10
10297.7153201746
 20
732.9450692759255
 30
0.0
 11
10195.8600686658
 21
732.9450692759255
 31
0.0
  0
LINE
  5
1E1
330
1F
100
AcDbEntity
  8
Specialized_Lines
  6
DASHEDX2
100
AcDbLine
 10
10062.25437896897
 20
732.9450692759255
 30
0.0
 11
10177.94521002297
 21
732.9450692759255
 31
0.0
  0
LINE
  5
1E2
330
1F
100
AcDbEntity
  8
Specialized_Lines
  6
Continuous
100
AcDbLine
 10
10062.25437896897
 20
920.8825201402337
 30
0.0
 11
10298.24478558008
 21
920.8825201402337
 31
0.0
  0
LINE
  5
1E3
330
1F
100
AcDbEntity
  8
Specialized_Lines
  6
Continuous
100
AcDbLine
 10
10062.25437896897
 20
830.8825201402019
 30
0.0
 11
10298.24478558008
 21
830.8825201402019
 31
0.0
  0
LINE
  5
1E4
330
1F
100
AcDbEntity
  8
Specialized_Lines
  6
DASHEDX2
100
AcDbLine
 10
10062.25437896897
 20
830.3825202402013
 30
0.0
 11
10298.6138701094
 21
830.3825202402013
 31
0.0
  0
LINE
  5
1E5
330
1F
100
AcDbEntity
  8
Specialized_Lines
  6
Continuous
100
AcDbLine
 10
10185.94777344459
 20
830.8825201402019
 30
0.0
 11
10140.94777344461
 21
920.8825201402337
 31
0.0
  0
LINE
  5
1E6
330
1F
100
AcDbEntity
  8
Specialized_Lines
  6
Continuous
100
AcDbLine
 10
10185.94777344459
 20
920.8825201402337
 30
0.0
 11
10140.94777344461
 21
830.8825201402019
 31
0.0
  0
LINE
  5
1E7
330
1F
100
AcDbEntity
  8
Specialized_Lines
  6
Continuous
100
AcDbLine
 10
10230.94777344461
 20
830.8825201402019
 30
0.0
 11
10185.94777344459
 21
920.8825201402337
 31
0.0
  0
LINE
  5
1E8
330
1F
100
AcDbEntity
  8
Specialized_Lines
  6
Continuous
100
AcDbLine
 10
10230.94777344461
 20
920.8825201402337
 30
0.0
 11
10185.94777344459
 21
830.8825201402019
 31
0.0
  0
LINE
  5
1E9
330
1F
100
AcDbEntity
  8
Specialized_Lines
  6
Continuous
100
AcDbLine
 10
10062.25437896897
 20
930.8825201402337
 30
0.0
 11
10298.24478558008
 21
930.8825201402337
 31
0.0
  0
LINE
  5
1EA
330
1F
100
AcDbEntity
  8
Specialized_Lines
  6
Continuous
100
AcDbLine
 10
10298.24478558008
 20
930.8825201402337
 30
0.0
 11
10062.25437896897
 21
930.8825201402337
 31
0.0
  0
LINE
  5
1EB
330
1F
100
AcDbEntity
  8
Specialized_Lines
  6
Continuous
100
AcDbLine
 10
10062.25437896897
 20
920.8825201402337
 30
0.0
 11
10092.61355893678
 21
920.8825201402337
 31
0.0
  0
LINE
  5
1EC
330
1F
100
AcDbEntity
  8
Specialized_Lines
  6
Continuous
100
AcDbLine
 10
10095.94777303871
 20
920.8825201402337
 30
0.0
 11
10137.61355831481
 21
920.8825201402337
 31
0.0
  0
LINE
  5
1ED
330
1F
100
AcDbEntity
  8
Specialized_Lines
  6
Continuous
100
AcDbLine
 10
10140.94777344462
 20
920.8825201402337
 30
0.0
 11
10298.24478558008
 21
920.8825201402337
 31
0.0
  0
LWPOLYLINE
  5
1EE
330
1F
100
AcDbEntity
  8
Specialized_Lines
  6
Continuous
100
AcDbPolyline
 90
        4
 70
   129
 43
0.0
 10
10185.94777344459
 20
830.8825201402019
 10
10140.94777344461
 20
830.8825201402019
 10
10140.94777344461
 20
920.8825201402337
 10
10185.94777344459
 20
920.8825201402337
  0
LWPOLYLINE
  5
1EF
330
1F
100
AcDbEntity
  8
Specialized_Lines
  6
Continuous
100
AcDbPolyline
 90
        4
 70
   129
 43
0.0
 10
10129.53125033899
 20
810.6325202402135
 10
10179.53125033897
 20
810.6325202402135
 10
10179.53125033897
 20
829.632520240219
 10
10129.53125033899
 20
829.632520240219
  0
LWPOLYLINE
  5
1F0
330
1F
100
AcDbEntity
  8
Specialized_Lines
  6
Continuous
100
AcDbPolyline
 90
        4
 70
   129
 43
0.0
 10
10230.94777344461
 20
830.8825201402019
 10
10185.94777344459
 20
830.8825201402019
 10
10185.94777344459
 20
920.8825201402337
 10
10230.94777344461
 20
920.8825201402337
  0
LWPOLYLINE
  5
1F2
330
1F
100
AcDbEntity
  8
Specialized_Fills
  6
DASHEDX2
 62
   253
370
    20
100
AcDbPolyline
 90
        3
 70
   128
 43
0.0
 10
10062.25437896895
 20
916.8273143462164
 42
-0.3956032889734661
 10
10067.28066609578
 20
884.9443660492397
 10
10061.18111877091
 20
876.7406498660536
  0
LWPOLYLINE
  5
1F3
330
1F
100
AcDbEntity
  8
Specialized_Fills
  6
DASHEDX2
 62
   253
370
    20
100
AcDbPolyline
 90
        8
 70
   128
 43
0.0
 10
10230.94777344461
 20
920.762145424068
 42
-0.6128862266953253
 10
10248.58531665444
 20
884.7812760562403
 10
10235.08531657504
 20
866.7812761158433
 42
1.994375331980298
 10
10271.08531657504
 20
866.7812761158433
 10
10257.5853165464
 20
884.7812760944231
 42
-1.996737409042414
 10
10293.5853165464
 20
884.7812760944231
 10
10280.08531646701
 20
866.7812761540279
 42
0.6229792590641057
 10
10298.24478558008
 20
830.8825201402019
  0
LWPOLYLINE
  5
1F4
330
1F
100
AcDbEntity
  8
Specialized_Fills
  6
DASHEDX2
 62
   253
370
    20
100
AcDbPolyline
 90
        8
 70
   128
 43
0.0
 10
10062.25437896897
 20
833.4612360000381
 42
0.7928472598555344
 10
10089.41820912458
 20
866.8431224269468
 10
10075.91820909594
 20
884.8431224055264
 42
-1.992992474911555
 10
10111.91820909594
 20
884.8431224055264
 10
10098.41820901655
 20
866.8431224651314
 42
1.997811240273883
 10
10134.41820901655
 20
866.8431224651298
 10
10120.91820898791
 20
884.8431224437094
 42
-0.6473512375822335
 10
10140.64473397948
 20
920.6806590542909
  0
LWPOLYLINE
  5
1F7
330
1F
100
AcDbEntity
  8
Specialized_Lines
  6
PLASTER
 48
3.0
100
AcDbPolyline
 90
        3
 70
   128
 43
0.0
 10
10192.80990918318
 20
734.3825202402431
 10
10196.07864941971
 20
731.2137800037394
 10
10298.24478558008
 20
731.2137800036841
  0
LWPOLYLINE
  5
1F8
330
1F
100
AcDbEntity
  8
Specialized_Lines
  6
PLASTER
 48
3.0
100
AcDbPolyline
 90
        3
 70
   128
 43
0.0
 10
10180.80990918319
 20
734.3825202402431
 10
10177.61251010246
 20
731.2137800037394
 10
10062.25437896897
 20
731.2137800036831
  0
LWPOLYLINE
  5
1F9
330
1F
100
AcDbEntity
  8
0
  6
Continuous
100
AcDbPolyline
 90
        6
 70
   128
 43
0.0
 10
10298.24478558008
 20
716.6512211388707
 10
10298.24478558008
 20
872.3500151003392
 10
10303.73974041899
 20
874.3500151003345
 10
10292.74983074117
 20
878.3500151003394
 10
10298.24478558008
 20
880.3500151003348
 10
10298.24478558008
 20
938.6572039753618
  0
LWPOLYLINE
  5
1FA
330
1F
100
AcDbEntity
  8
0
  6
Continuous
100
AcDbPolyline
 90
        6
 70
   128
 43
0.0
 10
10062.25437896897
 20
716.6512211388707
 10
10062.25437896897
 20
872.3500151003392
 10
10067.74933380788
 20
874.3500151003345
 10
10056.75942413006
 20
878.3500151003394
 10
10062.25437896897
 20
880.3500151003348
 10
10062.25437896897
 20
938.6572039753618
  0
ARC
  5
1FB
330
1F
100
AcDbEntity
  8
Specialized_Lines
  6
Continuous
100
AcDbCircle
 10
10094.28066598775
 20
898.4443661321815
 30
0.0
 40
22.50000002685442
100
AcDbArc
 50
85.7508528187828
 51
94.24914718121719
  0
ARC
  5
1FC
330
1F
100
AcDbEntity
  8
Specialized_Lines
  6
Continuous
100
AcDbCircle
 10
10139.28066587972
 20
898.4443661703652
 30
0.0
 40
22.50000002685508
100
AcDbArc
 50
85.75085150644502
 51
94.249148493555
  0
DIMENSION
  5
209
330
1F
100
AcDbEntity
  8
Specialized_Lines
  6
Continuous
100
AcDbDimension
  2
*D3
 10
10192.01990918315
 20
709.7259307376423
 30
0.0
 11
10186.87557976106
 21
709.7259307376423
 31
0.0
 70
   160
  1
<>
 71
     5
 42
10.28865884417792
  3
GENERATED_STYLE__1
100
AcDbAlignedDimension
 13
10181.73125033897
 23
755.6325202402136
 33
0.0
 14
10192.01990918315
 24
755.6325202402136
 34
0.0
100
AcDbRotatedDimension
1001
ACAD
1000
DSTYLE
1002
{
1070
   147
1040
2.0
1002
}
  0
MTEXT
  5
211
102
{ACAD_REACTORS
330
213
102
}
330
1F
100
AcDbEntity
  8
Specialized_Text
  6
Continuous
100
AcDbMText
 10
10324.14776048593
 20
817.4959605217713
 30
0.0
 40
5.5
 41
99.49139050712531
 71
     4
 72
     1
  1
{45mm x 20mm vertical EPS batten}
  7
GENERATED_STYLE_2
 73
     1
 44
1.0
1001
ACAD
1000
MTEXTBEGIN
1070
    73
1070
     1
1070
    44
1040
1.0
1070
    74
1070
     0
1000
MTEXTEND
1000
ACAD_MTEXT_DEFINED_HEIGHT_BEGIN
1070
    46
1040
14.85702129701489
1000
ACAD_MTEXT_DEFINED_HEIGHT_END
  0
LEADER
  5
213
330
1F
100
AcDbEntity
  8
Specialized_Text
  6
Continuous
 62
   251
370
    13
100
AcDbLeader
  3
GENERATED_STYLE__2
 73
     0
 40
14.85425193269668
 41
94.27285129604367
 76
     2
 10
10241.53125033898
 20
817.7466470791269
 30
0.0
 10
10324.05776048594
 20
817.4959605217713
 30
0.0
340
211
  0
MTEXT
  5
21A
102
{ACAD_REACTORS
330
21B
102
}
330
1F
100
AcDbEntity
  8
Specialized_Text
  6
Continuous
100
AcDbMText
 10
10324.14776048593
 20
760.2873886029483
 30
0.0
 40
5.5
 41
102.2564296685259
 71
     4
 72
     1
  1
{PEF backing rod supplied and installed by others}
  7
GENERATED_STYLE_2
 73
     1
 44
1.0
1001
ACAD
1000
MTEXTBEGIN
1070
    73
1070
     1
1070
    44
1040
1.0
1070
    74
1070
     0
1000
MTEXTEND
1000
ACAD_MTEXT_DEFINED_HEIGHT_BEGIN
1070
    46
1040
25.43884027177423
1000
ACAD_MTEXT_DEFINED_HEIGHT_END
  0
LEADER
  5
21B
330
1F
100
AcDbEntity
  8
Specialized_Text
  6
Continuous
 62
   251
370
    13
100
AcDbLeader
  3
GENERATED_STYLE__2
 73
     0
 40
16.27989995452478
 41
101.3785811732605
 76
     2
 10
10192.01990918315
 20
745.6677311854612
 30
0.0
 10
10324.05776048594
 20
760.2873886029483
 30
0.0
340
21A
  0
MTEXT
  5
21E
102
{ACAD_REACTORS
330
21F
102
}
330
1F
100
AcDbEntity
  8
Specialized_Text
  6
Continuous
100
AcDbMText
 10
10324.14776048593
 20
711.5741861651668
 30
0.0
 40
5.5
 41
102.2181805007067
 71
     4
 72
     1
  1
{8-10mm MS sealant and PEF backing rod supplied and installed by others}
  7
GENERATED_STYLE_2
 73
     1
 44
1.0
1001
ACAD
1000
MTEXTBEGIN
1070
    73
1070
     1
1070
    44
1040
1.0
1070
    74
1070
     0
1000
MTEXTEND
1000
ACAD_MTEXT_DEFINED_HEIGHT_BEGIN
1070
    46
1040
43.87955257069183
1000
ACAD_MTEXT_DEFINED_HEIGHT_END
  0
LEADER
  5
21F
330
1F
100
AcDbEntity
  8
Specialized_Text
  6
Continuous
 62
   251
370
    13
100
AcDbLeader
  3
GENERATED_STYLE__2
 73
     0
 40
25.54035925420646
 41
100.0917462482947
 76
     3
 10
10186.36905063431
 20
734.5152048364779
 30
0.0
 10
10186.36905063431
 20
711.5712561735907
 30
0.0
 10
10324.05776048594
 20
711.5741861651668
 30
0.0
340
21E
  0
MTEXT
  5
220
102
{ACAD_REACTORS
330
221
102
}
330
1F
100
AcDbEntity
  8
Specialized_Text
  6
Continuous
100
AcDbMText
 10
10324.14776048593
 20
911.938008829748
 30
0.0
 40
5.5
 41
101.1283428678426
 71
     4
 72
     1
  1
{additional framing will be required with 45mm studs}
  7
GENERATED_STYLE_2
 73
     1
 44
1.0
1001
ACAD
1000
MTEXTBEGIN
1070
    73
1070
     1
1070
    44
1040
1.0
1070
    74
1070
     0
1000
MTEXTEND
1000
ACAD_MTEXT_DEFINED_HEIGHT_BEGIN
1070
    46
1040
24.00854464652177
1000
ACAD_MTEXT_DEFINED_HEIGHT_END
  0
LEADER
  5
221
330
1F
100
AcDbEntity
  8
Specialized_Text
  6
Continuous
 62
   251
370
    13
100
AcDbLeader
  3
GENERATED_STYLE__2
 73
     0
 40
16.29115507048658
 41
87.17837653478856
 76
     2
 10
10218.49567691917
 20
912.686364027999
 30
0.0
 10
10324.05776048594
 20
911.938008829748
 30
0.0
340
220
  0
MTEXT
  5
222
102
{ACAD_REACTORS
330
223
102
}
330
1F
100
AcDbEntity
  8
Specialized_Text
  6
Continuous
100
AcDbMText
 10
10324.14776048593
 20
868.6805983635323
 30
0.0
 40
5.5
 41
101.7821807654318
 71
     4
 72
     1
  1
{cavity insulation minimum R=0.9}
  7
GENERATED_STYLE_2
 73
     1
 44
1.0
1001
ACAD
1000
MTEXTBEGIN
1070
    73
1070
     1
1070
    44
1040
1.0
1070
    74
1070
     0
1000
MTEXTEND
1000
ACAD_MTEXT_DEFINED_HEIGHT_BEGIN
1070
    46
1040
14.79960587443185
1000
ACAD_MTEXT_DEFINED_HEIGHT_END
  0
LEADER
  5
223
330
1F
100
AcDbEntity
  8
Specialized_Text
  6
Continuous
 62
   251
370
    13
100
AcDbLeader
  3
GENERATED_STYLE__2
 73
     0
 40
14.78672123692587
 41
86.74317871759891
 76
     2
 10
10269.91759475232
 20
868.9227580770117
 30
0.0
 10
10324.05776048594
 20
868.6805983635323
 30
0.0
340
222
  0
MTEXT
  5
224
102
{ACAD_REACTORS
330
225
102
}
330
1F
100
AcDbEntity
  8
Specialized_Text
  6
Continuous
100
AcDbMText
 10
10324.14776048593
 20
684.353118466928
 30
0.0
 40
5.5
 41
101.9509003499434
 71
     4
 72
     1
  1
{reinforcing mesh and selected plaster finish}
  7
GENERATED_STYLE_2
 73
     1
 44
1.0
1001
ACAD
1000
MTEXTBEGIN
1070
    73
1070
     1
1070
    44
1040
1.0
1070
    74
1070
     0
1000
MTEXTEND
1000
ACAD_MTEXT_DEFINED_HEIGHT_BEGIN
1070
    46
1040
25.56240959057114
1000
ACAD_MTEXT_DEFINED_HEIGHT_END
  0
LEADER
  5
225
330
1F
100
AcDbEntity
  8
Specialized_Text
  6
Continuous
 62
   251
370
    13
100
AcDbLeader
  3
GENERATED_STYLE__2
 73
     0
 40
16.38494770350159
 41
101.4723738062756
 76
     3
 10
10153.30791150092
 20
750.298769431436
 30
0.0
 10
10153.30791150092
 20
684.3477208567264
 30
0.0
 10
10324.05776048594
 20
684.353118466928
 30
0.0
340
224
  0
MTEXT
  5
22A
102
{ACAD_XDICTIONARY
360
685
102
}
102
{ACAD_REACTORS
330
22B
102
}
330
1F
100
AcDbEntity
  8
Specialized_Text
  6
Continuous
100
AcDbMText
 10
10324.14776048593
 20
658.3875247070935
 30
0.0
 40
5.5
 41
101.7471375814121
 71
     4
 72
     1
  1
{\C30;75mm Neopor\U+00AE EPS}
  7
GENERATED_STYLE_2
 73
     1
 44
1.0
1001
ACAD
1000
MTEXTBEGIN
1070
    73
1070
     1
1070
    44
1040
1.0
1070
    74
1070
     0
1000
MTEXTEND
1000
ACAD_MTEXT_DEFINED_HEIGHT_BEGIN
1070
    46
1040
34.73613561196525
1000
ACAD_MTEXT_DEFINED_HEIGHT_END
  0
LEADER
  5
22B
330
1F
100
AcDbEntity
  8
Specialized_Text
  6
Continuous
 62
   251
370
    13
100
AcDbLeader
  3
GENERATED_STYLE__2
 73
     0
 40
7.124488403819918
 41
71.08731241473397
 76
     3
 10
10101.58706497788
 20
772.7097205885101
 30
0.0
 10
10101.58706497788
 20
658.3917283881504
 30
0.0
 10
10324.05776048594
 20
658.3875247070935
 30
0.0
340
22A
  0
LINE
  5
29A
330
1F
100
AcDbEntity
  8
Viewport
 62
     7
100
AcDbLine
 10
10426.91767296058
 20
1071.492688923596
 30
0.0
 11
10426.91767296058
 21
531.4430732847995
 31
0.0
  0
LINE
  5
29B
330
1F
100
AcDbEntity
  8
Viewport
 62
     7
100
AcDbLine
 10
10426.91767296058
 20
531.4430732847995
 30
0.0
 11
10053.7759458746
 21
531.4430732847995
 31
0.0
  0
MTEXT
  5
29E
330
1F
100
AcDbEntity
  8
Specialized_Lines
 62
    30
100
AcDbMText
 10
10132.07231066508
 20
572.7759399965098
 30
0.0
 40
7.0
 41
63.23088711380842
 71
     1
 72
     5
  1
THERMASHELL
  7
GENERATED_STYLE_2
 73
     1
 44
1.0
1001
ACAD
1000
ACAD_MTEXT_COLUMN_INFO_BEGIN
1070
    75
1070
     2
1070
    79
1070
     0
1070
    76
1070
     1
1070
    78
1070
     0
1070
    48
1040
63.23088711380842
1070
    49
1040
12.5
1070
    50
1070
     1
1040
0.0
1000
ACAD_MTEXT_COLUMN_INFO_END
1000
MTEXTBEGIN
1070
    73
1070
     1
1070
    44
1040
1.0
1070
    74
1070
     0
1000
MTEXTEND
  0
LINE
  5
29F
102
{ACAD_REACTORS
330
450
102
}
330
1F
100
AcDbEntity
  8
Viewport
 62
     7
100
AcDbLine
 10
10053.7759458746
 20
531.4430732847995
 30
0.0
 11
10053.7759458746
 21
1071.492688923596
 31
0.0
  0
LINE
  5
2A0
102
{ACAD_REACTORS
330
44F
102
}
330
1F
100
AcDbEntity
  8
Viewport
 62
     7
100
AcDbLine
 10
10426.91767296058
 20
1071.492688923596
 30
0.0
 11
10053.7759458746
 21
1071.492688923596
 31
0.0
  0
MTEXT
  5
2A1
330
1F
100
AcDbEntity
  8
Specialized_Lines
100
AcDbMText
 10
10130.60534567953
 20
588.3712269756806
 30
0.0
 40
10.0
 41
264.70099038642
 71
     1
 72
     5
  1
{\fArial|b1|i0|c0|p34;Wall: Vertical Control Joint}
 73
     1
 44
1.0
1001
ACAD
1000
ACAD_MTEXT_COLUMN_INFO_BEGIN
1070
    75
1070
     2
1070
    79
1070
     0
1070
    76
1070
     1
1070
    78
1070
     0
1070
    48
1040
264.70099038642
1070
    49
1040
12.5
1070
    50
1070
     1
1040
0.0
1000
ACAD_MTEXT_COLUMN_INFO_END
1000
MTEXTBEGIN
1070
    73
1070
     1
1070
    44
1040
1.0
1070
    74
1070
     0
1000
MTEXTEND
  0
MTEXT
  5
2A2
330
1F
100
AcDbEntity
  8
Specialized_Lines
 62
    30
100
AcDbMText
 10
10101.82049019816
 20
568.8282554560255
 30
0.0
 40
4.0
 41
34.37092666967328
 71
     5
 72
     5
  1
SCALE: 1:2
  7
GENERATED_STYLE_2
 73
     1
 44
1.0
1001
ACAD
1000
ACAD_MTEXT_COLUMN_INFO_BEGIN
1070
    75
1070
     2
1070
    79
1070
     0
1070
    76
1070
     1
1070
    78
1070
     0
1070
    48
1040
34.37092666967328
1070
    49
1040
12.5
1070
    50
1070
     1
1040
0.0
1000
ACAD_MTEXT_COLUMN_INFO_END
1000
MTEXTBEGIN
1070
    73
1070
     1
1070
    44
1040
1.0
1070
    74
1070
     0
1000
MTEXTEND
  0
HATCH
  5
2A3
330
1F
100
AcDbEntity
  8
0
 62
    30
370
     5
100
AcDbHatch
 10
0.0
 20
0.0
 30
0.0
210
0.0
220
0.0
230
1.0
  2
SOLID
 70
     1
 71
     0
 91
        1
 92
        1
 93
        4
 72
     1
 10
10124.97447557967
 20
573.8512149564167
 11
10124.97447557967
 21
593.8512149564167
 72
     1
 10
10124.97447557967
 20
593.8512149564167
 11
10079.97447557968
 21
593.8512149564167
 72
     1
 10
10079.97447557968
 20
593.8512149564167
 11
10079.97447557968
 21
573.8512149564167
 72
     1
 10
10079.97447557968
 20
573.8512149564167
 11
10124.97447557967
 21
573.8512149564167
 97
        0
 75
     1
 76
     1
 98
        1
 10
10110.3896487692
 20
579.9848954595408
1001
GradientColor1ACI
1070
     5
1001
GradientColor2ACI
1070
     2
1001
ACAD
1010
0.0
1020
0.0
1030
0.0
  0
LWPOLYLINE
  5
2A4
330
1F
100
AcDbEntity
  8
0
370
     5
100
AcDbPolyline
 90
        5
 70
     0
 43
0.0
 10
10079.97447557968
 20
593.8512149564167
 10
10079.97447557968
 20
573.8512149564167
 10
10124.97447557967
 20
573.8512149564167
 10
10124.97447557967
 20
593.8512149564167
 10
10079.97447557968
 20
593.8512149564167
  0
MTEXT
  5
2A5
330
1F
100
AcDbEntity
  8
Specialized_Lines
100
AcDbMText
 10
10102.67929066856
 20
583.6563703100282
 30
0.0
 40
10.0
 41
90.34063603881987
 71
     5
 72
     5
  1
{\fArial|b1|i0|c0|p34;17A}
 73
     1
 44
1.0
1001
ACAD
1000
ACAD_MTEXT_COLUMN_INFO_BEGIN
1070
    75
1070
     2
1070
    79
1070
     0
1070
    76
1070
     1
1070
    78
1070
     0
1070
    48
1040
90.34063603881987
1070
    49
1040
12.5
1070
    50
1070
     1
1040
0.0
1000
ACAD_MTEXT_COLUMN_INFO_END
1000
MTEXTBEGIN
1070
    73
1070
     1
1070
    44
1040
1.0
1070
    74
1070
     0
1000
MTEXTEND
  0
LWPOLYLINE
  5
2A6
330
1F
100
AcDbEntity
  8
0
370
     5
100
AcDbPolyline
 90
        4
 70
     0
 43
0.0
 10
10079.97447557968
 20
573.8512149564167
 10
10079.97447557968
 20
563.8512149564166
 10
10124.97447557967
 20
563.8512149564166
 10
10124.97447557967
 20
573.8512149564167
  0
LWPOLYLINE
  5
366
330
1F
100
AcDbEntity
  8
0
100
AcDbPolyline
 90
        4
 70
     1
 43
0.0
 10
10193.21990918315
 20
810.6325202402135
 10
10298.24478558008
 20
810.6325202402135
 10
10298.24478558008
 20
735.6325202402135
 10
10193.21990918315
 20
735.6325202402135
  0
HATCH
  5
3B8
330
1F
100
AcDbEntity
  8
0
 62
    30
100
AcDbHatch
 10
0.0
 20
0.0
 30
0.0
210
0.0
220
0.0
230
1.0
  2
SOLID
 70
     1
 71
     1
 91
        1
 92
        7
 72
     0
 73
     1
 93
        4
 10
10079.89555253952
 20
550.0296142285537
 10
10079.89555253952
 20
545.0296142285537
 10
10084.89555253953
 20
545.0296142285542
 10
10084.89555253952
 20
550.0296142285542
 97
        1
330
3B9
 75
     1
 76
     1
 47
0.0321901215665183
 98
        1
 10
10081.68500066822
 20
548.6066336383105
1001
GradientColor1ACI
1070
     5
1001
GradientColor2ACI
1070
     2
1001
ACAD
1010
0.0
1020
0.0
1030
0.0
  0
LWPOLYLINE
  5
3B9
102
{ACAD_REACTORS
330
3B8
102
}
330
1F
100
AcDbEntity
  8
0
 62
    30
100
AcDbPolyline
 90
        4
 70
     1
 43
0.0
 10
10079.89555253952
 20
550.0296142285537
 10
10084.89555253952
 20
550.0296142285542
 10
10084.89555253953
 20
545.0296142285542
 10
10079.89555253952
 20
545.0296142285537
  0
LINE
  5
3BA
330
1F
100
AcDbEntity
  8
0
 62
    30
100
AcDbLine
 10
10079.89555253952
 20
550.0296142285537
 30
0.0
 11
10084.89555253952
 21
550.0296142285537
 31
0.0
  0
LWPOLYLINE
  5
3BB
330
1F
100
AcDbEntity
  8
0
370
     5
100
AcDbPolyline
 90
        2
 70
     0
 43
0.0
 10
10084.89555253952
 20
547.5296142285538
 10
10406.0496104632
 20
547.5296142285538
  0
MTEXT
  5
3BC
102
{ACAD_XDICTIONARY
360
6A1
102
}
330
1F
100
AcDbEntity
  8
Specialized_Text
  6
Continuous
100
AcDbMText
 10
10088.45923185466
 20
550.0560812621456
 30
0.0
 40
3.0
 41
163.0041735515597
 71
     4
 72
     1
  1
\U+00A9 copyright 2013 Specialized Construction Products Ltd
  7
GENERATED_STYLE_2
 73
     1
 44
1.0
1001
ACAD
1000
MTEXTBEGIN
1070
    73
1070
     1
1070
    44
1040
1.0
1070
    74
1070
     0
1000
MTEXTEND
  0
MTEXT
  5
3BD
330
1F
100
AcDbEntity
  8
Specialized_Text
  6
Continuous
100
AcDbMText
 10
10266.36023252833
 20
550.0560812621456
 30
0.0
 40
3.0
 41
163.0041735515597
 71
     4
 72
     1
  1
All Dimensions to be site checked before construction & installation
  7
GENERATED_STYLE_2
 73
     1
 44
1.0
1001
ACAD
1000
MTEXTBEGIN
1070
    73
1070
     1
1070
    44
1040
1.0
1070
    74
1070
     0
1000
MTEXTEND
  0
MTEXT
  5
3BE
330
1F
100
AcDbEntity
  8
Specialized_Text
  6
Continuous
 62
    30
370
    20
100
AcDbMText
 10
10304.91560631755
 20
536.9321774420322
 30
0.0
 40
5.5
 41
111.9228601720179
 71
     7
 72
     1
  1
{\fArial Unicode MS|b1|i0|c0|p34;web \fArial Unicode MS|b0|i0|c0|p34;\C256;www.specialized.co.nz}
  7
GENERATED_STYLE_2
 73
     1
 44
1.12662050634974
1001
ACAD
1000
MTEXTBEGIN
1070
    73
1070
     1
1070
    44
1040
1.12662050634974
1070
    74
1070
     0
1000
MTEXTEND
  0
MTEXT
  5
4B4
102
{ACAD_REACTORS
330
4B5
102
}
330
1F
100
AcDbEntity
  8
Specialized_Text
  6
Continuous
100
AcDbMText
 10
10324.14776048593
 20
736.5741861651668
 30
0.0
 40
5.5
 41
102.2181805007067
 71
     4
 72
     1
  1
20 x 50mm PVC L BEAD
  7
GENERATED_STYLE_2
 73
     1
 44
1.0
1001
ACAD
1000
MTEXTBEGIN
1070
    73
1070
     1
1070
    44
1040
1.0
1070
    74
1070
     0
1000
MTEXTEND
1000
ACAD_MTEXT_DEFINED_HEIGHT_BEGIN
1070
    46
1040
43.87955257069183
1000
ACAD_MTEXT_DEFINED_HEIGHT_END
  0
LEADER
  5
4B5
330
1F
100
AcDbEntity
  8
Specialized_Text
  6
Continuous
 62
   251
370
    13
100
AcDbLeader
  3
GENERATED_STYLE__2
 73
     0
 40
5.687585266030014
 41
84.78103683492497
 76
     3
 10
10213.21990918315
 20
735.6325202402135
 30
0.0
 10
10315.62981472734
 20
736.5727211693788
 30
0.0
 10
10324.05776048594
 20
736.5741861651668
 30
0.0
340
4B4
  0
LINE
  5
4B8
330
1F
100
AcDbEntity
  8
Specialized_Fills
  6
Continuous
100
AcDbLine
 10
10180.53125033897
 20
755.6325202402136
 30
0.0
 11
10180.53125033897
 21
810.6325202402135
 31
0.0
  0
LINE
  5
4B9
102
{ACAD_REACTORS
330
500
102
}
330
1F
100
AcDbEntity
  8
Specialized_Fills
  6
Continuous
100
AcDbLine
 10
10180.53125033897
 20
810.6325202402135
 30
0.0
 11
10062.25437896897
 21
810.6325202402135
 31
0.0
  0
LINE
  5
4BB
102
{ACAD_REACTORS
330
501
102
}
330
1F
100
AcDbEntity
  8
Specialized_Fills
  6
Continuous
100
AcDbLine
 10
10062.25437896897
 20
735.6325202402135
 30
0.0
 11
10180.53125033897
 21
735.6325202402135
 31
0.0
  0
INSERT
  5
4D5
102
{ACAD_XDICTIONARY
360
4E1
102
}
102
{ACAD_REACTORS
330
4FF
102
}
330
1F
100
AcDbEntity
  8
0
100
AcDbBlockReference
  2
therma
 10
10193.21990918315
 20
751.7923254980651
 30
0.0
1001
BNS_SPRHATCH
1010
-0.8783078243741329
1020
-28.50897481949881
1030
-0.00000001
1010
28.40377861212255
1020
-28.50897481949881
1030
-0.00000001
1010
28.40377861212255
1020
0.9111225515754313
1030
-0.00000001
1010
-0.8783078243741329
1020
0.9111225515754313
1030
-0.00000001
  0
INSERT
  5
4D6
102
{ACAD_XDICTIONARY
360
4E4
102
}
102
{ACAD_REACTORS
330
4FF
102
}
330
1F
100
AcDbEntity
  8
0
100
AcDbBlockReference
  2
therma
 10
10222.50199561965
 20
751.7923254980651
 30
0.0
1001
BNS_SPRHATCH
1010
-0.8783078243741329
1020
-28.50897481949881
1030
-0.00000001
1010
28.40377861212255
1020
-28.50897481949881
1030
-0.00000001
1010
28.40377861212255
1020
0.9111225515754313
1030
-0.00000001
1010
-0.8783078243741329
1020
0.9111225515754313
1030
-0.00000001
  0
INSERT
  5
4D7
102
{ACAD_XDICTIONARY
360
4E7
102
}
102
{ACAD_REACTORS
330
4FF
102
}
330
1F
100
AcDbEntity
  8
0
100
AcDbBlockReference
  2
therma
 10
10251.78408205615
 20
751.7923254980651
 30
0.0
1001
BNS_SPRHATCH
1010
-0.8783078243741329
1020
-28.50897481949881
1030
-0.00000001
1010
28.40377861212255
1020
-28.50897481949881
1030
-0.00000001
1010
28.40377861212255
1020
0.9111225515754313
1030
-0.00000001
1010
-0.8783078243741329
1020
0.9111225515754313
1030
-0.00000001
  0
INSERT
  5
4D8
102
{ACAD_XDICTIONARY
360
4EA
102
}
102
{ACAD_REACTORS
330
4FF
102
}
330
1F
100
AcDbEntity
  8
0
100
AcDbBlockReference
  2
therma
 10
10281.06616849264
 20
751.7923254980651
 30
0.0
1001
BNS_SPRHATCH
1010
-0.8783078243741329
1020
-28.50897481949881
1030
-0.00000001
1010
28.40377861212255
1020
-28.50897481949881
1030
-0.00000001
1010
28.40377861212255
1020
0.9111225515754313
1030
-0.00000001
1010
-0.8783078243741329
1020
0.9111225515754313
1030
-0.00000001
  0
INSERT
  5
4D9
102
{ACAD_XDICTIONARY
360
4ED
102
}
102
{ACAD_REACTORS
330
4FF
102
}
330
1F
100
AcDbEntity
  8
0
100
AcDbBlockReference
  2
therma
 10
10193.21990918315
 20
781.2124228691393
 30
0.0
1001
BNS_SPRHATCH
1010
-0.8783078243741329
1020
-28.50897481949881
1030
-0.00000001
1010
28.40377861212255
1020
-28.50897481949881
1030
-0.00000001
1010
28.40377861212255
1020
0.9111225515754313
1030
-0.00000001
1010
-0.8783078243741329
1020
0.9111225515754313
1030
-0.00000001
  0
INSERT
  5
4DA
102
{ACAD_XDICTIONARY
360
4F0
102
}
102
{ACAD_REACTORS
330
4FF
102
}
330
1F
100
AcDbEntity
  8
0
100
AcDbBlockReference
  2
therma
 10
10281.06616849264
 20
781.2124228691393
 30
0.0
1001
BNS_SPRHATCH
1010
-0.8783078243741329
1020
-28.50897481949881
1030
-0.00000001
1010
28.40377861212255
1020
-28.50897481949881
1030
-0.00000001
1010
28.40377861212255
1020
0.9111225515754313
1030
-0.00000001
1010
-0.8783078243741329
1020
0.9111225515754313
1030
-0.00000001
  0
INSERT
  5
4DB
102
{ACAD_XDICTIONARY
360
4F3
102
}
102
{ACAD_REACTORS
330
4FF
102
}
330
1F
100
AcDbEntity
  8
0
100
AcDbBlockReference
  2
therma
 10
10193.21990918315
 20
810.6325202402135
 30
0.0
1001
BNS_SPRHATCH
1010
-0.8783078243741329
1020
-28.50897481949881
1030
-0.00000001
1010
28.40377861212255
1020
-28.50897481949881
1030
-0.00000001
1010
28.40377861212255
1020
0.9111225515754313
1030
-0.00000001
1010
-0.8783078243741329
1020
0.9111225515754313
1030
-0.00000001
  0
INSERT
  5
4DC
102
{ACAD_XDICTIONARY
360
4F6
102
}
102
{ACAD_REACTORS
330
4FF
102
}
330
1F
100
AcDbEntity
  8
0
100
AcDbBlockReference
  2
therma
 10
10222.50199561965
 20
810.6325202402135
 30
0.0
1001
BNS_SPRHATCH
1010
-0.8783078243741329
1020
-28.50897481949881
1030
-0.00000001
1010
28.40377861212255
1020
-28.50897481949881
1030
-0.00000001
1010
28.40377861212255
1020
0.9111225515754313
1030
-0.00000001
1010
-0.8783078243741329
1020
0.9111225515754313
1030
-0.00000001
  0
INSERT
  5
4DD
102
{ACAD_XDICTIONARY
360
4F9
102
}
102
{ACAD_REACTORS
330
4FF
102
}
330
1F
100
AcDbEntity
  8
0
100
AcDbBlockReference
  2
therma
 10
10251.78408205615
 20
810.6325202402135
 30
0.0
1001
BNS_SPRHATCH
1010
-0.8783078243741329
1020
-28.50897481949881
1030
-0.00000001
1010
28.40377861212255
1020
-28.50897481949881
1030
-0.00000001
1010
28.40377861212255
1020
0.9111225515754313
1030
-0.00000001
1010
-0.8783078243741329
1020
0.9111225515754313
1030
-0.00000001
  0
INSERT
  5
4DE
102
{ACAD_XDICTIONARY
360
4FC
102
}
102
{ACAD_REACTORS
330
4FF
102
}
330
1F
100
AcDbEntity
  8
0
100
AcDbBlockReference
  2
therma
 10
10281.06616849264
 20
810.6325202402135
 30
0.0
1001
BNS_SPRHATCH
1010
-0.8783078243741329
1020
-28.50897481949881
1030
-0.00000001
1010
28.40377861212255
1020
-28.50897481949881
1030
-0.00000001
1010
28.40377861212255
1020
0.9111225515754313
1030
-0.00000001
1010
-0.8783078243741329
1020
0.9111225515754313
1030
-0.00000001
  0
INSERT
  5
4DF
102
{ACAD_REACTORS
330
4FF
102
}
330
1F
100
AcDbEntity
  8
0
100
AcDbBlockReference
  2
therma
 10
10222.50199561965
 20
781.2124228691393
 30
0.0
1001
BNS_SPRHATCH
1010
-0.8783078243741329
1020
-28.50897481949881
1030
-0.00000001
1010
28.40377861212255
1020
-28.50897481949881
1030
-0.00000001
1010
28.40377861212255
1020
0.9111225515754313
1030
-0.00000001
1010
-0.8783078243741329
1020
0.9111225515754313
1030
-0.00000001
  0
INSERT
  5
4E0
102
{ACAD_REACTORS
330
4FF
102
}
330
1F
100
AcDbEntity
  8
0
100
AcDbBlockReference
  2
therma
 10
10251.78408205615
 20
781.2124228691393
 30
0.0
1001
BNS_SPRHATCH
1010
-0.8783078243741329
1020
-28.50897481949881
1030
-0.00000001
1010
28.40377861212255
1020
-28.50897481949881
1030
-0.00000001
1010
28.40377861212255
1020
0.9111225515754313
1030
-0.00000001
1010
-0.8783078243741329
1020
0.9111225515754313
1030
-0.00000001
  0
INSERT
  5
53A
102
{ACAD_XDICTIONARY
360
549
102
}
102
{ACAD_REACTORS
330
56D
102
}
330
1F
100
AcDbEntity
  8
0
100
AcDbBlockReference
  2
therma
 10
10062.25437896897
 20
751.7923254980651
 30
0.0
1001
BNS_SPRHATCH
1010
-0.8783078243741329
1020
-28.50897481949881
1030
-0.00000001
1010
28.40377861212255
1020
-28.50897481949881
1030
-0.00000001
1010
28.40377861212255
1020
0.9111225515754313
1030
-0.00000001
1010
-0.8783078243741329
1020
0.9111225515754313
1030
-0.00000001
  0
INSERT
  5
53B
102
{ACAD_XDICTIONARY
360
54C
102
}
102
{ACAD_REACTORS
330
56D
102
}
330
1F
100
AcDbEntity
  8
0
100
AcDbBlockReference
  2
therma
 10
10091.53646540547
 20
751.7923254980651
 30
0.0
1001
BNS_SPRHATCH
1010
-0.8783078243741329
1020
-28.50897481949881
1030
-0.00000001
1010
28.40377861212255
1020
-28.50897481949881
1030
-0.00000001
1010
28.40377861212255
1020
0.9111225515754313
1030
-0.00000001
1010
-0.8783078243741329
1020
0.9111225515754313
1030
-0.00000001
  0
INSERT
  5
53C
102
{ACAD_XDICTIONARY
360
54F
102
}
102
{ACAD_REACTORS
330
56D
102
}
330
1F
100
AcDbEntity
  8
0
100
AcDbBlockReference
  2
therma
 10
10120.81855184196
 20
751.7923254980651
 30
0.0
1001
BNS_SPRHATCH
1010
-0.8783078243741329
1020
-28.50897481949881
1030
-0.00000001
1010
28.40377861212255
1020
-28.50897481949881
1030
-0.00000001
1010
28.40377861212255
1020
0.9111225515754313
1030
-0.00000001
1010
-0.8783078243741329
1020
0.9111225515754313
1030
-0.00000001
  0
INSERT
  5
53D
102
{ACAD_XDICTIONARY
360
552
102
}
102
{ACAD_REACTORS
330
56D
102
}
330
1F
100
AcDbEntity
  8
0
100
AcDbBlockReference
  2
therma
 10
10150.10063827846
 20
751.7923254980651
 30
0.0
1001
BNS_SPRHATCH
1010
-0.8783078243741329
1020
-28.50897481949881
1030
-0.00000001
1010
28.40377861212255
1020
-28.50897481949881
1030
-0.00000001
1010
28.40377861212255
1020
0.9111225515754313
1030
-0.00000001
1010
-0.8783078243741329
1020
0.9111225515754313
1030
-0.00000001
  0
INSERT
  5
53E
102
{ACAD_XDICTIONARY
360
555
102
}
102
{ACAD_REACTORS
330
56D
102
}
330
1F
100
AcDbEntity
  8
0
100
AcDbBlockReference
  2
therma
 10
10179.38272471496
 20
751.7923254980651
 30
0.0
1001
BNS_SPRHATCH
1010
-0.8783078243741329
1020
-28.50897481949881
1030
-0.00000001
1010
28.40377861212255
1020
-28.50897481949881
1030
-0.00000001
1010
28.40377861212255
1020
0.9111225515754313
1030
-0.00000001
1010
-0.8783078243741329
1020
0.9111225515754313
1030
-0.00000001
  0
INSERT
  5
53F
102
{ACAD_XDICTIONARY
360
558
102
}
102
{ACAD_REACTORS
330
56D
102
}
330
1F
100
AcDbEntity
  8
0
100
AcDbBlockReference
  2
therma
 10
10062.25437896897
 20
781.2124228691393
 30
0.0
1001
BNS_SPRHATCH
1010
-0.8783078243741329
1020
-28.50897481949881
1030
-0.00000001
1010
28.40377861212255
1020
-28.50897481949881
1030
-0.00000001
1010
28.40377861212255
1020
0.9111225515754313
1030
-0.00000001
1010
-0.8783078243741329
1020
0.9111225515754313
1030
-0.00000001
  0
INSERT
  5
540
102
{ACAD_XDICTIONARY
360
55B
102
}
102
{ACAD_REACTORS
330
56D
102
}
330
1F
100
AcDbEntity
  8
0
100
AcDbBlockReference
  2
therma
 10
10179.38272471496
 20
781.2124228691393
 30
0.0
1001
BNS_SPRHATCH
1010
-0.8783078243741329
1020
-28.50897481949881
1030
-0.00000001
1010
28.40377861212255
1020
-28.50897481949881
1030
-0.00000001
1010
28.40377861212255
1020
0.9111225515754313
1030
-0.00000001
1010
-0.8783078243741329
1020
0.9111225515754313
1030
-0.00000001
  0
INSERT
  5
541
102
{ACAD_XDICTIONARY
360
55E
102
}
102
{ACAD_REACTORS
330
56D
102
}
330
1F
100
AcDbEntity
  8
0
100
AcDbBlockReference
  2
therma
 10
10062.25437896897
 20
810.6325202402135
 30
0.0
1001
BNS_SPRHATCH
1010
-0.8783078243741329
1020
-28.50897481949881
1030
-0.00000001
1010
28.40377861212255
1020
-28.50897481949881
1030
-0.00000001
1010
28.40377861212255
1020
0.9111225515754313
1030
-0.00000001
1010
-0.8783078243741329
1020
0.9111225515754313
1030
-0.00000001
  0
INSERT
  5
542
102
{ACAD_XDICTIONARY
360
561
102
}
102
{ACAD_REACTORS
330
56D
102
}
330
1F
100
AcDbEntity
  8
0
100
AcDbBlockReference
  2
therma
 10
10091.53646540547
 20
810.6325202402135
 30
0.0
1001
BNS_SPRHATCH
1010
-0.8783078243741329
1020
-28.50897481949881
1030
-0.00000001
1010
28.40377861212255
1020
-28.50897481949881
1030
-0.00000001
1010
28.40377861212255
1020
0.9111225515754313
1030
-0.00000001
1010
-0.8783078243741329
1020
0.9111225515754313
1030
-0.00000001
  0
INSERT
  5
543
102
{ACAD_XDICTIONARY
360
564
102
}
102
{ACAD_REACTORS
330
56D
102
}
330
1F
100
AcDbEntity
  8
0
100
AcDbBlockReference
  2
therma
 10
10120.81855184196
 20
810.6325202402135
 30
0.0
1001
BNS_SPRHATCH
1010
-0.8783078243741329
1020
-28.50897481949881
1030
-0.00000001
1010
28.40377861212255
1020
-28.50897481949881
1030
-0.00000001
1010
28.40377861212255
1020
0.9111225515754313
1030
-0.00000001
1010
-0.8783078243741329
1020
0.9111225515754313
1030
-0.00000001
  0
INSERT
  5
544
102
{ACAD_XDICTIONARY
360
567
102
}
102
{ACAD_REACTORS
330
56D
102
}
330
1F
100
AcDbEntity
  8
0
100
AcDbBlockReference
  2
therma
 10
10150.10063827846
 20
810.6325202402135
 30
0.0
1001
BNS_SPRHATCH
1010
-0.8783078243741329
1020
-28.50897481949881
1030
-0.00000001
1010
28.40377861212255
1020
-28.50897481949881
1030
-0.00000001
1010
28.40377861212255
1020
0.9111225515754313
1030
-0.00000001
1010
-0.8783078243741329
1020
0.9111225515754313
1030
-0.00000001
  0
INSERT
  5
545
102
{ACAD_XDICTIONARY
360
56A
102
}
102
{ACAD_REACTORS
330
56D
102
}
330
1F
100
AcDbEntity
  8
0
100
AcDbBlockReference
  2
therma
 10
10179.38272471496
 20
810.6325202402135
 30
0.0
1001
BNS_SPRHATCH
1010
-0.8783078243741329
1020
-28.50897481949881
1030
-0.00000001
1010
28.40377861212255
1020
-28.50897481949881
1030
-0.00000001
1010
28.40377861212255
1020
0.9111225515754313
1030
-0.00000001
1010
-0.8783078243741329
1020
0.9111225515754313
1030
-0.00000001
  0
INSERT
  5
546
102
{ACAD_REACTORS
330
56D
102
}
330
1F
100
AcDbEntity
  8
0
100
AcDbBlockReference
  2
therma
 10
10091.53646540547
 20
781.2124228691393
 30
0.0
1001
BNS_SPRHATCH
1010
-0.8783078243741329
1020
-28.50897481949881
1030
-0.00000001
1010
28.40377861212255
1020
-28.50897481949881
1030
-0.00000001
1010
28.40377861212255
1020
0.9111225515754313
1030
-0.00000001
1010
-0.8783078243741329
1020
0.9111225515754313
1030
-0.00000001
  0
INSERT
  5
547
102
{ACAD_REACTORS
330
56D
102
}
330
1F
100
AcDbEntity
  8
0
100
AcDbBlockReference
  2
therma
 10
10120.81855184196
 20
781.2124228691393
 30
0.0
1001
BNS_SPRHATCH
1010
-0.8783078243741329
1020
-28.50897481949881
1030
-0.00000001
1010
28.40377861212255
1020
-28.50897481949881
1030
-0.00000001
1010
28.40377861212255
1020
0.9111225515754313
1030
-0.00000001
1010
-0.8783078243741329
1020
0.9111225515754313
1030
-0.00000001
  0
INSERT
  5
548
102
{ACAD_REACTORS
330
56D
102
}
330
1F
100
AcDbEntity
  8
0
100
AcDbBlockReference
  2
therma
 10
10150.10063827846
 20
781.2124228691393
 30
0.0
1001
BNS_SPRHATCH
1010
-0.8783078243741329
1020
-28.50897481949881
1030
-0.00000001
1010
28.40377861212255
1020
-28.50897481949881
1030
-0.00000001
1010
28.40377861212255
1020
0.9111225515754313
1030
-0.00000001
1010
-0.8783078243741329
1020
0.9111225515754313
1030
-0.00000001
  0
HATCH
  5
5CE
330
1F
100
AcDbEntity
  8
0
 62
    30
100
AcDbHatch
 10
0.0
 20
0.0
 30
0.0
210
0.0
220
0.0
230
1.0
  2
SOLID
 70
     1
 71
     0
 91
        1
 92
        1
 93
        6
 72
     1
 10
10181.73125033897
 20
785.6325202402135
 11
10180.53125033897
 21
785.6325202402135
 72
     1
 10
10180.53125033897
 20
785.6325202402135
 11
10180.53125033897
 21
735.6325202402135
 72
     1
 10
10180.53125033897
 20
735.6325202402135
 11
10160.53125033897
 21
735.6325202402135
 72
     1
 10
10160.53125033897
 20
735.6325202402135
 11
10160.53125033897
 21
734.4325202402135
 72
     1
 10
10160.53125033897
 20
734.4325202402135
 11
10181.73125033897
 21
734.4325202402135
 72
     1
 10
10181.73125033897
 20
734.4325202402135
 11
10181.73125033897
 21
785.6325202402135
 97
        0
 75
     1
 76
     1
 98
        1
 10
10181.05121544391
 20
737.5227654232248
1001
GradientColor1ACI
1070
     5
1001
GradientColor2ACI
1070
     2
1001
ACAD
1010
0.0
1020
0.0
1030
0.0
  0
LINE
  5
5CF
102
{ACAD_REACTORS
330
5D9
102
}
330
1F
100
AcDbEntity
  8
0
100
AcDbLine
 10
10160.53125033897
 20
735.6325202402135
 30
0.0
 11
10180.53125033897
 21
735.6325202402135
 31
0.0
  0
LINE
  5
5D0
102
{ACAD_REACTORS
330
5D8
102
}
330
1F
100
AcDbEntity
  8
0
100
AcDbLine
 10
10180.53125033897
 20
735.6325202402135
 30
0.0
 11
10180.53125033897
 21
785.6325202402141
 31
0.0
  0
LINE
  5
5D1
102
{ACAD_REACTORS
330
5DA
102
}
330
1F
100
AcDbEntity
  8
0
100
AcDbLine
 10
10180.53125033897
 20
785.6325202402141
 30
0.0
 11
10181.73125033897
 21
785.6325202402141
 31
0.0
  0
LINE
  5
5D2
102
{ACAD_REACTORS
330
5DB
102
}
330
1F
100
AcDbEntity
  8
0
100
AcDbLine
 10
10181.73125033897
 20
785.6325202402141
 30
0.0
 11
10181.73125033897
 21
734.4325202402135
 31
0.0
  0
LINE
  5
5D3
102
{ACAD_REACTORS
330
5DC
102
}
330
1F
100
AcDbEntity
  8
0
100
AcDbLine
 10
10181.73125033897
 20
734.4325202402135
 30
0.0
 11
10160.53125033897
 21
734.4325202402135
 31
0.0
  0
LINE
  5
5D4
102
{ACAD_REACTORS
330
5DD
102
}
330
1F
100
AcDbEntity
  8
0
100
AcDbLine
 10
10160.53125033897
 20
734.4325202402135
 30
0.0
 11
10160.53125033897
 21
735.6325202402135
 31
0.0
  0
HATCH
  5
5E6
330
1F
100
AcDbEntity
  8
0
 62
    30
100
AcDbHatch
 10
0.0
 20
0.0
 30
0.0
210
0.0
220
0.0
230
1.0
  2
SOLID
 70
     1
 71
     0
 91
        1
 92
        1
 93
        6
 72
     1
 10
10192.01990918315
 20
785.6325202402135
 11
10193.21990918315
 21
785.6325202402135
 72
     1
 10
10193.21990918315
 20
785.6325202402135
 11
10193.21990918315
 21
735.6325202402135
 72
     1
 10
10193.21990918315
 20
735.6325202402135
 11
10213.21990918315
 21
735.6325202402135
 72
     1
 10
10213.21990918315
 20
735.6325202402135
 11
10213.21990918315
 21
734.4325202402135
 72
     1
 10
10213.21990918315
 20
734.4325202402135
 11
10192.01990918315
 21
734.4325202402135
 72
     1
 10
10192.01990918315
 20
734.4325202402135
 11
10192.01990918315
 21
785.6325202402135
 97
        0
 75
     1
 76
     1
 98
        1
 10
10192.69994407821
 20
737.5227654232248
1001
GradientColor1ACI
1070
     5
1001
GradientColor2ACI
1070
     2
1001
ACAD
1010
0.0
1020
0.0
1030
0.0
  0
LINE
  5
5E7
330
1F
100
AcDbEntity
  8
0
100
AcDbLine
 10
10213.21990918315
 20
735.6325202402135
 30
0.0
 11
10193.21990918315
 21
735.6325202402135
 31
0.0
  0
LINE
  5
5E8
330
1F
100
AcDbEntity
  8
0
100
AcDbLine
 10
10193.21990918315
 20
735.6325202402135
 30
0.0
 11
10193.21990918315
 21
755.6325202402136
 31
0.0
  0
LINE
  5
5E9
102
{ACAD_REACTORS
330
5EE
102
}
330
1F
100
AcDbEntity
  8
0
100
AcDbLine
 10
10193.21990918315
 20
785.6325202402135
 30
0.0
 11
10192.01990918315
 21
785.6325202402135
 31
0.0
  0
LINE
  5
5EA
102
{ACAD_REACTORS
330
5ED
102
}
330
1F
100
AcDbEntity
  8
0
100
AcDbLine
 10
10192.01990918315
 20
785.6325202402135
 30
0.0
 11
10192.01990918315
 21
734.4325202402135
 31
0.0
  0
LINE
  5
5EB
330
1F
100
AcDbEntity
  8
0
100
AcDbLine
 10
10192.01990918315
 20
734.4325202402135
 30
0.0
 11
10213.21990918315
 21
734.4325202402135
 31
0.0
  0
LINE
  5
5EC
330
1F
100
AcDbEntity
  8
0
100
AcDbLine
 10
10213.21990918315
 20
734.4325202402135
 30
0.0
 11
10213.21990918315
 21
735.6325202402135
 31
0.0
  0
ENDSEC
  0
SECTION
  2
OBJECTS
  0
DICTIONARY
  5
C
330
0
100
AcDbDictionary
281
     1
  3
ACAD_2007HEADERVARS_RT
350
64E
  3
ACAD_ASSOCNETWORK
350
44C
  3
ACAD_CIP_PREVIOUS_PRODUCT_INFO
350
26E
  3
ACAD_COLOR
350
261
  3
ACAD_DETAILVIEWSTYLE
350
266
  3
ACAD_GROUP
350
D
  3
ACAD_IMAGE_DICT
350
294
  3
ACAD_IMAGE_VARS
350
299
  3
ACAD_LAYOUT
350
1A
  3
ACAD_MATERIAL
350
3B
  3
ACAD_MLEADERSTYLE
350
254
  3
ACAD_MLINESTYLE
350
17
  3
ACAD_PDFDEFINITIONS
350
43D
  3
ACAD_PLOTSETTINGS
350
19
  3
ACAD_PLOTSTYLENAME
350
E
  3
ACAD_SCALELIST
350
107
  3
ACAD_SECTIONVIEWSTYLE
350
264
  3
ACAD_TABLESTYLE
350
253
  3
ACAD_VISUALSTYLE
350
2A
  3
ACDB_RECOMPOSE_DATA
350
64C
  3
AcDbVariableDictionary
350
231
  3
AcDsDecomposeData
350
655
  3
DWGPROPS
350
64D
  3
WATERMARKS
350
22F
  0
DICTIONARY
  5
27E
330
2
100
AcDbDictionary
280
     1
281
     1
  3
ACAD_LAYERSTATES
360
27F
  0
DICTIONARY
  5
2A9
330
10
100
AcDbDictionary
280
     1
281
     1
  3
ADSK_XREC_LAYER_RECONCILED
360
2AA
  0
DICTIONARY
  5
2AB
330
40
100
AcDbDictionary
280
     1
281
     1
  3
ADSK_XREC_LAYER_RECONCILED
360
2AC
  0
DICTIONARY
  5
2AD
330
1E0
100
AcDbDictionary
280
     1
281
     1
  3
ADSK_XREC_LAYER_RECONCILED
360
2AE
  0
DICTIONARY
  5
2AF
330
212
100
AcDbDictionary
280
     1
281
     1
  3
ADSK_XREC_LAYER_RECONCILED
360
2B0
  0
DICTIONARY
  5
276
330
275
100
AcDbDictionary
280
     1
281
     1
  3
ADSK_XREC_LAYER_RECONCILED
360
2B1
  0
DICTIONARY
  5
36A
330
1F
100
AcDbDictionary
280
     1
281
     1
  3
ACAD_ASSOCNETWORK
360
44A
  3
ACAD_SORTENTS
360
36B
  0
DICTIONARY
  5
2FA
330
4C
100
AcDbDictionary
280
     1
281
     1
  3
ACAD_SORTENTS
360
304
  0
DICTIONARY
  5
2E1
330
12E
100
AcDbDictionary
280
     1
281
     1
  3
ACAD_SORTENTS
360
2EC
  0
DICTIONARY
  5
6A3
330
420
100
AcDbDictionary
280
     1
281
     1
  3
AcDbBlockTableRecordData
360
6A4
  0
DICTIONARY
  5
4A0
330
48B
100
AcDbDictionary
280
     1
281
     1
  3
ACAD_ASSOCNETWORK
360
4A1
  3
AcDbDynamicBlockRoundTripPurgePreventer
360
4A6
  0
DICTIONARY
  5
685
330
22A
100
AcDbDictionary
280
     1
281
     1
  3
ACAD_MTEXT_RT
360
686
  0
DICTIONARY
  5
6A1
330
3BC
100
AcDbDictionary
280
     1
281
     1
  3
ACAD_MTEXT_RT
360
6A2
  0
DICTIONARY
  5
4E1
330
4D5
100
AcDbDictionary
280
     1
281
     1
  3
ACAD_FILTER
360
4E2
  0
DICTIONARY
  5
4E4
330
4D6
100
AcDbDictionary
280
     1
281
     1
  3
ACAD_FILTER
360
4E5
  0
DICTIONARY
  5
4E7
330
4D7
100
AcDbDictionary
280
     1
281
     1
  3
ACAD_FILTER
360
4E8
  0
DICTIONARY
  5
4EA
330
4D8
100
AcDbDictionary
280
     1
281
     1
  3
ACAD_FILTER
360
4EB
  0
DICTIONARY
  5
4ED
330
4D9
100
AcDbDictionary
280
     1
281
     1
  3
ACAD_FILTER
360
4EE
  0
DICTIONARY
  5
4F0
330
4DA
100
AcDbDictionary
280
     1
281
     1
  3
ACAD_FILTER
360
4F1
  0
DICTIONARY
  5
4F3
330
4DB
100
AcDbDictionary
280
     1
281
     1
  3
ACAD_FILTER
360
4F4
  0
DICTIONARY
  5
4F6
330
4DC
100
AcDbDictionary
280
     1
281
     1
  3
ACAD_FILTER
360
4F7
  0
DICTIONARY
  5
4F9
330
4DD
100
AcDbDictionary
280
     1
281
     1
  3
ACAD_FILTER
360
4FA
  0
DICTIONARY
  5
4FC
330
4DE
100
AcDbDictionary
280
     1
281
     1
  3
ACAD_FILTER
360
4FD
  0
DICTIONARY
  5
549
330
53A
100
AcDbDictionary
280
     1
281
     1
  3
ACAD_FILTER
360
54A
  0
DICTIONARY
  5
54C
330
53B
100
AcDbDictionary
280
     1
281
     1
  3
ACAD_FILTER
360
54D
  0
DICTIONARY
  5
54F
330
53C
100
AcDbDictionary
280
     1
281
     1
  3
ACAD_FILTER
360
550
  0
DICTIONARY
  5
552
330
53D
100
AcDbDictionary
280
     1
281
     1
  3
ACAD_FILTER
360
553
  0
DICTIONARY
  5
555
330
53E
100
AcDbDictionary
280
     1
281
     1
  3
ACAD_FILTER
360
556
  0
DICTIONARY
  5
558
330
53F
100
AcDbDictionary
280
     1
281
     1
  3
ACAD_FILTER
360
559
  0
DICTIONARY
  5
55B
330
540
100
AcDbDictionary
280
     1
281
     1
  3
ACAD_FILTER
360
55C
  0
DICTIONARY
  5
55E
330
541
100
AcDbDictionary
280
     1
281
     1
  3
ACAD_FILTER
360
55F
  0
DICTIONARY
  5
561
330
542
100
AcDbDictionary
280
     1
281
     1
  3
ACAD_FILTER
360
562
  0
DICTIONARY
  5
564
330
543
100
AcDbDictionary
280
     1
281
     1
  3
ACAD_FILTER
360
565
  0
DICTIONARY
  5
567
330
544
100
AcDbDictionary
280
     1
281
     1
  3
ACAD_FILTER
360
568
  0
DICTIONARY
  5
56A
330
545
100
AcDbDictionary
280
     1
281
     1
  3
ACAD_FILTER
360
56B
  0
DICTIONARY
  5
64E
102
{ACAD_REACTORS
330
C
102
}
330
C
100
AcDbDictionary
281
     1
  3
INTERFERECOLOR
350
64F
  0
DICTIONARY
  5
44C
102
{ACAD_REACTORS
330
C
102
}
330
C
100
AcDbDictionary
281
     1
  3
ACAD_ASSOCNETWORK
350
44D
  0
XRECORD
  5
26E
102
{ACAD_REACTORS
330
C
102
}
330
C
100
AcDbXrecord
280
     1
300
ACD
300
2014
300
BDSPRM_F_S
  0
DICTIONARY
  5
261
102
{ACAD_REACTORS
330
C
102
}
330
C
100
AcDbDictionary
281
     1
  0
DICTIONARY
  5
266
102
{ACAD_REACTORS
330
C
102
}
330
C
100
AcDbDictionary
281
     1
  3
Imperial24
350
267
  3
Metric50
350
43A
  0
DICTIONARY
  5
D
102
{ACAD_REACTORS
330
C
102
}
330
C
100
AcDbDictionary
281
     1
  3
*A1
350
4FF
  3
*A2
350
56D
  0
DICTIONARY
  5
294
102
{ACAD_REACTORS
330
C
102
}
330
C
100
AcDbDictionary
281
     1
  0
RASTERVARIABLES
  5
299
102
{ACAD_REACTORS
330
C
102
}
330
C
100
AcDbRasterVariables
 90
        0
 70
     1
 71
     1
 72
     0
  0
DICTIONARY
  5
1A
102
{ACAD_REACTORS
330
C
102
}
330
C
100
AcDbDictionary
281
     1
  3
Layout1
350
1E
  3
Layout2
350
26
  3
Model
350
22
  0
DICTIONARY
  5
3B
102
{ACAD_REACTORS
330
C
102
}
330
C
100
AcDbDictionary
281
     1
  3
ByBlock
350
3D
  3
ByLayer
350
3C
  3
Global
350
3E
  0
DICTIONARY
  5
254
102
{ACAD_REACTORS
330
C
102
}
330
C
100
AcDbDictionary
281
     1
  3
Standard
350
263
  0
DICTIONARY
  5
17
102
{ACAD_REACTORS
330
C
102
}
330
C
100
AcDbDictionary
281
     1
  3
Standard
350
18
  0
DICTIONARY
  5
43D
102
{ACAD_REACTORS
330
C
102
}
330
C
100
AcDbDictionary
281
     1
  0
DICTIONARY
  5
19
102
{ACAD_REACTORS
330
C
102
}
330
C
100
AcDbDictionary
281
     1
  0
ACDBDICTIONARYWDFLT
  5
E
102
{ACAD_REACTORS
330
C
102
}
330
C
100
AcDbDictionary
281
     1
  3
Normal
350
F
100
AcDbDictionaryWithDefault
340
F
  0
DICTIONARY
  5
107
102
{ACAD_REACTORS
330
C
102
}
330
C
100
AcDbDictionary
281
     1
  3
A0
350
108
  3
A1
350
109
  3
A2
350
10A
  3
A3
350
10B
  3
A4
350
10C
  3
A5
350
10D
  3
A6
350
10E
  3
A7
350
10F
  3
A8
350
110
  3
A9
350
111
  3
B0
350
112
  3
B1
350
113
  3
B2
350
114
  3
B3
350
115
  3
B4
350
116
  3
B5
350
117
  3
B6
350
118
  3
B7
350
119
  3
B8
350
11A
  3
B9
350
11B
  3
C0
350
11C
  3
C1
350
11D
  3
C2
350
11E
  3
C3
350
11F
  3
C4
350
120
  3
C5
350
121
  3
C6
350
122
  3
C7
350
123
  3
C8
350
124
  3
C9
350
125
  3
D0
350
126
  3
D1
350
127
  3
D2
350
128
  0
DICTIONARY
  5
264
102
{ACAD_REACTORS
330
C
102
}
330
C
100
AcDbDictionary
281
     1
  3
Imperial24
350
265
  3
Metric50
350
439
  0
DICTIONARY
  5
253
102
{ACAD_REACTORS
330
C
102
}
330
C
100
AcDbDictionary
281
     1
  3
Standard
350
262
  0
DICTIONARY
  5
2A
102
{ACAD_REACTORS
330
C
102
}
330
C
100
AcDbDictionary
281
     1
  3
2dWireframe
350
2F
  3
3D Hidden
350
31
  3
3dWireframe
350
30
  3
Basic
350
32
  3
Brighten
350
36
  3
ColorChange
350
3A
  3
Conceptual
350
34
  3
Dim
350
35
  3
EdgeColorOff
350
260
  3
Facepattern
350
39
  3
Flat
350
2B
  3
FlatWithEdges
350
2C
  3
Gouraud
350
2D
  3
GouraudWithEdges
350
2E
  3
Hidden
350
258
  3
JitterOff
350
25E
  3
Linepattern
350
38
  3
OverhangOff
350
25F
  3
Realistic
350
33
  3
Shaded
350
25D
  3
Shaded with edges
350
25C
  3
Shades of Gray
350
259
  3
Sketchy
350
25A
  3
Thicken
350
37
  3
Wireframe
350
257
  3
X-Ray
350
25B
  0
XRECORD
  5
64C
102
{ACAD_REACTORS
330
C
102
}
330
C
100
AcDbXrecord
280
     1
 90
        1
330
262
330
29E
330
2A1
330
2A2
330
2A5
  0
DICTIONARY
  5
231
102
{ACAD_REACTORS
330
C
102
}
330
C
100
AcDbDictionary
281
     1
  3
CANNOSCALE
350
232
  3
CMLEADERSTYLE
350
315
  3
CTABLESTYLE
350
314
  3
CVIEWDETAILSTYLE
350
316
  3
CVIEWSECTIONSTYLE
350
317
  3
DGNFRAME
350
649
  3
DIMASSOC
350
647
  3
HIDETEXT
350
645
  3
HPCOLOR
350
2E7
  3
INDEXCTL
350
644
  3
LAYEREVAL
350
318
  3
LAYERNOTIFY
350
319
  3
LIGHTINGUNITS
350
642
  3
MSLTSCALE
350
641
  3
SOLIDHIST
350
648
  3
SORTENTS
350
643
  3
XCLIPFRAME
350
646
  0
DICTIONARY
  5
655
102
{ACAD_REACTORS
330
C
102
}
330
C
100
AcDbDictionary
281
     1
  3
AcDsRecords
350
657
  3
AcDsSchemas
350
656
1001
ACAD
1070
     2
  0
XRECORD
  5
64D
102
{ACAD_REACTORS
330
C
102
}
330
C
100
AcDbXrecord
280
     1
  1
DWGPROPS COOKIE
  2

  3

  4

  6

  7

  8
Hayden
  9

300
=
301
=
302
=
303
=
304
=
305
=
306
=
307
=
308
=
309
=
 40
0.0585922569444445
 41
2456216.552893009
 42
2457071.449882361
  1

 90
        0
  0
DICTIONARY
  5
22F
102
{ACAD_REACTORS
330
C
102
}
330
C
100
AcDbDictionary
281
     1
  3
AC_WATERMARK
350
230
  0
DICTIONARY
  5
27F
102
{ACAD_REACTORS
330
27E
102
}
330
27E
100
AcDbDictionary
281
     1
  0
XRECORD
  5
2AA
102
{ACAD_REACTORS
330
2A9
102
}
330
2A9
100
AcDbXrecord
280
     1
290
     1
  0
XRECORD
  5
2AC
102
{ACAD_REACTORS
330
2AB
102
}
330
2AB
100
AcDbXrecord
280
     1
290
     1
  0
XRECORD
  5
2AE
102
{ACAD_REACTORS
330
2AD
102
}
330
2AD
100
AcDbXrecord
280
     1
290
     1
  0
XRECORD
  5
2B0
102
{ACAD_REACTORS
330
2AF
102
}
330
2AF
100
AcDbXrecord
280
     1
290
     1
  0
XRECORD
  5
2B1
102
{ACAD_REACTORS
330
276
102
}
330
276
100
AcDbXrecord
280
     1
290
     1
  0
DICTIONARY
  5
44A
102
{ACAD_REACTORS
330
36A
102
}
330
36A
100
AcDbDictionary
281
     1
  3
ACAD_ASSOCNETWORK
350
44B
  0
SORTENTSTABLE
  5
36B
102
{ACAD_REACTORS
330
36A
102
}
330
36A
100
AcDbSortentsTable
330
1F
331
22A
  5
4B8
331
48
  5
211
331
1EB
  5
2A4
331
222
  5
4A8
331
5D2
  5
5D1
331
3BE
  5
543
331
1E3
  5
226
331
4E0
  5
1F3
331
4B8
  5
21C
331
2A4
  5
4DC
331
1EA
  5
2A3
331
4DF
  5
1F2
331
5D1
  5
5D0
331
1E2
  5
225
331
221
  5
4A7
331
47
  5
209
331
4D7
  5
1E8
331
3F
  5
1F4
331
3BD
  5
542
331
209
  5
3BB
331
5EC
  5
5EC
331
2A3
  5
4DB
331
1E9
  5
2A0
331
4DE
  5
1EF
331
220
  5
449
331
46
  5
1FC
331
1E1
  5
224
331
4D6
  5
1E7
331
3BC
  5
541
331
5D0
  5
5CF
331
5EB
  5
5EB
331
2A2
  5
4D9
331
1E8
  5
29F
331
45
  5
1FB
331
21F
  5
448
331
548
  5
1E5
331
3BB
  5
540
331
5CF
  5
5CE
331
4D5
  5
1E6
331
4DD
  5
1EE
331
1F7
  5
3B3
331
5EA
  5
5EA
331
2A1
  5
4D8
331
44
  5
1FA
331
21E
  5
447
331
547
  5
1E4
331
1DF
  5
223
331
53F
  5
46
331
3BA
  5
53F
331
5CE
  5
548
331
4DC
  5
1ED
331
5E9
  5
5E9
331
2A0
  5
4D7
331
43
  5
1F9
331
4DB
  5
1EC
331
3B9
  5
53E
331
53E
  5
45
331
546
  5
1E3
331
5E8
  5
5E8
331
29F
  5
4D6
331
42
  5
1F8
331
4DA
  5
1EB
331
3B8
  5
53D
331
53D
  5
44
331
545
  5
1E2
331
1DD
  5
222
331
5E7
  5
5E7
331
29E
  5
4D5
331
1F4
  5
370
331
1FC
  5
3BA
331
41
  5
1F7
331
21B
  5
4E0
331
4D9
  5
1EA
331
213
  5
3BD
331
53C
  5
43
331
544
  5
1DD
331
1DC
  5
221
331
1FB
  5
3B9
331
1F3
  5
36F
331
5E6
  5
3F
331
4D8
  5
1E9
331
53B
  5
42
331
543
  5
1DC
331
21A
  5
3BE
331
1F2
  5
36E
331
366
  5
4DF
331
1FA
  5
3B8
331
542
  5
49
331
53A
  5
41
331
211
  5
3BC
331
1F9
  5
3B6
331
29B
  5
4BB
331
541
  5
48
331
1F8
  5
3B4
331
1F0
  5
36D
331
29A
  5
4BA
331
540
  5
47
331
4B5
  5
5E6
331
1E7
  5
29E
331
1EF
  5
368
331
4B4
  5
5D4
331
1EE
  5
366
331
1E6
  5
29C
331
225
  5
4B7
331
4B
  5
21B
331
4BB
  5
220
331
224
  5
4B5
331
4A
  5
21A
331
5D4
  5
5D3
331
1E5
  5
229
331
1ED
  5
2A6
331
2A6
  5
4DE
331
22B
  5
4B9
331
223
  5
4B4
331
49
  5
213
331
5D3
  5
5D2
331
1E4
  5
227
331
1EC
  5
2A5
331
2A5
  5
4DD
331
4B9
  5
21D
  0
SORTENTSTABLE
  5
304
102
{ACAD_REACTORS
330
2FA
102
}
330
2FA
100
AcDbSortentsTable
330
4C
331
306
  5
2F7
331
2F8
  5
2FE
331
2F9
  5
300
331
2F6
  5
2F8
331
2F7
  5
2F9
  0
SORTENTSTABLE
  5
2EC
102
{ACAD_REACTORS
330
2E1
102
}
330
2E1
100
AcDbSortentsTable
330
12E
331
2DC
  5
2DE
331
2EE
  5
2DD
331
2DD
  5
2DF
331
2DE
  5
2E5
331
2DF
  5
2E8
  0
DICTIONARY
  5
6A4
102
{ACAD_REACTORS
330
6A3
102
}
330
6A3
100
AcDbDictionary
280
     1
281
     1
  3
Edit
360
6A5
  0
DICTIONARY
  5
4A1
102
{ACAD_REACTORS
330
4A0
102
}
330
4A0
100
AcDbDictionary
281
     1
  3
ACAD_ASSOCNETWORK
350
4A2
  0
ACDB_DYNAMICBLOCKPURGEPREVENTER_VERSION
  5
4A6
102
{ACAD_REACTORS
330
4A0
102
}
330
4A0
100
AcDbDynamicBlockPurgePreventer
 70
     1
  0
XRECORD
  5
686
102
{ACAD_REACTORS
330
685
102
}
330
685
100
AcDbXrecord
280
     1
 40
33784.0
  1
{\C30;\c30975;75mm Neopor® EPS}
  0
XRECORD
  5
6A2
102
{ACAD_REACTORS
330
6A1
102
}
330
6A1
100
AcDbXrecord
280
     1
 40
173389.0
  1
© copyright 2013 Specialized Construction Products Ltd
  0
DICTIONARY
  5
4E2
102
{ACAD_REACTORS
330
4E1
102
}
330
4E1
100
AcDbDictionary
280
     1
281
     1
  3
SPATIAL
360
4E3
  0
DICTIONARY
  5
4E5
102
{ACAD_REACTORS
330
4E4
102
}
330
4E4
100
AcDbDictionary
280
     1
281
     1
  3
SPATIAL
360
4E6
  0
DICTIONARY
  5
4E8
102
{ACAD_REACTORS
330
4E7
102
}
330
4E7
100
AcDbDictionary
280
     1
281
     1
  3
SPATIAL
360
4E9
  0
DICTIONARY
  5
4EB
102
{ACAD_REACTORS
330
4EA
102
}
330
4EA
100
AcDbDictionary
280
     1
281
     1
  3
SPATIAL
360
4EC
  0
DICTIONARY
  5
4EE
102
{ACAD_REACTORS
330
4ED
102
}
330
4ED
100
AcDbDictionary
280
     1
281
     1
  3
SPATIAL
360
4EF
  0
DICTIONARY
  5
4F1
102
{ACAD_REACTORS
330
4F0
102
}
330
4F0
100
AcDbDictionary
280
     1
281
     1
  3
SPATIAL
360
4F2
  0
DICTIONARY
  5
4F4
102
{ACAD_REACTORS
330
4F3
102
}
330
4F3
100
AcDbDictionary
280
     1
281
     1
  3
SPATIAL
360
4F5
  0
DICTIONARY
  5
4F7
102
{ACAD_REACTORS
330
4F6
102
}
330
4F6
100
AcDbDictionary
280
     1
281
     1
  3
SPATIAL
360
4F8
  0
DICTIONARY
  5
4FA
102
{ACAD_REACTORS
330
4F9
102
}
330
4F9
100
AcDbDictionary
280
     1
281
     1
  3
SPATIAL
360
4FB
  0
DICTIONARY
  5
4FD
102
{ACAD_REACTORS
330
4FC
102
}
330
4FC
100
AcDbDictionary
280
     1
281
     1
  3
SPATIAL
360
4FE
  0
DICTIONARY
  5
54A
102
{ACAD_REACTORS
330
549
102
}
330
549
100
AcDbDictionary
280
     1
281
     1
  3
SPATIAL
360
54B
  0
DICTIONARY
  5
54D
102
{ACAD_REACTORS
330
54C
102
}
330
54C
100
AcDbDictionary
280
     1
281
     1
  3
SPATIAL
360
54E
  0
DICTIONARY
  5
550
102
{ACAD_REACTORS
330
54F
102
}
330
54F
100
AcDbDictionary
280
     1
281
     1
  3
SPATIAL
360
551
  0
DICTIONARY
  5
553
102
{ACAD_REACTORS
330
552
102
}
330
552
100
AcDbDictionary
280
     1
281
     1
  3
SPATIAL
360
554
  0
DICTIONARY
  5
556
102
{ACAD_REACTORS
330
555
102
}
330
555
100
AcDbDictionary
280
     1
281
     1
  3
SPATIAL
360
557
  0
DICTIONARY
  5
559
102
{ACAD_REACTORS
330
558
102
}
330
558
100
AcDbDictionary
280
     1
281
     1
  3
SPATIAL
360
55A
  0
DICTIONARY
  5
55C
102
{ACAD_REACTORS
330
55B
102
}
330
55B
100
AcDbDictionary
280
     1
281
     1
  3
SPATIAL
360
55D
  0
DICTIONARY
  5
55F
102
{ACAD_REACTORS
330
55E
102
}
330
55E
100
AcDbDictionary
280
     1
281
     1
  3
SPATIAL
360
560
  0
DICTIONARY
  5
562
102
{ACAD_REACTORS
330
561
102
}
330
561
100
AcDbDictionary
280
     1
281
     1
  3
SPATIAL
360
563
  0
DICTIONARY
  5
565
102
{ACAD_REACTORS
330
564
102
}
330
564
100
AcDbDictionary
280
     1
281
     1
  3
SPATIAL
360
566
  0
DICTIONARY
  5
568
102
{ACAD_REACTORS
330
567
102
}
330
567
100
AcDbDictionary
280
     1
281
     1
  3
SPATIAL
360
569
  0
DICTIONARY
  5
56B
102
{ACAD_REACTORS
330
56A
102
}
330
56A
100
AcDbDictionary
280
     1
281
     1
  3
SPATIAL
360
56C
  0
XRECORD
  5
64F
102
{ACAD_REACTORS
330
64E
102
}
330
64E
100
AcDbXrecord
280
     1
1004
1800000001000000000000C0000000000000000000000000
  0
ACDBASSOCNETWORK
  5
44D
102
{ACAD_REACTORS
330
44C
102
}
330
44C
100
AcDbAssocAction
 90
        1
 90
        0
330
0
360
0
 90
        0
 90
        0
 90
        0
100
AcDbAssocNetwork
 90
        0
 90
        2
 90
        2
330
44B
330
4A2
 90
        0
  0
ACDBDETAILVIEWSTYLE
  5
267
102
{ACAD_XDICTIONARY
360
311
102
}
102
{ACAD_REACTORS
330
266
102
}
330
266
100
AcDbModelDocViewStyle
 70
     0
  3
Imperial24
290
     0
100
AcDbDetailViewStyle
 70
     0
 71
     0
 90
        3
 71
     1
340
11
 40
0.24
340
0
 40
0.24
300

 40
0.36
280
     3
 71
     2
340
16
 90
       25
 71
     3
340
11
 40
0.24
 90
        1
 40
0.75
 90
        1
300
%<\AcVar ViewType \f "%tc1">% %<\AcVar ViewDetailId>%\PSCALE %<\AcVar ViewScale \f "%sn">%
 71
     4
340
16
 90
       25
340
16
 90
       25
280
     0
  0
ACDBDETAILVIEWSTYLE
  5
43A
102
{ACAD_XDICTIONARY
360
45C
102
}
102
{ACAD_REACTORS
330
266
102
}
330
266
100
AcDbModelDocViewStyle
 70
     0
  3
Metric50
290
     0
100
AcDbDetailViewStyle
 70
     0
 71
     0
 90
        3
 71
     1
340
11
 40
5.0
340
0
 40
5.0
300

 40
0.0
280
     1
 71
     2
340
16
 90
       25
 71
     3
340
11
 40
5.0
 90
        0
 40
15.0
 90
        1
300
%<\AcVar ViewDetailId>% (%<\AcVar ViewScale \f "%sn">%)
 71
     4
340
16
 90
       25
340
16
 90
       25
280
     0
  0
GROUP
  5
4FF
102
{ACAD_REACTORS
330
D
102
}
330
D
100
AcDbGroup
300
Superhatch
 70
     1
 71
     1
340
4D5
340
4D6
340
4D7
340
4D8
340
4D9
340
4DA
340
4DB
340
4DC
340
4DD
340
4DE
340
4DF
340
4E0
  0
GROUP
  5
56D
102
{ACAD_REACTORS
330
D
102
}
330
D
100
AcDbGroup
300
Superhatch
 70
     1
 71
     1
340
53A
340
53B
340
53C
340
53D
340
53E
340
53F
340
540
340
541
340
542
340
543
340
544
340
545
340
546
340
547
340
548
  0
LAYOUT
  5
1E
102
{ACAD_XDICTIONARY
360
658
102
}
102
{ACAD_REACTORS
330
1A
102
}
330
1A
100
AcDbPlotSettings
  1

  2
none_device
  4

  6

 40
0.0
 41
0.0
 42
0.0
 43
0.0
 44
0.0
 45
0.0
 46
0.0
 47
0.0
 48
0.0
 49
0.0
140
0.0
141
0.0
142
1.0
143
1.0
 70
   688
 72
     0
 73
     0
 74
     5
  7

 75
    16
147
1.0
148
0.0
149
0.0
100
AcDbLayout
  1
Layout1
 70
     1
 71
     1
 10
0.0
 20
0.0
 11
12.0
 21
9.0
 12
0.0
 22
0.0
 32
0.0
 14
1.000000000000000E+20
 24
1.000000000000000E+20
 34
1.000000000000000E+20
 15
-1.000000000000000E+20
 25
-1.000000000000000E+20
 35
-1.000000000000000E+20
146
0.0
 13
0.0
 23
0.0
 33
0.0
 16
1.0
 26
0.0
 36
0.0
 17
0.0
 27
1.0
 37
0.0
 76
     0
330
1B
  0
LAYOUT
  5
26
102
{ACAD_XDICTIONARY
360
65C
102
}
102
{ACAD_REACTORS
330
1A
102
}
330
1A
100
AcDbPlotSettings
  1

  2
none_device
  4

  6

 40
0.0
 41
0.0
 42
0.0
 43
0.0
 44
0.0
 45
0.0
 46
0.0
 47
0.0
 48
0.0
 49
0.0
140
0.0
141
0.0
142
1.0
143
1.0
 70
   688
 72
     0
 73
     0
 74
     5
  7

 75
    16
147
1.0
148
0.0
149
0.0
100
AcDbLayout
  1
Layout2
 70
     1
 71
     2
 10
0.0
 20
0.0
 11
0.0
 21
0.0
 12
0.0
 22
0.0
 32
0.0
 14
0.0
 24
0.0
 34
0.0
 15
0.0
 25
0.0
 35
0.0
146
0.0
 13
0.0
 23
0.0
 33
0.0
 16
1.0
 26
0.0
 36
0.0
 17
0.0
 27
1.0
 37
0.0
 76
     0
330
23
  0
LAYOUT
  5
22
102
{ACAD_XDICTIONARY
360
65A
102
}
102
{ACAD_REACTORS
330
1A
102
}
330
1A
100
AcDbPlotSettings
  1

  2
none_device
  4

  6

 40
0.0
 41
0.0
 42
0.0
 43
0.0
 44
0.0
 45
0.0
 46
0.0
 47
0.0
 48
0.0
 49
0.0
140
0.0
141
0.0
142
1.0
143
1.0
 70
  1712
 72
     0
 73
     0
 74
     0
  7

 75
     0
147
1.0
148
0.0
149
0.0
100
AcDbLayout
  1
Model
 70
     1
 71
     0
 10
0.0
 20
0.0
 11
12.0
 21
9.0
 12
0.0
 22
0.0
 32
0.0
 14
1.000000000000000E+20
 24
1.000000000000000E+20
 34
1.000000000000000E+20
 15
-1.000000000000000E+20
 25
-1.000000000000000E+20
 35
-1.000000000000000E+20
146
0.0
 13
0.0
 23
0.0
 33
0.0
 16
1.0
 26
0.0
 36
0.0
 17
0.0
 27
1.0
 37
0.0
 76
     0
330
1F
331
29
  0
MATERIAL
  5
3D
102
{ACAD_XDICTIONARY
360
680
102
}
102
{ACAD_REACTORS
330
3B
102
}
330
3B
100
AcDbMaterial
  1
ByBlock
 73
     1
 78
     1
172
     1
176
     1
270
     1
274
     1
  0
MATERIAL
  5
3C
102
{ACAD_XDICTIONARY
360
67E
102
}
102
{ACAD_REACTORS
330
3B
102
}
330
3B
100
AcDbMaterial
  1
ByLayer
 73
     1
 78
     1
172
     1
176
     1
270
     1
274
     1
  0
MATERIAL
  5
3E
102
{ACAD_XDICTIONARY
360
682
102
}
102
{ACAD_REACTORS
330
3B
102
}
330
3B
100
AcDbMaterial
  1
Global
 73
     1
 78
     1
172
     1
176
     1
270
     1
274
     1
  0
MLEADERSTYLE
  5
263
102
{ACAD_XDICTIONARY
360
69D
102
}
102
{ACAD_REACTORS
330
254
102
}
330
254
100
AcDbMLeaderStyle
170
     2
171
     1
172
     0
 90
        2
 40
0.0
 41
0.0
173
     1
 91
-1056964608
340
14
 92
       -2
290
     1
 42
0.09
291
     1
 43
0.36
  3
Standard
 44
0.18
300

342
11
174
     1
178
     6
175
     1
176
     0
 93
-1056964608
 45
0.18
292
     0
297
     0
 46
0.18
 94
-1056964608
 47
1.0
 49
1.0
140
1.0
293
     1
141
0.0
294
     1
177
     0
142
1.0
295
     0
296
     0
143
0.125
1001
ACAD_MLEADERVER
1070
     2
  0
MLINESTYLE
  5
18
102
{ACAD_REACTORS
330
17
102
}
330
17
100
AcDbMlineStyle
  2
STANDARD
 70
     0
  3

 62
   256
 51
90.0
 52
90.0
 71
     2
 49
0.5
 62
   256
  6
BYLAYER
 49
-0.5
 62
   256
  6
BYLAYER
  0
ACDBPLACEHOLDER
  5
F
102
{ACAD_REACTORS
330
E
102
}
330
E
  0
SCALE
  5
108
102
{ACAD_REACTORS
330
107
102
}
330
107
100
AcDbScale
 70
     0
300
1:1
140
1.0
141
1.0
290
     1
  0
SCALE
  5
109
102
{ACAD_REACTORS
330
107
102
}
330
107
100
AcDbScale
 70
     0
300
1:2
140
1.0
141
2.0
290
     0
  0
SCALE
  5
10A
102
{ACAD_REACTORS
330
107
102
}
330
107
100
AcDbScale
 70
     0
300
1:4
140
1.0
141
4.0
290
     0
  0
SCALE
  5
10B
102
{ACAD_REACTORS
330
107
102
}
330
107
100
AcDbScale
 70
     0
300
1:5
140
1.0
141
5.0
290
     0
  0
SCALE
  5
10C
102
{ACAD_REACTORS
330
107
102
}
330
107
100
AcDbScale
 70
     0
300
1:8
140
1.0
141
8.0
290
     0
  0
SCALE
  5
10D
102
{ACAD_REACTORS
330
107
102
}
330
107
100
AcDbScale
 70
     0
300
1:10
140
1.0
141
10.0
290
     0
  0
SCALE
  5
10E
102
{ACAD_REACTORS
330
107
102
}
330
107
100
AcDbScale
 70
     0
300
1:16
140
1.0
141
16.0
290
     0
  0
SCALE
  5
10F
102
{ACAD_REACTORS
330
107
102
}
330
107
100
AcDbScale
 70
     0
300
1:20
140
1.0
141
20.0
290
     0
  0
SCALE
  5
110
102
{ACAD_REACTORS
330
107
102
}
330
107
100
AcDbScale
 70
     0
300
1:30
140
1.0
141
30.0
290
     0
  0
SCALE
  5
111
102
{ACAD_REACTORS
330
107
102
}
330
107
100
AcDbScale
 70
     0
300
1:40
140
1.0
141
40.0
290
     0
  0
SCALE
  5
112
102
{ACAD_REACTORS
330
107
102
}
330
107
100
AcDbScale
 70
     0
300
1:50
140
1.0
141
50.0
290
     0
  0
SCALE
  5
113
102
{ACAD_REACTORS
330
107
102
}
330
107
100
AcDbScale
 70
     0
300
1:100
140
1.0
141
100.0
290
     0
  0
SCALE
  5
114
102
{ACAD_REACTORS
330
107
102
}
330
107
100
AcDbScale
 70
     0
300
2:1
140
2.0
141
1.0
290
     0
  0
SCALE
  5
115
102
{ACAD_REACTORS
330
107
102
}
330
107
100
AcDbScale
 70
     0
300
4:1
140
4.0
141
1.0
290
     0
  0
SCALE
  5
116
102
{ACAD_REACTORS
330
107
102
}
330
107
100
AcDbScale
 70
     0
300
8:1
140
8.0
141
1.0
290
     0
  0
SCALE
  5
117
102
{ACAD_REACTORS
330
107
102
}
330
107
100
AcDbScale
 70
     0
300
10:1
140
10.0
141
1.0
290
     0
  0
SCALE
  5
118
102
{ACAD_REACTORS
330
107
102
}
330
107
100
AcDbScale
 70
     0
300
100:1
140
100.0
141
1.0
290
     0
  0
SCALE
  5
119
102
{ACAD_REACTORS
330
107
102
}
330
107
100
AcDbScale
 70
     0
300
1/128" = 1'-0"
140
0.0078125
141
12.0
290
     0
  0
SCALE
  5
11A
102
{ACAD_REACTORS
330
107
102
}
330
107
100
AcDbScale
 70
     0
300
1/64" = 1'-0"
140
0.015625
141
12.0
290
     0
  0
SCALE
  5
11B
102
{ACAD_REACTORS
330
107
102
}
330
107
100
AcDbScale
 70
     0
300
1/32" = 1'-0"
140
0.03125
141
12.0
290
     0
  0
SCALE
  5
11C
102
{ACAD_REACTORS
330
107
102
}
330
107
100
AcDbScale
 70
     0
300
1/16" = 1'-0"
140
0.0625
141
12.0
290
     0
  0
SCALE
  5
11D
102
{ACAD_REACTORS
330
107
102
}
330
107
100
AcDbScale
 70
     0
300
3/32" = 1'-0"
140
0.09375
141
12.0
290
     0
  0
SCALE
  5
11E
102
{ACAD_REACTORS
330
107
102
}
330
107
100
AcDbScale
 70
     0
300
1/8" = 1'-0"
140
0.125
141
12.0
290
     0
  0
SCALE
  5
11F
102
{ACAD_REACTORS
330
107
102
}
330
107
100
AcDbScale
 70
     0
300
3/16" = 1'-0"
140
0.1875
141
12.0
290
     0
  0
SCALE
  5
120
102
{ACAD_REACTORS
330
107
102
}
330
107
100
AcDbScale
 70
     0
300
1/4" = 1'-0"
140
0.25
141
12.0
290
     0
  0
SCALE
  5
121
102
{ACAD_REACTORS
330
107
102
}
330
107
100
AcDbScale
 70
     0
300
3/8" = 1'-0"
140
0.375
141
12.0
290
     0
  0
SCALE
  5
122
102
{ACAD_REACTORS
330
107
102
}
330
107
100
AcDbScale
 70
     0
300
1/2" = 1'-0"
140
0.5
141
12.0
290
     0
  0
SCALE
  5
123
102
{ACAD_REACTORS
330
107
102
}
330
107
100
AcDbScale
 70
     0
300
3/4" = 1'-0"
140
0.75
141
12.0
290
     0
  0
SCALE
  5
124
102
{ACAD_REACTORS
330
107
102
}
330
107
100
AcDbScale
 70
     0
300
1" = 1'-0"
140
1.0
141
12.0
290
     0
  0
SCALE
  5
125
102
{ACAD_REACTORS
330
107
102
}
330
107
100
AcDbScale
 70
     0
300
1-1/2" = 1'-0"
140
1.5
141
12.0
290
     0
  0
SCALE
  5
126
102
{ACAD_REACTORS
330
107
102
}
330
107
100
AcDbScale
 70
     0
300
3" = 1'-0"
140
3.0
141
12.0
290
     0
  0
SCALE
  5
127
102
{ACAD_REACTORS
330
107
102
}
330
107
100
AcDbScale
 70
     0
300
6" = 1'-0"
140
6.0
141
12.0
290
     0
  0
SCALE
  5
128
102
{ACAD_REACTORS
330
107
102
}
330
107
100
AcDbScale
 70
     0
300
1'-0" = 1'-0"
140
12.0
141
12.0
290
     0
  0
ACDBSECTIONVIEWSTYLE
  5
265
102
{ACAD_XDICTIONARY
360
30F
102
}
102
{ACAD_REACTORS
330
264
102
}
330
264
100
AcDbModelDocViewStyle
 70
     0
  3
Imperial24
290
     0
100
AcDbSectionViewStyle
 70
     0
 71
     0
 90
       78
 71
     1
340
11
 40
0.24
340
0
340
0
 40
0.24
300
I, O, Q, S, X, Z
 40
0.48
 90
        3
 40
0.18
 90
        1
 71
     2
340
16
 90
       25
340
16
 90
       50
 40
0.24
 40
0.0
 40
0.24
 71
     3
340
11
 40
0.24
 90
        1
 40
0.75
 90
        1
300
%<\AcVar ViewType \f "%tc1">% %<\AcVar ViewSectionStartId>%-%<\AcVar ViewSectionEndId>%\PSCALE %<\AcVar ViewScale \f "%sn">%
 71
     4
300
ANSI31
 40
1.0
 90
        0
290
     0
290
     0
 90
        6
 40
0.0
 40
1.570796326794896
 40
0.2617993877991494
 40
1.308996938995747
 40
-0.2617993877991494
 40
1.832595714594046
  0
ACDBSECTIONVIEWSTYLE
  5
439
102
{ACAD_XDICTIONARY
360
45A
102
}
102
{ACAD_REACTORS
330
264
102
}
330
264
100
AcDbModelDocViewStyle
 70
     0
  3
Metric50
290
     0
100
AcDbSectionViewStyle
 70
     0
 71
     0
 90
      102
 71
     1
340
11
 40
5.0
340
0
340
0
 40
5.0
300
I, O, Q, S, X, Z
 40
10.0
 90
        0
 40
2.5
 90
        0
 71
     2
340
16
 90
       25
340
16
 90
       50
 40
5.0
 40
2.5
 40
5.0
 71
     3
340
11
 40
5.0
 90
        0
 40
15.0
 90
        1
300
%<\AcVar ViewSectionStartId>%-%<\AcVar ViewSectionEndId>% (%<\AcVar ViewScale \f "%sn">%)
 71
     4
300
ANSI31
 40
1.0
 90
        0
290
     0
290
     0
 90
        6
 40
0.0
 40
1.570796326794896
 40
0.2617993877991494
 40
1.308996938995747
 40
-0.2617993877991494
 40
1.832595714594046
  0
TABLESTYLE
  5
262
102
{ACAD_XDICTIONARY
360
64A
102
}
102
{ACAD_REACTORS
330
253
102
}
330
253
100
AcDbTableStyle
  3
Standard
 70
     0
 71
     0
 40
0.06
 41
0.06
280
     0
281
     0
  7
Standard
140
0.18
170
     2
 62
     0
 63
     7
283
     0
274
    -2
284
     1
 64
     0
275
    -2
285
     1
 65
     0
276
    -2
286
     1
 66
     0
277
    -2
287
     1
 67
     0
278
    -2
288
     1
 68
     0
279
    -2
289
     1
 69
     0
  7
Standard
140
0.25
170
     5
 62
     0
 63
     7
283
     0
274
    -2
284
     1
 64
     0
275
    -2
285
     1
 65
     0
276
    -2
286
     1
 66
     0
277
    -2
287
     1
 67
     0
278
    -2
288
     1
 68
     0
279
    -2
289
     1
 69
     0
  7
Standard
140
0.18
170
     5
 62
     0
 63
     7
283
     0
274
    -2
284
     1
 64
     0
275
    -2
285
     1
 65
     0
276
    -2
286
     1
 66
     0
277
    -2
287
     1
 67
     0
278
    -2
288
     1
 68
     0
279
    -2
289
     1
 69
     0
  0
VISUALSTYLE
  5
2F
102
{ACAD_XDICTIONARY
360
666
102
}
102
{ACAD_REACTORS
330
2A
102
}
330
2A
100
AcDbVisualStyle
  2
2dWireframe
 70
     4
 71
     0
 72
     2
 73
     0
 90
        0
 40
-0.6
 41
-30.0
 62
     5
 63
     7
 74
     1
 91
        4
 64
     7
 65
   257
 75
     1
175
     1
 42
1.0
 92
        0
 66
   257
 43
1.0
 76
     1
 77
     6
 78
     2
 67
     7
 79
     5
170
     0
171
     0
290
     0
174
     0
 93
        1
 44
0.0
173
     0
291
     0
 45
0.0
1001
ACAD
1000
AcDbSavedByObjectVersion
1070
     0
  0
VISUALSTYLE
  5
31
102
{ACAD_XDICTIONARY
360
66A
102
}
102
{ACAD_REACTORS
330
2A
102
}
330
2A
100
AcDbVisualStyle
  2
3D Hidden
 70
     6
 71
     1
 72
     2
 73
     2
 90
        0
 40
-0.6
 41
-30.0
 62
     5
 63
     7
 74
     2
 91
        2
 64
     7
 65
   257
 75
     2
175
     1
 42
40.0
 92
        0
 66
   257
 43
1.0
 76
     1
 77
     6
 78
     2
 67
     7
 79
     3
170
     0
171
     0
290
     0
174
     0
 93
        1
 44
0.0
173
     0
291
     0
 45
0.0
1001
ACAD
1000
AcDbSavedByObjectVersion
1070
     0
  0
VISUALSTYLE
  5
30
102
{ACAD_XDICTIONARY
360
668
102
}
102
{ACAD_REACTORS
330
2A
102
}
330
2A
100
AcDbVisualStyle
  2
3dWireframe
 70
     5
 71
     0
 72
     2
 73
     0
 90
        0
 40
-0.6
 41
-30.0
 62
     5
 63
     7
 74
     1
 91
        4
 64
     7
 65
   257
 75
     1
175
     1
 42
1.0
 92
        0
 66
   257
 43
1.0
 76
     1
 77
     6
 78
     2
 67
     7
 79
     5
170
     0
171
     0
290
     0
174
     0
 93
        1
 44
0.0
173
     0
291
     0
 45
0.0
1001
ACAD
1000
AcDbSavedByObjectVersion
1070
     0
  0
VISUALSTYLE
  5
32
102
{ACAD_XDICTIONARY
360
66C
102
}
102
{ACAD_REACTORS
330
2A
102
}
330
2A
100
AcDbVisualStyle
  2
Basic
 70
     7
 71
     1
 72
     0
 73
     1
 90
        0
 40
-0.6
 41
-30.0
 62
     5
 63
     7
 74
     0
 91
        4
 64
     7
 65
   257
 75
     1
175
     1
 42
1.0
 92
        8
 66
     7
 43
1.0
 76
     1
 77
     6
 78
     2
 67
     7
 79
     5
170
     0
171
     0
290
     0
174
     0
 93
        1
 44
0.0
173
     0
291
     1
 45
0.0
1001
ACAD
1000
AcDbSavedByObjectVersion
1070
     0
  0
VISUALSTYLE
  5
36
102
{ACAD_XDICTIONARY
360
674
102
}
102
{ACAD_REACTORS
330
2A
102
}
330
2A
100
AcDbVisualStyle
  2
Brighten
 70
    12
 71
     2
 72
     2
 73
     0
 90
        0
 40
-0.6
 41
-30.0
 62
     5
 63
     7
 74
     1
 91
        4
 64
     7
 65
   257
 75
     1
175
     1
 42
1.0
 92
        8
 66
     7
 43
1.0
 76
     1
 77
     6
 78
     2
 67
     7
 79
     5
170
     0
171
     0
290
     0
174
     0
 93
        1
 44
50.0
173
     0
291
     1
 45
0.0
1001
ACAD
1000
AcDbSavedByObjectVersion
1070
     0
  0
VISUALSTYLE
  5
3A
102
{ACAD_XDICTIONARY
360
67C
102
}
102
{ACAD_REACTORS
330
2A
102
}
330
2A
100
AcDbVisualStyle
  2
ColorChange
 70
    16
 71
     2
 72
     2
 73
     3
 90
        0
 40
-0.6
 41
-30.0
 62
     5
 63
     8
 74
     1
 91
        4
 64
     7
 65
   257
 75
     1
175
     1
 42
1.0
 92
        8
 66
     8
 43
1.0
 76
     1
 77
     6
 78
     2
 67
     7
 79
     5
170
     0
171
     0
290
     0
174
     0
 93
        1
 44
0.0
173
     0
291
     1
 45
0.0
1001
ACAD
1000
AcDbSavedByObjectVersion
1070
     0
  0
VISUALSTYLE
  5
34
102
{ACAD_XDICTIONARY
360
670
102
}
102
{ACAD_REACTORS
330
2A
102
}
330
2A
100
AcDbVisualStyle
  2
Conceptual
 70
     9
 71
     3
 72
     2
 73
     0
 90
        0
 40
-0.6
 41
-30.0
 62
     5
 63
     7
 74
     2
 91
        2
 64
     7
 65
   257
 75
     1
175
     1
 42
40.0
 92
        8
 66
     7
 43
1.0
 76
     1
 77
     6
 78
     2
 67
     7
 79
     3
170
     0
171
     0
290
     0
174
     0
 93
        1
 44
0.0
173
     0
291
     0
 45
0.0
1001
ACAD
1000
AcDbSavedByObjectVersion
1070
     0
  0
VISUALSTYLE
  5
35
102
{ACAD_XDICTIONARY
360
672
102
}
102
{ACAD_REACTORS
330
2A
102
}
330
2A
100
AcDbVisualStyle
  2
Dim
 70
    11
 71
     2
 72
     2
 73
     0
 90
        0
 40
-0.6
 41
-30.0
 62
     5
 63
     7
 74
     1
 91
        4
 64
     7
 65
   257
 75
     1
175
     1
 42
1.0
 92
        8
 66
     7
 43
1.0
 76
     1
 77
     6
 78
     2
 67
     7
 79
     5
170
     0
171
     0
290
     0
174
     0
 93
        1
 44
-50.0
173
     0
291
     1
 45
0.0
1001
ACAD
1000
AcDbSavedByObjectVersion
1070
     0
  0
VISUALSTYLE
  5
260
102
{ACAD_XDICTIONARY
360
699
102
}
102
{ACAD_REACTORS
330
2A
102
}
330
2A
100
AcDbVisualStyle
  2
EdgeColorOff
 70
    22
 71
     2
 72
     2
 73
     0
 90
        0
 40
-0.6
 41
-30.0
 62
     5
 63
     7
 74
     1
 91
        4
 64
     7
 65
   257
 75
     1
175
     1
 42
1.0
 92
        8
 66
     7
 43
1.0
 76
     1
 77
     6
 78
     2
 67
     7
 79
     5
170
     0
171
     0
290
     0
174
     0
 93
        1
 44
0.0
173
     0
291
     1
 45
0.0
1001
ACAD
1000
AcDbSavedByObjectVersion
1070
     0
  0
VISUALSTYLE
  5
39
102
{ACAD_XDICTIONARY
360
67A
102
}
102
{ACAD_REACTORS
330
2A
102
}
330
2A
100
AcDbVisualStyle
  2
Facepattern
 70
    15
 71
     2
 72
     2
 73
     0
 90
        0
 40
-0.6
 41
-30.0
 62
     5
 63
     7
 74
     1
 91
        4
 64
     7
 65
   257
 75
     1
175
     1
 42
1.0
 92
        8
 66
     7
 43
1.0
 76
     1
 77
     6
 78
     2
 67
     7
 79
     5
170
     0
171
     0
290
     0
174
     0
 93
        1
 44
0.0
173
     0
291
     1
 45
0.0
1001
ACAD
1000
AcDbSavedByObjectVersion
1070
     0
  0
VISUALSTYLE
  5
2B
102
{ACAD_XDICTIONARY
360
65E
102
}
102
{ACAD_REACTORS
330
2A
102
}
330
2A
100
AcDbVisualStyle
  2
Flat
 70
     0
 71
     2
 72
     1
 73
     1
 90
        2
 40
-0.6
 41
30.0
 62
     5
 63
     7
 74
     0
 91
        4
 64
     7
 65
   257
 75
     1
175
     1
 42
1.0
 92
        8
 66
     7
 43
1.0
 76
     1
 77
     6
 78
     2
 67
     7
 79
     5
170
     0
171
     0
290
     0
174
     0
 93
       13
 44
0.0
173
     0
291
     1
 45
0.0
1001
ACAD
1000
AcDbSavedByObjectVersion
1070
     0
  0
VISUALSTYLE
  5
2C
102
{ACAD_XDICTIONARY
360
660
102
}
102
{ACAD_REACTORS
330
2A
102
}
330
2A
100
AcDbVisualStyle
  2
FlatWithEdges
 70
     1
 71
     2
 72
     1
 73
     1
 90
        2
 40
-0.6
 41
30.0
 62
     5
 63
     7
 74
     1
 91
        4
 64
     7
 65
   257
 75
     1
175
     1
 42
1.0
 92
        0
 66
   257
 43
1.0
 76
     1
 77
     6
 78
     2
 67
     7
 79
     5
170
     0
171
     0
290
     0
174
     0
 93
       13
 44
0.0
173
     0
291
     1
 45
0.0
1001
ACAD
1000
AcDbSavedByObjectVersion
1070
     0
  0
VISUALSTYLE
  5
2D
102
{ACAD_XDICTIONARY
360
662
102
}
102
{ACAD_REACTORS
330
2A
102
}
330
2A
100
AcDbVisualStyle
  2
Gouraud
 70
     2
 71
     2
 72
     2
 73
     1
 90
        2
 40
-0.6
 41
30.0
 62
     5
 63
     7
 74
     0
 91
        4
 64
     7
 65
   257
 75
     1
175
     1
 42
1.0
 92
        0
 66
     7
 43
1.0
 76
     1
 77
     6
 78
     2
 67
     7
 79
     5
170
     0
171
     0
290
     0
174
     0
 93
       13
 44
0.0
173
     0
291
     1
 45
0.0
1001
ACAD
1000
AcDbSavedByObjectVersion
1070
     0
  0
VISUALSTYLE
  5
2E
102
{ACAD_XDICTIONARY
360
664
102
}
102
{ACAD_REACTORS
330
2A
102
}
330
2A
100
AcDbVisualStyle
  2
GouraudWithEdges
 70
     3
 71
     2
 72
     2
 73
     1
 90
        2
 40
-0.6
 41
30.0
 62
     5
 63
     7
 74
     1
 91
        4
 64
     7
 65
   257
 75
     1
175
     1
 42
1.0
 92
        0
 66
   257
 43
1.0
 76
     1
 77
     6
 78
     2
 67
     7
 79
     5
170
     0
171
     0
290
     0
174
     0
 93
       13
 44
0.0
173
     0
291
     1
 45
0.0
1001
ACAD
1000
AcDbSavedByObjectVersion
1070
     0
  0
VISUALSTYLE
  5
258
102
{ACAD_XDICTIONARY
360
689
102
}
102
{ACAD_REACTORS
330
2A
102
}
330
2A
100
AcDbVisualStyle
  2
Hidden
 70
     6
 71
     1
 72
     2
 73
     2
 90
        0
 40
-0.6
 41
-30.0
 62
     5
 63
     7
 74
     2
 91
        2
 64
     7
 65
   257
 75
     2
175
     1
 42
40.0
 92
        0
 66
   257
 43
1.0
 76
     1
 77
     6
 78
     2
 67
     7
 79
     3
170
     0
171
     0
290
     0
174
     0
 93
        1
 44
0.0
173
     0
291
     0
 45
0.0
1001
ACAD
1000
AcDbSavedByObjectVersion
1070
     0
  0
VISUALSTYLE
  5
25E
102
{ACAD_XDICTIONARY
360
695
102
}
102
{ACAD_REACTORS
330
2A
102
}
330
2A
100
AcDbVisualStyle
  2
JitterOff
 70
    20
 71
     2
 72
     2
 73
     0
 90
        0
 40
-0.6
 41
-30.0
 62
     5
 63
     7
 74
     1
 91
        4
 64
     7
 65
   257
 75
     1
175
     1
 42
1.0
 92
       10
 66
     7
 43
1.0
 76
     1
 77
     6
 78
     2
 67
     7
 79
     5
170
     0
171
     0
290
     0
174
     0
 93
        1
 44
0.0
173
     0
291
     1
 45
0.0
1001
ACAD
1000
AcDbSavedByObjectVersion
1070
     0
  0
VISUALSTYLE
  5
38
102
{ACAD_XDICTIONARY
360
678
102
}
102
{ACAD_REACTORS
330
2A
102
}
330
2A
100
AcDbVisualStyle
  2
Linepattern
 70
    14
 71
     2
 72
     2
 73
     0
 90
        0
 40
-0.6
 41
-30.0
 62
     5
 63
     7
 74
     1
 91
        4
 64
     7
 65
   257
 75
     7
175
     7
 42
1.0
 92
        8
 66
     7
 43
1.0
 76
     1
 77
     6
 78
     2
 67
     7
 79
     5
170
     0
171
     0
290
     0
174
     0
 93
        1
 44
0.0
173
     0
291
     1
 45
0.0
1001
ACAD
1000
AcDbSavedByObjectVersion
1070
     0
  0
VISUALSTYLE
  5
25F
102
{ACAD_XDICTIONARY
360
697
102
}
102
{ACAD_REACTORS
330
2A
102
}
330
2A
100
AcDbVisualStyle
  2
OverhangOff
 70
    21
 71
     2
 72
     2
 73
     0
 90
        0
 40
-0.6
 41
-30.0
 62
     5
 63
     7
 74
     1
 91
        4
 64
     7
 65
   257
 75
     1
175
     1
 42
1.0
 92
        9
 66
     7
 43
1.0
 76
     1
 77
     6
 78
     2
 67
     7
 79
     5
170
     0
171
     0
290
     0
174
     0
 93
        1
 44
0.0
173
     0
291
     1
 45
0.0
1001
ACAD
1000
AcDbSavedByObjectVersion
1070
     0
  0
VISUALSTYLE
  5
33
102
{ACAD_XDICTIONARY
360
66E
102
}
102
{ACAD_REACTORS
330
2A
102
}
330
2A
100
AcDbVisualStyle
  2
Realistic
 70
     8
 71
     2
 72
     2
 73
     0
 90
        0
 40
-0.6
 41
-30.0
 62
     5
 63
     7
 74
     1
 91
        0
 64
     7
 65
   257
 75
     1
175
     1
 42
1.0
 92
        8
 66
     8
 43
1.0
 76
     1
 77
     6
 78
     2
 67
     7
 79
     5
170
     0
171
     0
290
     0
174
     0
 93
       13
 44
0.0
173
     0
291
     0
 45
0.0
1001
ACAD
1000
AcDbSavedByObjectVersion
1070
     0
  0
VISUALSTYLE
  5
25D
102
{ACAD_XDICTIONARY
360
693
102
}
102
{ACAD_REACTORS
330
2A
102
}
330
2A
100
AcDbVisualStyle
  2
Shaded
 70
    27
 71
     2
 72
     2
 73
     1
 90
        2
 40
-0.6
 41
30.0
 62
     5
 63
     7
 74
     0
 91
        4
 64
     7
 65
   257
 75
     1
175
     1
 42
1.0
 92
        8
 66
   257
 43
1.0
 76
     1
 77
     6
 78
     2
 67
     8
 79
     3
170
     0
171
     0
290
     0
174
     0
 93
        5
 44
0.0
173
     0
291
     0
 45
0.0
1001
ACAD
1000
AcDbSavedByObjectVersion
1070
     0
  0
VISUALSTYLE
  5
25C
102
{ACAD_XDICTIONARY
360
691
102
}
102
{ACAD_REACTORS
330
2A
102
}
330
2A
100
AcDbVisualStyle
  2
Shaded with edges
 70
    26
 71
     2
 72
     2
 73
     1
 90
        2
 40
-0.6
 41
30.0
 62
     5
 63
     7
 74
     1
 91
       10
 64
     7
 65
   257
 75
     2
175
     1
 42
1.0
 92
        8
 66
   257
 43
1.0
 76
     1
 77
     6
 78
     2
 67
     7
 79
     3
170
     0
171
     0
290
     0
174
     0
 93
        5
 44
0.0
173
     0
291
     0
 45
0.0
1001
ACAD
1000
AcDbSavedByObjectVersion
1070
     0
  0
VISUALSTYLE
  5
259
102
{ACAD_XDICTIONARY
360
68B
102
}
102
{ACAD_REACTORS
330
2A
102
}
330
2A
100
AcDbVisualStyle
  2
Shades of Gray
 70
    23
 71
     2
 72
     2
 73
     3
 90
        0
 40
-0.6
 41
-30.0
 62
     5
 63
     7
 74
     2
 91
        2
 64
     7
 65
     7
 75
     1
175
     1
 42
40.0
 92
        8
 66
     7
 43
1.0
 76
     1
 77
     6
 78
     2
 67
     7
 79
     3
170
     0
171
     0
290
     0
174
     0
 93
        1
 44
0.0
173
     0
291
     0
 45
0.0
1001
ACAD
1000
AcDbSavedByObjectVersion
1070
     0
  0
VISUALSTYLE
  5
25A
102
{ACAD_XDICTIONARY
360
68D
102
}
102
{ACAD_REACTORS
330
2A
102
}
330
2A
100
AcDbVisualStyle
  2
Sketchy
 70
    24
 71
     1
 72
     2
 73
     2
 90
        0
 40
-0.6
 41
-30.0
 62
     5
 63
     7
 74
     2
 91
        2
 64
     7
 65
     7
 75
     1
175
     1
 42
40.0
 92
       11
 66
     7
 43
1.0
 76
     1
 77
     6
 78
     2
 67
     7
 79
     6
170
     0
171
     0
290
     0
174
     0
 93
        1
 44
0.0
173
     0
291
     0
 45
0.0
1001
ACAD
1000
AcDbSavedByObjectVersion
1070
     0
  0
VISUALSTYLE
  5
37
102
{ACAD_XDICTIONARY
360
676
102
}
102
{ACAD_REACTORS
330
2A
102
}
330
2A
100
AcDbVisualStyle
  2
Thicken
 70
    13
 71
     2
 72
     2
 73
     0
 90
        0
 40
-0.6
 41
-30.0
 62
     5
 63
     7
 74
     1
 91
        4
 64
     7
 65
   257
 75
     1
175
     1
 42
1.0
 92
       12
 66
     7
 43
1.0
 76
     1
 77
     6
 78
     2
 67
     7
 79
     5
170
     0
171
     0
290
     0
174
     0
 93
        1
 44
0.0
173
     0
291
     1
 45
0.0
1001
ACAD
1000
AcDbSavedByObjectVersion
1070
     0
  0
VISUALSTYLE
  5
257
102
{ACAD_XDICTIONARY
360
687
102
}
102
{ACAD_REACTORS
330
2A
102
}
330
2A
100
AcDbVisualStyle
  2
Wireframe
 70
     5
 71
     0
 72
     2
 73
     0
 90
        0
 40
-0.6
 41
-30.0
 62
     5
 63
     7
 74
     1
 91
        4
 64
     7
 65
   257
 75
     1
175
     1
 42
1.0
 92
        0
 66
   257
 43
1.0
 76
     1
 77
     6
 78
     2
 67
     7
 79
     3
170
     0
171
     0
290
     0
174
     0
 93
        1
 44
0.0
173
     0
291
     0
 45
0.0
1001
ACAD
1000
AcDbSavedByObjectVersion
1070
     0
  0
VISUALSTYLE
  5
25B
102
{ACAD_XDICTIONARY
360
68F
102
}
102
{ACAD_REACTORS
330
2A
102
}
330
2A
100
AcDbVisualStyle
  2
X-Ray
 70
    25
 71
     2
 72
     2
 73
     1
 90
        1
 40
0.5
 41
-30.0
 62
     5
 63
     7
 74
     1
 91
        0
 64
     7
 65
   257
 75
     1
175
     1
 42
1.0
 92
        8
 66
     7
 43
1.0
 76
     1
 77
     6
 78
     2
 67
     7
 79
     3
170
     0
171
     0
290
     0
174
     0
 93
       13
 44
0.0
173
     0
291
     0
 45
0.0
1001
ACAD
1000
AcDbSavedByObjectVersion
1070
     0
  0
DICTIONARYVAR
  5
232
102
{ACAD_REACTORS
330
231
102
}
330
231
100
DictionaryVariables
280
     0
  1
1:1
  0
DICTIONARYVAR
  5
315
102
{ACAD_REACTORS
330
231
102
}
330
231
100
DictionaryVariables
280
     0
  1
STANDARD
  0
DICTIONARYVAR
  5
314
102
{ACAD_REACTORS
330
231
102
}
330
231
100
DictionaryVariables
280
     0
  1
STANDARD
  0
DICTIONARYVAR
  5
316
102
{ACAD_REACTORS
330
231
102
}
330
231
100
DictionaryVariables
280
     0
  1
Imperial24
  0
DICTIONARYVAR
  5
317
102
{ACAD_REACTORS
330
231
102
}
330
231
100
DictionaryVariables
280
     0
  1
Imperial24
  0
DICTIONARYVAR
  5
649
102
{ACAD_REACTORS
330
231
102
}
330
231
100
DictionaryVariables
280
     0
  1
2
  0
DICTIONARYVAR
  5
647
102
{ACAD_REACTORS
330
231
102
}
330
231
100
DictionaryVariables
280
     0
  1
2
  0
DICTIONARYVAR
  5
645
102
{ACAD_REACTORS
330
231
102
}
330
231
100
DictionaryVariables
280
     0
  1
1
  0
DICTIONARYVAR
  5
2E7
102
{ACAD_REACTORS
330
231
102
}
330
231
100
DictionaryVariables
280
     0
  1
RGB:255,120,0
  0
DICTIONARYVAR
  5
644
102
{ACAD_REACTORS
330
231
102
}
330
231
100
DictionaryVariables
280
     0
  1
0
  0
DICTIONARYVAR
  5
318
102
{ACAD_REACTORS
330
231
102
}
330
231
100
DictionaryVariables
280
     0
  1
1
  0
DICTIONARYVAR
  5
319
102
{ACAD_REACTORS
330
231
102
}
330
231
100
DictionaryVariables
280
     0
  1
15
  0
DICTIONARYVAR
  5
642
102
{ACAD_REACTORS
330
231
102
}
330
231
100
DictionaryVariables
280
     0
  1
2
  0
DICTIONARYVAR
  5
641
102
{ACAD_REACTORS
330
231
102
}
330
231
100
DictionaryVariables
280
     0
  1
1
  0
DICTIONARYVAR
  5
648
102
{ACAD_REACTORS
330
231
102
}
330
231
100
DictionaryVariables
280
     0
  1
1
  0
DICTIONARYVAR
  5
643
102
{ACAD_REACTORS
330
231
102
}
330
231
100
DictionaryVariables
280
     0
  1
127
  0
DICTIONARYVAR
  5
646
102
{ACAD_REACTORS
330
231
102
}
330
231
100
DictionaryVariables
280
     0
  1
0
  0
DICTIONARY
  5
657
102
{ACAD_REACTORS
330
655
102
}
330
655
100
AcDbDictionary
281
     1
  0
DICTIONARY
  5
656
102
{ACAD_REACTORS
330
655
102
}
330
655
100
AcDbDictionary
281
     1
  3
8796087827712
350
650
  3
8796087827728
350
651
  3
8796087827744
350
652
  3
8796087827760
350
653
  3
8796087827776
350
654
  0
XRECORD
  5
230
102
{ACAD_REACTORS
330
22F
102
}
330
22F
100
AcDbXrecord
280
     1
1000
This DWG file was created in ArchiCAD(TM)®
  0
ACDBASSOCNETWORK
  5
44B
102
{ACAD_REACTORS
330
44A
102
}
330
44A
100
AcDbAssocAction
 90
        1
 90
        0
330
44D
360
0
 90
        1
 90
        0
 90
        0
100
AcDbAssocNetwork
 90
        0
 90
        4
 90
        1
360
44E
 90
        0
  0
XRECORD
  5
6A5
102
{ACAD_REACTORS
330
6A4
102
}
330
6A4
100
AcDbXrecord
280
     1
1070
     0
1070
     1
1070
     1
  0
ACDBASSOCNETWORK
  5
4A2
102
{ACAD_REACTORS
330
4A1
102
}
330
4A1
100
AcDbAssocAction
 90
        1
 90
        0
330
44D
360
0
 90
        2
 90
        0
 90
        0
100
AcDbAssocNetwork
 90
        0
 90
        3
 90
        1
360
497
 90
        0
  0
SPATIAL_FILTER
  5
4E3
102
{ACAD_REACTORS
330
4E2
102
}
330
4E2
100
AcDbFilter
100
AcDbSpatialFilter
 70
     4
 10
10298.24478558008
 20
810.6325202402135
 10
10193.21990918315
 20
810.6325202402135
 10
10193.21990918315
 20
735.6325202402135
 10
10298.24478558008
 20
735.6325202402135
210
0.0
220
0.0
230
1.0
 11
0.0
 21
0.0
 31
0.0
 71
     1
 72
     0
 73
     0
 40
1.0
 40
0.0
 40
0.0
 40
-10193.21990918315
 40
0.0
 40
1.0
 40
0.0
 40
-751.7923254980651
 40
0.0
 40
0.0
 40
1.0
 40
0.0
 40
1.0
 40
0.0
 40
0.0
 40
0.0
 40
0.0
 40
1.0
 40
0.0
 40
0.0
 40
0.0
 40
0.0
 40
1.0
 40
0.0
  0
SPATIAL_FILTER
  5
4E6
102
{ACAD_REACTORS
330
4E5
102
}
330
4E5
100
AcDbFilter
100
AcDbSpatialFilter
 70
     4
 10
10298.24478558008
 20
810.6325202402135
 10
10193.21990918315
 20
810.6325202402135
 10
10193.21990918315
 20
735.6325202402135
 10
10298.24478558008
 20
735.6325202402135
210
0.0
220
0.0
230
1.0
 11
0.0
 21
0.0
 31
0.0
 71
     1
 72
     0
 73
     0
 40
1.0
 40
0.0
 40
0.0
 40
-10222.50199561965
 40
0.0
 40
1.0
 40
0.0
 40
-751.7923254980651
 40
0.0
 40
0.0
 40
1.0
 40
0.0
 40
1.0
 40
0.0
 40
0.0
 40
0.0
 40
0.0
 40
1.0
 40
0.0
 40
0.0
 40
0.0
 40
0.0
 40
1.0
 40
0.0
  0
SPATIAL_FILTER
  5
4E9
102
{ACAD_REACTORS
330
4E8
102
}
330
4E8
100
AcDbFilter
100
AcDbSpatialFilter
 70
     4
 10
10298.24478558008
 20
810.6325202402135
 10
10193.21990918315
 20
810.6325202402135
 10
10193.21990918315
 20
735.6325202402135
 10
10298.24478558008
 20
735.6325202402135
210
0.0
220
0.0
230
1.0
 11
0.0
 21
0.0
 31
0.0
 71
     1
 72
     0
 73
     0
 40
1.0
 40
0.0
 40
0.0
 40
-10251.78408205615
 40
0.0
 40
1.0
 40
0.0
 40
-751.7923254980651
 40
0.0
 40
0.0
 40
1.0
 40
0.0
 40
1.0
 40
0.0
 40
0.0
 40
0.0
 40
0.0
 40
1.0
 40
0.0
 40
0.0
 40
0.0
 40
0.0
 40
1.0
 40
0.0
  0
SPATIAL_FILTER
  5
4EC
102
{ACAD_REACTORS
330
4EB
102
}
330
4EB
100
AcDbFilter
100
AcDbSpatialFilter
 70
     4
 10
10298.24478558008
 20
810.6325202402135
 10
10193.21990918315
 20
810.6325202402135
 10
10193.21990918315
 20
735.6325202402135
 10
10298.24478558008
 20
735.6325202402135
210
0.0
220
0.0
230
1.0
 11
0.0
 21
0.0
 31
0.0
 71
     1
 72
     0
 73
     0
 40
1.0
 40
0.0
 40
0.0
 40
-10281.06616849264
 40
0.0
 40
1.0
 40
0.0
 40
-751.7923254980651
 40
0.0
 40
0.0
 40
1.0
 40
0.0
 40
1.0
 40
0.0
 40
0.0
 40
0.0
 40
0.0
 40
1.0
 40
0.0
 40
0.0
 40
0.0
 40
0.0
 40
1.0
 40
0.0
  0
SPATIAL_FILTER
  5
4EF
102
{ACAD_REACTORS
330
4EE
102
}
330
4EE
100
AcDbFilter
100
AcDbSpatialFilter
 70
     4
 10
10298.24478558008
 20
810.6325202402135
 10
10193.21990918315
 20
810.6325202402135
 10
10193.21990918315
 20
735.6325202402135
 10
10298.24478558008
 20
735.6325202402135
210
0.0
220
0.0
230
1.0
 11
0.0
 21
0.0
 31
0.0
 71
     1
 72
     0
 73
     0
 40
1.0
 40
0.0
 40
0.0
 40
-10193.21990918315
 40
0.0
 40
1.0
 40
0.0
 40
-781.2124228691393
 40
0.0
 40
0.0
 40
1.0
 40
0.0
 40
1.0
 40
0.0
 40
0.0
 40
0.0
 40
0.0
 40
1.0
 40
0.0
 40
0.0
 40
0.0
 40
0.0
 40
1.0
 40
0.0
  0
SPATIAL_FILTER
  5
4F2
102
{ACAD_REACTORS
330
4F1
102
}
330
4F1
100
AcDbFilter
100
AcDbSpatialFilter
 70
     4
 10
10298.24478558008
 20
810.6325202402135
 10
10193.21990918315
 20
810.6325202402135
 10
10193.21990918315
 20
735.6325202402135
 10
10298.24478558008
 20
735.6325202402135
210
0.0
220
0.0
230
1.0
 11
0.0
 21
0.0
 31
0.0
 71
     1
 72
     0
 73
     0
 40
1.0
 40
0.0
 40
0.0
 40
-10281.06616849264
 40
0.0
 40
1.0
 40
0.0
 40
-781.2124228691393
 40
0.0
 40
0.0
 40
1.0
 40
0.0
 40
1.0
 40
0.0
 40
0.0
 40
0.0
 40
0.0
 40
1.0
 40
0.0
 40
0.0
 40
0.0
 40
0.0
 40
1.0
 40
0.0
  0
SPATIAL_FILTER
  5
4F5
102
{ACAD_REACTORS
330
4F4
102
}
330
4F4
100
AcDbFilter
100
AcDbSpatialFilter
 70
     4
 10
10298.24478558008
 20
810.6325202402135
 10
10193.21990918315
 20
810.6325202402135
 10
10193.21990918315
 20
735.6325202402135
 10
10298.24478558008
 20
735.6325202402135
210
0.0
220
0.0
230
1.0
 11
0.0
 21
0.0
 31
0.0
 71
     1
 72
     0
 73
     0
 40
1.0
 40
0.0
 40
0.0
 40
-10193.21990918315
 40
0.0
 40
1.0
 40
0.0
 40
-810.6325202402135
 40
0.0
 40
0.0
 40
1.0
 40
0.0
 40
1.0
 40
0.0
 40
0.0
 40
0.0
 40
0.0
 40
1.0
 40
0.0
 40
0.0
 40
0.0
 40
0.0
 40
1.0
 40
0.0
  0
SPATIAL_FILTER
  5
4F8
102
{ACAD_REACTORS
330
4F7
102
}
330
4F7
100
AcDbFilter
100
AcDbSpatialFilter
 70
     4
 10
10298.24478558008
 20
810.6325202402135
 10
10193.21990918315
 20
810.6325202402135
 10
10193.21990918315
 20
735.6325202402135
 10
10298.24478558008
 20
735.6325202402135
210
0.0
220
0.0
230
1.0
 11
0.0
 21
0.0
 31
0.0
 71
     1
 72
     0
 73
     0
 40
1.0
 40
0.0
 40
0.0
 40
-10222.50199561965
 40
0.0
 40
1.0
 40
0.0
 40
-810.6325202402135
 40
0.0
 40
0.0
 40
1.0
 40
0.0
 40
1.0
 40
0.0
 40
0.0
 40
0.0
 40
0.0
 40
1.0
 40
0.0
 40
0.0
 40
0.0
 40
0.0
 40
1.0
 40
0.0
  0
SPATIAL_FILTER
  5
4FB
102
{ACAD_REACTORS
330
4FA
102
}
330
4FA
100
AcDbFilter
100
AcDbSpatialFilter
 70
     4
 10
10298.24478558008
 20
810.6325202402135
 10
10193.21990918315
 20
810.6325202402135
 10
10193.21990918315
 20
735.6325202402135
 10
10298.24478558008
 20
735.6325202402135
210
0.0
220
0.0
230
1.0
 11
0.0
 21
0.0
 31
0.0
 71
     1
 72
     0
 73
     0
 40
1.0
 40
0.0
 40
0.0
 40
-10251.78408205615
 40
0.0
 40
1.0
 40
0.0
 40
-810.6325202402135
 40
0.0
 40
0.0
 40
1.0
 40
0.0
 40
1.0
 40
0.0
 40
0.0
 40
0.0
 40
0.0
 40
1.0
 40
0.0
 40
0.0
 40
0.0
 40
0.0
 40
1.0
 40
0.0
  0
SPATIAL_FILTER
  5
4FE
102
{ACAD_REACTORS
330
4FD
102
}
330
4FD
100
AcDbFilter
100
AcDbSpatialFilter
 70
     4
 10
10298.24478558008
 20
810.6325202402135
 10
10193.21990918315
 20
810.6325202402135
 10
10193.21990918315
 20
735.6325202402135
 10
10298.24478558008
 20
735.6325202402135
210
0.0
220
0.0
230
1.0
 11
0.0
 21
0.0
 31
0.0
 71
     1
 72
     0
 73
     0
 40
1.0
 40
0.0
 40
0.0
 40
-10281.06616849264
 40
0.0
 40
1.0
 40
0.0
 40
-810.6325202402135
 40
0.0
 40
0.0
 40
1.0
 40
0.0
 40
1.0
 40
0.0
 40
0.0
 40
0.0
 40
0.0
 40
1.0
 40
0.0
 40
0.0
 40
0.0
 40
0.0
 40
1.0
 40
0.0
  0
SPATIAL_FILTER
  5
54B
102
{ACAD_REACTORS
330
54A
102
}
330
54A
100
AcDbFilter
100
AcDbSpatialFilter
 70
     4
 10
10180.53125033897
 20
810.6325202402135
 10
10062.25437896897
 20
810.6325202402135
 10
10062.25437896897
 20
735.6325202402135
 10
10180.53125033897
 20
735.6325202402135
210
0.0
220
0.0
230
1.0
 11
0.0
 21
0.0
 31
0.0
 71
     1
 72
     0
 73
     0
 40
1.0
 40
0.0
 40
0.0
 40
-10062.25437896897
 40
0.0
 40
1.0
 40
0.0
 40
-751.7923254980651
 40
0.0
 40
0.0
 40
1.0
 40
0.0
 40
1.0
 40
0.0
 40
0.0
 40
0.0
 40
0.0
 40
1.0
 40
0.0
 40
0.0
 40
0.0
 40
0.0
 40
1.0
 40
0.0
  0
SPATIAL_FILTER
  5
54E
102
{ACAD_REACTORS
330
54D
102
}
330
54D
100
AcDbFilter
100
AcDbSpatialFilter
 70
     4
 10
10180.53125033897
 20
810.6325202402135
 10
10062.25437896897
 20
810.6325202402135
 10
10062.25437896897
 20
735.6325202402135
 10
10180.53125033897
 20
735.6325202402135
210
0.0
220
0.0
230
1.0
 11
0.0
 21
0.0
 31
0.0
 71
     1
 72
     0
 73
     0
 40
1.0
 40
0.0
 40
0.0
 40
-10091.53646540547
 40
0.0
 40
1.0
 40
0.0
 40
-751.7923254980651
 40
0.0
 40
0.0
 40
1.0
 40
0.0
 40
1.0
 40
0.0
 40
0.0
 40
0.0
 40
0.0
 40
1.0
 40
0.0
 40
0.0
 40
0.0
 40
0.0
 40
1.0
 40
0.0
  0
SPATIAL_FILTER
  5
551
102
{ACAD_REACTORS
330
550
102
}
330
550
100
AcDbFilter
100
AcDbSpatialFilter
 70
     4
 10
10180.53125033897
 20
810.6325202402135
 10
10062.25437896897
 20
810.6325202402135
 10
10062.25437896897
 20
735.6325202402135
 10
10180.53125033897
 20
735.6325202402135
210
0.0
220
0.0
230
1.0
 11
0.0
 21
0.0
 31
0.0
 71
     1
 72
     0
 73
     0
 40
1.0
 40
0.0
 40
0.0
 40
-10120.81855184196
 40
0.0
 40
1.0
 40
0.0
 40
-751.7923254980651
 40
0.0
 40
0.0
 40
1.0
 40
0.0
 40
1.0
 40
0.0
 40
0.0
 40
0.0
 40
0.0
 40
1.0
 40
0.0
 40
0.0
 40
0.0
 40
0.0
 40
1.0
 40
0.0
  0
SPATIAL_FILTER
  5
554
102
{ACAD_REACTORS
330
553
102
}
330
553
100
AcDbFilter
100
AcDbSpatialFilter
 70
     4
 10
10180.53125033897
 20
810.6325202402135
 10
10062.25437896897
 20
810.6325202402135
 10
10062.25437896897
 20
735.6325202402135
 10
10180.53125033897
 20
735.6325202402135
210
0.0
220
0.0
230
1.0
 11
0.0
 21
0.0
 31
0.0
 71
     1
 72
     0
 73
     0
 40
1.0
 40
0.0
 40
0.0
 40
-10150.10063827846
 40
0.0
 40
1.0
 40
0.0
 40
-751.7923254980651
 40
0.0
 40
0.0
 40
1.0
 40
0.0
 40
1.0
 40
0.0
 40
0.0
 40
0.0
 40
0.0
 40
1.0
 40
0.0
 40
0.0
 40
0.0
 40
0.0
 40
1.0
 40
0.0
  0
SPATIAL_FILTER
  5
557
102
{ACAD_REACTORS
330
556
102
}
330
556
100
AcDbFilter
100
AcDbSpatialFilter
 70
     4
 10
10180.53125033897
 20
810.6325202402135
 10
10062.25437896897
 20
810.6325202402135
 10
10062.25437896897
 20
735.6325202402135
 10
10180.53125033897
 20
735.6325202402135
210
0.0
220
0.0
230
1.0
 11
0.0
 21
0.0
 31
0.0
 71
     1
 72
     0
 73
     0
 40
1.0
 40
0.0
 40
0.0
 40
-10179.38272471496
 40
0.0
 40
1.0
 40
0.0
 40
-751.7923254980651
 40
0.0
 40
0.0
 40
1.0
 40
0.0
 40
1.0
 40
0.0
 40
0.0
 40
0.0
 40
0.0
 40
1.0
 40
0.0
 40
0.0
 40
0.0
 40
0.0
 40
1.0
 40
0.0
  0
SPATIAL_FILTER
  5
55A
102
{ACAD_REACTORS
330
559
102
}
330
559
100
AcDbFilter
100
AcDbSpatialFilter
 70
     4
 10
10180.53125033897
 20
810.6325202402135
 10
10062.25437896897
 20
810.6325202402135
 10
10062.25437896897
 20
735.6325202402135
 10
10180.53125033897
 20
735.6325202402135
210
0.0
220
0.0
230
1.0
 11
0.0
 21
0.0
 31
0.0
 71
     1
 72
     0
 73
     0
 40
1.0
 40
0.0
 40
0.0
 40
-10062.25437896897
 40
0.0
 40
1.0
 40
0.0
 40
-781.2124228691393
 40
0.0
 40
0.0
 40
1.0
 40
0.0
 40
1.0
 40
0.0
 40
0.0
 40
0.0
 40
0.0
 40
1.0
 40
0.0
 40
0.0
 40
0.0
 40
0.0
 40
1.0
 40
0.0
  0
SPATIAL_FILTER
  5
55D
102
{ACAD_REACTORS
330
55C
102
}
330
55C
100
AcDbFilter
100
AcDbSpatialFilter
 70
     4
 10
10180.53125033897
 20
810.6325202402135
 10
10062.25437896897
 20
810.6325202402135
 10
10062.25437896897
 20
735.6325202402135
 10
10180.53125033897
 20
735.6325202402135
210
0.0
220
0.0
230
1.0
 11
0.0
 21
0.0
 31
0.0
 71
     1
 72
     0
 73
     0
 40
1.0
 40
0.0
 40
0.0
 40
-10179.38272471496
 40
0.0
 40
1.0
 40
0.0
 40
-781.2124228691393
 40
0.0
 40
0.0
 40
1.0
 40
0.0
 40
1.0
 40
0.0
 40
0.0
 40
0.0
 40
0.0
 40
1.0
 40
0.0
 40
0.0
 40
0.0
 40
0.0
 40
1.0
 40
0.0
  0
SPATIAL_FILTER
  5
560
102
{ACAD_REACTORS
330
55F
102
}
330
55F
100
AcDbFilter
100
AcDbSpatialFilter
 70
     4
 10
10180.53125033897
 20
810.6325202402135
 10
10062.25437896897
 20
810.6325202402135
 10
10062.25437896897
 20
735.6325202402135
 10
10180.53125033897
 20
735.6325202402135
210
0.0
220
0.0
230
1.0
 11
0.0
 21
0.0
 31
0.0
 71
     1
 72
     0
 73
     0
 40
1.0
 40
0.0
 40
0.0
 40
-10062.25437896897
 40
0.0
 40
1.0
 40
0.0
 40
-810.6325202402135
 40
0.0
 40
0.0
 40
1.0
 40
0.0
 40
1.0
 40
0.0
 40
0.0
 40
0.0
 40
0.0
 40
1.0
 40
0.0
 40
0.0
 40
0.0
 40
0.0
 40
1.0
 40
0.0
  0
SPATIAL_FILTER
  5
563
102
{ACAD_REACTORS
330
562
102
}
330
562
100
AcDbFilter
100
AcDbSpatialFilter
 70
     4
 10
10180.53125033897
 20
810.6325202402135
 10
10062.25437896897
 20
810.6325202402135
 10
10062.25437896897
 20
735.6325202402135
 10
10180.53125033897
 20
735.6325202402135
210
0.0
220
0.0
230
1.0
 11
0.0
 21
0.0
 31
0.0
 71
     1
 72
     0
 73
     0
 40
1.0
 40
0.0
 40
0.0
 40
-10091.53646540547
 40
0.0
 40
1.0
 40
0.0
 40
-810.6325202402135
 40
0.0
 40
0.0
 40
1.0
 40
0.0
 40
1.0
 40
0.0
 40
0.0
 40
0.0
 40
0.0
 40
1.0
 40
0.0
 40
0.0
 40
0.0
 40
0.0
 40
1.0
 40
0.0
  0
SPATIAL_FILTER
  5
566
102
{ACAD_REACTORS
330
565
102
}
330
565
100
AcDbFilter
100
AcDbSpatialFilter
 70
     4
 10
10180.53125033897
 20
810.6325202402135
 10
10062.25437896897
 20
810.6325202402135
 10
10062.25437896897
 20
735.6325202402135
 10
10180.53125033897
 20
735.6325202402135
210
0.0
220
0.0
230
1.0
 11
0.0
 21
0.0
 31
0.0
 71
     1
 72
     0
 73
     0
 40
1.0
 40
0.0
 40
0.0
 40
-10120.81855184196
 40
0.0
 40
1.0
 40
0.0
 40
-810.6325202402135
 40
0.0
 40
0.0
 40
1.0
 40
0.0
 40
1.0
 40
0.0
 40
0.0
 40
0.0
 40
0.0
 40
1.0
 40
0.0
 40
0.0
 40
0.0
 40
0.0
 40
1.0
 40
0.0
  0
SPATIAL_FILTER
  5
569
102
{ACAD_REACTORS
330
568
102
}
330
568
100
AcDbFilter
100
AcDbSpatialFilter
 70
     4
 10
10180.53125033897
 20
810.6325202402135
 10
10062.25437896897
 20
810.6325202402135
 10
10062.25437896897
 20
735.6325202402135
 10
10180.53125033897
 20
735.6325202402135
210
0.0
220
0.0
230
1.0
 11
0.0
 21
0.0
 31
0.0
 71
     1
 72
     0
 73
     0
 40
1.0
 40
0.0
 40
0.0
 40
-10150.10063827846
 40
0.0
 40
1.0
 40
0.0
 40
-810.6325202402135
 40
0.0
 40
0.0
 40
1.0
 40
0.0
 40
1.0
 40
0.0
 40
0.0
 40
0.0
 40
0.0
 40
1.0
 40
0.0
 40
0.0
 40
0.0
 40
0.0
 40
1.0
 40
0.0
  0
SPATIAL_FILTER
  5
56C
102
{ACAD_REACTORS
330
56B
102
}
330
56B
100
AcDbFilter
100
AcDbSpatialFilter
 70
     4
 10
10180.53125033897
 20
810.6325202402135
 10
10062.25437896897
 20
810.6325202402135
 10
10062.25437896897
 20
735.6325202402135
 10
10180.53125033897
 20
735.6325202402135
210
0.0
220
0.0
230
1.0
 11
0.0
 21
0.0
 31
0.0
 71
     1
 72
     0
 73
     0
 40
1.0
 40
0.0
 40
0.0
 40
-10179.38272471496
 40
0.0
 40
1.0
 40
0.0
 40
-810.6325202402135
 40
0.0
 40
0.0
 40
1.0
 40
0.0
 40
1.0
 40
0.0
 40
0.0
 40
0.0
 40
0.0
 40
1.0
 40
0.0
 40
0.0
 40
0.0
 40
0.0
 40
1.0
 40
0.0
  0
DICTIONARY
  5
311
330
267
100
AcDbDictionary
280
     1
281
     1
  3
ACAD_XREC_ROUNDTRIP
360
6A0
  0
DICTIONARY
  5
45C
330
43A
100
AcDbDictionary
280
     1
281
     1
  3
ACAD_XREC_ROUNDTRIP
360
6A7
  0
DICTIONARY
  5
658
330
1E
100
AcDbDictionary
280
     1
281
     1
  3
ACAD_XREC_ROUNDTRIP
360
659
  0
DICTIONARY
  5
65C
330
26
100
AcDbDictionary
280
     1
281
     1
  3
ACAD_XREC_ROUNDTRIP
360
65D
  0
DICTIONARY
  5
65A
330
22
100
AcDbDictionary
280
     1
281
     1
  3
ACAD_XREC_ROUNDTRIP
360
65B
  0
DICTIONARY
  5
680
330
3D
100
AcDbDictionary
280
     1
281
     1
  3
ACAD_XREC_ROUNDTRIP
360
681
  0
DICTIONARY
  5
67E
330
3C
100
AcDbDictionary
280
     1
281
     1
  3
ACAD_XREC_ROUNDTRIP
360
67F
  0
DICTIONARY
  5
682
330
3E
100
AcDbDictionary
280
     1
281
     1
  3
ACAD_XREC_ROUNDTRIP
360
683
  0
DICTIONARY
  5
69D
330
263
100
AcDbDictionary
280
     1
281
     1
  3
ACAD_XREC_ROUNDTRIP
360
69E
  0
DICTIONARY
  5
30F
330
265
100
AcDbDictionary
280
     1
281
     1
  3
ACAD_XREC_ROUNDTRIP
360
69F
  0
DICTIONARY
  5
45A
330
439
100
AcDbDictionary
280
     1
281
     1
  3
ACAD_XREC_ROUNDTRIP
360
6A6
  0
DICTIONARY
  5
64A
330
262
100
AcDbDictionary
280
     1
281
     1
  3
ACAD_ROUNDTRIP_2008_TABLESTYLE_CELLSTYLEMAP
360
64B
  3
ACAD_XREC_ROUNDTRIP
360
69B
  0
DICTIONARY
  5
666
330
2F
100
AcDbDictionary
280
     1
281
     1
  3
ACAD_XREC_ROUNDTRIP
360
667
  0
DICTIONARY
  5
66A
330
31
100
AcDbDictionary
280
     1
281
     1
  3
ACAD_XREC_ROUNDTRIP
360
66B
  0
DICTIONARY
  5
668
330
30
100
AcDbDictionary
280
     1
281
     1
  3
ACAD_XREC_ROUNDTRIP
360
669
  0
DICTIONARY
  5
66C
330
32
100
AcDbDictionary
280
     1
281
     1
  3
ACAD_XREC_ROUNDTRIP
360
66D
  0
DICTIONARY
  5
674
330
36
100
AcDbDictionary
280
     1
281
     1
  3
ACAD_XREC_ROUNDTRIP
360
675
  0
DICTIONARY
  5
67C
330
3A
100
AcDbDictionary
280
     1
281
     1
  3
ACAD_XREC_ROUNDTRIP
360
67D
  0
DICTIONARY
  5
670
330
34
100
AcDbDictionary
280
     1
281
     1
  3
ACAD_XREC_ROUNDTRIP
360
671
  0
DICTIONARY
  5
672
330
35
100
AcDbDictionary
280
     1
281
     1
  3
ACAD_XREC_ROUNDTRIP
360
673
  0
DICTIONARY
  5
699
330
260
100
AcDbDictionary
280
     1
281
     1
  3
ACAD_XREC_ROUNDTRIP
360
69A
  0
DICTIONARY
  5
67A
330
39
100
AcDbDictionary
280
     1
281
     1
  3
ACAD_XREC_ROUNDTRIP
360
67B
  0
DICTIONARY
  5
65E
330
2B
100
AcDbDictionary
280
     1
281
     1
  3
ACAD_XREC_ROUNDTRIP
360
65F
  0
DICTIONARY
  5
660
330
2C
100
AcDbDictionary
280
     1
281
     1
  3
ACAD_XREC_ROUNDTRIP
360
661
  0
DICTIONARY
  5
662
330
2D
100
AcDbDictionary
280
     1
281
     1
  3
ACAD_XREC_ROUNDTRIP
360
663
  0
DICTIONARY
  5
664
330
2E
100
AcDbDictionary
280
     1
281
     1
  3
ACAD_XREC_ROUNDTRIP
360
665
  0
DICTIONARY
  5
689
330
258
100
AcDbDictionary
280
     1
281
     1
  3
ACAD_XREC_ROUNDTRIP
360
68A
  0
DICTIONARY
  5
695
330
25E
100
AcDbDictionary
280
     1
281
     1
  3
ACAD_XREC_ROUNDTRIP
360
696
  0
DICTIONARY
  5
678
330
38
100
AcDbDictionary
280
     1
281
     1
  3
ACAD_XREC_ROUNDTRIP
360
679
  0
DICTIONARY
  5
697
330
25F
100
AcDbDictionary
280
     1
281
     1
  3
ACAD_XREC_ROUNDTRIP
360
698
  0
DICTIONARY
  5
66E
330
33
100
AcDbDictionary
280
     1
281
     1
  3
ACAD_XREC_ROUNDTRIP
360
66F
  0
DICTIONARY
  5
693
330
25D
100
AcDbDictionary
280
     1
281
     1
  3
ACAD_XREC_ROUNDTRIP
360
694
  0
DICTIONARY
  5
691
330
25C
100
AcDbDictionary
280
     1
281
     1
  3
ACAD_XREC_ROUNDTRIP
360
692
  0
DICTIONARY
  5
68B
330
259
100
AcDbDictionary
280
     1
281
     1
  3
ACAD_XREC_ROUNDTRIP
360
68C
  0
DICTIONARY
  5
68D
330
25A
100
AcDbDictionary
280
     1
281
     1
  3
ACAD_XREC_ROUNDTRIP
360
68E
  0
DICTIONARY
  5
676
330
37
100
AcDbDictionary
280
     1
281
     1
  3
ACAD_XREC_ROUNDTRIP
360
677
  0
DICTIONARY
  5
687
330
257
100
AcDbDictionary
280
     1
281
     1
  3
ACAD_XREC_ROUNDTRIP
360
688
  0
DICTIONARY
  5
68F
330
25B
100
AcDbDictionary
280
     1
281
     1
  3
ACAD_XREC_ROUNDTRIP
360
690
  0
XRECORD
  5
650
102
{ACAD_REACTORS
330
656
102
}
330
656
100
AcDbXrecord
280
     1
  1
AcDb_Thumbnail_Schema
102
{ATTRRECORD
341
651
  2
AcDbDs::TreatedAsObjectData
280
     1
291
     1
102
ATTRRECORD}
102
{ATTRRECORD
341
652
  2
AcDbDs::Legacy
280
     1
291
     1
102
ATTRRECORD}
  2
AcDbDs::ID
280
    10
 91
        8
102
{ATTRRECORD
341
653
  2
AcDs:Indexable
280
     1
291
     1
102
ATTRRECORD}
102
{ATTRRECORD
341
654
  2
AcDbDs::HandleAttribute
280
     7
282
     1
102
ATTRRECORD}
  2
Thumbnail_Data
280
    15
 91
        0
  0
XRECORD
  5
651
102
{ACAD_REACTORS
330
656
102
}
330
656
100
AcDbXrecord
280
     1
  1
AcDbDs::TreatedAsObjectDataSchema
  2
AcDbDs::TreatedAsObjectData
280
     1
 91
        0
  0
XRECORD
  5
652
102
{ACAD_REACTORS
330
656
102
}
330
656
100
AcDbXrecord
280
     1
  1
AcDbDs::LegacySchema
  2
AcDbDs::Legacy
280
     1
 91
        0
  0
XRECORD
  5
653
102
{ACAD_REACTORS
330
656
102
}
330
656
100
AcDbXrecord
280
     1
  1
AcDbDs::IndexedPropertySchema
  2
AcDs:Indexable
280
     1
 91
        0
  0
XRECORD
  5
654
102
{ACAD_REACTORS
330
656
102
}
330
656
100
AcDbXrecord
280
     1
  1
AcDbDs::HandleAttributeSchema
  2
AcDbDs::HandleAttribute
280
     7
 91
        1
284
     1
  0
ACDBASSOC2DCONSTRAINTGROUP
  5
44E
330
44B
100
AcDbAssocAction
 90
        1
 90
        0
330
44B
360
0
 90
        1
 90
       24
 90
        0
 90
        2
 70
     0
 10
0.0
 20
0.0
 30
0.0
 10
1.0
 20
0.0
 30
0.0
 10
0.0
 20
1.0
 30
0.0
360
0
 90
       12
360
450
360
500
360
5D8
360
5DC
360
501
360
5D9
360
5DD
360
5ED
360
44F
360
5DB
360
5DA
360
5EE
 90
      169
 90
       79
  1
AcConstrainedBoundedLine
330
44E
 90
        1
 70
     1
 90
        2
 90
        3
 90
        5
330
44F
 90
        0
 10
10426.91767296058
 20
1071.492688923596
 30
0.0
 10
-1.0
 20
0.0
 30
0.0
290
     0
 10
10426.91767296058
 20
1071.492688923596
 30
0.0
 11
10053.7759458746
 21
1071.492688923596
 31
0.0
  1
AcConstrainedImplicitPoint
330
44E
 90
        2
 70
     1
 90
        1
 90
        3
330
0
 90
        0
280
     0
 90
       -1
 90
        1
  1
AcPointCurveConstraint
330
44E
 90
        3
 70
     0
 90
        2
 90
        2
 90
        1
 90
        0
290
     1
290
     1
  1
AcConstrainedImplicitPoint
330
44E
 90
        4
 70
     1
 90
        2
 90
        5
 90
       11
330
0
 90
        0
280
     1
 90
       -1
 90
        1
  1
AcPointCurveConstraint
330
44E
 90
        5
 70
     0
 90
        2
 90
        4
 90
        1
 90
        0
290
     1
290
     1
  1
AcConstrainedBoundedLine
330
44E
 90
        6
 70
     1
 90
        2
 90
        8
 90
       10
330
450
 90
        0
 10
10053.7759458746
 20
531.4430732847995
 30
0.0
 10
0.0
 20
1.0
 30
0.0
290
     0
 10
10053.7759458746
 20
531.4430732847995
 30
0.0
 11
10053.7759458746
 21
1071.492688923596
 31
0.0
  1
AcConstrainedImplicitPoint
330
44E
 90
        7
 70
     1
 90
        1
 90
        8
330
0
 90
        0
280
     0
 90
       -1
 90
        6
  1
AcPointCurveConstraint
330
44E
 90
        8
 70
     0
 90
        2
 90
        7
 90
        6
 90
        0
290
     1
290
     1
  1
AcConstrainedImplicitPoint
330
44E
 90
        9
 70
     1
 90
        2
 90
       10
 90
       11
330
0
 90
        0
280
     1
 90
       -1
 90
        6
  1
AcPointCurveConstraint
330
44E
 90
       10
 70
     0
 90
        2
 90
        9
 90
        6
 90
        0
290
     1
290
     1
  1
AcPointCoincidenceConstraint
330
44E
 90
       11
 70
     0
 90
        2
 90
        4
 90
        9
 90
        0
290
     0
290
     1
  1
AcConstrainedBoundedLine
330
44E
 90
       57
 70
     1
 90
        3
 90
       59
 90
       61
 90
       64
330
500
 90
        0
 10
10180.53125033897
 20
810.6325202402135
 30
0.0
 10
-1.0
 20
0.0
 30
0.0
290
     0
 10
10180.53125033897
 20
810.6325202402135
 30
0.0
 11
10062.25437896897
 21
810.6325202402135
 31
0.0
  1
AcConstrainedImplicitPoint
330
44E
 90
       58
 70
     1
 90
        1
 90
       59
330
0
 90
        0
280
     0
 90
       -1
 90
       57
  1
AcPointCurveConstraint
330
44E
 90
       59
 70
     0
 90
        2
 90
       58
 90
       57
 90
        0
290
     1
290
     1
  1
AcConstrainedImplicitPoint
330
44E
 90
       60
 70
     1
 90
        1
 90
       61
330
0
 90
        0
280
     1
 90
       -1
 90
       57
  1
AcPointCurveConstraint
330
44E
 90
       61
 70
     0
 90
        2
 90
       60
 90
       57
 90
        0
290
     1
290
     1
  1
AcConstrainedDatumLine
330
44E
 90
       62
 70
     0
 90
        0
330
0
 90
        0
 10
0.0
 20
0.0
 30
0.0
 10
1.0
 20
0.0
 30
0.0
  1
AcHorizontalConstraint
330
44E
 90
       64
 70
     0
 90
        1
 90
       57
 90
        0
290
     0
290
     1
 90
       62
  1
AcConstrainedBoundedLine
330
44E
 90
       65
 70
     1
 90
        3
 90
       67
 90
       69
 90
       71
330
501
 90
        0
 10
10062.25437896897
 20
735.6325202402135
 30
0.0
 10
1.0
 20
0.0
 30
0.0
290
     0
 10
10062.25437896897
 20
735.6325202402135
 30
0.0
 11
10180.53125033897
 21
735.6325202402135
 31
0.0
  1
AcConstrainedImplicitPoint
330
44E
 90
       66
 70
     1
 90
        1
 90
       67
330
0
 90
        0
280
     0
 90
       -1
 90
       65
  1
AcPointCurveConstraint
330
44E
 90
       67
 70
     0
 90
        2
 90
       66
 90
       65
 90
        0
290
     1
290
     1
  1
AcConstrainedImplicitPoint
330
44E
 90
       68
 70
     1
 90
        1
 90
       69
330
0
 90
        0
280
     1
 90
       -1
 90
       65
  1
AcPointCurveConstraint
330
44E
 90
       69
 70
     0
 90
        2
 90
       68
 90
       65
 90
        0
290
     1
290
     1
  1
AcHorizontalConstraint
330
44E
 90
       71
 70
     0
 90
        1
 90
       65
 90
        0
290
     0
290
     1
 90
       62
  1
AcConstrainedBoundedLine
330
44E
 90
      115
 70
     1
 90
        5
 90
      117
 90
      119
 90
      126
 90
      128
 90
      135
330
5D8
 90
        0
 10
10180.53125033897
 20
735.6325202402135
 30
0.0
 10
0.0
 20
1.0
 30
0.0
290
     0
 10
10180.53125033897
 20
735.6325202402135
 30
0.0
 11
10180.53125033897
 21
785.6325202402141
 31
0.0
  1
AcConstrainedImplicitPoint
330
44E
 90
      116
 70
     1
 90
        2
 90
      117
 90
      125
330
0
 90
        0
280
     0
 90
       -1
 90
      115
  1
AcPointCurveConstraint
330
44E
 90
      117
 70
     0
 90
        2
 90
      116
 90
      115
 90
        0
290
     1
290
     1
  1
AcConstrainedImplicitPoint
330
44E
 90
      118
 70
     1
 90
        2
 90
      119
 90
      134
330
0
 90
        0
280
     1
 90
       -1
 90
      115
  1
AcPointCurveConstraint
330
44E
 90
      119
 70
     0
 90
        2
 90
      118
 90
      115
 90
        0
290
     1
290
     1
  1
AcConstrainedBoundedLine
330
44E
 90
      120
 70
     1
 90
        3
 90
      122
 90
      124
 90
      126
330
5D9
 90
        0
 10
10160.53125033897
 20
735.6325202402135
 30
0.0
 10
1.0
 20
0.0
 30
0.0
290
     0
 10
10160.53125033897
 20
735.6325202402135
 30
0.0
 11
10180.53125033897
 21
735.6325202402135
 31
0.0
  1
AcConstrainedImplicitPoint
330
44E
 90
      121
 70
     1
 90
        2
 90
      122
 90
      157
330
0
 90
        0
280
     0
 90
       -1
 90
      120
  1
AcPointCurveConstraint
330
44E
 90
      122
 70
     0
 90
        2
 90
      121
 90
      120
 90
        0
290
     1
290
     1
  1
AcConstrainedImplicitPoint
330
44E
 90
      123
 70
     1
 90
        2
 90
      124
 90
      125
330
0
 90
        0
280
     1
 90
       -1
 90
      120
  1
AcPointCurveConstraint
330
44E
 90
      124
 70
     0
 90
        2
 90
      123
 90
      120
 90
        0
290
     1
290
     1
  1
AcPointCoincidenceConstraint
330
44E
 90
      125
 70
     0
 90
        2
 90
      116
 90
      123
 90
        0
290
     0
290
     1
  1
AcPerpendicularConstraint
330
44E
 90
      126
 70
     0
 90
        2
 90
      115
 90
      120
 90
        0
290
     0
290
     1
  1
AcConstrainedDatumLine
330
44E
 90
      127
 70
     0
 90
        0
330
0
 90
        0
 10
-58.81831469935605
 20
2.957150025542887
 30
0.0
 10
0.0
 20
1.0
 30
0.0
  1
AcVerticalConstraint
330
44E
 90
      128
 70
     0
 90
        1
 90
      115
 90
        0
290
     0
290
     1
 90
      127
  1
AcConstrainedBoundedLine
330
44E
 90
      129
 70
     1
 90
        4
 90
      131
 90
      133
 90
      135
 90
      142
330
5DA
 90
        0
 10
10180.53125033897
 20
785.6325202402141
 30
0.0
 10
1.0
 20
0.0
 30
0.0
290
     0
 10
10180.53125033897
 20
785.6325202402141
 30
0.0
 11
10181.73125033897
 21
785.6325202402141
 31
0.0
  1
AcConstrainedImplicitPoint
330
44E
 90
      130
 70
     1
 90
        2
 90
      131
 90
      134
330
0
 90
        0
280
     0
 90
       -1
 90
      129
  1
AcPointCurveConstraint
330
44E
 90
      131
 70
     0
 90
        2
 90
      130
 90
      129
 90
        0
290
     1
290
     1
  1
AcConstrainedImplicitPoint
330
44E
 90
      132
 70
     1
 90
        2
 90
      133
 90
      141
330
0
 90
        0
280
     1
 90
       -1
 90
      129
  1
AcPointCurveConstraint
330
44E
 90
      133
 70
     0
 90
        2
 90
      132
 90
      129
 90
        0
290
     1
290
     1
  1
AcPointCoincidenceConstraint
330
44E
 90
      134
 70
     0
 90
        2
 90
      130
 90
      118
 90
        0
290
     0
290
     1
  1
AcPerpendicularConstraint
330
44E
 90
      135
 70
     0
 90
        2
 90
      129
 90
      115
 90
        0
290
     0
290
     1
  1
AcConstrainedBoundedLine
330
44E
 90
      136
 70
     1
 90
        4
 90
      138
 90
      140
 90
      142
 90
      149
330
5DB
 90
        0
 10
10181.73125033897
 20
755.6325202402136
 30
0.0
 10
0.0
 20
-1.0
 30
0.0
290
     0
 10
10181.73125033897
 20
785.6325202402141
 30
0.0
 11
10181.73125033897
 21
734.4325202402135
 31
0.0
  1
AcConstrainedImplicitPoint
330
44E
 90
      137
 70
     1
 90
        2
 90
      138
 90
      141
330
0
 90
        0
280
     0
 90
       -1
 90
      136
  1
AcPointCurveConstraint
330
44E
 90
      138
 70
     0
 90
        2
 90
      137
 90
      136
 90
        0
290
     1
290
     1
  1
AcConstrainedImplicitPoint
330
44E
 90
      139
 70
     1
 90
        2
 90
      140
 90
      148
330
0
 90
        0
280
     1
 90
       -1
 90
      136
  1
AcPointCurveConstraint
330
44E
 90
      140
 70
     0
 90
        2
 90
      139
 90
      136
 90
        0
290
     1
290
     1
  1
AcPointCoincidenceConstraint
330
44E
 90
      141
 70
     0
 90
        2
 90
      137
 90
      132
 90
        0
290
     0
290
     1
  1
AcPerpendicularConstraint
330
44E
 90
      142
 70
     0
 90
        2
 90
      136
 90
      129
 90
        0
290
     0
290
     1
  1
AcConstrainedBoundedLine
330
44E
 90
      143
 70
     1
 90
        4
 90
      145
 90
      147
 90
      149
 90
      156
330
5DC
 90
        0
 10
10181.73125033897
 20
734.4325202402135
 30
0.0
 10
-1.0
 20
0.0
 30
0.0
290
     0
 10
10181.73125033897
 20
734.4325202402135
 30
0.0
 11
10160.53125033897
 21
734.4325202402135
 31
0.0
  1
AcConstrainedImplicitPoint
330
44E
 90
      144
 70
     1
 90
        2
 90
      145
 90
      148
330
0
 90
        0
280
     0
 90
       -1
 90
      143
  1
AcPointCurveConstraint
330
44E
 90
      145
 70
     0
 90
        2
 90
      144
 90
      143
 90
        0
290
     1
290
     1
  1
AcConstrainedImplicitPoint
330
44E
 90
      146
 70
     1
 90
        2
 90
      147
 90
      155
330
0
 90
        0
280
     1
 90
       -1
 90
      143
  1
AcPointCurveConstraint
330
44E
 90
      147
 70
     0
 90
        2
 90
      146
 90
      143
 90
        0
290
     1
290
     1
  1
AcPointCoincidenceConstraint
330
44E
 90
      148
 70
     0
 90
        2
 90
      144
 90
      139
 90
        0
290
     0
290
     1
  1
AcPerpendicularConstraint
330
44E
 90
      149
 70
     0
 90
        2
 90
      143
 90
      136
 90
        0
290
     0
290
     1
  1
AcConstrainedBoundedLine
330
44E
 90
      150
 70
     1
 90
        3
 90
      152
 90
      154
 90
      156
330
5DD
 90
        0
 10
10160.53125033897
 20
734.4325202402135
 30
0.0
 10
0.0
 20
1.0
 30
0.0
290
     0
 10
10160.53125033897
 20
734.4325202402135
 30
0.0
 11
10160.53125033897
 21
735.6325202402135
 31
0.0
  1
AcConstrainedImplicitPoint
330
44E
 90
      151
 70
     1
 90
        2
 90
      152
 90
      155
330
0
 90
        0
280
     0
 90
       -1
 90
      150
  1
AcPointCurveConstraint
330
44E
 90
      152
 70
     0
 90
        2
 90
      151
 90
      150
 90
        0
290
     1
290
     1
  1
AcConstrainedImplicitPoint
330
44E
 90
      153
 70
     1
 90
        2
 90
      154
 90
      157
330
0
 90
        0
280
     1
 90
       -1
 90
      150
  1
AcPointCurveConstraint
330
44E
 90
      154
 70
     0
 90
        2
 90
      153
 90
      150
 90
        0
290
     1
290
     1
  1
AcPointCoincidenceConstraint
330
44E
 90
      155
 70
     0
 90
        2
 90
      151
 90
      146
 90
        0
290
     0
290
     1
  1
AcPerpendicularConstraint
330
44E
 90
      156
 70
     0
 90
        2
 90
      150
 90
      143
 90
        0
290
     0
290
     1
  1
AcPointCoincidenceConstraint
330
44E
 90
      157
 70
     0
 90
        2
 90
      153
 90
      121
 90
        0
290
     0
290
     1
  1
AcConstrainedBoundedLine
330
44E
 90
      158
 70
     1
 90
        3
 90
      160
 90
      162
 90
      169
330
5ED
 90
        0
 10
10192.01990918315
 20
785.6325202402135
 30
0.0
 10
0.0
 20
-1.0
 30
0.0
290
     0
 10
10192.01990918315
 20
785.6325202402135
 30
0.0
 11
10192.01990918315
 21
734.4325202402135
 31
0.0
  1
AcConstrainedImplicitPoint
330
44E
 90
      159
 70
     1
 90
        2
 90
      160
 90
      168
330
0
 90
        0
280
     0
 90
       -1
 90
      158
  1
AcPointCurveConstraint
330
44E
 90
      160
 70
     0
 90
        2
 90
      159
 90
      158
 90
        0
290
     1
290
     1
  1
AcConstrainedImplicitPoint
330
44E
 90
      161
 70
     1
 90
        1
 90
      162
330
0
 90
        0
280
     1
 90
       -1
 90
      158
  1
AcPointCurveConstraint
330
44E
 90
      162
 70
     0
 90
        2
 90
      161
 90
      158
 90
        0
290
     1
290
     1
  1
AcConstrainedBoundedLine
330
44E
 90
      163
 70
     1
 90
        2
 90
      165
 90
      167
330
5EE
 90
        0
 10
10193.21990918315
 20
785.6325202402135
 30
0.0
 10
-1.0
 20
0.0
 30
0.0
290
     0
 10
10193.21990918315
 20
785.6325202402135
 30
0.0
 11
10192.01990918315
 21
785.6325202402135
 31
0.0
  1
AcConstrainedImplicitPoint
330
44E
 90
      164
 70
     1
 90
        1
 90
      165
330
0
 90
        0
280
     0
 90
       -1
 90
      163
  1
AcPointCurveConstraint
330
44E
 90
      165
 70
     0
 90
        2
 90
      164
 90
      163
 90
        0
290
     1
290
     1
  1
AcConstrainedImplicitPoint
330
44E
 90
      166
 70
     1
 90
        2
 90
      167
 90
      168
330
0
 90
        0
280
     1
 90
       -1
 90
      163
  1
AcPointCurveConstraint
330
44E
 90
      167
 70
     0
 90
        2
 90
      166
 90
      163
 90
        0
290
     1
290
     1
  1
AcPointCoincidenceConstraint
330
44E
 90
      168
 70
     0
 90
        2
 90
      159
 90
      166
 90
        0
290
     0
290
     1
  1
AcVerticalConstraint
330
44E
 90
      169
 70
     0
 90
        1
 90
      158
 90
        0
290
     0
290
     1
 90
      127
  0
ACDBASSOC2DCONSTRAINTGROUP
  5
497
330
4A2
100
AcDbAssocAction
 90
        1
 90
        0
330
4A2
360
0
 90
        1
 90
        8
 90
        0
 90
        2
 70
     0
 10
0.0
 20
0.0
 30
0.0
 10
1.0
 20
0.0
 30
0.0
 10
0.0
 20
1.0
 30
0.0
360
0
 90
        6
360
49A
360
49B
360
49C
360
49D
360
49E
360
49F
 90
       56
 90
       43
  1
AcConstrainedBoundedLine
330
497
 90
       12
 70
     1
 90
        5
 90
       14
 90
       16
 90
       23
 90
       26
 90
       33
330
49A
 90
        0
 10
10239.34956503833
 20
732.6753702146707
 30
0.0
 10
0.0
 20
1.0
 30
0.0
290
     0
 10
10239.34956503833
 20
732.6753702146707
 30
0.0
 11
10239.34956503833
 21
752.6753702146707
 31
0.0
  1
AcConstrainedImplicitPoint
330
497
 90
       13
 70
     1
 90
        2
 90
       14
 90
       22
330
0
 90
        0
280
     0
 90
       -1
 90
       12
  1
AcPointCurveConstraint
330
497
 90
       14
 70
     0
 90
        2
 90
       13
 90
       12
 90
        0
290
     1
290
     1
  1
AcConstrainedImplicitPoint
330
497
 90
       15
 70
     1
 90
        2
 90
       16
 90
       32
330
0
 90
        0
280
     1
 90
       -1
 90
       12
  1
AcPointCurveConstraint
330
497
 90
       16
 70
     0
 90
        2
 90
       15
 90
       12
 90
        0
290
     1
290
     1
  1
AcConstrainedBoundedLine
330
497
 90
       17
 70
     1
 90
        3
 90
       19
 90
       21
 90
       23
330
49B
 90
        0
 10
10219.34956503833
 20
732.6753702146707
 30
0.0
 10
1.0
 20
0.0
 30
0.0
290
     0
 10
10219.34956503833
 20
732.6753702146707
 30
0.0
 11
10239.34956503833
 21
732.6753702146707
 31
0.0
  1
AcConstrainedImplicitPoint
330
497
 90
       18
 70
     1
 90
        2
 90
       19
 90
       55
330
0
 90
        0
280
     0
 90
       -1
 90
       17
  1
AcPointCurveConstraint
330
497
 90
       19
 70
     0
 90
        2
 90
       18
 90
       17
 90
        0
290
     1
290
     1
  1
AcConstrainedImplicitPoint
330
497
 90
       20
 70
     1
 90
        2
 90
       21
 90
       22
330
0
 90
        0
280
     1
 90
       -1
 90
       17
  1
AcPointCurveConstraint
330
497
 90
       21
 70
     0
 90
        2
 90
       20
 90
       17
 90
        0
290
     1
290
     1
  1
AcPointCoincidenceConstraint
330
497
 90
       22
 70
     0
 90
        2
 90
       13
 90
       20
 90
        0
290
     0
290
     1
  1
AcPerpendicularConstraint
330
497
 90
       23
 70
     0
 90
        2
 90
       12
 90
       17
 90
        0
290
     0
290
     1
  1
AcConstrainedDatumLine
330
497
 90
       25
 70
     0
 90
        0
330
0
 90
        0
 10
0.0
 20
0.0
 30
0.0
 10
0.0
 20
1.0
 30
0.0
  1
AcVerticalConstraint
330
497
 90
       26
 70
     0
 90
        1
 90
       12
 90
        0
290
     0
290
     1
 90
       25
  1
AcConstrainedBoundedLine
330
497
 90
       27
 70
     1
 90
        4
 90
       29
 90
       31
 90
       33
 90
       40
330
49C
 90
        0
 10
10239.34956503833
 20
752.6753702146707
 30
0.0
 10
1.0
 20
0.0
 30
0.0
290
     0
 10
10239.34956503833
 20
752.6753702146707
 30
0.0
 11
10240.54956503833
 21
752.6753702146707
 31
0.0
  1
AcConstrainedImplicitPoint
330
497
 90
       28
 70
     1
 90
        2
 90
       29
 90
       32
330
0
 90
        0
280
     0
 90
       -1
 90
       27
  1
AcPointCurveConstraint
330
497
 90
       29
 70
     0
 90
        2
 90
       28
 90
       27
 90
        0
290
     1
290
     1
  1
AcConstrainedImplicitPoint
330
497
 90
       30
 70
     1
 90
        2
 90
       31
 90
       39
330
0
 90
        0
280
     1
 90
       -1
 90
       27
  1
AcPointCurveConstraint
330
497
 90
       31
 70
     0
 90
        2
 90
       30
 90
       27
 90
        0
290
     1
290
     1
  1
AcPointCoincidenceConstraint
330
497
 90
       32
 70
     0
 90
        2
 90
       28
 90
       15
 90
        0
290
     0
290
     1
  1
AcPerpendicularConstraint
330
497
 90
       33
 70
     0
 90
        2
 90
       27
 90
       12
 90
        0
290
     0
290
     1
  1
AcConstrainedBoundedLine
330
497
 90
       34
 70
     1
 90
        4
 90
       36
 90
       38
 90
       40
 90
       47
330
49D
 90
        0
 10
10240.54956503833
 20
752.6753702146707
 30
0.0
 10
0.0
 20
-1.0
 30
0.0
290
     0
 10
10240.54956503833
 20
752.6753702146707
 30
0.0
 11
10240.54956503833
 21
731.4753702146706
 31
0.0
  1
AcConstrainedImplicitPoint
330
497
 90
       35
 70
     1
 90
        2
 90
       36
 90
       39
330
0
 90
        0
280
     0
 90
       -1
 90
       34
  1
AcPointCurveConstraint
330
497
 90
       36
 70
     0
 90
        2
 90
       35
 90
       34
 90
        0
290
     1
290
     1
  1
AcConstrainedImplicitPoint
330
497
 90
       37
 70
     1
 90
        2
 90
       38
 90
       46
330
0
 90
        0
280
     1
 90
       -1
 90
       34
  1
AcPointCurveConstraint
330
497
 90
       38
 70
     0
 90
        2
 90
       37
 90
       34
 90
        0
290
     1
290
     1
  1
AcPointCoincidenceConstraint
330
497
 90
       39
 70
     0
 90
        2
 90
       35
 90
       30
 90
        0
290
     0
290
     1
  1
AcPerpendicularConstraint
330
497
 90
       40
 70
     0
 90
        2
 90
       34
 90
       27
 90
        0
290
     0
290
     1
  1
AcConstrainedBoundedLine
330
497
 90
       41
 70
     1
 90
        4
 90
       43
 90
       45
 90
       47
 90
       54
330
49E
 90
        0
 10
10240.54956503833
 20
731.4753702146706
 30
0.0
 10
-1.0
 20
0.0
 30
0.0
290
     0
 10
10240.54956503833
 20
731.4753702146706
 30
0.0
 11
10219.34956503833
 21
731.4753702146706
 31
0.0
  1
AcConstrainedImplicitPoint
330
497
 90
       42
 70
     1
 90
        2
 90
       43
 90
       46
330
0
 90
        0
280
     0
 90
       -1
 90
       41
  1
AcPointCurveConstraint
330
497
 90
       43
 70
     0
 90
        2
 90
       42
 90
       41
 90
        0
290
     1
290
     1
  1
AcConstrainedImplicitPoint
330
497
 90
       44
 70
     1
 90
        2
 90
       45
 90
       53
330
0
 90
        0
280
     1
 90
       -1
 90
       41
  1
AcPointCurveConstraint
330
497
 90
       45
 70
     0
 90
        2
 90
       44
 90
       41
 90
        0
290
     1
290
     1
  1
AcPointCoincidenceConstraint
330
497
 90
       46
 70
     0
 90
        2
 90
       42
 90
       37
 90
        0
290
     0
290
     1
  1
AcPerpendicularConstraint
330
497
 90
       47
 70
     0
 90
        2
 90
       41
 90
       34
 90
        0
290
     0
290
     1
  1
AcConstrainedBoundedLine
330
497
 90
       48
 70
     1
 90
        3
 90
       50
 90
       52
 90
       54
330
49F
 90
        0
 10
10219.34956503833
 20
731.4753702146706
 30
0.0
 10
0.0
 20
1.0
 30
0.0
290
     0
 10
10219.34956503833
 20
731.4753702146706
 30
0.0
 11
10219.34956503833
 21
732.6753702146707
 31
0.0
  1
AcConstrainedImplicitPoint
330
497
 90
       49
 70
     1
 90
        2
 90
       50
 90
       53
330
0
 90
        0
280
     0
 90
       -1
 90
       48
  1
AcPointCurveConstraint
330
497
 90
       50
 70
     0
 90
        2
 90
       49
 90
       48
 90
        0
290
     1
290
     1
  1
AcConstrainedImplicitPoint
330
497
 90
       51
 70
     1
 90
        2
 90
       52
 90
       55
330
0
 90
        0
280
     1
 90
       -1
 90
       48
  1
AcPointCurveConstraint
330
497
 90
       52
 70
     0
 90
        2
 90
       51
 90
       48
 90
        0
290
     1
290
     1
  1
AcPointCoincidenceConstraint
330
497
 90
       53
 70
     0
 90
        2
 90
       49
 90
       44
 90
        0
290
     0
290
     1
  1
AcPerpendicularConstraint
330
497
 90
       54
 70
     0
 90
        2
 90
       48
 90
       41
 90
        0
290
     0
290
     1
  1
AcPointCoincidenceConstraint
330
497
 90
       55
 70
     0
 90
        2
 90
       51
 90
       18
 90
        0
290
     0
290
     1
  0
XRECORD
  5
6A0
102
{ACAD_REACTORS
330
311
102
}
330
311
100
AcDbXrecord
280
     1
102
DISPLAYNAME
  1
Imperial24
102
FLAGS
 90
        0
  0
XRECORD
  5
6A7
102
{ACAD_REACTORS
330
45C
102
}
330
45C
100
AcDbXrecord
280
     1
102
DISPLAYNAME
  1
Metric50
102
FLAGS
 90
        0
  0
XRECORD
  5
659
102
{ACAD_REACTORS
330
658
102
}
330
658
100
AcDbXrecord
280
     1
102
SHADEPLOT
 70
     0
102
SHADEPLOTRESLEVEL
 70
     2
102
SHADEPLOTCUSTOMDPI
 70
   300
  0
XRECORD
  5
65D
102
{ACAD_REACTORS
330
65C
102
}
330
65C
100
AcDbXrecord
280
     1
102
SHADEPLOT
 70
     0
102
SHADEPLOTRESLEVEL
 70
     2
102
SHADEPLOTCUSTOMDPI
 70
   300
  0
XRECORD
  5
65B
102
{ACAD_REACTORS
330
65A
102
}
330
65A
100
AcDbXrecord
280
     1
102
SHADEPLOT
 70
     0
102
SHADEPLOTRESLEVEL
 70
     2
102
SHADEPLOTCUSTOMDPI
 70
   300
  0
XRECORD
  5
681
102
{ACAD_REACTORS
330
680
102
}
330
680
100
AcDbXrecord
280
     1
102
MATERIAL
148
0.0
149
0.0
149
0.0
 93
        0
 94
      127
282
     0
 72
     1
 77
     1
171
     1
175
     1
179
     1
273
     0
  0
XRECORD
  5
67F
102
{ACAD_REACTORS
330
67E
102
}
330
67E
100
AcDbXrecord
280
     1
102
MATERIAL
148
0.0
149
0.0
149
0.0
 93
        0
 94
      127
282
     0
 72
     1
 77
     1
171
     1
175
     1
179
     1
273
     0
  0
XRECORD
  5
683
102
{ACAD_REACTORS
330
682
102
}
330
682
100
AcDbXrecord
280
     1
102
MATERIAL
148
0.0
149
0.0
149
0.0
 93
        0
 94
      127
282
     0
 72
     1
 77
     1
171
     1
175
     1
179
     1
273
     0
  0
XRECORD
  5
69E
102
{ACAD_REACTORS
330
69D
102
}
330
69D
100
AcDbXrecord
280
     1
102
ACAD_ROUNDTRIP_2012_MLEADER_STYLE
298
     1
  0
XRECORD
  5
69F
102
{ACAD_REACTORS
330
30F
102
}
330
30F
100
AcDbXrecord
280
     1
102
DISPLAYNAME
  1
Imperial24
102
FLAGS
 90
        0
  0
XRECORD
  5
6A6
102
{ACAD_REACTORS
330
45A
102
}
330
45A
100
AcDbXrecord
280
     1
102
DISPLAYNAME
  1
Metric50
102
FLAGS
 90
        0
  0
CELLSTYLEMAP
  5
64B
102
{ACAD_REACTORS
330
64A
102
}
330
64A
100
AcDbCellStyleMap
 90
        3
300
CELLSTYLE
  1
TABLEFORMAT_BEGIN
 90
        5
170
     1
 91
        0
 92
    32768
 62
   257
 93
        1
300
CONTENTFORMAT
  1
CONTENTFORMAT_BEGIN
 90
        0
 91
        0
 92
      512
 93
        0
300

 40
0.0
140
1.0
 94
        5
 62
     0
340
11
144
0.25
309
CONTENTFORMAT_END
171
     0
 94
        0
309
TABLEFORMAT_END
  1
CELLSTYLE_BEGIN
 90
        1
 91
        1
300
_TITLE
309
CELLSTYLE_END
300
CELLSTYLE
  1
TABLEFORMAT_BEGIN
 90
        5
170
     1
 91
        0
 92
        0
 62
   257
 93
        1
300
CONTENTFORMAT
  1
CONTENTFORMAT_BEGIN
 90
        0
 91
        0
 92
      512
 93
        0
300

 40
0.0
140
1.0
 94
        5
 62
     0
340
11
144
0.18
309
CONTENTFORMAT_END
171
     0
 94
        0
309
TABLEFORMAT_END
  1
CELLSTYLE_BEGIN
 90
        2
 91
        1
300
_HEADER
309
CELLSTYLE_END
300
CELLSTYLE
  1
TABLEFORMAT_BEGIN
 90
        5
170
     1
 91
        0
 92
        0
 62
   257
 93
        1
300
CONTENTFORMAT
  1
CONTENTFORMAT_BEGIN
 90
        0
 91
        0
 92
      512
 93
        0
300

 40
0.0
140
1.0
 94
        2
 62
     0
340
11
144
0.18
309
CONTENTFORMAT_END
171
     0
 94
        0
309
TABLEFORMAT_END
  1
CELLSTYLE_BEGIN
 90
        3
 91
        2
300
_DATA
309
CELLSTYLE_END
  0
XRECORD
  5
69B
102
{ACAD_REACTORS
330
64A
102
}
330
64A
100
AcDbXrecord
280
     1
102
ACAD_ROUNDTRIP_PRE2007_TABLESTYLE
 90
      512
 91
        0
  1

 92
      512
 93
        0
  2

 94
      512
 95
        0
  3

  0
XRECORD
  5
667
102
{ACAD_REACTORS
330
666
102
}
330
666
100
AcDbXrecord
280
     1
102
RTVSPost2010Prop28
280
     1
102
RTVSPost2010PropOp28
 70
     1
102
RTVSPost2010Prop29
280
     1
102
RTVSPost2010PropOp29
 70
     1
102
RTVSPost2010Prop30
280
     0
102
RTVSPost2010PropOp30
 70
     1
102
RTVSPost2010Prop31
280
     0
102
RTVSPost2010PropOp31
 70
     1
102
RTVSPost2010Prop32
280
     0
102
RTVSPost2010PropOp32
 70
     1
102
RTVSPost2010Prop33
280
     0
102
RTVSPost2010PropOp33
 70
     1
102
RTVSPost2010Prop34
280
     0
102
RTVSPost2010PropOp34
 70
     1
102
RTVSPost2010Prop35
280
     0
102
RTVSPost2010PropOp35
 70
     1
102
RTVSPost2010Prop36
280
     0
102
RTVSPost2010PropOp36
 70
     1
102
RTVSPost2010Prop37
 90
       50
102
RTVSPost2010PropOp37
 70
     1
102
RTVSPost2010Prop38
140
0.0
102
RTVSPost2010PropOp38
 70
     1
102
RTVSPost2010Prop39
140
1.0
102
RTVSPost2010PropOp39
 70
     1
102
RTVSPost2010Prop40
 90
        0
102
RTVSPost2010PropOp40
 70
     1
102
RTVSPost2010Prop41ColorIndex
 90
       18
102
RTVSPost2010Prop41ColorRGB
 90
        0
102
RTVSPost2010PropOp41
 70
     1
102
RTVSPost2010Prop42
 90
       50
102
RTVSPost2010PropOp42
 70
     1
102
RTVSPost2010Prop43
 90
        3
102
RTVSPost2010PropOp43
 70
     1
102
RTVSPost2010Prop44ColorIndex
 90
        5
102
RTVSPost2010Prop44ColorRGB
 90
      255
102
RTVSPost2010PropOp44
 70
     1
102
RTVSPost2010Prop45
280
     0
102
RTVSPost2010PropOp45
 70
     1
102
RTVSPost2010Prop46
 90
       50
102
RTVSPost2010PropOp46
 70
     1
102
RTVSPost2010Prop47
 90
       50
102
RTVSPost2010PropOp47
 70
     1
102
RTVSPost2010Prop48
 90
       50
102
RTVSPost2010PropOp48
 70
     1
102
RTVSPost2010Prop49
280
     0
102
RTVSPost2010PropOp49
 70
     1
102
RTVSPost2010Prop50
 90
       50
102
RTVSPost2010PropOp50
 70
     1
102
RTVSPost2010Prop51ColorIndex
 90
      256
102
RTVSPost2010Prop51ColorRGB
 90
-16777216
102
RTVSPost2010PropOp51
 70
     0
102
RTVSPost2010Prop52
140
1.0
102
RTVSPost2010PropOp52
 70
     0
102
RTVSPost2010Prop53
 90
        2
102
RTVSPost2010PropOp53
 70
     1
102
RTVSPost2010Prop54
  1
strokes_ogs.tif
102
RTVSPost2010PropOp54
 70
     1
102
RTVSPost2010Prop55
280
     0
102
RTVSPost2010PropOp55
 70
     1
102
RTVSPost2010Prop56
140
1.0
102
RTVSPost2010PropOp56
 70
     1
102
RTVSPost2010Prop57
140
1.0
102
RTVSPost2010PropOp57
 70
     1
102
RTVSPropertyOp0
 70
     1
102
RTVSPropertyOp1
 70
     1
102
RTVSPropertyOp2
 70
     1
102
RTVSPropertyOp3
 70
     1
102
RTVSPropertyOp4
 70
     1
102
RTVSPropertyOp5
 70
     1
102
RTVSPropertyOp6
 70
     1
102
RTVSPropertyOp7
 70
     1
102
RTVSPropertyOp8
 70
     1
102
RTVSPropertyOp9
 70
     1
102
RTVSPropertyOp10
 70
     1
102
RTVSPropertyOp11
 70
     1
102
RTVSPropertyOp12
 70
     1
102
RTVSPropertyOp13
 70
     1
102
RTVSPropertyOp14
 70
     1
102
RTVSPropertyOp15
 70
     1
102
RTVSPropertyOp16
 70
     1
102
RTVSPropertyOp17
 70
     1
102
RTVSPropertyOp18
 70
     1
102
RTVSPropertyOp19
 70
     1
102
RTVSPropertyOp20
 70
     1
102
RTVSPropertyOp21
 70
     1
102
RTVSPropertyOp22
 70
     1
102
RTVSPropertyOp23
 70
     1
102
RTVSPropertyOp24
 70
     1
102
RTVSPropertyOp25
 70
     1
102
RTVSPropertyOp26
 70
     1
102
RTVSPropertyOp27
 70
     1
102
RTVSPropertyOp28
 70
     1
102
RTVSPropertyOp29
 70
     1
102
RTVSPropertyOp30
 70
     1
102
RTVSPropertyOp31
 70
     1
102
RTVSPropertyOp32
 70
     1
102
RTVSPropertyOp33
 70
     1
102
RTVSPropertyOp34
 70
     1
102
RTVSPropertyOp35
 70
     1
102
RTVSPropertyOp36
 70
     1
102
RTVSPropertyOp37
 70
     1
102
RTVSPropertyOp38
 70
     1
102
RTVSPropertyOp39
 70
     1
102
RTVSPropertyOp40
 70
     1
102
RTVSPropertyOp41
 70
     1
102
RTVSPropertyOp42
 70
     1
102
RTVSPropertyOp43
 70
     1
102
RTVSPropertyOp44
 70
     1
102
RTVSPropertyOp45
 70
     1
102
RTVSPropertyOp46
 70
     1
102
RTVSPropertyOp47
 70
     1
102
RTVSPropertyOp48
 70
     1
102
RTVSPropertyOp49
 70
     1
102
RTVSPropertyOp50
 70
     1
102
RTVSPropertyOp51
 70
     0
102
RTVSPropertyOp52
 70
     0
102
RTVSPropertyOp53
 70
     1
102
RTVSPropertyOp54
 70
     1
102
RTVSPropertyOp55
 70
     1
102
RTVSPropertyOp56
 70
     1
102
RTVSPropertyOp57
 70
     1
102
RTVSPropertyOp58
 70
     1
102
RTVSPropertyOp59
 70
     1
102
RTVSPropertyOp60
 70
     1
102
RTVSPropertyOp61
 70
     1
102
RTVSPropertyOp62
 70
     1
  0
XRECORD
  5
66B
102
{ACAD_REACTORS
330
66A
102
}
330
66A
100
AcDbXrecord
280
     1
102
RTVSPost2010Prop28
280
     0
102
RTVSPost2010PropOp28
 70
     1
102
RTVSPost2010Prop29
280
     1
102
RTVSPost2010PropOp29
 70
     1
102
RTVSPost2010Prop30
280
     1
102
RTVSPost2010PropOp30
 70
     1
102
RTVSPost2010Prop31
280
     0
102
RTVSPost2010PropOp31
 70
     1
102
RTVSPost2010Prop32
280
     0
102
RTVSPost2010PropOp32
 70
     1
102
RTVSPost2010Prop33
280
     0
102
RTVSPost2010PropOp33
 70
     1
102
RTVSPost2010Prop34
280
     0
102
RTVSPost2010PropOp34
 70
     1
102
RTVSPost2010Prop35
280
     0
102
RTVSPost2010PropOp35
 70
     1
102
RTVSPost2010Prop36
280
     0
102
RTVSPost2010PropOp36
 70
     1
102
RTVSPost2010Prop37
 90
       50
102
RTVSPost2010PropOp37
 70
     1
102
RTVSPost2010Prop38
140
0.0
102
RTVSPost2010PropOp38
 70
     1
102
RTVSPost2010Prop39
140
1.0
102
RTVSPost2010PropOp39
 70
     1
102
RTVSPost2010Prop40
 90
        0
102
RTVSPost2010PropOp40
 70
     1
102
RTVSPost2010Prop41ColorIndex
 90
       18
102
RTVSPost2010Prop41ColorRGB
 90
        0
102
RTVSPost2010PropOp41
 70
     1
102
RTVSPost2010Prop42
 90
       50
102
RTVSPost2010PropOp42
 70
     1
102
RTVSPost2010Prop43
 90
        3
102
RTVSPost2010PropOp43
 70
     1
102
RTVSPost2010Prop44ColorIndex
 90
        5
102
RTVSPost2010Prop44ColorRGB
 90
      255
102
RTVSPost2010PropOp44
 70
     1
102
RTVSPost2010Prop45
280
     0
102
RTVSPost2010PropOp45
 70
     1
102
RTVSPost2010Prop46
 90
       50
102
RTVSPost2010PropOp46
 70
     1
102
RTVSPost2010Prop47
 90
       50
102
RTVSPost2010PropOp47
 70
     1
102
RTVSPost2010Prop48
 90
       50
102
RTVSPost2010PropOp48
 70
     1
102
RTVSPost2010Prop49
280
     0
102
RTVSPost2010PropOp49
 70
     1
102
RTVSPost2010Prop50
 90
       50
102
RTVSPost2010PropOp50
 70
     1
102
RTVSPost2010Prop51ColorIndex
 90
      256
102
RTVSPost2010Prop51ColorRGB
 90
-16777216
102
RTVSPost2010PropOp51
 70
     0
102
RTVSPost2010Prop52
140
1.0
102
RTVSPost2010PropOp52
 70
     0
102
RTVSPost2010Prop53
 90
        2
102
RTVSPost2010PropOp53
 70
     1
102
RTVSPost2010Prop54
  1
strokes_ogs.tif
102
RTVSPost2010PropOp54
 70
     1
102
RTVSPost2010Prop55
280
     0
102
RTVSPost2010PropOp55
 70
     1
102
RTVSPost2010Prop56
140
1.0
102
RTVSPost2010PropOp56
 70
     1
102
RTVSPost2010Prop57
140
1.0
102
RTVSPost2010PropOp57
 70
     1
102
RTVSPropertyOp0
 70
     1
102
RTVSPropertyOp1
 70
     1
102
RTVSPropertyOp2
 70
     1
102
RTVSPropertyOp3
 70
     1
102
RTVSPropertyOp4
 70
     1
102
RTVSPropertyOp5
 70
     1
102
RTVSPropertyOp6
 70
     1
102
RTVSPropertyOp7
 70
     1
102
RTVSPropertyOp8
 70
     1
102
RTVSPropertyOp9
 70
     1
102
RTVSPropertyOp10
 70
     1
102
RTVSPropertyOp11
 70
     1
102
RTVSPropertyOp12
 70
     1
102
RTVSPropertyOp13
 70
     1
102
RTVSPropertyOp14
 70
     1
102
RTVSPropertyOp15
 70
     1
102
RTVSPropertyOp16
 70
     1
102
RTVSPropertyOp17
 70
     1
102
RTVSPropertyOp18
 70
     1
102
RTVSPropertyOp19
 70
     1
102
RTVSPropertyOp20
 70
     1
102
RTVSPropertyOp21
 70
     1
102
RTVSPropertyOp22
 70
     1
102
RTVSPropertyOp23
 70
     1
102
RTVSPropertyOp24
 70
     1
102
RTVSPropertyOp25
 70
     1
102
RTVSPropertyOp26
 70
     1
102
RTVSPropertyOp27
 70
     1
102
RTVSPropertyOp28
 70
     1
102
RTVSPropertyOp29
 70
     1
102
RTVSPropertyOp30
 70
     1
102
RTVSPropertyOp31
 70
     1
102
RTVSPropertyOp32
 70
     1
102
RTVSPropertyOp33
 70
     1
102
RTVSPropertyOp34
 70
     1
102
RTVSPropertyOp35
 70
     1
102
RTVSPropertyOp36
 70
     1
102
RTVSPropertyOp37
 70
     1
102
RTVSPropertyOp38
 70
     1
102
RTVSPropertyOp39
 70
     1
102
RTVSPropertyOp40
 70
     1
102
RTVSPropertyOp41
 70
     1
102
RTVSPropertyOp42
 70
     1
102
RTVSPropertyOp43
 70
     1
102
RTVSPropertyOp44
 70
     1
102
RTVSPropertyOp45
 70
     1
102
RTVSPropertyOp46
 70
     1
102
RTVSPropertyOp47
 70
     1
102
RTVSPropertyOp48
 70
     1
102
RTVSPropertyOp49
 70
     1
102
RTVSPropertyOp50
 70
     1
102
RTVSPropertyOp51
 70
     0
102
RTVSPropertyOp52
 70
     0
102
RTVSPropertyOp53
 70
     1
102
RTVSPropertyOp54
 70
     1
102
RTVSPropertyOp55
 70
     1
102
RTVSPropertyOp56
 70
     1
102
RTVSPropertyOp57
 70
     1
102
RTVSPropertyOp58
 70
     1
102
RTVSPropertyOp59
 70
     1
102
RTVSPropertyOp60
 70
     1
102
RTVSPropertyOp61
 70
     1
102
RTVSPropertyOp62
 70
     1
  0
XRECORD
  5
669
102
{ACAD_REACTORS
330
668
102
}
330
668
100
AcDbXrecord
280
     1
102
RTVSPost2010Prop28
280
     0
102
RTVSPost2010PropOp28
 70
     1
102
RTVSPost2010Prop29
280
     1
102
RTVSPost2010PropOp29
 70
     1
102
RTVSPost2010Prop30
280
     1
102
RTVSPost2010PropOp30
 70
     1
102
RTVSPost2010Prop31
280
     0
102
RTVSPost2010PropOp31
 70
     1
102
RTVSPost2010Prop32
280
     0
102
RTVSPost2010PropOp32
 70
     1
102
RTVSPost2010Prop33
280
     0
102
RTVSPost2010PropOp33
 70
     1
102
RTVSPost2010Prop34
280
     0
102
RTVSPost2010PropOp34
 70
     1
102
RTVSPost2010Prop35
280
     0
102
RTVSPost2010PropOp35
 70
     1
102
RTVSPost2010Prop36
280
     0
102
RTVSPost2010PropOp36
 70
     1
102
RTVSPost2010Prop37
 90
       50
102
RTVSPost2010PropOp37
 70
     1
102
RTVSPost2010Prop38
140
0.0
102
RTVSPost2010PropOp38
 70
     1
102
RTVSPost2010Prop39
140
1.0
102
RTVSPost2010PropOp39
 70
     1
102
RTVSPost2010Prop40
 90
        0
102
RTVSPost2010PropOp40
 70
     1
102
RTVSPost2010Prop41ColorIndex
 90
       18
102
RTVSPost2010Prop41ColorRGB
 90
        0
102
RTVSPost2010PropOp41
 70
     1
102
RTVSPost2010Prop42
 90
       50
102
RTVSPost2010PropOp42
 70
     1
102
RTVSPost2010Prop43
 90
        3
102
RTVSPost2010PropOp43
 70
     1
102
RTVSPost2010Prop44ColorIndex
 90
        5
102
RTVSPost2010Prop44ColorRGB
 90
      255
102
RTVSPost2010PropOp44
 70
     1
102
RTVSPost2010Prop45
280
     0
102
RTVSPost2010PropOp45
 70
     1
102
RTVSPost2010Prop46
 90
       50
102
RTVSPost2010PropOp46
 70
     1
102
RTVSPost2010Prop47
 90
       50
102
RTVSPost2010PropOp47
 70
     1
102
RTVSPost2010Prop48
 90
       50
102
RTVSPost2010PropOp48
 70
     1
102
RTVSPost2010Prop49
280
     0
102
RTVSPost2010PropOp49
 70
     1
102
RTVSPost2010Prop50
 90
       50
102
RTVSPost2010PropOp50
 70
     1
102
RTVSPost2010Prop51ColorIndex
 90
      256
102
RTVSPost2010Prop51ColorRGB
 90
-16777216
102
RTVSPost2010PropOp51
 70
     0
102
RTVSPost2010Prop52
140
1.0
102
RTVSPost2010PropOp52
 70
     0
102
RTVSPost2010Prop53
 90
        2
102
RTVSPost2010PropOp53
 70
     1
102
RTVSPost2010Prop54
  1
strokes_ogs.tif
102
RTVSPost2010PropOp54
 70
     1
102
RTVSPost2010Prop55
280
     0
102
RTVSPost2010PropOp55
 70
     1
102
RTVSPost2010Prop56
140
1.0
102
RTVSPost2010PropOp56
 70
     1
102
RTVSPost2010Prop57
140
1.0
102
RTVSPost2010PropOp57
 70
     1
102
RTVSPropertyOp0
 70
     1
102
RTVSPropertyOp1
 70
     1
102
RTVSPropertyOp2
 70
     1
102
RTVSPropertyOp3
 70
     1
102
RTVSPropertyOp4
 70
     1
102
RTVSPropertyOp5
 70
     1
102
RTVSPropertyOp6
 70
     1
102
RTVSPropertyOp7
 70
     1
102
RTVSPropertyOp8
 70
     1
102
RTVSPropertyOp9
 70
     1
102
RTVSPropertyOp10
 70
     1
102
RTVSPropertyOp11
 70
     1
102
RTVSPropertyOp12
 70
     1
102
RTVSPropertyOp13
 70
     1
102
RTVSPropertyOp14
 70
     1
102
RTVSPropertyOp15
 70
     1
102
RTVSPropertyOp16
 70
     1
102
RTVSPropertyOp17
 70
     1
102
RTVSPropertyOp18
 70
     1
102
RTVSPropertyOp19
 70
     1
102
RTVSPropertyOp20
 70
     1
102
RTVSPropertyOp21
 70
     1
102
RTVSPropertyOp22
 70
     1
102
RTVSPropertyOp23
 70
     1
102
RTVSPropertyOp24
 70
     1
102
RTVSPropertyOp25
 70
     1
102
RTVSPropertyOp26
 70
     1
102
RTVSPropertyOp27
 70
     1
102
RTVSPropertyOp28
 70
     1
102
RTVSPropertyOp29
 70
     1
102
RTVSPropertyOp30
 70
     1
102
RTVSPropertyOp31
 70
     1
102
RTVSPropertyOp32
 70
     1
102
RTVSPropertyOp33
 70
     1
102
RTVSPropertyOp34
 70
     1
102
RTVSPropertyOp35
 70
     1
102
RTVSPropertyOp36
 70
     1
102
RTVSPropertyOp37
 70
     1
102
RTVSPropertyOp38
 70
     1
102
RTVSPropertyOp39
 70
     1
102
RTVSPropertyOp40
 70
     1
102
RTVSPropertyOp41
 70
     1
102
RTVSPropertyOp42
 70
     1
102
RTVSPropertyOp43
 70
     1
102
RTVSPropertyOp44
 70
     1
102
RTVSPropertyOp45
 70
     1
102
RTVSPropertyOp46
 70
     1
102
RTVSPropertyOp47
 70
     1
102
RTVSPropertyOp48
 70
     1
102
RTVSPropertyOp49
 70
     1
102
RTVSPropertyOp50
 70
     1
102
RTVSPropertyOp51
 70
     0
102
RTVSPropertyOp52
 70
     0
102
RTVSPropertyOp53
 70
     1
102
RTVSPropertyOp54
 70
     1
102
RTVSPropertyOp55
 70
     1
102
RTVSPropertyOp56
 70
     1
102
RTVSPropertyOp57
 70
     1
102
RTVSPropertyOp58
 70
     1
102
RTVSPropertyOp59
 70
     1
102
RTVSPropertyOp60
 70
     1
102
RTVSPropertyOp61
 70
     1
102
RTVSPropertyOp62
 70
     1
  0
XRECORD
  5
66D
102
{ACAD_REACTORS
330
66C
102
}
330
66C
100
AcDbXrecord
280
     1
102
RTVSPost2010Prop28
280
     0
102
RTVSPost2010PropOp28
 70
     1
102
RTVSPost2010Prop29
280
     1
102
RTVSPost2010PropOp29
 70
     1
102
RTVSPost2010Prop30
280
     1
102
RTVSPost2010PropOp30
 70
     1
102
RTVSPost2010Prop31
280
     0
102
RTVSPost2010PropOp31
 70
     1
102
RTVSPost2010Prop32
280
     0
102
RTVSPost2010PropOp32
 70
     1
102
RTVSPost2010Prop33
280
     0
102
RTVSPost2010PropOp33
 70
     1
102
RTVSPost2010Prop34
280
     0
102
RTVSPost2010PropOp34
 70
     1
102
RTVSPost2010Prop35
280
     0
102
RTVSPost2010PropOp35
 70
     1
102
RTVSPost2010Prop36
280
     0
102
RTVSPost2010PropOp36
 70
     1
102
RTVSPost2010Prop37
 90
       50
102
RTVSPost2010PropOp37
 70
     1
102
RTVSPost2010Prop38
140
0.0
102
RTVSPost2010PropOp38
 70
     1
102
RTVSPost2010Prop39
140
1.0
102
RTVSPost2010PropOp39
 70
     1
102
RTVSPost2010Prop40
 90
        0
102
RTVSPost2010PropOp40
 70
     1
102
RTVSPost2010Prop41ColorIndex
 90
       18
102
RTVSPost2010Prop41ColorRGB
 90
        0
102
RTVSPost2010PropOp41
 70
     1
102
RTVSPost2010Prop42
 90
       50
102
RTVSPost2010PropOp42
 70
     1
102
RTVSPost2010Prop43
 90
        3
102
RTVSPost2010PropOp43
 70
     1
102
RTVSPost2010Prop44ColorIndex
 90
        5
102
RTVSPost2010Prop44ColorRGB
 90
      255
102
RTVSPost2010PropOp44
 70
     1
102
RTVSPost2010Prop45
280
     0
102
RTVSPost2010PropOp45
 70
     1
102
RTVSPost2010Prop46
 90
       50
102
RTVSPost2010PropOp46
 70
     1
102
RTVSPost2010Prop47
 90
       50
102
RTVSPost2010PropOp47
 70
     1
102
RTVSPost2010Prop48
 90
       50
102
RTVSPost2010PropOp48
 70
     1
102
RTVSPost2010Prop49
280
     0
102
RTVSPost2010PropOp49
 70
     1
102
RTVSPost2010Prop50
 90
       50
102
RTVSPost2010PropOp50
 70
     1
102
RTVSPost2010Prop51ColorIndex
 90
      256
102
RTVSPost2010Prop51ColorRGB
 90
-16777216
102
RTVSPost2010PropOp51
 70
     0
102
RTVSPost2010Prop52
140
1.0
102
RTVSPost2010PropOp52
 70
     0
102
RTVSPost2010Prop53
 90
        2
102
RTVSPost2010PropOp53
 70
     1
102
RTVSPost2010Prop54
  1
strokes_ogs.tif
102
RTVSPost2010PropOp54
 70
     1
102
RTVSPost2010Prop55
280
     0
102
RTVSPost2010PropOp55
 70
     1
102
RTVSPost2010Prop56
140
1.0
102
RTVSPost2010PropOp56
 70
     1
102
RTVSPost2010Prop57
140
1.0
102
RTVSPost2010PropOp57
 70
     1
102
RTVSPropertyOp0
 70
     1
102
RTVSPropertyOp1
 70
     1
102
RTVSPropertyOp2
 70
     1
102
RTVSPropertyOp3
 70
     1
102
RTVSPropertyOp4
 70
     1
102
RTVSPropertyOp5
 70
     1
102
RTVSPropertyOp6
 70
     1
102
RTVSPropertyOp7
 70
     1
102
RTVSPropertyOp8
 70
     1
102
RTVSPropertyOp9
 70
     1
102
RTVSPropertyOp10
 70
     1
102
RTVSPropertyOp11
 70
     1
102
RTVSPropertyOp12
 70
     1
102
RTVSPropertyOp13
 70
     1
102
RTVSPropertyOp14
 70
     1
102
RTVSPropertyOp15
 70
     1
102
RTVSPropertyOp16
 70
     1
102
RTVSPropertyOp17
 70
     1
102
RTVSPropertyOp18
 70
     1
102
RTVSPropertyOp19
 70
     1
102
RTVSPropertyOp20
 70
     1
102
RTVSPropertyOp21
 70
     1
102
RTVSPropertyOp22
 70
     1
102
RTVSPropertyOp23
 70
     1
102
RTVSPropertyOp24
 70
     1
102
RTVSPropertyOp25
 70
     1
102
RTVSPropertyOp26
 70
     1
102
RTVSPropertyOp27
 70
     1
102
RTVSPropertyOp28
 70
     1
102
RTVSPropertyOp29
 70
     1
102
RTVSPropertyOp30
 70
     1
102
RTVSPropertyOp31
 70
     1
102
RTVSPropertyOp32
 70
     1
102
RTVSPropertyOp33
 70
     1
102
RTVSPropertyOp34
 70
     1
102
RTVSPropertyOp35
 70
     1
102
RTVSPropertyOp36
 70
     1
102
RTVSPropertyOp37
 70
     1
102
RTVSPropertyOp38
 70
     1
102
RTVSPropertyOp39
 70
     1
102
RTVSPropertyOp40
 70
     1
102
RTVSPropertyOp41
 70
     1
102
RTVSPropertyOp42
 70
     1
102
RTVSPropertyOp43
 70
     1
102
RTVSPropertyOp44
 70
     1
102
RTVSPropertyOp45
 70
     1
102
RTVSPropertyOp46
 70
     1
102
RTVSPropertyOp47
 70
     1
102
RTVSPropertyOp48
 70
     1
102
RTVSPropertyOp49
 70
     1
102
RTVSPropertyOp50
 70
     1
102
RTVSPropertyOp51
 70
     0
102
RTVSPropertyOp52
 70
     0
102
RTVSPropertyOp53
 70
     1
102
RTVSPropertyOp54
 70
     1
102
RTVSPropertyOp55
 70
     1
102
RTVSPropertyOp56
 70
     1
102
RTVSPropertyOp57
 70
     1
102
RTVSPropertyOp58
 70
     1
102
RTVSPropertyOp59
 70
     1
102
RTVSPropertyOp60
 70
     1
102
RTVSPropertyOp61
 70
     1
102
RTVSPropertyOp62
 70
     1
  0
XRECORD
  5
675
102
{ACAD_REACTORS
330
674
102
}
330
674
100
AcDbXrecord
280
     1
102
RTVSPost2010Prop28
280
     0
102
RTVSPost2010PropOp28
 70
     1
102
RTVSPost2010Prop29
280
     1
102
RTVSPost2010PropOp29
 70
     1
102
RTVSPost2010Prop30
280
     1
102
RTVSPost2010PropOp30
 70
     1
102
RTVSPost2010Prop31
280
     0
102
RTVSPost2010PropOp31
 70
     1
102
RTVSPost2010Prop32
280
     0
102
RTVSPost2010PropOp32
 70
     1
102
RTVSPost2010Prop33
280
     0
102
RTVSPost2010PropOp33
 70
     1
102
RTVSPost2010Prop34
280
     0
102
RTVSPost2010PropOp34
 70
     1
102
RTVSPost2010Prop35
280
     0
102
RTVSPost2010PropOp35
 70
     1
102
RTVSPost2010Prop36
280
     0
102
RTVSPost2010PropOp36
 70
     1
102
RTVSPost2010Prop37
 90
       50
102
RTVSPost2010PropOp37
 70
     1
102
RTVSPost2010Prop38
140
0.0
102
RTVSPost2010PropOp38
 70
     1
102
RTVSPost2010Prop39
140
1.0
102
RTVSPost2010PropOp39
 70
     1
102
RTVSPost2010Prop40
 90
        0
102
RTVSPost2010PropOp40
 70
     1
102
RTVSPost2010Prop41ColorIndex
 90
       18
102
RTVSPost2010Prop41ColorRGB
 90
        0
102
RTVSPost2010PropOp41
 70
     1
102
RTVSPost2010Prop42
 90
       50
102
RTVSPost2010PropOp42
 70
     1
102
RTVSPost2010Prop43
 90
        3
102
RTVSPost2010PropOp43
 70
     1
102
RTVSPost2010Prop44ColorIndex
 90
        5
102
RTVSPost2010Prop44ColorRGB
 90
      255
102
RTVSPost2010PropOp44
 70
     1
102
RTVSPost2010Prop45
280
     0
102
RTVSPost2010PropOp45
 70
     1
102
RTVSPost2010Prop46
 90
       50
102
RTVSPost2010PropOp46
 70
     1
102
RTVSPost2010Prop47
 90
       50
102
RTVSPost2010PropOp47
 70
     1
102
RTVSPost2010Prop48
 90
       50
102
RTVSPost2010PropOp48
 70
     1
102
RTVSPost2010Prop49
280
     0
102
RTVSPost2010PropOp49
 70
     1
102
RTVSPost2010Prop50
 90
       50
102
RTVSPost2010PropOp50
 70
     1
102
RTVSPost2010Prop51ColorIndex
 90
      256
102
RTVSPost2010Prop51ColorRGB
 90
-16777216
102
RTVSPost2010PropOp51
 70
     0
102
RTVSPost2010Prop52
140
1.0
102
RTVSPost2010PropOp52
 70
     0
102
RTVSPost2010Prop53
 90
        2
102
RTVSPost2010PropOp53
 70
     1
102
RTVSPost2010Prop54
  1
strokes_ogs.tif
102
RTVSPost2010PropOp54
 70
     1
102
RTVSPost2010Prop55
280
     0
102
RTVSPost2010PropOp55
 70
     1
102
RTVSPost2010Prop56
140
1.0
102
RTVSPost2010PropOp56
 70
     1
102
RTVSPost2010Prop57
140
1.0
102
RTVSPost2010PropOp57
 70
     1
102
RTVSPropertyOp0
 70
     1
102
RTVSPropertyOp1
 70
     1
102
RTVSPropertyOp2
 70
     1
102
RTVSPropertyOp3
 70
     1
102
RTVSPropertyOp4
 70
     1
102
RTVSPropertyOp5
 70
     1
102
RTVSPropertyOp6
 70
     1
102
RTVSPropertyOp7
 70
     1
102
RTVSPropertyOp8
 70
     1
102
RTVSPropertyOp9
 70
     1
102
RTVSPropertyOp10
 70
     1
102
RTVSPropertyOp11
 70
     1
102
RTVSPropertyOp12
 70
     1
102
RTVSPropertyOp13
 70
     1
102
RTVSPropertyOp14
 70
     1
102
RTVSPropertyOp15
 70
     1
102
RTVSPropertyOp16
 70
     1
102
RTVSPropertyOp17
 70
     1
102
RTVSPropertyOp18
 70
     1
102
RTVSPropertyOp19
 70
     1
102
RTVSPropertyOp20
 70
     1
102
RTVSPropertyOp21
 70
     1
102
RTVSPropertyOp22
 70
     1
102
RTVSPropertyOp23
 70
     1
102
RTVSPropertyOp24
 70
     1
102
RTVSPropertyOp25
 70
     1
102
RTVSPropertyOp26
 70
     1
102
RTVSPropertyOp27
 70
     1
102
RTVSPropertyOp28
 70
     1
102
RTVSPropertyOp29
 70
     1
102
RTVSPropertyOp30
 70
     1
102
RTVSPropertyOp31
 70
     1
102
RTVSPropertyOp32
 70
     1
102
RTVSPropertyOp33
 70
     1
102
RTVSPropertyOp34
 70
     1
102
RTVSPropertyOp35
 70
     1
102
RTVSPropertyOp36
 70
     1
102
RTVSPropertyOp37
 70
     1
102
RTVSPropertyOp38
 70
     1
102
RTVSPropertyOp39
 70
     1
102
RTVSPropertyOp40
 70
     1
102
RTVSPropertyOp41
 70
     1
102
RTVSPropertyOp42
 70
     1
102
RTVSPropertyOp43
 70
     1
102
RTVSPropertyOp44
 70
     1
102
RTVSPropertyOp45
 70
     1
102
RTVSPropertyOp46
 70
     1
102
RTVSPropertyOp47
 70
     1
102
RTVSPropertyOp48
 70
     1
102
RTVSPropertyOp49
 70
     1
102
RTVSPropertyOp50
 70
     1
102
RTVSPropertyOp51
 70
     0
102
RTVSPropertyOp52
 70
     0
102
RTVSPropertyOp53
 70
     1
102
RTVSPropertyOp54
 70
     1
102
RTVSPropertyOp55
 70
     1
102
RTVSPropertyOp56
 70
     1
102
RTVSPropertyOp57
 70
     1
102
RTVSPropertyOp58
 70
     1
102
RTVSPropertyOp59
 70
     1
102
RTVSPropertyOp60
 70
     1
102
RTVSPropertyOp61
 70
     1
102
RTVSPropertyOp62
 70
     1
  0
XRECORD
  5
67D
102
{ACAD_REACTORS
330
67C
102
}
330
67C
100
AcDbXrecord
280
     1
102
RTVSPost2010Prop28
280
     0
102
RTVSPost2010PropOp28
 70
     1
102
RTVSPost2010Prop29
280
     1
102
RTVSPost2010PropOp29
 70
     1
102
RTVSPost2010Prop30
280
     1
102
RTVSPost2010PropOp30
 70
     1
102
RTVSPost2010Prop31
280
     0
102
RTVSPost2010PropOp31
 70
     1
102
RTVSPost2010Prop32
280
     0
102
RTVSPost2010PropOp32
 70
     1
102
RTVSPost2010Prop33
280
     0
102
RTVSPost2010PropOp33
 70
     1
102
RTVSPost2010Prop34
280
     0
102
RTVSPost2010PropOp34
 70
     1
102
RTVSPost2010Prop35
280
     0
102
RTVSPost2010PropOp35
 70
     1
102
RTVSPost2010Prop36
280
     0
102
RTVSPost2010PropOp36
 70
     1
102
RTVSPost2010Prop37
 90
       50
102
RTVSPost2010PropOp37
 70
     1
102
RTVSPost2010Prop38
140
0.0
102
RTVSPost2010PropOp38
 70
     1
102
RTVSPost2010Prop39
140
1.0
102
RTVSPost2010PropOp39
 70
     1
102
RTVSPost2010Prop40
 90
        0
102
RTVSPost2010PropOp40
 70
     1
102
RTVSPost2010Prop41ColorIndex
 90
       18
102
RTVSPost2010Prop41ColorRGB
 90
        0
102
RTVSPost2010PropOp41
 70
     1
102
RTVSPost2010Prop42
 90
       50
102
RTVSPost2010PropOp42
 70
     1
102
RTVSPost2010Prop43
 90
        3
102
RTVSPost2010PropOp43
 70
     1
102
RTVSPost2010Prop44ColorIndex
 90
        5
102
RTVSPost2010Prop44ColorRGB
 90
      255
102
RTVSPost2010PropOp44
 70
     1
102
RTVSPost2010Prop45
280
     0
102
RTVSPost2010PropOp45
 70
     1
102
RTVSPost2010Prop46
 90
       50
102
RTVSPost2010PropOp46
 70
     1
102
RTVSPost2010Prop47
 90
       50
102
RTVSPost2010PropOp47
 70
     1
102
RTVSPost2010Prop48
 90
       50
102
RTVSPost2010PropOp48
 70
     1
102
RTVSPost2010Prop49
280
     0
102
RTVSPost2010PropOp49
 70
     1
102
RTVSPost2010Prop50
 90
       50
102
RTVSPost2010PropOp50
 70
     1
102
RTVSPost2010Prop51ColorIndex
 90
      256
102
RTVSPost2010Prop51ColorRGB
 90
-16777216
102
RTVSPost2010PropOp51
 70
     0
102
RTVSPost2010Prop52
140
1.0
102
RTVSPost2010PropOp52
 70
     0
102
RTVSPost2010Prop53
 90
        2
102
RTVSPost2010PropOp53
 70
     1
102
RTVSPost2010Prop54
  1
strokes_ogs.tif
102
RTVSPost2010PropOp54
 70
     1
102
RTVSPost2010Prop55
280
     0
102
RTVSPost2010PropOp55
 70
     1
102
RTVSPost2010Prop56
140
1.0
102
RTVSPost2010PropOp56
 70
     1
102
RTVSPost2010Prop57
140
1.0
102
RTVSPost2010PropOp57
 70
     1
102
RTVSPropertyOp0
 70
     1
102
RTVSPropertyOp1
 70
     1
102
RTVSPropertyOp2
 70
     1
102
RTVSPropertyOp3
 70
     1
102
RTVSPropertyOp4
 70
     1
102
RTVSPropertyOp5
 70
     1
102
RTVSPropertyOp6
 70
     1
102
RTVSPropertyOp7
 70
     1
102
RTVSPropertyOp8
 70
     1
102
RTVSPropertyOp9
 70
     1
102
RTVSPropertyOp10
 70
     1
102
RTVSPropertyOp11
 70
     1
102
RTVSPropertyOp12
 70
     1
102
RTVSPropertyOp13
 70
     1
102
RTVSPropertyOp14
 70
     1
102
RTVSPropertyOp15
 70
     1
102
RTVSPropertyOp16
 70
     1
102
RTVSPropertyOp17
 70
     1
102
RTVSPropertyOp18
 70
     1
102
RTVSPropertyOp19
 70
     1
102
RTVSPropertyOp20
 70
     1
102
RTVSPropertyOp21
 70
     1
102
RTVSPropertyOp22
 70
     1
102
RTVSPropertyOp23
 70
     1
102
RTVSPropertyOp24
 70
     1
102
RTVSPropertyOp25
 70
     1
102
RTVSPropertyOp26
 70
     1
102
RTVSPropertyOp27
 70
     1
102
RTVSPropertyOp28
 70
     1
102
RTVSPropertyOp29
 70
     1
102
RTVSPropertyOp30
 70
     1
102
RTVSPropertyOp31
 70
     1
102
RTVSPropertyOp32
 70
     1
102
RTVSPropertyOp33
 70
     1
102
RTVSPropertyOp34
 70
     1
102
RTVSPropertyOp35
 70
     1
102
RTVSPropertyOp36
 70
     1
102
RTVSPropertyOp37
 70
     1
102
RTVSPropertyOp38
 70
     1
102
RTVSPropertyOp39
 70
     1
102
RTVSPropertyOp40
 70
     1
102
RTVSPropertyOp41
 70
     1
102
RTVSPropertyOp42
 70
     1
102
RTVSPropertyOp43
 70
     1
102
RTVSPropertyOp44
 70
     1
102
RTVSPropertyOp45
 70
     1
102
RTVSPropertyOp46
 70
     1
102
RTVSPropertyOp47
 70
     1
102
RTVSPropertyOp48
 70
     1
102
RTVSPropertyOp49
 70
     1
102
RTVSPropertyOp50
 70
     1
102
RTVSPropertyOp51
 70
     0
102
RTVSPropertyOp52
 70
     0
102
RTVSPropertyOp53
 70
     1
102
RTVSPropertyOp54
 70
     1
102
RTVSPropertyOp55
 70
     1
102
RTVSPropertyOp56
 70
     1
102
RTVSPropertyOp57
 70
     1
102
RTVSPropertyOp58
 70
     1
102
RTVSPropertyOp59
 70
     1
102
RTVSPropertyOp60
 70
     1
102
RTVSPropertyOp61
 70
     1
102
RTVSPropertyOp62
 70
     1
  0
XRECORD
  5
671
102
{ACAD_REACTORS
330
670
102
}
330
670
100
AcDbXrecord
280
     1
102
RTVSPost2010Prop28
280
     0
102
RTVSPost2010PropOp28
 70
     1
102
RTVSPost2010Prop29
280
     1
102
RTVSPost2010PropOp29
 70
     1
102
RTVSPost2010Prop30
280
     1
102
RTVSPost2010PropOp30
 70
     1
102
RTVSPost2010Prop31
280
     0
102
RTVSPost2010PropOp31
 70
     1
102
RTVSPost2010Prop32
280
     0
102
RTVSPost2010PropOp32
 70
     1
102
RTVSPost2010Prop33
280
     0
102
RTVSPost2010PropOp33
 70
     1
102
RTVSPost2010Prop34
280
     0
102
RTVSPost2010PropOp34
 70
     1
102
RTVSPost2010Prop35
280
     0
102
RTVSPost2010PropOp35
 70
     1
102
RTVSPost2010Prop36
280
     0
102
RTVSPost2010PropOp36
 70
     1
102
RTVSPost2010Prop37
 90
       50
102
RTVSPost2010PropOp37
 70
     1
102
RTVSPost2010Prop38
140
0.0
102
RTVSPost2010PropOp38
 70
     1
102
RTVSPost2010Prop39
140
1.0
102
RTVSPost2010PropOp39
 70
     1
102
RTVSPost2010Prop40
 90
        0
102
RTVSPost2010PropOp40
 70
     1
102
RTVSPost2010Prop41ColorIndex
 90
       18
102
RTVSPost2010Prop41ColorRGB
 90
        0
102
RTVSPost2010PropOp41
 70
     1
102
RTVSPost2010Prop42
 90
       50
102
RTVSPost2010PropOp42
 70
     1
102
RTVSPost2010Prop43
 90
        3
102
RTVSPost2010PropOp43
 70
     1
102
RTVSPost2010Prop44ColorIndex
 90
        5
102
RTVSPost2010Prop44ColorRGB
 90
      255
102
RTVSPost2010PropOp44
 70
     1
102
RTVSPost2010Prop45
280
     0
102
RTVSPost2010PropOp45
 70
     1
102
RTVSPost2010Prop46
 90
       50
102
RTVSPost2010PropOp46
 70
     1
102
RTVSPost2010Prop47
 90
       50
102
RTVSPost2010PropOp47
 70
     1
102
RTVSPost2010Prop48
 90
       50
102
RTVSPost2010PropOp48
 70
     1
102
RTVSPost2010Prop49
280
     0
102
RTVSPost2010PropOp49
 70
     1
102
RTVSPost2010Prop50
 90
       50
102
RTVSPost2010PropOp50
 70
     1
102
RTVSPost2010Prop51ColorIndex
 90
      256
102
RTVSPost2010Prop51ColorRGB
 90
-16777216
102
RTVSPost2010PropOp51
 70
     0
102
RTVSPost2010Prop52
140
1.0
102
RTVSPost2010PropOp52
 70
     0
102
RTVSPost2010Prop53
 90
        2
102
RTVSPost2010PropOp53
 70
     1
102
RTVSPost2010Prop54
  1
strokes_ogs.tif
102
RTVSPost2010PropOp54
 70
     1
102
RTVSPost2010Prop55
280
     0
102
RTVSPost2010PropOp55
 70
     1
102
RTVSPost2010Prop56
140
1.0
102
RTVSPost2010PropOp56
 70
     1
102
RTVSPost2010Prop57
140
1.0
102
RTVSPost2010PropOp57
 70
     1
102
RTVSPropertyOp0
 70
     1
102
RTVSPropertyOp1
 70
     1
102
RTVSPropertyOp2
 70
     1
102
RTVSPropertyOp3
 70
     1
102
RTVSPropertyOp4
 70
     1
102
RTVSPropertyOp5
 70
     1
102
RTVSPropertyOp6
 70
     1
102
RTVSPropertyOp7
 70
     1
102
RTVSPropertyOp8
 70
     1
102
RTVSPropertyOp9
 70
     1
102
RTVSPropertyOp10
 70
     1
102
RTVSPropertyOp11
 70
     1
102
RTVSPropertyOp12
 70
     1
102
RTVSPropertyOp13
 70
     1
102
RTVSPropertyOp14
 70
     1
102
RTVSPropertyOp15
 70
     1
102
RTVSPropertyOp16
 70
     1
102
RTVSPropertyOp17
 70
     1
102
RTVSPropertyOp18
 70
     1
102
RTVSPropertyOp19
 70
     1
102
RTVSPropertyOp20
 70
     1
102
RTVSPropertyOp21
 70
     1
102
RTVSPropertyOp22
 70
     1
102
RTVSPropertyOp23
 70
     1
102
RTVSPropertyOp24
 70
     1
102
RTVSPropertyOp25
 70
     1
102
RTVSPropertyOp26
 70
     1
102
RTVSPropertyOp27
 70
     1
102
RTVSPropertyOp28
 70
     1
102
RTVSPropertyOp29
 70
     1
102
RTVSPropertyOp30
 70
     1
102
RTVSPropertyOp31
 70
     1
102
RTVSPropertyOp32
 70
     1
102
RTVSPropertyOp33
 70
     1
102
RTVSPropertyOp34
 70
     1
102
RTVSPropertyOp35
 70
     1
102
RTVSPropertyOp36
 70
     1
102
RTVSPropertyOp37
 70
     1
102
RTVSPropertyOp38
 70
     1
102
RTVSPropertyOp39
 70
     1
102
RTVSPropertyOp40
 70
     1
102
RTVSPropertyOp41
 70
     1
102
RTVSPropertyOp42
 70
     1
102
RTVSPropertyOp43
 70
     1
102
RTVSPropertyOp44
 70
     1
102
RTVSPropertyOp45
 70
     1
102
RTVSPropertyOp46
 70
     1
102
RTVSPropertyOp47
 70
     1
102
RTVSPropertyOp48
 70
     1
102
RTVSPropertyOp49
 70
     1
102
RTVSPropertyOp50
 70
     1
102
RTVSPropertyOp51
 70
     0
102
RTVSPropertyOp52
 70
     0
102
RTVSPropertyOp53
 70
     1
102
RTVSPropertyOp54
 70
     1
102
RTVSPropertyOp55
 70
     1
102
RTVSPropertyOp56
 70
     1
102
RTVSPropertyOp57
 70
     1
102
RTVSPropertyOp58
 70
     1
102
RTVSPropertyOp59
 70
     1
102
RTVSPropertyOp60
 70
     1
102
RTVSPropertyOp61
 70
     1
102
RTVSPropertyOp62
 70
     1
  0
XRECORD
  5
673
102
{ACAD_REACTORS
330
672
102
}
330
672
100
AcDbXrecord
280
     1
102
RTVSPost2010Prop28
280
     0
102
RTVSPost2010PropOp28
 70
     1
102
RTVSPost2010Prop29
280
     1
102
RTVSPost2010PropOp29
 70
     1
102
RTVSPost2010Prop30
280
     1
102
RTVSPost2010PropOp30
 70
     1
102
RTVSPost2010Prop31
280
     0
102
RTVSPost2010PropOp31
 70
     1
102
RTVSPost2010Prop32
280
     0
102
RTVSPost2010PropOp32
 70
     1
102
RTVSPost2010Prop33
280
     0
102
RTVSPost2010PropOp33
 70
     1
102
RTVSPost2010Prop34
280
     0
102
RTVSPost2010PropOp34
 70
     1
102
RTVSPost2010Prop35
280
     0
102
RTVSPost2010PropOp35
 70
     1
102
RTVSPost2010Prop36
280
     0
102
RTVSPost2010PropOp36
 70
     1
102
RTVSPost2010Prop37
 90
       50
102
RTVSPost2010PropOp37
 70
     1
102
RTVSPost2010Prop38
140
0.0
102
RTVSPost2010PropOp38
 70
     1
102
RTVSPost2010Prop39
140
1.0
102
RTVSPost2010PropOp39
 70
     1
102
RTVSPost2010Prop40
 90
        0
102
RTVSPost2010PropOp40
 70
     1
102
RTVSPost2010Prop41ColorIndex
 90
       18
102
RTVSPost2010Prop41ColorRGB
 90
        0
102
RTVSPost2010PropOp41
 70
     1
102
RTVSPost2010Prop42
 90
       50
102
RTVSPost2010PropOp42
 70
     1
102
RTVSPost2010Prop43
 90
        3
102
RTVSPost2010PropOp43
 70
     1
102
RTVSPost2010Prop44ColorIndex
 90
        5
102
RTVSPost2010Prop44ColorRGB
 90
      255
102
RTVSPost2010PropOp44
 70
     1
102
RTVSPost2010Prop45
280
     0
102
RTVSPost2010PropOp45
 70
     1
102
RTVSPost2010Prop46
 90
       50
102
RTVSPost2010PropOp46
 70
     1
102
RTVSPost2010Prop47
 90
       50
102
RTVSPost2010PropOp47
 70
     1
102
RTVSPost2010Prop48
 90
       50
102
RTVSPost2010PropOp48
 70
     1
102
RTVSPost2010Prop49
280
     0
102
RTVSPost2010PropOp49
 70
     1
102
RTVSPost2010Prop50
 90
       50
102
RTVSPost2010PropOp50
 70
     1
102
RTVSPost2010Prop51ColorIndex
 90
      256
102
RTVSPost2010Prop51ColorRGB
 90
-16777216
102
RTVSPost2010PropOp51
 70
     0
102
RTVSPost2010Prop52
140
1.0
102
RTVSPost2010PropOp52
 70
     0
102
RTVSPost2010Prop53
 90
        2
102
RTVSPost2010PropOp53
 70
     1
102
RTVSPost2010Prop54
  1
strokes_ogs.tif
102
RTVSPost2010PropOp54
 70
     1
102
RTVSPost2010Prop55
280
     0
102
RTVSPost2010PropOp55
 70
     1
102
RTVSPost2010Prop56
140
1.0
102
RTVSPost2010PropOp56
 70
     1
102
RTVSPost2010Prop57
140
1.0
102
RTVSPost2010PropOp57
 70
     1
102
RTVSPropertyOp0
 70
     1
102
RTVSPropertyOp1
 70
     1
102
RTVSPropertyOp2
 70
     1
102
RTVSPropertyOp3
 70
     1
102
RTVSPropertyOp4
 70
     1
102
RTVSPropertyOp5
 70
     1
102
RTVSPropertyOp6
 70
     1
102
RTVSPropertyOp7
 70
     1
102
RTVSPropertyOp8
 70
     1
102
RTVSPropertyOp9
 70
     1
102
RTVSPropertyOp10
 70
     1
102
RTVSPropertyOp11
 70
     1
102
RTVSPropertyOp12
 70
     1
102
RTVSPropertyOp13
 70
     1
102
RTVSPropertyOp14
 70
     1
102
RTVSPropertyOp15
 70
     1
102
RTVSPropertyOp16
 70
     1
102
RTVSPropertyOp17
 70
     1
102
RTVSPropertyOp18
 70
     1
102
RTVSPropertyOp19
 70
     1
102
RTVSPropertyOp20
 70
     1
102
RTVSPropertyOp21
 70
     1
102
RTVSPropertyOp22
 70
     1
102
RTVSPropertyOp23
 70
     1
102
RTVSPropertyOp24
 70
     1
102
RTVSPropertyOp25
 70
     1
102
RTVSPropertyOp26
 70
     1
102
RTVSPropertyOp27
 70
     1
102
RTVSPropertyOp28
 70
     1
102
RTVSPropertyOp29
 70
     1
102
RTVSPropertyOp30
 70
     1
102
RTVSPropertyOp31
 70
     1
102
RTVSPropertyOp32
 70
     1
102
RTVSPropertyOp33
 70
     1
102
RTVSPropertyOp34
 70
     1
102
RTVSPropertyOp35
 70
     1
102
RTVSPropertyOp36
 70
     1
102
RTVSPropertyOp37
 70
     1
102
RTVSPropertyOp38
 70
     1
102
RTVSPropertyOp39
 70
     1
102
RTVSPropertyOp40
 70
     1
102
RTVSPropertyOp41
 70
     1
102
RTVSPropertyOp42
 70
     1
102
RTVSPropertyOp43
 70
     1
102
RTVSPropertyOp44
 70
     1
102
RTVSPropertyOp45
 70
     1
102
RTVSPropertyOp46
 70
     1
102
RTVSPropertyOp47
 70
     1
102
RTVSPropertyOp48
 70
     1
102
RTVSPropertyOp49
 70
     1
102
RTVSPropertyOp50
 70
     1
102
RTVSPropertyOp51
 70
     0
102
RTVSPropertyOp52
 70
     0
102
RTVSPropertyOp53
 70
     1
102
RTVSPropertyOp54
 70
     1
102
RTVSPropertyOp55
 70
     1
102
RTVSPropertyOp56
 70
     1
102
RTVSPropertyOp57
 70
     1
102
RTVSPropertyOp58
 70
     1
102
RTVSPropertyOp59
 70
     1
102
RTVSPropertyOp60
 70
     1
102
RTVSPropertyOp61
 70
     1
102
RTVSPropertyOp62
 70
     1
  0
XRECORD
  5
69A
102
{ACAD_REACTORS
330
699
102
}
330
699
100
AcDbXrecord
280
     1
102
RTVSPost2010Prop28
280
     0
102
RTVSPost2010PropOp28
 70
     0
102
RTVSPost2010Prop29
280
     1
102
RTVSPost2010PropOp29
 70
     0
102
RTVSPost2010Prop30
280
     1
102
RTVSPost2010PropOp30
 70
     0
102
RTVSPost2010Prop31
280
     0
102
RTVSPost2010PropOp31
 70
     0
102
RTVSPost2010Prop32
280
     0
102
RTVSPost2010PropOp32
 70
     0
102
RTVSPost2010Prop33
280
     0
102
RTVSPost2010PropOp33
 70
     0
102
RTVSPost2010Prop34
280
     0
102
RTVSPost2010PropOp34
 70
     0
102
RTVSPost2010Prop35
280
     0
102
RTVSPost2010PropOp35
 70
     0
102
RTVSPost2010Prop36
280
     0
102
RTVSPost2010PropOp36
 70
     0
102
RTVSPost2010Prop37
 90
       50
102
RTVSPost2010PropOp37
 70
     0
102
RTVSPost2010Prop38
140
0.0
102
RTVSPost2010PropOp38
 70
     0
102
RTVSPost2010Prop39
140
1.0
102
RTVSPost2010PropOp39
 70
     0
102
RTVSPost2010Prop40
 90
        0
102
RTVSPost2010PropOp40
 70
     0
102
RTVSPost2010Prop41ColorIndex
 90
       18
102
RTVSPost2010Prop41ColorRGB
 90
        0
102
RTVSPost2010PropOp41
 70
     0
102
RTVSPost2010Prop42
 90
       50
102
RTVSPost2010PropOp42
 70
     0
102
RTVSPost2010Prop43
 90
        3
102
RTVSPost2010PropOp43
 70
     0
102
RTVSPost2010Prop44ColorIndex
 90
        5
102
RTVSPost2010Prop44ColorRGB
 90
      255
102
RTVSPost2010PropOp44
 70
     0
102
RTVSPost2010Prop45
280
     0
102
RTVSPost2010PropOp45
 70
     0
102
RTVSPost2010Prop46
 90
       50
102
RTVSPost2010PropOp46
 70
     0
102
RTVSPost2010Prop47
 90
       50
102
RTVSPost2010PropOp47
 70
     0
102
RTVSPost2010Prop48
 90
       50
102
RTVSPost2010PropOp48
 70
     0
102
RTVSPost2010Prop49
280
     0
102
RTVSPost2010PropOp49
 70
     0
102
RTVSPost2010Prop50
 90
       50
102
RTVSPost2010PropOp50
 70
     0
102
RTVSPost2010Prop51ColorIndex
 90
      256
102
RTVSPost2010Prop51ColorRGB
 90
-16777216
102
RTVSPost2010PropOp51
 70
     0
102
RTVSPost2010Prop52
140
1.0
102
RTVSPost2010PropOp52
 70
     0
102
RTVSPost2010Prop53
 90
        2
102
RTVSPost2010PropOp53
 70
     0
102
RTVSPost2010Prop54
  1
strokes_ogs.tif
102
RTVSPost2010PropOp54
 70
     0
102
RTVSPost2010Prop55
280
     0
102
RTVSPost2010PropOp55
 70
     0
102
RTVSPost2010Prop56
140
1.0
102
RTVSPost2010PropOp56
 70
     0
102
RTVSPost2010Prop57
140
1.0
102
RTVSPost2010PropOp57
 70
     0
102
RTVSPropertyOp0
 70
     0
102
RTVSPropertyOp1
 70
     0
102
RTVSPropertyOp2
 70
     0
102
RTVSPropertyOp3
 70
     0
102
RTVSPropertyOp4
 70
     0
102
RTVSPropertyOp5
 70
     0
102
RTVSPropertyOp6
 70
     0
102
RTVSPropertyOp7
 70
     0
102
RTVSPropertyOp8
 70
     0
102
RTVSPropertyOp9
 70
     0
102
RTVSPropertyOp10
 70
     0
102
RTVSPropertyOp11
 70
     0
102
RTVSPropertyOp12
 70
     0
102
RTVSPropertyOp13
 70
     0
102
RTVSPropertyOp14
 70
     2
102
RTVSPropertyOp15
 70
     0
102
RTVSPropertyOp16
 70
     0
102
RTVSPropertyOp17
 70
     0
102
RTVSPropertyOp18
 70
     0
102
RTVSPropertyOp19
 70
     0
102
RTVSPropertyOp20
 70
     0
102
RTVSPropertyOp21
 70
     0
102
RTVSPropertyOp22
 70
     0
102
RTVSPropertyOp23
 70
     0
102
RTVSPropertyOp24
 70
     0
102
RTVSPropertyOp25
 70
     0
102
RTVSPropertyOp26
 70
     0
102
RTVSPropertyOp27
 70
     0
102
RTVSPropertyOp28
 70
     0
102
RTVSPropertyOp29
 70
     0
102
RTVSPropertyOp30
 70
     0
102
RTVSPropertyOp31
 70
     0
102
RTVSPropertyOp32
 70
     0
102
RTVSPropertyOp33
 70
     0
102
RTVSPropertyOp34
 70
     0
102
RTVSPropertyOp35
 70
     0
102
RTVSPropertyOp36
 70
     0
102
RTVSPropertyOp37
 70
     0
102
RTVSPropertyOp38
 70
     0
102
RTVSPropertyOp39
 70
     0
102
RTVSPropertyOp40
 70
     0
102
RTVSPropertyOp41
 70
     0
102
RTVSPropertyOp42
 70
     0
102
RTVSPropertyOp43
 70
     0
102
RTVSPropertyOp44
 70
     0
102
RTVSPropertyOp45
 70
     0
102
RTVSPropertyOp46
 70
     0
102
RTVSPropertyOp47
 70
     0
102
RTVSPropertyOp48
 70
     0
102
RTVSPropertyOp49
 70
     0
102
RTVSPropertyOp50
 70
     0
102
RTVSPropertyOp51
 70
     0
102
RTVSPropertyOp52
 70
     0
102
RTVSPropertyOp53
 70
     0
102
RTVSPropertyOp54
 70
     0
102
RTVSPropertyOp55
 70
     0
102
RTVSPropertyOp56
 70
     0
102
RTVSPropertyOp57
 70
     0
102
RTVSPropertyOp58
 70
     1
102
RTVSPropertyOp59
 70
     1
102
RTVSPropertyOp60
 70
     1
102
RTVSPropertyOp61
 70
     1
102
RTVSPropertyOp62
 70
     1
  0
XRECORD
  5
67B
102
{ACAD_REACTORS
330
67A
102
}
330
67A
100
AcDbXrecord
280
     1
102
RTVSPost2010Prop28
280
     0
102
RTVSPost2010PropOp28
 70
     1
102
RTVSPost2010Prop29
280
     1
102
RTVSPost2010PropOp29
 70
     1
102
RTVSPost2010Prop30
280
     1
102
RTVSPost2010PropOp30
 70
     1
102
RTVSPost2010Prop31
280
     0
102
RTVSPost2010PropOp31
 70
     1
102
RTVSPost2010Prop32
280
     0
102
RTVSPost2010PropOp32
 70
     1
102
RTVSPost2010Prop33
280
     0
102
RTVSPost2010PropOp33
 70
     1
102
RTVSPost2010Prop34
280
     0
102
RTVSPost2010PropOp34
 70
     1
102
RTVSPost2010Prop35
280
     0
102
RTVSPost2010PropOp35
 70
     1
102
RTVSPost2010Prop36
280
     0
102
RTVSPost2010PropOp36
 70
     1
102
RTVSPost2010Prop37
 90
       50
102
RTVSPost2010PropOp37
 70
     1
102
RTVSPost2010Prop38
140
0.0
102
RTVSPost2010PropOp38
 70
     1
102
RTVSPost2010Prop39
140
1.0
102
RTVSPost2010PropOp39
 70
     1
102
RTVSPost2010Prop40
 90
        0
102
RTVSPost2010PropOp40
 70
     1
102
RTVSPost2010Prop41ColorIndex
 90
       18
102
RTVSPost2010Prop41ColorRGB
 90
        0
102
RTVSPost2010PropOp41
 70
     1
102
RTVSPost2010Prop42
 90
       50
102
RTVSPost2010PropOp42
 70
     1
102
RTVSPost2010Prop43
 90
        3
102
RTVSPost2010PropOp43
 70
     1
102
RTVSPost2010Prop44ColorIndex
 90
        5
102
RTVSPost2010Prop44ColorRGB
 90
      255
102
RTVSPost2010PropOp44
 70
     1
102
RTVSPost2010Prop45
280
     0
102
RTVSPost2010PropOp45
 70
     1
102
RTVSPost2010Prop46
 90
       50
102
RTVSPost2010PropOp46
 70
     1
102
RTVSPost2010Prop47
 90
       50
102
RTVSPost2010PropOp47
 70
     1
102
RTVSPost2010Prop48
 90
       50
102
RTVSPost2010PropOp48
 70
     1
102
RTVSPost2010Prop49
280
     0
102
RTVSPost2010PropOp49
 70
     1
102
RTVSPost2010Prop50
 90
       50
102
RTVSPost2010PropOp50
 70
     1
102
RTVSPost2010Prop51ColorIndex
 90
      256
102
RTVSPost2010Prop51ColorRGB
 90
-16777216
102
RTVSPost2010PropOp51
 70
     0
102
RTVSPost2010Prop52
140
1.0
102
RTVSPost2010PropOp52
 70
     0
102
RTVSPost2010Prop53
 90
        2
102
RTVSPost2010PropOp53
 70
     1
102
RTVSPost2010Prop54
  1
strokes_ogs.tif
102
RTVSPost2010PropOp54
 70
     1
102
RTVSPost2010Prop55
280
     0
102
RTVSPost2010PropOp55
 70
     1
102
RTVSPost2010Prop56
140
1.0
102
RTVSPost2010PropOp56
 70
     1
102
RTVSPost2010Prop57
140
1.0
102
RTVSPost2010PropOp57
 70
     1
102
RTVSPropertyOp0
 70
     1
102
RTVSPropertyOp1
 70
     1
102
RTVSPropertyOp2
 70
     1
102
RTVSPropertyOp3
 70
     1
102
RTVSPropertyOp4
 70
     1
102
RTVSPropertyOp5
 70
     1
102
RTVSPropertyOp6
 70
     1
102
RTVSPropertyOp7
 70
     1
102
RTVSPropertyOp8
 70
     1
102
RTVSPropertyOp9
 70
     1
102
RTVSPropertyOp10
 70
     1
102
RTVSPropertyOp11
 70
     1
102
RTVSPropertyOp12
 70
     1
102
RTVSPropertyOp13
 70
     1
102
RTVSPropertyOp14
 70
     1
102
RTVSPropertyOp15
 70
     1
102
RTVSPropertyOp16
 70
     1
102
RTVSPropertyOp17
 70
     1
102
RTVSPropertyOp18
 70
     1
102
RTVSPropertyOp19
 70
     1
102
RTVSPropertyOp20
 70
     1
102
RTVSPropertyOp21
 70
     1
102
RTVSPropertyOp22
 70
     1
102
RTVSPropertyOp23
 70
     1
102
RTVSPropertyOp24
 70
     1
102
RTVSPropertyOp25
 70
     1
102
RTVSPropertyOp26
 70
     1
102
RTVSPropertyOp27
 70
     1
102
RTVSPropertyOp28
 70
     1
102
RTVSPropertyOp29
 70
     1
102
RTVSPropertyOp30
 70
     1
102
RTVSPropertyOp31
 70
     1
102
RTVSPropertyOp32
 70
     1
102
RTVSPropertyOp33
 70
     1
102
RTVSPropertyOp34
 70
     1
102
RTVSPropertyOp35
 70
     1
102
RTVSPropertyOp36
 70
     1
102
RTVSPropertyOp37
 70
     1
102
RTVSPropertyOp38
 70
     1
102
RTVSPropertyOp39
 70
     1
102
RTVSPropertyOp40
 70
     1
102
RTVSPropertyOp41
 70
     1
102
RTVSPropertyOp42
 70
     1
102
RTVSPropertyOp43
 70
     1
102
RTVSPropertyOp44
 70
     1
102
RTVSPropertyOp45
 70
     1
102
RTVSPropertyOp46
 70
     1
102
RTVSPropertyOp47
 70
     1
102
RTVSPropertyOp48
 70
     1
102
RTVSPropertyOp49
 70
     1
102
RTVSPropertyOp50
 70
     1
102
RTVSPropertyOp51
 70
     0
102
RTVSPropertyOp52
 70
     0
102
RTVSPropertyOp53
 70
     1
102
RTVSPropertyOp54
 70
     1
102
RTVSPropertyOp55
 70
     1
102
RTVSPropertyOp56
 70
     1
102
RTVSPropertyOp57
 70
     1
102
RTVSPropertyOp58
 70
     1
102
RTVSPropertyOp59
 70
     1
102
RTVSPropertyOp60
 70
     1
102
RTVSPropertyOp61
 70
     1
102
RTVSPropertyOp62
 70
     1
  0
XRECORD
  5
65F
102
{ACAD_REACTORS
330
65E
102
}
330
65E
100
AcDbXrecord
280
     1
102
RTVSPost2010Prop28
280
     0
102
RTVSPost2010PropOp28
 70
     1
102
RTVSPost2010Prop29
280
     1
102
RTVSPost2010PropOp29
 70
     1
102
RTVSPost2010Prop30
280
     1
102
RTVSPost2010PropOp30
 70
     1
102
RTVSPost2010Prop31
280
     0
102
RTVSPost2010PropOp31
 70
     1
102
RTVSPost2010Prop32
280
     0
102
RTVSPost2010PropOp32
 70
     1
102
RTVSPost2010Prop33
280
     0
102
RTVSPost2010PropOp33
 70
     1
102
RTVSPost2010Prop34
280
     0
102
RTVSPost2010PropOp34
 70
     1
102
RTVSPost2010Prop35
280
     0
102
RTVSPost2010PropOp35
 70
     1
102
RTVSPost2010Prop36
280
     0
102
RTVSPost2010PropOp36
 70
     1
102
RTVSPost2010Prop37
 90
       50
102
RTVSPost2010PropOp37
 70
     1
102
RTVSPost2010Prop38
140
0.0
102
RTVSPost2010PropOp38
 70
     1
102
RTVSPost2010Prop39
140
1.0
102
RTVSPost2010PropOp39
 70
     1
102
RTVSPost2010Prop40
 90
        0
102
RTVSPost2010PropOp40
 70
     1
102
RTVSPost2010Prop41ColorIndex
 90
       18
102
RTVSPost2010Prop41ColorRGB
 90
        0
102
RTVSPost2010PropOp41
 70
     1
102
RTVSPost2010Prop42
 90
       50
102
RTVSPost2010PropOp42
 70
     1
102
RTVSPost2010Prop43
 90
        3
102
RTVSPost2010PropOp43
 70
     1
102
RTVSPost2010Prop44ColorIndex
 90
        5
102
RTVSPost2010Prop44ColorRGB
 90
      255
102
RTVSPost2010PropOp44
 70
     1
102
RTVSPost2010Prop45
280
     0
102
RTVSPost2010PropOp45
 70
     1
102
RTVSPost2010Prop46
 90
       50
102
RTVSPost2010PropOp46
 70
     1
102
RTVSPost2010Prop47
 90
       50
102
RTVSPost2010PropOp47
 70
     1
102
RTVSPost2010Prop48
 90
       50
102
RTVSPost2010PropOp48
 70
     1
102
RTVSPost2010Prop49
280
     0
102
RTVSPost2010PropOp49
 70
     1
102
RTVSPost2010Prop50
 90
       50
102
RTVSPost2010PropOp50
 70
     1
102
RTVSPost2010Prop51ColorIndex
 90
      256
102
RTVSPost2010Prop51ColorRGB
 90
-16777216
102
RTVSPost2010PropOp51
 70
     0
102
RTVSPost2010Prop52
140
1.0
102
RTVSPost2010PropOp52
 70
     0
102
RTVSPost2010Prop53
 90
        2
102
RTVSPost2010PropOp53
 70
     1
102
RTVSPost2010Prop54
  1
strokes_ogs.tif
102
RTVSPost2010PropOp54
 70
     1
102
RTVSPost2010Prop55
280
     0
102
RTVSPost2010PropOp55
 70
     1
102
RTVSPost2010Prop56
140
1.0
102
RTVSPost2010PropOp56
 70
     1
102
RTVSPost2010Prop57
140
1.0
102
RTVSPost2010PropOp57
 70
     1
102
RTVSPropertyOp0
 70
     1
102
RTVSPropertyOp1
 70
     1
102
RTVSPropertyOp2
 70
     1
102
RTVSPropertyOp3
 70
     1
102
RTVSPropertyOp4
 70
     1
102
RTVSPropertyOp5
 70
     1
102
RTVSPropertyOp6
 70
     1
102
RTVSPropertyOp7
 70
     1
102
RTVSPropertyOp8
 70
     1
102
RTVSPropertyOp9
 70
     1
102
RTVSPropertyOp10
 70
     1
102
RTVSPropertyOp11
 70
     1
102
RTVSPropertyOp12
 70
     1
102
RTVSPropertyOp13
 70
     1
102
RTVSPropertyOp14
 70
     1
102
RTVSPropertyOp15
 70
     1
102
RTVSPropertyOp16
 70
     1
102
RTVSPropertyOp17
 70
     1
102
RTVSPropertyOp18
 70
     1
102
RTVSPropertyOp19
 70
     1
102
RTVSPropertyOp20
 70
     1
102
RTVSPropertyOp21
 70
     1
102
RTVSPropertyOp22
 70
     1
102
RTVSPropertyOp23
 70
     1
102
RTVSPropertyOp24
 70
     1
102
RTVSPropertyOp25
 70
     1
102
RTVSPropertyOp26
 70
     1
102
RTVSPropertyOp27
 70
     1
102
RTVSPropertyOp28
 70
     1
102
RTVSPropertyOp29
 70
     1
102
RTVSPropertyOp30
 70
     1
102
RTVSPropertyOp31
 70
     1
102
RTVSPropertyOp32
 70
     1
102
RTVSPropertyOp33
 70
     1
102
RTVSPropertyOp34
 70
     1
102
RTVSPropertyOp35
 70
     1
102
RTVSPropertyOp36
 70
     1
102
RTVSPropertyOp37
 70
     1
102
RTVSPropertyOp38
 70
     1
102
RTVSPropertyOp39
 70
     1
102
RTVSPropertyOp40
 70
     1
102
RTVSPropertyOp41
 70
     1
102
RTVSPropertyOp42
 70
     1
102
RTVSPropertyOp43
 70
     1
102
RTVSPropertyOp44
 70
     1
102
RTVSPropertyOp45
 70
     1
102
RTVSPropertyOp46
 70
     1
102
RTVSPropertyOp47
 70
     1
102
RTVSPropertyOp48
 70
     1
102
RTVSPropertyOp49
 70
     1
102
RTVSPropertyOp50
 70
     1
102
RTVSPropertyOp51
 70
     0
102
RTVSPropertyOp52
 70
     0
102
RTVSPropertyOp53
 70
     1
102
RTVSPropertyOp54
 70
     1
102
RTVSPropertyOp55
 70
     1
102
RTVSPropertyOp56
 70
     1
102
RTVSPropertyOp57
 70
     1
102
RTVSPropertyOp58
 70
     1
102
RTVSPropertyOp59
 70
     1
102
RTVSPropertyOp60
 70
     1
102
RTVSPropertyOp61
 70
     1
102
RTVSPropertyOp62
 70
     1
  0
XRECORD
  5
661
102
{ACAD_REACTORS
330
660
102
}
330
660
100
AcDbXrecord
280
     1
102
RTVSPost2010Prop28
280
     0
102
RTVSPost2010PropOp28
 70
     1
102
RTVSPost2010Prop29
280
     1
102
RTVSPost2010PropOp29
 70
     1
102
RTVSPost2010Prop30
280
     1
102
RTVSPost2010PropOp30
 70
     1
102
RTVSPost2010Prop31
280
     0
102
RTVSPost2010PropOp31
 70
     1
102
RTVSPost2010Prop32
280
     0
102
RTVSPost2010PropOp32
 70
     1
102
RTVSPost2010Prop33
280
     0
102
RTVSPost2010PropOp33
 70
     1
102
RTVSPost2010Prop34
280
     0
102
RTVSPost2010PropOp34
 70
     1
102
RTVSPost2010Prop35
280
     0
102
RTVSPost2010PropOp35
 70
     1
102
RTVSPost2010Prop36
280
     0
102
RTVSPost2010PropOp36
 70
     1
102
RTVSPost2010Prop37
 90
       50
102
RTVSPost2010PropOp37
 70
     1
102
RTVSPost2010Prop38
140
0.0
102
RTVSPost2010PropOp38
 70
     1
102
RTVSPost2010Prop39
140
1.0
102
RTVSPost2010PropOp39
 70
     1
102
RTVSPost2010Prop40
 90
        0
102
RTVSPost2010PropOp40
 70
     1
102
RTVSPost2010Prop41ColorIndex
 90
       18
102
RTVSPost2010Prop41ColorRGB
 90
        0
102
RTVSPost2010PropOp41
 70
     1
102
RTVSPost2010Prop42
 90
       50
102
RTVSPost2010PropOp42
 70
     1
102
RTVSPost2010Prop43
 90
        3
102
RTVSPost2010PropOp43
 70
     1
102
RTVSPost2010Prop44ColorIndex
 90
        5
102
RTVSPost2010Prop44ColorRGB
 90
      255
102
RTVSPost2010PropOp44
 70
     1
102
RTVSPost2010Prop45
280
     0
102
RTVSPost2010PropOp45
 70
     1
102
RTVSPost2010Prop46
 90
       50
102
RTVSPost2010PropOp46
 70
     1
102
RTVSPost2010Prop47
 90
       50
102
RTVSPost2010PropOp47
 70
     1
102
RTVSPost2010Prop48
 90
       50
102
RTVSPost2010PropOp48
 70
     1
102
RTVSPost2010Prop49
280
     0
102
RTVSPost2010PropOp49
 70
     1
102
RTVSPost2010Prop50
 90
       50
102
RTVSPost2010PropOp50
 70
     1
102
RTVSPost2010Prop51ColorIndex
 90
      256
102
RTVSPost2010Prop51ColorRGB
 90
-16777216
102
RTVSPost2010PropOp51
 70
     0
102
RTVSPost2010Prop52
140
1.0
102
RTVSPost2010PropOp52
 70
     0
102
RTVSPost2010Prop53
 90
        2
102
RTVSPost2010PropOp53
 70
     1
102
RTVSPost2010Prop54
  1
strokes_ogs.tif
102
RTVSPost2010PropOp54
 70
     1
102
RTVSPost2010Prop55
280
     0
102
RTVSPost2010PropOp55
 70
     1
102
RTVSPost2010Prop56
140
1.0
102
RTVSPost2010PropOp56
 70
     1
102
RTVSPost2010Prop57
140
1.0
102
RTVSPost2010PropOp57
 70
     1
102
RTVSPropertyOp0
 70
     1
102
RTVSPropertyOp1
 70
     1
102
RTVSPropertyOp2
 70
     1
102
RTVSPropertyOp3
 70
     1
102
RTVSPropertyOp4
 70
     1
102
RTVSPropertyOp5
 70
     1
102
RTVSPropertyOp6
 70
     1
102
RTVSPropertyOp7
 70
     1
102
RTVSPropertyOp8
 70
     1
102
RTVSPropertyOp9
 70
     1
102
RTVSPropertyOp10
 70
     1
102
RTVSPropertyOp11
 70
     1
102
RTVSPropertyOp12
 70
     1
102
RTVSPropertyOp13
 70
     1
102
RTVSPropertyOp14
 70
     1
102
RTVSPropertyOp15
 70
     1
102
RTVSPropertyOp16
 70
     1
102
RTVSPropertyOp17
 70
     1
102
RTVSPropertyOp18
 70
     1
102
RTVSPropertyOp19
 70
     1
102
RTVSPropertyOp20
 70
     1
102
RTVSPropertyOp21
 70
     1
102
RTVSPropertyOp22
 70
     1
102
RTVSPropertyOp23
 70
     1
102
RTVSPropertyOp24
 70
     1
102
RTVSPropertyOp25
 70
     1
102
RTVSPropertyOp26
 70
     1
102
RTVSPropertyOp27
 70
     1
102
RTVSPropertyOp28
 70
     1
102
RTVSPropertyOp29
 70
     1
102
RTVSPropertyOp30
 70
     1
102
RTVSPropertyOp31
 70
     1
102
RTVSPropertyOp32
 70
     1
102
RTVSPropertyOp33
 70
     1
102
RTVSPropertyOp34
 70
     1
102
RTVSPropertyOp35
 70
     1
102
RTVSPropertyOp36
 70
     1
102
RTVSPropertyOp37
 70
     1
102
RTVSPropertyOp38
 70
     1
102
RTVSPropertyOp39
 70
     1
102
RTVSPropertyOp40
 70
     1
102
RTVSPropertyOp41
 70
     1
102
RTVSPropertyOp42
 70
     1
102
RTVSPropertyOp43
 70
     1
102
RTVSPropertyOp44
 70
     1
102
RTVSPropertyOp45
 70
     1
102
RTVSPropertyOp46
 70
     1
102
RTVSPropertyOp47
 70
     1
102
RTVSPropertyOp48
 70
     1
102
RTVSPropertyOp49
 70
     1
102
RTVSPropertyOp50
 70
     1
102
RTVSPropertyOp51
 70
     0
102
RTVSPropertyOp52
 70
     0
102
RTVSPropertyOp53
 70
     1
102
RTVSPropertyOp54
 70
     1
102
RTVSPropertyOp55
 70
     1
102
RTVSPropertyOp56
 70
     1
102
RTVSPropertyOp57
 70
     1
102
RTVSPropertyOp58
 70
     1
102
RTVSPropertyOp59
 70
     1
102
RTVSPropertyOp60
 70
     1
102
RTVSPropertyOp61
 70
     1
102
RTVSPropertyOp62
 70
     1
  0
XRECORD
  5
663
102
{ACAD_REACTORS
330
662
102
}
330
662
100
AcDbXrecord
280
     1
102
RTVSPost2010Prop28
280
     0
102
RTVSPost2010PropOp28
 70
     1
102
RTVSPost2010Prop29
280
     1
102
RTVSPost2010PropOp29
 70
     1
102
RTVSPost2010Prop30
280
     1
102
RTVSPost2010PropOp30
 70
     1
102
RTVSPost2010Prop31
280
     0
102
RTVSPost2010PropOp31
 70
     1
102
RTVSPost2010Prop32
280
     0
102
RTVSPost2010PropOp32
 70
     1
102
RTVSPost2010Prop33
280
     0
102
RTVSPost2010PropOp33
 70
     1
102
RTVSPost2010Prop34
280
     0
102
RTVSPost2010PropOp34
 70
     1
102
RTVSPost2010Prop35
280
     0
102
RTVSPost2010PropOp35
 70
     1
102
RTVSPost2010Prop36
280
     0
102
RTVSPost2010PropOp36
 70
     1
102
RTVSPost2010Prop37
 90
       50
102
RTVSPost2010PropOp37
 70
     1
102
RTVSPost2010Prop38
140
0.0
102
RTVSPost2010PropOp38
 70
     1
102
RTVSPost2010Prop39
140
1.0
102
RTVSPost2010PropOp39
 70
     1
102
RTVSPost2010Prop40
 90
        0
102
RTVSPost2010PropOp40
 70
     1
102
RTVSPost2010Prop41ColorIndex
 90
       18
102
RTVSPost2010Prop41ColorRGB
 90
        0
102
RTVSPost2010PropOp41
 70
     1
102
RTVSPost2010Prop42
 90
       50
102
RTVSPost2010PropOp42
 70
     1
102
RTVSPost2010Prop43
 90
        3
102
RTVSPost2010PropOp43
 70
     1
102
RTVSPost2010Prop44ColorIndex
 90
        5
102
RTVSPost2010Prop44ColorRGB
 90
      255
102
RTVSPost2010PropOp44
 70
     1
102
RTVSPost2010Prop45
280
     0
102
RTVSPost2010PropOp45
 70
     1
102
RTVSPost2010Prop46
 90
       50
102
RTVSPost2010PropOp46
 70
     1
102
RTVSPost2010Prop47
 90
       50
102
RTVSPost2010PropOp47
 70
     1
102
RTVSPost2010Prop48
 90
       50
102
RTVSPost2010PropOp48
 70
     1
102
RTVSPost2010Prop49
280
     0
102
RTVSPost2010PropOp49
 70
     1
102
RTVSPost2010Prop50
 90
       50
102
RTVSPost2010PropOp50
 70
     1
102
RTVSPost2010Prop51ColorIndex
 90
      256
102
RTVSPost2010Prop51ColorRGB
 90
-16777216
102
RTVSPost2010PropOp51
 70
     0
102
RTVSPost2010Prop52
140
1.0
102
RTVSPost2010PropOp52
 70
     0
102
RTVSPost2010Prop53
 90
        2
102
RTVSPost2010PropOp53
 70
     1
102
RTVSPost2010Prop54
  1
strokes_ogs.tif
102
RTVSPost2010PropOp54
 70
     1
102
RTVSPost2010Prop55
280
     0
102
RTVSPost2010PropOp55
 70
     1
102
RTVSPost2010Prop56
140
1.0
102
RTVSPost2010PropOp56
 70
     1
102
RTVSPost2010Prop57
140
1.0
102
RTVSPost2010PropOp57
 70
     1
102
RTVSPropertyOp0
 70
     1
102
RTVSPropertyOp1
 70
     1
102
RTVSPropertyOp2
 70
     1
102
RTVSPropertyOp3
 70
     1
102
RTVSPropertyOp4
 70
     1
102
RTVSPropertyOp5
 70
     1
102
RTVSPropertyOp6
 70
     1
102
RTVSPropertyOp7
 70
     1
102
RTVSPropertyOp8
 70
     1
102
RTVSPropertyOp9
 70
     1
102
RTVSPropertyOp10
 70
     1
102
RTVSPropertyOp11
 70
     1
102
RTVSPropertyOp12
 70
     1
102
RTVSPropertyOp13
 70
     1
102
RTVSPropertyOp14
 70
     1
102
RTVSPropertyOp15
 70
     1
102
RTVSPropertyOp16
 70
     1
102
RTVSPropertyOp17
 70
     1
102
RTVSPropertyOp18
 70
     1
102
RTVSPropertyOp19
 70
     1
102
RTVSPropertyOp20
 70
     1
102
RTVSPropertyOp21
 70
     1
102
RTVSPropertyOp22
 70
     1
102
RTVSPropertyOp23
 70
     1
102
RTVSPropertyOp24
 70
     1
102
RTVSPropertyOp25
 70
     1
102
RTVSPropertyOp26
 70
     1
102
RTVSPropertyOp27
 70
     1
102
RTVSPropertyOp28
 70
     1
102
RTVSPropertyOp29
 70
     1
102
RTVSPropertyOp30
 70
     1
102
RTVSPropertyOp31
 70
     1
102
RTVSPropertyOp32
 70
     1
102
RTVSPropertyOp33
 70
     1
102
RTVSPropertyOp34
 70
     1
102
RTVSPropertyOp35
 70
     1
102
RTVSPropertyOp36
 70
     1
102
RTVSPropertyOp37
 70
     1
102
RTVSPropertyOp38
 70
     1
102
RTVSPropertyOp39
 70
     1
102
RTVSPropertyOp40
 70
     1
102
RTVSPropertyOp41
 70
     1
102
RTVSPropertyOp42
 70
     1
102
RTVSPropertyOp43
 70
     1
102
RTVSPropertyOp44
 70
     1
102
RTVSPropertyOp45
 70
     1
102
RTVSPropertyOp46
 70
     1
102
RTVSPropertyOp47
 70
     1
102
RTVSPropertyOp48
 70
     1
102
RTVSPropertyOp49
 70
     1
102
RTVSPropertyOp50
 70
     1
102
RTVSPropertyOp51
 70
     0
102
RTVSPropertyOp52
 70
     0
102
RTVSPropertyOp53
 70
     1
102
RTVSPropertyOp54
 70
     1
102
RTVSPropertyOp55
 70
     1
102
RTVSPropertyOp56
 70
     1
102
RTVSPropertyOp57
 70
     1
102
RTVSPropertyOp58
 70
     1
102
RTVSPropertyOp59
 70
     1
102
RTVSPropertyOp60
 70
     1
102
RTVSPropertyOp61
 70
     1
102
RTVSPropertyOp62
 70
     1
  0
XRECORD
  5
665
102
{ACAD_REACTORS
330
664
102
}
330
664
100
AcDbXrecord
280
     1
102
RTVSPost2010Prop28
280
     0
102
RTVSPost2010PropOp28
 70
     1
102
RTVSPost2010Prop29
280
     1
102
RTVSPost2010PropOp29
 70
     1
102
RTVSPost2010Prop30
280
     1
102
RTVSPost2010PropOp30
 70
     1
102
RTVSPost2010Prop31
280
     0
102
RTVSPost2010PropOp31
 70
     1
102
RTVSPost2010Prop32
280
     0
102
RTVSPost2010PropOp32
 70
     1
102
RTVSPost2010Prop33
280
     0
102
RTVSPost2010PropOp33
 70
     1
102
RTVSPost2010Prop34
280
     0
102
RTVSPost2010PropOp34
 70
     1
102
RTVSPost2010Prop35
280
     0
102
RTVSPost2010PropOp35
 70
     1
102
RTVSPost2010Prop36
280
     0
102
RTVSPost2010PropOp36
 70
     1
102
RTVSPost2010Prop37
 90
       50
102
RTVSPost2010PropOp37
 70
     1
102
RTVSPost2010Prop38
140
0.0
102
RTVSPost2010PropOp38
 70
     1
102
RTVSPost2010Prop39
140
1.0
102
RTVSPost2010PropOp39
 70
     1
102
RTVSPost2010Prop40
 90
        0
102
RTVSPost2010PropOp40
 70
     1
102
RTVSPost2010Prop41ColorIndex
 90
       18
102
RTVSPost2010Prop41ColorRGB
 90
        0
102
RTVSPost2010PropOp41
 70
     1
102
RTVSPost2010Prop42
 90
       50
102
RTVSPost2010PropOp42
 70
     1
102
RTVSPost2010Prop43
 90
        3
102
RTVSPost2010PropOp43
 70
     1
102
RTVSPost2010Prop44ColorIndex
 90
        5
102
RTVSPost2010Prop44ColorRGB
 90
      255
102
RTVSPost2010PropOp44
 70
     1
102
RTVSPost2010Prop45
280
     0
102
RTVSPost2010PropOp45
 70
     1
102
RTVSPost2010Prop46
 90
       50
102
RTVSPost2010PropOp46
 70
     1
102
RTVSPost2010Prop47
 90
       50
102
RTVSPost2010PropOp47
 70
     1
102
RTVSPost2010Prop48
 90
       50
102
RTVSPost2010PropOp48
 70
     1
102
RTVSPost2010Prop49
280
     0
102
RTVSPost2010PropOp49
 70
     1
102
RTVSPost2010Prop50
 90
       50
102
RTVSPost2010PropOp50
 70
     1
102
RTVSPost2010Prop51ColorIndex
 90
      256
102
RTVSPost2010Prop51ColorRGB
 90
-16777216
102
RTVSPost2010PropOp51
 70
     0
102
RTVSPost2010Prop52
140
1.0
102
RTVSPost2010PropOp52
 70
     0
102
RTVSPost2010Prop53
 90
        2
102
RTVSPost2010PropOp53
 70
     1
102
RTVSPost2010Prop54
  1
strokes_ogs.tif
102
RTVSPost2010PropOp54
 70
     1
102
RTVSPost2010Prop55
280
     0
102
RTVSPost2010PropOp55
 70
     1
102
RTVSPost2010Prop56
140
1.0
102
RTVSPost2010PropOp56
 70
     1
102
RTVSPost2010Prop57
140
1.0
102
RTVSPost2010PropOp57
 70
     1
102
RTVSPropertyOp0
 70
     1
102
RTVSPropertyOp1
 70
     1
102
RTVSPropertyOp2
 70
     1
102
RTVSPropertyOp3
 70
     1
102
RTVSPropertyOp4
 70
     1
102
RTVSPropertyOp5
 70
     1
102
RTVSPropertyOp6
 70
     1
102
RTVSPropertyOp7
 70
     1
102
RTVSPropertyOp8
 70
     1
102
RTVSPropertyOp9
 70
     1
102
RTVSPropertyOp10
 70
     1
102
RTVSPropertyOp11
 70
     1
102
RTVSPropertyOp12
 70
     1
102
RTVSPropertyOp13
 70
     1
102
RTVSPropertyOp14
 70
     1
102
RTVSPropertyOp15
 70
     1
102
RTVSPropertyOp16
 70
     1
102
RTVSPropertyOp17
 70
     1
102
RTVSPropertyOp18
 70
     1
102
RTVSPropertyOp19
 70
     1
102
RTVSPropertyOp20
 70
     1
102
RTVSPropertyOp21
 70
     1
102
RTVSPropertyOp22
 70
     1
102
RTVSPropertyOp23
 70
     1
102
RTVSPropertyOp24
 70
     1
102
RTVSPropertyOp25
 70
     1
102
RTVSPropertyOp26
 70
     1
102
RTVSPropertyOp27
 70
     1
102
RTVSPropertyOp28
 70
     1
102
RTVSPropertyOp29
 70
     1
102
RTVSPropertyOp30
 70
     1
102
RTVSPropertyOp31
 70
     1
102
RTVSPropertyOp32
 70
     1
102
RTVSPropertyOp33
 70
     1
102
RTVSPropertyOp34
 70
     1
102
RTVSPropertyOp35
 70
     1
102
RTVSPropertyOp36
 70
     1
102
RTVSPropertyOp37
 70
     1
102
RTVSPropertyOp38
 70
     1
102
RTVSPropertyOp39
 70
     1
102
RTVSPropertyOp40
 70
     1
102
RTVSPropertyOp41
 70
     1
102
RTVSPropertyOp42
 70
     1
102
RTVSPropertyOp43
 70
     1
102
RTVSPropertyOp44
 70
     1
102
RTVSPropertyOp45
 70
     1
102
RTVSPropertyOp46
 70
     1
102
RTVSPropertyOp47
 70
     1
102
RTVSPropertyOp48
 70
     1
102
RTVSPropertyOp49
 70
     1
102
RTVSPropertyOp50
 70
     1
102
RTVSPropertyOp51
 70
     0
102
RTVSPropertyOp52
 70
     0
102
RTVSPropertyOp53
 70
     1
102
RTVSPropertyOp54
 70
     1
102
RTVSPropertyOp55
 70
     1
102
RTVSPropertyOp56
 70
     1
102
RTVSPropertyOp57
 70
     1
102
RTVSPropertyOp58
 70
     1
102
RTVSPropertyOp59
 70
     1
102
RTVSPropertyOp60
 70
     1
102
RTVSPropertyOp61
 70
     1
102
RTVSPropertyOp62
 70
     1
  0
XRECORD
  5
68A
102
{ACAD_REACTORS
330
689
102
}
330
689
100
AcDbXrecord
280
     1
102
RTVSPost2010Prop28
280
     0
102
RTVSPost2010PropOp28
 70
     1
102
RTVSPost2010Prop29
280
     1
102
RTVSPost2010PropOp29
 70
     1
102
RTVSPost2010Prop30
280
     1
102
RTVSPost2010PropOp30
 70
     1
102
RTVSPost2010Prop31
280
     0
102
RTVSPost2010PropOp31
 70
     1
102
RTVSPost2010Prop32
280
     0
102
RTVSPost2010PropOp32
 70
     1
102
RTVSPost2010Prop33
280
     0
102
RTVSPost2010PropOp33
 70
     1
102
RTVSPost2010Prop34
280
     0
102
RTVSPost2010PropOp34
 70
     1
102
RTVSPost2010Prop35
280
     0
102
RTVSPost2010PropOp35
 70
     1
102
RTVSPost2010Prop36
280
     0
102
RTVSPost2010PropOp36
 70
     1
102
RTVSPost2010Prop37
 90
       50
102
RTVSPost2010PropOp37
 70
     1
102
RTVSPost2010Prop38
140
0.0
102
RTVSPost2010PropOp38
 70
     1
102
RTVSPost2010Prop39
140
1.0
102
RTVSPost2010PropOp39
 70
     1
102
RTVSPost2010Prop40
 90
        0
102
RTVSPost2010PropOp40
 70
     1
102
RTVSPost2010Prop41ColorIndex
 90
       18
102
RTVSPost2010Prop41ColorRGB
 90
        0
102
RTVSPost2010PropOp41
 70
     1
102
RTVSPost2010Prop42
 90
       50
102
RTVSPost2010PropOp42
 70
     1
102
RTVSPost2010Prop43
 90
        3
102
RTVSPost2010PropOp43
 70
     1
102
RTVSPost2010Prop44ColorIndex
 90
        5
102
RTVSPost2010Prop44ColorRGB
 90
      255
102
RTVSPost2010PropOp44
 70
     1
102
RTVSPost2010Prop45
280
     0
102
RTVSPost2010PropOp45
 70
     1
102
RTVSPost2010Prop46
 90
       50
102
RTVSPost2010PropOp46
 70
     1
102
RTVSPost2010Prop47
 90
       50
102
RTVSPost2010PropOp47
 70
     1
102
RTVSPost2010Prop48
 90
       50
102
RTVSPost2010PropOp48
 70
     1
102
RTVSPost2010Prop49
280
     0
102
RTVSPost2010PropOp49
 70
     1
102
RTVSPost2010Prop50
 90
       50
102
RTVSPost2010PropOp50
 70
     1
102
RTVSPost2010Prop51ColorIndex
 90
      256
102
RTVSPost2010Prop51ColorRGB
 90
-16777216
102
RTVSPost2010PropOp51
 70
     0
102
RTVSPost2010Prop52
140
1.0
102
RTVSPost2010PropOp52
 70
     0
102
RTVSPost2010Prop53
 90
        2
102
RTVSPost2010PropOp53
 70
     1
102
RTVSPost2010Prop54
  1
strokes_ogs.tif
102
RTVSPost2010PropOp54
 70
     1
102
RTVSPost2010Prop55
280
     0
102
RTVSPost2010PropOp55
 70
     1
102
RTVSPost2010Prop56
140
1.0
102
RTVSPost2010PropOp56
 70
     1
102
RTVSPost2010Prop57
140
1.0
102
RTVSPost2010PropOp57
 70
     1
102
RTVSPropertyOp0
 70
     1
102
RTVSPropertyOp1
 70
     1
102
RTVSPropertyOp2
 70
     1
102
RTVSPropertyOp3
 70
     1
102
RTVSPropertyOp4
 70
     1
102
RTVSPropertyOp5
 70
     1
102
RTVSPropertyOp6
 70
     1
102
RTVSPropertyOp7
 70
     1
102
RTVSPropertyOp8
 70
     1
102
RTVSPropertyOp9
 70
     1
102
RTVSPropertyOp10
 70
     1
102
RTVSPropertyOp11
 70
     1
102
RTVSPropertyOp12
 70
     1
102
RTVSPropertyOp13
 70
     1
102
RTVSPropertyOp14
 70
     1
102
RTVSPropertyOp15
 70
     1
102
RTVSPropertyOp16
 70
     1
102
RTVSPropertyOp17
 70
     1
102
RTVSPropertyOp18
 70
     1
102
RTVSPropertyOp19
 70
     1
102
RTVSPropertyOp20
 70
     1
102
RTVSPropertyOp21
 70
     1
102
RTVSPropertyOp22
 70
     1
102
RTVSPropertyOp23
 70
     1
102
RTVSPropertyOp24
 70
     1
102
RTVSPropertyOp25
 70
     1
102
RTVSPropertyOp26
 70
     1
102
RTVSPropertyOp27
 70
     1
102
RTVSPropertyOp28
 70
     1
102
RTVSPropertyOp29
 70
     1
102
RTVSPropertyOp30
 70
     1
102
RTVSPropertyOp31
 70
     1
102
RTVSPropertyOp32
 70
     1
102
RTVSPropertyOp33
 70
     1
102
RTVSPropertyOp34
 70
     1
102
RTVSPropertyOp35
 70
     1
102
RTVSPropertyOp36
 70
     1
102
RTVSPropertyOp37
 70
     1
102
RTVSPropertyOp38
 70
     1
102
RTVSPropertyOp39
 70
     1
102
RTVSPropertyOp40
 70
     1
102
RTVSPropertyOp41
 70
     1
102
RTVSPropertyOp42
 70
     1
102
RTVSPropertyOp43
 70
     1
102
RTVSPropertyOp44
 70
     1
102
RTVSPropertyOp45
 70
     1
102
RTVSPropertyOp46
 70
     1
102
RTVSPropertyOp47
 70
     1
102
RTVSPropertyOp48
 70
     1
102
RTVSPropertyOp49
 70
     1
102
RTVSPropertyOp50
 70
     1
102
RTVSPropertyOp51
 70
     0
102
RTVSPropertyOp52
 70
     0
102
RTVSPropertyOp53
 70
     1
102
RTVSPropertyOp54
 70
     1
102
RTVSPropertyOp55
 70
     1
102
RTVSPropertyOp56
 70
     1
102
RTVSPropertyOp57
 70
     1
102
RTVSPropertyOp58
 70
     1
102
RTVSPropertyOp59
 70
     1
102
RTVSPropertyOp60
 70
     1
102
RTVSPropertyOp61
 70
     1
102
RTVSPropertyOp62
 70
     1
  0
XRECORD
  5
696
102
{ACAD_REACTORS
330
695
102
}
330
695
100
AcDbXrecord
280
     1
102
RTVSPost2010Prop28
280
     0
102
RTVSPost2010PropOp28
 70
     0
102
RTVSPost2010Prop29
280
     1
102
RTVSPost2010PropOp29
 70
     0
102
RTVSPost2010Prop30
280
     1
102
RTVSPost2010PropOp30
 70
     0
102
RTVSPost2010Prop31
280
     0
102
RTVSPost2010PropOp31
 70
     0
102
RTVSPost2010Prop32
280
     0
102
RTVSPost2010PropOp32
 70
     0
102
RTVSPost2010Prop33
280
     0
102
RTVSPost2010PropOp33
 70
     0
102
RTVSPost2010Prop34
280
     0
102
RTVSPost2010PropOp34
 70
     0
102
RTVSPost2010Prop35
280
     0
102
RTVSPost2010PropOp35
 70
     0
102
RTVSPost2010Prop36
280
     0
102
RTVSPost2010PropOp36
 70
     0
102
RTVSPost2010Prop37
 90
       50
102
RTVSPost2010PropOp37
 70
     0
102
RTVSPost2010Prop38
140
0.0
102
RTVSPost2010PropOp38
 70
     0
102
RTVSPost2010Prop39
140
1.0
102
RTVSPost2010PropOp39
 70
     0
102
RTVSPost2010Prop40
 90
        0
102
RTVSPost2010PropOp40
 70
     0
102
RTVSPost2010Prop41ColorIndex
 90
       18
102
RTVSPost2010Prop41ColorRGB
 90
        0
102
RTVSPost2010PropOp41
 70
     0
102
RTVSPost2010Prop42
 90
       50
102
RTVSPost2010PropOp42
 70
     0
102
RTVSPost2010Prop43
 90
        3
102
RTVSPost2010PropOp43
 70
     0
102
RTVSPost2010Prop44ColorIndex
 90
        5
102
RTVSPost2010Prop44ColorRGB
 90
      255
102
RTVSPost2010PropOp44
 70
     0
102
RTVSPost2010Prop45
280
     0
102
RTVSPost2010PropOp45
 70
     0
102
RTVSPost2010Prop46
 90
       50
102
RTVSPost2010PropOp46
 70
     0
102
RTVSPost2010Prop47
 90
       50
102
RTVSPost2010PropOp47
 70
     0
102
RTVSPost2010Prop48
 90
       50
102
RTVSPost2010PropOp48
 70
     0
102
RTVSPost2010Prop49
280
     0
102
RTVSPost2010PropOp49
 70
     0
102
RTVSPost2010Prop50
 90
       50
102
RTVSPost2010PropOp50
 70
     0
102
RTVSPost2010Prop51ColorIndex
 90
      256
102
RTVSPost2010Prop51ColorRGB
 90
-16777216
102
RTVSPost2010PropOp51
 70
     0
102
RTVSPost2010Prop52
140
1.0
102
RTVSPost2010PropOp52
 70
     0
102
RTVSPost2010Prop53
 90
        2
102
RTVSPost2010PropOp53
 70
     0
102
RTVSPost2010Prop54
  1
strokes_ogs.tif
102
RTVSPost2010PropOp54
 70
     0
102
RTVSPost2010Prop55
280
     0
102
RTVSPost2010PropOp55
 70
     0
102
RTVSPost2010Prop56
140
1.0
102
RTVSPost2010PropOp56
 70
     0
102
RTVSPost2010Prop57
140
1.0
102
RTVSPost2010PropOp57
 70
     0
102
RTVSPropertyOp0
 70
     0
102
RTVSPropertyOp1
 70
     0
102
RTVSPropertyOp2
 70
     0
102
RTVSPropertyOp3
 70
     0
102
RTVSPropertyOp4
 70
     0
102
RTVSPropertyOp5
 70
     0
102
RTVSPropertyOp6
 70
     0
102
RTVSPropertyOp7
 70
     0
102
RTVSPropertyOp8
 70
     0
102
RTVSPropertyOp9
 70
     0
102
RTVSPropertyOp10
 70
     0
102
RTVSPropertyOp11
 70
     0
102
RTVSPropertyOp12
 70
     0
102
RTVSPropertyOp13
 70
     0
102
RTVSPropertyOp14
 70
     2
102
RTVSPropertyOp15
 70
     0
102
RTVSPropertyOp16
 70
     0
102
RTVSPropertyOp17
 70
     0
102
RTVSPropertyOp18
 70
     0
102
RTVSPropertyOp19
 70
     0
102
RTVSPropertyOp20
 70
     0
102
RTVSPropertyOp21
 70
     0
102
RTVSPropertyOp22
 70
     0
102
RTVSPropertyOp23
 70
     0
102
RTVSPropertyOp24
 70
     0
102
RTVSPropertyOp25
 70
     0
102
RTVSPropertyOp26
 70
     0
102
RTVSPropertyOp27
 70
     0
102
RTVSPropertyOp28
 70
     0
102
RTVSPropertyOp29
 70
     0
102
RTVSPropertyOp30
 70
     0
102
RTVSPropertyOp31
 70
     0
102
RTVSPropertyOp32
 70
     0
102
RTVSPropertyOp33
 70
     0
102
RTVSPropertyOp34
 70
     0
102
RTVSPropertyOp35
 70
     0
102
RTVSPropertyOp36
 70
     0
102
RTVSPropertyOp37
 70
     0
102
RTVSPropertyOp38
 70
     0
102
RTVSPropertyOp39
 70
     0
102
RTVSPropertyOp40
 70
     0
102
RTVSPropertyOp41
 70
     0
102
RTVSPropertyOp42
 70
     0
102
RTVSPropertyOp43
 70
     0
102
RTVSPropertyOp44
 70
     0
102
RTVSPropertyOp45
 70
     0
102
RTVSPropertyOp46
 70
     0
102
RTVSPropertyOp47
 70
     0
102
RTVSPropertyOp48
 70
     0
102
RTVSPropertyOp49
 70
     0
102
RTVSPropertyOp50
 70
     0
102
RTVSPropertyOp51
 70
     0
102
RTVSPropertyOp52
 70
     0
102
RTVSPropertyOp53
 70
     0
102
RTVSPropertyOp54
 70
     0
102
RTVSPropertyOp55
 70
     0
102
RTVSPropertyOp56
 70
     0
102
RTVSPropertyOp57
 70
     0
102
RTVSPropertyOp58
 70
     1
102
RTVSPropertyOp59
 70
     1
102
RTVSPropertyOp60
 70
     1
102
RTVSPropertyOp61
 70
     1
102
RTVSPropertyOp62
 70
     1
  0
XRECORD
  5
679
102
{ACAD_REACTORS
330
678
102
}
330
678
100
AcDbXrecord
280
     1
102
RTVSPost2010Prop28
280
     0
102
RTVSPost2010PropOp28
 70
     1
102
RTVSPost2010Prop29
280
     1
102
RTVSPost2010PropOp29
 70
     1
102
RTVSPost2010Prop30
280
     1
102
RTVSPost2010PropOp30
 70
     1
102
RTVSPost2010Prop31
280
     0
102
RTVSPost2010PropOp31
 70
     1
102
RTVSPost2010Prop32
280
     0
102
RTVSPost2010PropOp32
 70
     1
102
RTVSPost2010Prop33
280
     0
102
RTVSPost2010PropOp33
 70
     1
102
RTVSPost2010Prop34
280
     0
102
RTVSPost2010PropOp34
 70
     1
102
RTVSPost2010Prop35
280
     0
102
RTVSPost2010PropOp35
 70
     1
102
RTVSPost2010Prop36
280
     0
102
RTVSPost2010PropOp36
 70
     1
102
RTVSPost2010Prop37
 90
       50
102
RTVSPost2010PropOp37
 70
     1
102
RTVSPost2010Prop38
140
0.0
102
RTVSPost2010PropOp38
 70
     1
102
RTVSPost2010Prop39
140
1.0
102
RTVSPost2010PropOp39
 70
     1
102
RTVSPost2010Prop40
 90
        0
102
RTVSPost2010PropOp40
 70
     1
102
RTVSPost2010Prop41ColorIndex
 90
       18
102
RTVSPost2010Prop41ColorRGB
 90
        0
102
RTVSPost2010PropOp41
 70
     1
102
RTVSPost2010Prop42
 90
       50
102
RTVSPost2010PropOp42
 70
     1
102
RTVSPost2010Prop43
 90
        3
102
RTVSPost2010PropOp43
 70
     1
102
RTVSPost2010Prop44ColorIndex
 90
        5
102
RTVSPost2010Prop44ColorRGB
 90
      255
102
RTVSPost2010PropOp44
 70
     1
102
RTVSPost2010Prop45
280
     0
102
RTVSPost2010PropOp45
 70
     1
102
RTVSPost2010Prop46
 90
       50
102
RTVSPost2010PropOp46
 70
     1
102
RTVSPost2010Prop47
 90
       50
102
RTVSPost2010PropOp47
 70
     1
102
RTVSPost2010Prop48
 90
       50
102
RTVSPost2010PropOp48
 70
     1
102
RTVSPost2010Prop49
280
     0
102
RTVSPost2010PropOp49
 70
     1
102
RTVSPost2010Prop50
 90
       50
102
RTVSPost2010PropOp50
 70
     1
102
RTVSPost2010Prop51ColorIndex
 90
      256
102
RTVSPost2010Prop51ColorRGB
 90
-16777216
102
RTVSPost2010PropOp51
 70
     0
102
RTVSPost2010Prop52
140
1.0
102
RTVSPost2010PropOp52
 70
     0
102
RTVSPost2010Prop53
 90
        2
102
RTVSPost2010PropOp53
 70
     1
102
RTVSPost2010Prop54
  1
strokes_ogs.tif
102
RTVSPost2010PropOp54
 70
     1
102
RTVSPost2010Prop55
280
     0
102
RTVSPost2010PropOp55
 70
     1
102
RTVSPost2010Prop56
140
1.0
102
RTVSPost2010PropOp56
 70
     1
102
RTVSPost2010Prop57
140
1.0
102
RTVSPost2010PropOp57
 70
     1
102
RTVSPropertyOp0
 70
     1
102
RTVSPropertyOp1
 70
     1
102
RTVSPropertyOp2
 70
     1
102
RTVSPropertyOp3
 70
     1
102
RTVSPropertyOp4
 70
     1
102
RTVSPropertyOp5
 70
     1
102
RTVSPropertyOp6
 70
     1
102
RTVSPropertyOp7
 70
     1
102
RTVSPropertyOp8
 70
     1
102
RTVSPropertyOp9
 70
     1
102
RTVSPropertyOp10
 70
     1
102
RTVSPropertyOp11
 70
     1
102
RTVSPropertyOp12
 70
     1
102
RTVSPropertyOp13
 70
     1
102
RTVSPropertyOp14
 70
     1
102
RTVSPropertyOp15
 70
     1
102
RTVSPropertyOp16
 70
     1
102
RTVSPropertyOp17
 70
     1
102
RTVSPropertyOp18
 70
     1
102
RTVSPropertyOp19
 70
     1
102
RTVSPropertyOp20
 70
     1
102
RTVSPropertyOp21
 70
     1
102
RTVSPropertyOp22
 70
     1
102
RTVSPropertyOp23
 70
     1
102
RTVSPropertyOp24
 70
     1
102
RTVSPropertyOp25
 70
     1
102
RTVSPropertyOp26
 70
     1
102
RTVSPropertyOp27
 70
     1
102
RTVSPropertyOp28
 70
     1
102
RTVSPropertyOp29
 70
     1
102
RTVSPropertyOp30
 70
     1
102
RTVSPropertyOp31
 70
     1
102
RTVSPropertyOp32
 70
     1
102
RTVSPropertyOp33
 70
     1
102
RTVSPropertyOp34
 70
     1
102
RTVSPropertyOp35
 70
     1
102
RTVSPropertyOp36
 70
     1
102
RTVSPropertyOp37
 70
     1
102
RTVSPropertyOp38
 70
     1
102
RTVSPropertyOp39
 70
     1
102
RTVSPropertyOp40
 70
     1
102
RTVSPropertyOp41
 70
     1
102
RTVSPropertyOp42
 70
     1
102
RTVSPropertyOp43
 70
     1
102
RTVSPropertyOp44
 70
     1
102
RTVSPropertyOp45
 70
     1
102
RTVSPropertyOp46
 70
     1
102
RTVSPropertyOp47
 70
     1
102
RTVSPropertyOp48
 70
     1
102
RTVSPropertyOp49
 70
     1
102
RTVSPropertyOp50
 70
     1
102
RTVSPropertyOp51
 70
     0
102
RTVSPropertyOp52
 70
     0
102
RTVSPropertyOp53
 70
     1
102
RTVSPropertyOp54
 70
     1
102
RTVSPropertyOp55
 70
     1
102
RTVSPropertyOp56
 70
     1
102
RTVSPropertyOp57
 70
     1
102
RTVSPropertyOp58
 70
     1
102
RTVSPropertyOp59
 70
     1
102
RTVSPropertyOp60
 70
     1
102
RTVSPropertyOp61
 70
     1
102
RTVSPropertyOp62
 70
     1
  0
XRECORD
  5
698
102
{ACAD_REACTORS
330
697
102
}
330
697
100
AcDbXrecord
280
     1
102
RTVSPost2010Prop28
280
     0
102
RTVSPost2010PropOp28
 70
     0
102
RTVSPost2010Prop29
280
     1
102
RTVSPost2010PropOp29
 70
     0
102
RTVSPost2010Prop30
280
     1
102
RTVSPost2010PropOp30
 70
     0
102
RTVSPost2010Prop31
280
     0
102
RTVSPost2010PropOp31
 70
     0
102
RTVSPost2010Prop32
280
     0
102
RTVSPost2010PropOp32
 70
     0
102
RTVSPost2010Prop33
280
     0
102
RTVSPost2010PropOp33
 70
     0
102
RTVSPost2010Prop34
280
     0
102
RTVSPost2010PropOp34
 70
     0
102
RTVSPost2010Prop35
280
     0
102
RTVSPost2010PropOp35
 70
     0
102
RTVSPost2010Prop36
280
     0
102
RTVSPost2010PropOp36
 70
     0
102
RTVSPost2010Prop37
 90
       50
102
RTVSPost2010PropOp37
 70
     0
102
RTVSPost2010Prop38
140
0.0
102
RTVSPost2010PropOp38
 70
     0
102
RTVSPost2010Prop39
140
1.0
102
RTVSPost2010PropOp39
 70
     0
102
RTVSPost2010Prop40
 90
        0
102
RTVSPost2010PropOp40
 70
     0
102
RTVSPost2010Prop41ColorIndex
 90
       18
102
RTVSPost2010Prop41ColorRGB
 90
        0
102
RTVSPost2010PropOp41
 70
     0
102
RTVSPost2010Prop42
 90
       50
102
RTVSPost2010PropOp42
 70
     0
102
RTVSPost2010Prop43
 90
        3
102
RTVSPost2010PropOp43
 70
     0
102
RTVSPost2010Prop44ColorIndex
 90
        5
102
RTVSPost2010Prop44ColorRGB
 90
      255
102
RTVSPost2010PropOp44
 70
     0
102
RTVSPost2010Prop45
280
     0
102
RTVSPost2010PropOp45
 70
     0
102
RTVSPost2010Prop46
 90
       50
102
RTVSPost2010PropOp46
 70
     0
102
RTVSPost2010Prop47
 90
       50
102
RTVSPost2010PropOp47
 70
     0
102
RTVSPost2010Prop48
 90
       50
102
RTVSPost2010PropOp48
 70
     0
102
RTVSPost2010Prop49
280
     0
102
RTVSPost2010PropOp49
 70
     0
102
RTVSPost2010Prop50
 90
       50
102
RTVSPost2010PropOp50
 70
     0
102
RTVSPost2010Prop51ColorIndex
 90
      256
102
RTVSPost2010Prop51ColorRGB
 90
-16777216
102
RTVSPost2010PropOp51
 70
     0
102
RTVSPost2010Prop52
140
1.0
102
RTVSPost2010PropOp52
 70
     0
102
RTVSPost2010Prop53
 90
        2
102
RTVSPost2010PropOp53
 70
     0
102
RTVSPost2010Prop54
  1
strokes_ogs.tif
102
RTVSPost2010PropOp54
 70
     0
102
RTVSPost2010Prop55
280
     0
102
RTVSPost2010PropOp55
 70
     0
102
RTVSPost2010Prop56
140
1.0
102
RTVSPost2010PropOp56
 70
     0
102
RTVSPost2010Prop57
140
1.0
102
RTVSPost2010PropOp57
 70
     0
102
RTVSPropertyOp0
 70
     0
102
RTVSPropertyOp1
 70
     0
102
RTVSPropertyOp2
 70
     0
102
RTVSPropertyOp3
 70
     0
102
RTVSPropertyOp4
 70
     0
102
RTVSPropertyOp5
 70
     0
102
RTVSPropertyOp6
 70
     0
102
RTVSPropertyOp7
 70
     0
102
RTVSPropertyOp8
 70
     0
102
RTVSPropertyOp9
 70
     0
102
RTVSPropertyOp10
 70
     0
102
RTVSPropertyOp11
 70
     0
102
RTVSPropertyOp12
 70
     0
102
RTVSPropertyOp13
 70
     0
102
RTVSPropertyOp14
 70
     2
102
RTVSPropertyOp15
 70
     0
102
RTVSPropertyOp16
 70
     0
102
RTVSPropertyOp17
 70
     0
102
RTVSPropertyOp18
 70
     0
102
RTVSPropertyOp19
 70
     0
102
RTVSPropertyOp20
 70
     0
102
RTVSPropertyOp21
 70
     0
102
RTVSPropertyOp22
 70
     0
102
RTVSPropertyOp23
 70
     0
102
RTVSPropertyOp24
 70
     0
102
RTVSPropertyOp25
 70
     0
102
RTVSPropertyOp26
 70
     0
102
RTVSPropertyOp27
 70
     0
102
RTVSPropertyOp28
 70
     0
102
RTVSPropertyOp29
 70
     0
102
RTVSPropertyOp30
 70
     0
102
RTVSPropertyOp31
 70
     0
102
RTVSPropertyOp32
 70
     0
102
RTVSPropertyOp33
 70
     0
102
RTVSPropertyOp34
 70
     0
102
RTVSPropertyOp35
 70
     0
102
RTVSPropertyOp36
 70
     0
102
RTVSPropertyOp37
 70
     0
102
RTVSPropertyOp38
 70
     0
102
RTVSPropertyOp39
 70
     0
102
RTVSPropertyOp40
 70
     0
102
RTVSPropertyOp41
 70
     0
102
RTVSPropertyOp42
 70
     0
102
RTVSPropertyOp43
 70
     0
102
RTVSPropertyOp44
 70
     0
102
RTVSPropertyOp45
 70
     0
102
RTVSPropertyOp46
 70
     0
102
RTVSPropertyOp47
 70
     0
102
RTVSPropertyOp48
 70
     0
102
RTVSPropertyOp49
 70
     0
102
RTVSPropertyOp50
 70
     0
102
RTVSPropertyOp51
 70
     0
102
RTVSPropertyOp52
 70
     0
102
RTVSPropertyOp53
 70
     0
102
RTVSPropertyOp54
 70
     0
102
RTVSPropertyOp55
 70
     0
102
RTVSPropertyOp56
 70
     0
102
RTVSPropertyOp57
 70
     0
102
RTVSPropertyOp58
 70
     1
102
RTVSPropertyOp59
 70
     1
102
RTVSPropertyOp60
 70
     1
102
RTVSPropertyOp61
 70
     1
102
RTVSPropertyOp62
 70
     1
  0
XRECORD
  5
66F
102
{ACAD_REACTORS
330
66E
102
}
330
66E
100
AcDbXrecord
280
     1
102
RTVSPost2010Prop28
280
     0
102
RTVSPost2010PropOp28
 70
     1
102
RTVSPost2010Prop29
280
     1
102
RTVSPost2010PropOp29
 70
     1
102
RTVSPost2010Prop30
280
     1
102
RTVSPost2010PropOp30
 70
     1
102
RTVSPost2010Prop31
280
     0
102
RTVSPost2010PropOp31
 70
     1
102
RTVSPost2010Prop32
280
     0
102
RTVSPost2010PropOp32
 70
     1
102
RTVSPost2010Prop33
280
     0
102
RTVSPost2010PropOp33
 70
     1
102
RTVSPost2010Prop34
280
     0
102
RTVSPost2010PropOp34
 70
     1
102
RTVSPost2010Prop35
280
     0
102
RTVSPost2010PropOp35
 70
     1
102
RTVSPost2010Prop36
280
     0
102
RTVSPost2010PropOp36
 70
     1
102
RTVSPost2010Prop37
 90
       50
102
RTVSPost2010PropOp37
 70
     1
102
RTVSPost2010Prop38
140
0.0
102
RTVSPost2010PropOp38
 70
     1
102
RTVSPost2010Prop39
140
1.0
102
RTVSPost2010PropOp39
 70
     1
102
RTVSPost2010Prop40
 90
        0
102
RTVSPost2010PropOp40
 70
     1
102
RTVSPost2010Prop41ColorIndex
 90
       18
102
RTVSPost2010Prop41ColorRGB
 90
        0
102
RTVSPost2010PropOp41
 70
     1
102
RTVSPost2010Prop42
 90
       50
102
RTVSPost2010PropOp42
 70
     1
102
RTVSPost2010Prop43
 90
        3
102
RTVSPost2010PropOp43
 70
     1
102
RTVSPost2010Prop44ColorIndex
 90
        5
102
RTVSPost2010Prop44ColorRGB
 90
      255
102
RTVSPost2010PropOp44
 70
     1
102
RTVSPost2010Prop45
280
     0
102
RTVSPost2010PropOp45
 70
     1
102
RTVSPost2010Prop46
 90
       50
102
RTVSPost2010PropOp46
 70
     1
102
RTVSPost2010Prop47
 90
       50
102
RTVSPost2010PropOp47
 70
     1
102
RTVSPost2010Prop48
 90
       50
102
RTVSPost2010PropOp48
 70
     1
102
RTVSPost2010Prop49
280
     0
102
RTVSPost2010PropOp49
 70
     1
102
RTVSPost2010Prop50
 90
       50
102
RTVSPost2010PropOp50
 70
     1
102
RTVSPost2010Prop51ColorIndex
 90
      256
102
RTVSPost2010Prop51ColorRGB
 90
-16777216
102
RTVSPost2010PropOp51
 70
     0
102
RTVSPost2010Prop52
140
1.0
102
RTVSPost2010PropOp52
 70
     0
102
RTVSPost2010Prop53
 90
        2
102
RTVSPost2010PropOp53
 70
     1
102
RTVSPost2010Prop54
  1
strokes_ogs.tif
102
RTVSPost2010PropOp54
 70
     1
102
RTVSPost2010Prop55
280
     0
102
RTVSPost2010PropOp55
 70
     1
102
RTVSPost2010Prop56
140
1.0
102
RTVSPost2010PropOp56
 70
     1
102
RTVSPost2010Prop57
140
1.0
102
RTVSPost2010PropOp57
 70
     1
102
RTVSPropertyOp0
 70
     1
102
RTVSPropertyOp1
 70
     1
102
RTVSPropertyOp2
 70
     1
102
RTVSPropertyOp3
 70
     1
102
RTVSPropertyOp4
 70
     1
102
RTVSPropertyOp5
 70
     1
102
RTVSPropertyOp6
 70
     1
102
RTVSPropertyOp7
 70
     1
102
RTVSPropertyOp8
 70
     1
102
RTVSPropertyOp9
 70
     1
102
RTVSPropertyOp10
 70
     1
102
RTVSPropertyOp11
 70
     1
102
RTVSPropertyOp12
 70
     1
102
RTVSPropertyOp13
 70
     1
102
RTVSPropertyOp14
 70
     1
102
RTVSPropertyOp15
 70
     1
102
RTVSPropertyOp16
 70
     1
102
RTVSPropertyOp17
 70
     1
102
RTVSPropertyOp18
 70
     1
102
RTVSPropertyOp19
 70
     1
102
RTVSPropertyOp20
 70
     1
102
RTVSPropertyOp21
 70
     1
102
RTVSPropertyOp22
 70
     1
102
RTVSPropertyOp23
 70
     1
102
RTVSPropertyOp24
 70
     1
102
RTVSPropertyOp25
 70
     1
102
RTVSPropertyOp26
 70
     1
102
RTVSPropertyOp27
 70
     1
102
RTVSPropertyOp28
 70
     1
102
RTVSPropertyOp29
 70
     1
102
RTVSPropertyOp30
 70
     1
102
RTVSPropertyOp31
 70
     1
102
RTVSPropertyOp32
 70
     1
102
RTVSPropertyOp33
 70
     1
102
RTVSPropertyOp34
 70
     1
102
RTVSPropertyOp35
 70
     1
102
RTVSPropertyOp36
 70
     1
102
RTVSPropertyOp37
 70
     1
102
RTVSPropertyOp38
 70
     1
102
RTVSPropertyOp39
 70
     1
102
RTVSPropertyOp40
 70
     1
102
RTVSPropertyOp41
 70
     1
102
RTVSPropertyOp42
 70
     1
102
RTVSPropertyOp43
 70
     1
102
RTVSPropertyOp44
 70
     1
102
RTVSPropertyOp45
 70
     1
102
RTVSPropertyOp46
 70
     1
102
RTVSPropertyOp47
 70
     1
102
RTVSPropertyOp48
 70
     1
102
RTVSPropertyOp49
 70
     1
102
RTVSPropertyOp50
 70
     1
102
RTVSPropertyOp51
 70
     0
102
RTVSPropertyOp52
 70
     0
102
RTVSPropertyOp53
 70
     1
102
RTVSPropertyOp54
 70
     1
102
RTVSPropertyOp55
 70
     1
102
RTVSPropertyOp56
 70
     1
102
RTVSPropertyOp57
 70
     1
102
RTVSPropertyOp58
 70
     1
102
RTVSPropertyOp59
 70
     1
102
RTVSPropertyOp60
 70
     1
102
RTVSPropertyOp61
 70
     1
102
RTVSPropertyOp62
 70
     1
  0
XRECORD
  5
694
102
{ACAD_REACTORS
330
693
102
}
330
693
100
AcDbXrecord
280
     1
102
RTVSPost2010Prop28
280
     0
102
RTVSPost2010PropOp28
 70
     1
102
RTVSPost2010Prop29
280
     1
102
RTVSPost2010PropOp29
 70
     1
102
RTVSPost2010Prop30
280
     1
102
RTVSPost2010PropOp30
 70
     1
102
RTVSPost2010Prop31
280
     0
102
RTVSPost2010PropOp31
 70
     1
102
RTVSPost2010Prop32
280
     0
102
RTVSPost2010PropOp32
 70
     1
102
RTVSPost2010Prop33
280
     0
102
RTVSPost2010PropOp33
 70
     1
102
RTVSPost2010Prop34
280
     0
102
RTVSPost2010PropOp34
 70
     1
102
RTVSPost2010Prop35
280
     0
102
RTVSPost2010PropOp35
 70
     1
102
RTVSPost2010Prop36
280
     0
102
RTVSPost2010PropOp36
 70
     1
102
RTVSPost2010Prop37
 90
       50
102
RTVSPost2010PropOp37
 70
     1
102
RTVSPost2010Prop38
140
0.0
102
RTVSPost2010PropOp38
 70
     1
102
RTVSPost2010Prop39
140
1.0
102
RTVSPost2010PropOp39
 70
     1
102
RTVSPost2010Prop40
 90
        0
102
RTVSPost2010PropOp40
 70
     1
102
RTVSPost2010Prop41ColorIndex
 90
       18
102
RTVSPost2010Prop41ColorRGB
 90
        0
102
RTVSPost2010PropOp41
 70
     1
102
RTVSPost2010Prop42
 90
       50
102
RTVSPost2010PropOp42
 70
     1
102
RTVSPost2010Prop43
 90
        3
102
RTVSPost2010PropOp43
 70
     1
102
RTVSPost2010Prop44ColorIndex
 90
        5
102
RTVSPost2010Prop44ColorRGB
 90
      255
102
RTVSPost2010PropOp44
 70
     1
102
RTVSPost2010Prop45
280
     0
102
RTVSPost2010PropOp45
 70
     1
102
RTVSPost2010Prop46
 90
       50
102
RTVSPost2010PropOp46
 70
     1
102
RTVSPost2010Prop47
 90
       50
102
RTVSPost2010PropOp47
 70
     1
102
RTVSPost2010Prop48
 90
       50
102
RTVSPost2010PropOp48
 70
     1
102
RTVSPost2010Prop49
280
     0
102
RTVSPost2010PropOp49
 70
     1
102
RTVSPost2010Prop50
 90
       50
102
RTVSPost2010PropOp50
 70
     1
102
RTVSPost2010Prop51ColorIndex
 90
      256
102
RTVSPost2010Prop51ColorRGB
 90
-16777216
102
RTVSPost2010PropOp51
 70
     0
102
RTVSPost2010Prop52
140
1.0
102
RTVSPost2010PropOp52
 70
     0
102
RTVSPost2010Prop53
 90
        2
102
RTVSPost2010PropOp53
 70
     1
102
RTVSPost2010Prop54
  1
strokes_ogs.tif
102
RTVSPost2010PropOp54
 70
     1
102
RTVSPost2010Prop55
280
     0
102
RTVSPost2010PropOp55
 70
     1
102
RTVSPost2010Prop56
140
1.0
102
RTVSPost2010PropOp56
 70
     1
102
RTVSPost2010Prop57
140
1.0
102
RTVSPost2010PropOp57
 70
     1
102
RTVSPropertyOp0
 70
     1
102
RTVSPropertyOp1
 70
     1
102
RTVSPropertyOp2
 70
     1
102
RTVSPropertyOp3
 70
     1
102
RTVSPropertyOp4
 70
     1
102
RTVSPropertyOp5
 70
     1
102
RTVSPropertyOp6
 70
     1
102
RTVSPropertyOp7
 70
     1
102
RTVSPropertyOp8
 70
     1
102
RTVSPropertyOp9
 70
     1
102
RTVSPropertyOp10
 70
     1
102
RTVSPropertyOp11
 70
     1
102
RTVSPropertyOp12
 70
     1
102
RTVSPropertyOp13
 70
     1
102
RTVSPropertyOp14
 70
     1
102
RTVSPropertyOp15
 70
     1
102
RTVSPropertyOp16
 70
     1
102
RTVSPropertyOp17
 70
     1
102
RTVSPropertyOp18
 70
     1
102
RTVSPropertyOp19
 70
     1
102
RTVSPropertyOp20
 70
     1
102
RTVSPropertyOp21
 70
     1
102
RTVSPropertyOp22
 70
     1
102
RTVSPropertyOp23
 70
     1
102
RTVSPropertyOp24
 70
     1
102
RTVSPropertyOp25
 70
     1
102
RTVSPropertyOp26
 70
     1
102
RTVSPropertyOp27
 70
     1
102
RTVSPropertyOp28
 70
     1
102
RTVSPropertyOp29
 70
     1
102
RTVSPropertyOp30
 70
     1
102
RTVSPropertyOp31
 70
     1
102
RTVSPropertyOp32
 70
     1
102
RTVSPropertyOp33
 70
     1
102
RTVSPropertyOp34
 70
     1
102
RTVSPropertyOp35
 70
     1
102
RTVSPropertyOp36
 70
     1
102
RTVSPropertyOp37
 70
     1
102
RTVSPropertyOp38
 70
     1
102
RTVSPropertyOp39
 70
     1
102
RTVSPropertyOp40
 70
     1
102
RTVSPropertyOp41
 70
     1
102
RTVSPropertyOp42
 70
     1
102
RTVSPropertyOp43
 70
     1
102
RTVSPropertyOp44
 70
     1
102
RTVSPropertyOp45
 70
     1
102
RTVSPropertyOp46
 70
     1
102
RTVSPropertyOp47
 70
     1
102
RTVSPropertyOp48
 70
     1
102
RTVSPropertyOp49
 70
     1
102
RTVSPropertyOp50
 70
     1
102
RTVSPropertyOp51
 70
     0
102
RTVSPropertyOp52
 70
     0
102
RTVSPropertyOp53
 70
     1
102
RTVSPropertyOp54
 70
     1
102
RTVSPropertyOp55
 70
     1
102
RTVSPropertyOp56
 70
     1
102
RTVSPropertyOp57
 70
     1
102
RTVSPropertyOp58
 70
     1
102
RTVSPropertyOp59
 70
     1
102
RTVSPropertyOp60
 70
     1
102
RTVSPropertyOp61
 70
     1
102
RTVSPropertyOp62
 70
     1
  0
XRECORD
  5
692
102
{ACAD_REACTORS
330
691
102
}
330
691
100
AcDbXrecord
280
     1
102
RTVSPost2010Prop28
280
     0
102
RTVSPost2010PropOp28
 70
     1
102
RTVSPost2010Prop29
280
     1
102
RTVSPost2010PropOp29
 70
     1
102
RTVSPost2010Prop30
280
     1
102
RTVSPost2010PropOp30
 70
     1
102
RTVSPost2010Prop31
280
     0
102
RTVSPost2010PropOp31
 70
     1
102
RTVSPost2010Prop32
280
     0
102
RTVSPost2010PropOp32
 70
     1
102
RTVSPost2010Prop33
280
     0
102
RTVSPost2010PropOp33
 70
     1
102
RTVSPost2010Prop34
280
     0
102
RTVSPost2010PropOp34
 70
     1
102
RTVSPost2010Prop35
280
     0
102
RTVSPost2010PropOp35
 70
     1
102
RTVSPost2010Prop36
280
     0
102
RTVSPost2010PropOp36
 70
     1
102
RTVSPost2010Prop37
 90
       50
102
RTVSPost2010PropOp37
 70
     1
102
RTVSPost2010Prop38
140
0.0
102
RTVSPost2010PropOp38
 70
     1
102
RTVSPost2010Prop39
140
1.0
102
RTVSPost2010PropOp39
 70
     1
102
RTVSPost2010Prop40
 90
        0
102
RTVSPost2010PropOp40
 70
     1
102
RTVSPost2010Prop41ColorIndex
 90
       18
102
RTVSPost2010Prop41ColorRGB
 90
        0
102
RTVSPost2010PropOp41
 70
     1
102
RTVSPost2010Prop42
 90
       50
102
RTVSPost2010PropOp42
 70
     1
102
RTVSPost2010Prop43
 90
        3
102
RTVSPost2010PropOp43
 70
     1
102
RTVSPost2010Prop44ColorIndex
 90
        5
102
RTVSPost2010Prop44ColorRGB
 90
      255
102
RTVSPost2010PropOp44
 70
     1
102
RTVSPost2010Prop45
280
     0
102
RTVSPost2010PropOp45
 70
     1
102
RTVSPost2010Prop46
 90
       50
102
RTVSPost2010PropOp46
 70
     1
102
RTVSPost2010Prop47
 90
       50
102
RTVSPost2010PropOp47
 70
     1
102
RTVSPost2010Prop48
 90
       50
102
RTVSPost2010PropOp48
 70
     1
102
RTVSPost2010Prop49
280
     0
102
RTVSPost2010PropOp49
 70
     1
102
RTVSPost2010Prop50
 90
       50
102
RTVSPost2010PropOp50
 70
     1
102
RTVSPost2010Prop51ColorIndex
 90
      256
102
RTVSPost2010Prop51ColorRGB
 90
-16777216
102
RTVSPost2010PropOp51
 70
     0
102
RTVSPost2010Prop52
140
1.0
102
RTVSPost2010PropOp52
 70
     0
102
RTVSPost2010Prop53
 90
        2
102
RTVSPost2010PropOp53
 70
     1
102
RTVSPost2010Prop54
  1
strokes_ogs.tif
102
RTVSPost2010PropOp54
 70
     1
102
RTVSPost2010Prop55
280
     0
102
RTVSPost2010PropOp55
 70
     1
102
RTVSPost2010Prop56
140
1.0
102
RTVSPost2010PropOp56
 70
     1
102
RTVSPost2010Prop57
140
1.0
102
RTVSPost2010PropOp57
 70
     1
102
RTVSPropertyOp0
 70
     1
102
RTVSPropertyOp1
 70
     1
102
RTVSPropertyOp2
 70
     1
102
RTVSPropertyOp3
 70
     1
102
RTVSPropertyOp4
 70
     1
102
RTVSPropertyOp5
 70
     1
102
RTVSPropertyOp6
 70
     1
102
RTVSPropertyOp7
 70
     1
102
RTVSPropertyOp8
 70
     1
102
RTVSPropertyOp9
 70
     1
102
RTVSPropertyOp10
 70
     1
102
RTVSPropertyOp11
 70
     1
102
RTVSPropertyOp12
 70
     1
102
RTVSPropertyOp13
 70
     1
102
RTVSPropertyOp14
 70
     1
102
RTVSPropertyOp15
 70
     1
102
RTVSPropertyOp16
 70
     1
102
RTVSPropertyOp17
 70
     1
102
RTVSPropertyOp18
 70
     1
102
RTVSPropertyOp19
 70
     1
102
RTVSPropertyOp20
 70
     1
102
RTVSPropertyOp21
 70
     1
102
RTVSPropertyOp22
 70
     1
102
RTVSPropertyOp23
 70
     1
102
RTVSPropertyOp24
 70
     1
102
RTVSPropertyOp25
 70
     1
102
RTVSPropertyOp26
 70
     1
102
RTVSPropertyOp27
 70
     1
102
RTVSPropertyOp28
 70
     1
102
RTVSPropertyOp29
 70
     1
102
RTVSPropertyOp30
 70
     1
102
RTVSPropertyOp31
 70
     1
102
RTVSPropertyOp32
 70
     1
102
RTVSPropertyOp33
 70
     1
102
RTVSPropertyOp34
 70
     1
102
RTVSPropertyOp35
 70
     1
102
RTVSPropertyOp36
 70
     1
102
RTVSPropertyOp37
 70
     1
102
RTVSPropertyOp38
 70
     1
102
RTVSPropertyOp39
 70
     1
102
RTVSPropertyOp40
 70
     1
102
RTVSPropertyOp41
 70
     1
102
RTVSPropertyOp42
 70
     1
102
RTVSPropertyOp43
 70
     1
102
RTVSPropertyOp44
 70
     1
102
RTVSPropertyOp45
 70
     1
102
RTVSPropertyOp46
 70
     1
102
RTVSPropertyOp47
 70
     1
102
RTVSPropertyOp48
 70
     1
102
RTVSPropertyOp49
 70
     1
102
RTVSPropertyOp50
 70
     1
102
RTVSPropertyOp51
 70
     0
102
RTVSPropertyOp52
 70
     0
102
RTVSPropertyOp53
 70
     1
102
RTVSPropertyOp54
 70
     1
102
RTVSPropertyOp55
 70
     1
102
RTVSPropertyOp56
 70
     1
102
RTVSPropertyOp57
 70
     1
102
RTVSPropertyOp58
 70
     1
102
RTVSPropertyOp59
 70
     1
102
RTVSPropertyOp60
 70
     1
102
RTVSPropertyOp61
 70
     1
102
RTVSPropertyOp62
 70
     1
  0
XRECORD
  5
68C
102
{ACAD_REACTORS
330
68B
102
}
330
68B
100
AcDbXrecord
280
     1
102
RTVSPost2010Prop28
280
     0
102
RTVSPost2010PropOp28
 70
     1
102
RTVSPost2010Prop29
280
     1
102
RTVSPost2010PropOp29
 70
     1
102
RTVSPost2010Prop30
280
     1
102
RTVSPost2010PropOp30
 70
     1
102
RTVSPost2010Prop31
280
     0
102
RTVSPost2010PropOp31
 70
     1
102
RTVSPost2010Prop32
280
     0
102
RTVSPost2010PropOp32
 70
     1
102
RTVSPost2010Prop33
280
     0
102
RTVSPost2010PropOp33
 70
     1
102
RTVSPost2010Prop34
280
     0
102
RTVSPost2010PropOp34
 70
     1
102
RTVSPost2010Prop35
280
     0
102
RTVSPost2010PropOp35
 70
     1
102
RTVSPost2010Prop36
280
     0
102
RTVSPost2010PropOp36
 70
     1
102
RTVSPost2010Prop37
 90
       50
102
RTVSPost2010PropOp37
 70
     1
102
RTVSPost2010Prop38
140
0.0
102
RTVSPost2010PropOp38
 70
     1
102
RTVSPost2010Prop39
140
1.0
102
RTVSPost2010PropOp39
 70
     1
102
RTVSPost2010Prop40
 90
        0
102
RTVSPost2010PropOp40
 70
     1
102
RTVSPost2010Prop41ColorIndex
 90
       18
102
RTVSPost2010Prop41ColorRGB
 90
        0
102
RTVSPost2010PropOp41
 70
     1
102
RTVSPost2010Prop42
 90
       50
102
RTVSPost2010PropOp42
 70
     1
102
RTVSPost2010Prop43
 90
        3
102
RTVSPost2010PropOp43
 70
     1
102
RTVSPost2010Prop44ColorIndex
 90
        5
102
RTVSPost2010Prop44ColorRGB
 90
      255
102
RTVSPost2010PropOp44
 70
     1
102
RTVSPost2010Prop45
280
     0
102
RTVSPost2010PropOp45
 70
     1
102
RTVSPost2010Prop46
 90
       50
102
RTVSPost2010PropOp46
 70
     1
102
RTVSPost2010Prop47
 90
       50
102
RTVSPost2010PropOp47
 70
     1
102
RTVSPost2010Prop48
 90
       50
102
RTVSPost2010PropOp48
 70
     1
102
RTVSPost2010Prop49
280
     0
102
RTVSPost2010PropOp49
 70
     1
102
RTVSPost2010Prop50
 90
       50
102
RTVSPost2010PropOp50
 70
     1
102
RTVSPost2010Prop51ColorIndex
 90
      256
102
RTVSPost2010Prop51ColorRGB
 90
-16777216
102
RTVSPost2010PropOp51
 70
     0
102
RTVSPost2010Prop52
140
1.0
102
RTVSPost2010PropOp52
 70
     0
102
RTVSPost2010Prop53
 90
        2
102
RTVSPost2010PropOp53
 70
     1
102
RTVSPost2010Prop54
  1
strokes_ogs.tif
102
RTVSPost2010PropOp54
 70
     1
102
RTVSPost2010Prop55
280
     0
102
RTVSPost2010PropOp55
 70
     1
102
RTVSPost2010Prop56
140
1.0
102
RTVSPost2010PropOp56
 70
     1
102
RTVSPost2010Prop57
140
1.0
102
RTVSPost2010PropOp57
 70
     1
102
RTVSPropertyOp0
 70
     1
102
RTVSPropertyOp1
 70
     1
102
RTVSPropertyOp2
 70
     1
102
RTVSPropertyOp3
 70
     1
102
RTVSPropertyOp4
 70
     1
102
RTVSPropertyOp5
 70
     1
102
RTVSPropertyOp6
 70
     1
102
RTVSPropertyOp7
 70
     1
102
RTVSPropertyOp8
 70
     1
102
RTVSPropertyOp9
 70
     1
102
RTVSPropertyOp10
 70
     1
102
RTVSPropertyOp11
 70
     1
102
RTVSPropertyOp12
 70
     1
102
RTVSPropertyOp13
 70
     1
102
RTVSPropertyOp14
 70
     1
102
RTVSPropertyOp15
 70
     1
102
RTVSPropertyOp16
 70
     1
102
RTVSPropertyOp17
 70
     1
102
RTVSPropertyOp18
 70
     1
102
RTVSPropertyOp19
 70
     1
102
RTVSPropertyOp20
 70
     1
102
RTVSPropertyOp21
 70
     1
102
RTVSPropertyOp22
 70
     1
102
RTVSPropertyOp23
 70
     1
102
RTVSPropertyOp24
 70
     1
102
RTVSPropertyOp25
 70
     1
102
RTVSPropertyOp26
 70
     1
102
RTVSPropertyOp27
 70
     1
102
RTVSPropertyOp28
 70
     1
102
RTVSPropertyOp29
 70
     1
102
RTVSPropertyOp30
 70
     1
102
RTVSPropertyOp31
 70
     1
102
RTVSPropertyOp32
 70
     1
102
RTVSPropertyOp33
 70
     1
102
RTVSPropertyOp34
 70
     1
102
RTVSPropertyOp35
 70
     1
102
RTVSPropertyOp36
 70
     1
102
RTVSPropertyOp37
 70
     1
102
RTVSPropertyOp38
 70
     1
102
RTVSPropertyOp39
 70
     1
102
RTVSPropertyOp40
 70
     1
102
RTVSPropertyOp41
 70
     1
102
RTVSPropertyOp42
 70
     1
102
RTVSPropertyOp43
 70
     1
102
RTVSPropertyOp44
 70
     1
102
RTVSPropertyOp45
 70
     1
102
RTVSPropertyOp46
 70
     1
102
RTVSPropertyOp47
 70
     1
102
RTVSPropertyOp48
 70
     1
102
RTVSPropertyOp49
 70
     1
102
RTVSPropertyOp50
 70
     1
102
RTVSPropertyOp51
 70
     0
102
RTVSPropertyOp52
 70
     0
102
RTVSPropertyOp53
 70
     1
102
RTVSPropertyOp54
 70
     1
102
RTVSPropertyOp55
 70
     1
102
RTVSPropertyOp56
 70
     1
102
RTVSPropertyOp57
 70
     1
102
RTVSPropertyOp58
 70
     1
102
RTVSPropertyOp59
 70
     1
102
RTVSPropertyOp60
 70
     1
102
RTVSPropertyOp61
 70
     1
102
RTVSPropertyOp62
 70
     1
  0
XRECORD
  5
68E
102
{ACAD_REACTORS
330
68D
102
}
330
68D
100
AcDbXrecord
280
     1
102
RTVSPost2010Prop28
280
     0
102
RTVSPost2010PropOp28
 70
     1
102
RTVSPost2010Prop29
280
     1
102
RTVSPost2010PropOp29
 70
     1
102
RTVSPost2010Prop30
280
     1
102
RTVSPost2010PropOp30
 70
     1
102
RTVSPost2010Prop31
280
     0
102
RTVSPost2010PropOp31
 70
     1
102
RTVSPost2010Prop32
280
     0
102
RTVSPost2010PropOp32
 70
     1
102
RTVSPost2010Prop33
280
     0
102
RTVSPost2010PropOp33
 70
     1
102
RTVSPost2010Prop34
280
     0
102
RTVSPost2010PropOp34
 70
     1
102
RTVSPost2010Prop35
280
     0
102
RTVSPost2010PropOp35
 70
     1
102
RTVSPost2010Prop36
280
     0
102
RTVSPost2010PropOp36
 70
     1
102
RTVSPost2010Prop37
 90
       50
102
RTVSPost2010PropOp37
 70
     1
102
RTVSPost2010Prop38
140
0.0
102
RTVSPost2010PropOp38
 70
     1
102
RTVSPost2010Prop39
140
1.0
102
RTVSPost2010PropOp39
 70
     1
102
RTVSPost2010Prop40
 90
        0
102
RTVSPost2010PropOp40
 70
     1
102
RTVSPost2010Prop41ColorIndex
 90
       18
102
RTVSPost2010Prop41ColorRGB
 90
        0
102
RTVSPost2010PropOp41
 70
     1
102
RTVSPost2010Prop42
 90
       50
102
RTVSPost2010PropOp42
 70
     1
102
RTVSPost2010Prop43
 90
        3
102
RTVSPost2010PropOp43
 70
     1
102
RTVSPost2010Prop44ColorIndex
 90
        5
102
RTVSPost2010Prop44ColorRGB
 90
      255
102
RTVSPost2010PropOp44
 70
     1
102
RTVSPost2010Prop45
280
     0
102
RTVSPost2010PropOp45
 70
     1
102
RTVSPost2010Prop46
 90
       50
102
RTVSPost2010PropOp46
 70
     1
102
RTVSPost2010Prop47
 90
       50
102
RTVSPost2010PropOp47
 70
     1
102
RTVSPost2010Prop48
 90
       50
102
RTVSPost2010PropOp48
 70
     1
102
RTVSPost2010Prop49
280
     0
102
RTVSPost2010PropOp49
 70
     1
102
RTVSPost2010Prop50
 90
       50
102
RTVSPost2010PropOp50
 70
     1
102
RTVSPost2010Prop51ColorIndex
 90
      256
102
RTVSPost2010Prop51ColorRGB
 90
-16777216
102
RTVSPost2010PropOp51
 70
     0
102
RTVSPost2010Prop52
140
1.0
102
RTVSPost2010PropOp52
 70
     0
102
RTVSPost2010Prop53
 90
        2
102
RTVSPost2010PropOp53
 70
     1
102
RTVSPost2010Prop54
  1
strokes_ogs.tif
102
RTVSPost2010PropOp54
 70
     1
102
RTVSPost2010Prop55
280
     0
102
RTVSPost2010PropOp55
 70
     1
102
RTVSPost2010Prop56
140
1.0
102
RTVSPost2010PropOp56
 70
     1
102
RTVSPost2010Prop57
140
1.0
102
RTVSPost2010PropOp57
 70
     1
102
RTVSPropertyOp0
 70
     1
102
RTVSPropertyOp1
 70
     1
102
RTVSPropertyOp2
 70
     1
102
RTVSPropertyOp3
 70
     1
102
RTVSPropertyOp4
 70
     1
102
RTVSPropertyOp5
 70
     1
102
RTVSPropertyOp6
 70
     1
102
RTVSPropertyOp7
 70
     1
102
RTVSPropertyOp8
 70
     1
102
RTVSPropertyOp9
 70
     1
102
RTVSPropertyOp10
 70
     1
102
RTVSPropertyOp11
 70
     1
102
RTVSPropertyOp12
 70
     1
102
RTVSPropertyOp13
 70
     1
102
RTVSPropertyOp14
 70
     1
102
RTVSPropertyOp15
 70
     1
102
RTVSPropertyOp16
 70
     1
102
RTVSPropertyOp17
 70
     1
102
RTVSPropertyOp18
 70
     1
102
RTVSPropertyOp19
 70
     1
102
RTVSPropertyOp20
 70
     1
102
RTVSPropertyOp21
 70
     1
102
RTVSPropertyOp22
 70
     1
102
RTVSPropertyOp23
 70
     1
102
RTVSPropertyOp24
 70
     1
102
RTVSPropertyOp25
 70
     1
102
RTVSPropertyOp26
 70
     1
102
RTVSPropertyOp27
 70
     1
102
RTVSPropertyOp28
 70
     1
102
RTVSPropertyOp29
 70
     1
102
RTVSPropertyOp30
 70
     1
102
RTVSPropertyOp31
 70
     1
102
RTVSPropertyOp32
 70
     1
102
RTVSPropertyOp33
 70
     1
102
RTVSPropertyOp34
 70
     1
102
RTVSPropertyOp35
 70
     1
102
RTVSPropertyOp36
 70
     1
102
RTVSPropertyOp37
 70
     1
102
RTVSPropertyOp38
 70
     1
102
RTVSPropertyOp39
 70
     1
102
RTVSPropertyOp40
 70
     1
102
RTVSPropertyOp41
 70
     1
102
RTVSPropertyOp42
 70
     1
102
RTVSPropertyOp43
 70
     1
102
RTVSPropertyOp44
 70
     1
102
RTVSPropertyOp45
 70
     1
102
RTVSPropertyOp46
 70
     1
102
RTVSPropertyOp47
 70
     1
102
RTVSPropertyOp48
 70
     1
102
RTVSPropertyOp49
 70
     1
102
RTVSPropertyOp50
 70
     1
102
RTVSPropertyOp51
 70
     0
102
RTVSPropertyOp52
 70
     0
102
RTVSPropertyOp53
 70
     1
102
RTVSPropertyOp54
 70
     1
102
RTVSPropertyOp55
 70
     1
102
RTVSPropertyOp56
 70
     1
102
RTVSPropertyOp57
 70
     1
102
RTVSPropertyOp58
 70
     1
102
RTVSPropertyOp59
 70
     1
102
RTVSPropertyOp60
 70
     1
102
RTVSPropertyOp61
 70
     1
102
RTVSPropertyOp62
 70
     1
  0
XRECORD
  5
677
102
{ACAD_REACTORS
330
676
102
}
330
676
100
AcDbXrecord
280
     1
102
RTVSPost2010Prop28
280
     0
102
RTVSPost2010PropOp28
 70
     1
102
RTVSPost2010Prop29
280
     1
102
RTVSPost2010PropOp29
 70
     1
102
RTVSPost2010Prop30
280
     1
102
RTVSPost2010PropOp30
 70
     1
102
RTVSPost2010Prop31
280
     0
102
RTVSPost2010PropOp31
 70
     1
102
RTVSPost2010Prop32
280
     0
102
RTVSPost2010PropOp32
 70
     1
102
RTVSPost2010Prop33
280
     0
102
RTVSPost2010PropOp33
 70
     1
102
RTVSPost2010Prop34
280
     0
102
RTVSPost2010PropOp34
 70
     1
102
RTVSPost2010Prop35
280
     0
102
RTVSPost2010PropOp35
 70
     1
102
RTVSPost2010Prop36
280
     0
102
RTVSPost2010PropOp36
 70
     1
102
RTVSPost2010Prop37
 90
       50
102
RTVSPost2010PropOp37
 70
     1
102
RTVSPost2010Prop38
140
0.0
102
RTVSPost2010PropOp38
 70
     1
102
RTVSPost2010Prop39
140
1.0
102
RTVSPost2010PropOp39
 70
     1
102
RTVSPost2010Prop40
 90
        0
102
RTVSPost2010PropOp40
 70
     1
102
RTVSPost2010Prop41ColorIndex
 90
       18
102
RTVSPost2010Prop41ColorRGB
 90
        0
102
RTVSPost2010PropOp41
 70
     1
102
RTVSPost2010Prop42
 90
       50
102
RTVSPost2010PropOp42
 70
     1
102
RTVSPost2010Prop43
 90
        3
102
RTVSPost2010PropOp43
 70
     1
102
RTVSPost2010Prop44ColorIndex
 90
        5
102
RTVSPost2010Prop44ColorRGB
 90
      255
102
RTVSPost2010PropOp44
 70
     1
102
RTVSPost2010Prop45
280
     0
102
RTVSPost2010PropOp45
 70
     1
102
RTVSPost2010Prop46
 90
       50
102
RTVSPost2010PropOp46
 70
     1
102
RTVSPost2010Prop47
 90
       50
102
RTVSPost2010PropOp47
 70
     1
102
RTVSPost2010Prop48
 90
       50
102
RTVSPost2010PropOp48
 70
     1
102
RTVSPost2010Prop49
280
     0
102
RTVSPost2010PropOp49
 70
     1
102
RTVSPost2010Prop50
 90
       50
102
RTVSPost2010PropOp50
 70
     1
102
RTVSPost2010Prop51ColorIndex
 90
      256
102
RTVSPost2010Prop51ColorRGB
 90
-16777216
102
RTVSPost2010PropOp51
 70
     0
102
RTVSPost2010Prop52
140
1.0
102
RTVSPost2010PropOp52
 70
     0
102
RTVSPost2010Prop53
 90
        2
102
RTVSPost2010PropOp53
 70
     1
102
RTVSPost2010Prop54
  1
strokes_ogs.tif
102
RTVSPost2010PropOp54
 70
     1
102
RTVSPost2010Prop55
280
     0
102
RTVSPost2010PropOp55
 70
     1
102
RTVSPost2010Prop56
140
1.0
102
RTVSPost2010PropOp56
 70
     1
102
RTVSPost2010Prop57
140
1.0
102
RTVSPost2010PropOp57
 70
     1
102
RTVSPropertyOp0
 70
     1
102
RTVSPropertyOp1
 70
     1
102
RTVSPropertyOp2
 70
     1
102
RTVSPropertyOp3
 70
     1
102
RTVSPropertyOp4
 70
     1
102
RTVSPropertyOp5
 70
     1
102
RTVSPropertyOp6
 70
     1
102
RTVSPropertyOp7
 70
     1
102
RTVSPropertyOp8
 70
     1
102
RTVSPropertyOp9
 70
     1
102
RTVSPropertyOp10
 70
     1
102
RTVSPropertyOp11
 70
     1
102
RTVSPropertyOp12
 70
     1
102
RTVSPropertyOp13
 70
     1
102
RTVSPropertyOp14
 70
     1
102
RTVSPropertyOp15
 70
     1
102
RTVSPropertyOp16
 70
     1
102
RTVSPropertyOp17
 70
     1
102
RTVSPropertyOp18
 70
     1
102
RTVSPropertyOp19
 70
     1
102
RTVSPropertyOp20
 70
     1
102
RTVSPropertyOp21
 70
     1
102
RTVSPropertyOp22
 70
     1
102
RTVSPropertyOp23
 70
     1
102
RTVSPropertyOp24
 70
     1
102
RTVSPropertyOp25
 70
     1
102
RTVSPropertyOp26
 70
     1
102
RTVSPropertyOp27
 70
     1
102
RTVSPropertyOp28
 70
     1
102
RTVSPropertyOp29
 70
     1
102
RTVSPropertyOp30
 70
     1
102
RTVSPropertyOp31
 70
     1
102
RTVSPropertyOp32
 70
     1
102
RTVSPropertyOp33
 70
     1
102
RTVSPropertyOp34
 70
     1
102
RTVSPropertyOp35
 70
     1
102
RTVSPropertyOp36
 70
     1
102
RTVSPropertyOp37
 70
     1
102
RTVSPropertyOp38
 70
     1
102
RTVSPropertyOp39
 70
     1
102
RTVSPropertyOp40
 70
     1
102
RTVSPropertyOp41
 70
     1
102
RTVSPropertyOp42
 70
     1
102
RTVSPropertyOp43
 70
     1
102
RTVSPropertyOp44
 70
     1
102
RTVSPropertyOp45
 70
     1
102
RTVSPropertyOp46
 70
     1
102
RTVSPropertyOp47
 70
     1
102
RTVSPropertyOp48
 70
     1
102
RTVSPropertyOp49
 70
     1
102
RTVSPropertyOp50
 70
     1
102
RTVSPropertyOp51
 70
     0
102
RTVSPropertyOp52
 70
     0
102
RTVSPropertyOp53
 70
     1
102
RTVSPropertyOp54
 70
     1
102
RTVSPropertyOp55
 70
     1
102
RTVSPropertyOp56
 70
     1
102
RTVSPropertyOp57
 70
     1
102
RTVSPropertyOp58
 70
     1
102
RTVSPropertyOp59
 70
     1
102
RTVSPropertyOp60
 70
     1
102
RTVSPropertyOp61
 70
     1
102
RTVSPropertyOp62
 70
     1
  0
XRECORD
  5
688
102
{ACAD_REACTORS
330
687
102
}
330
687
100
AcDbXrecord
280
     1
102
RTVSPost2010Prop28
280
     0
102
RTVSPost2010PropOp28
 70
     1
102
RTVSPost2010Prop29
280
     1
102
RTVSPost2010PropOp29
 70
     1
102
RTVSPost2010Prop30
280
     1
102
RTVSPost2010PropOp30
 70
     1
102
RTVSPost2010Prop31
280
     0
102
RTVSPost2010PropOp31
 70
     1
102
RTVSPost2010Prop32
280
     0
102
RTVSPost2010PropOp32
 70
     1
102
RTVSPost2010Prop33
280
     0
102
RTVSPost2010PropOp33
 70
     1
102
RTVSPost2010Prop34
280
     0
102
RTVSPost2010PropOp34
 70
     1
102
RTVSPost2010Prop35
280
     0
102
RTVSPost2010PropOp35
 70
     1
102
RTVSPost2010Prop36
280
     0
102
RTVSPost2010PropOp36
 70
     1
102
RTVSPost2010Prop37
 90
       50
102
RTVSPost2010PropOp37
 70
     1
102
RTVSPost2010Prop38
140
0.0
102
RTVSPost2010PropOp38
 70
     1
102
RTVSPost2010Prop39
140
1.0
102
RTVSPost2010PropOp39
 70
     1
102
RTVSPost2010Prop40
 90
        0
102
RTVSPost2010PropOp40
 70
     1
102
RTVSPost2010Prop41ColorIndex
 90
       18
102
RTVSPost2010Prop41ColorRGB
 90
        0
102
RTVSPost2010PropOp41
 70
     1
102
RTVSPost2010Prop42
 90
       50
102
RTVSPost2010PropOp42
 70
     1
102
RTVSPost2010Prop43
 90
        3
102
RTVSPost2010PropOp43
 70
     1
102
RTVSPost2010Prop44ColorIndex
 90
        5
102
RTVSPost2010Prop44ColorRGB
 90
      255
102
RTVSPost2010PropOp44
 70
     1
102
RTVSPost2010Prop45
280
     0
102
RTVSPost2010PropOp45
 70
     1
102
RTVSPost2010Prop46
 90
       50
102
RTVSPost2010PropOp46
 70
     1
102
RTVSPost2010Prop47
 90
       50
102
RTVSPost2010PropOp47
 70
     1
102
RTVSPost2010Prop48
 90
       50
102
RTVSPost2010PropOp48
 70
     1
102
RTVSPost2010Prop49
280
     0
102
RTVSPost2010PropOp49
 70
     1
102
RTVSPost2010Prop50
 90
       50
102
RTVSPost2010PropOp50
 70
     1
102
RTVSPost2010Prop51ColorIndex
 90
      256
102
RTVSPost2010Prop51ColorRGB
 90
-16777216
102
RTVSPost2010PropOp51
 70
     0
102
RTVSPost2010Prop52
140
1.0
102
RTVSPost2010PropOp52
 70
     0
102
RTVSPost2010Prop53
 90
        2
102
RTVSPost2010PropOp53
 70
     1
102
RTVSPost2010Prop54
  1
strokes_ogs.tif
102
RTVSPost2010PropOp54
 70
     1
102
RTVSPost2010Prop55
280
     0
102
RTVSPost2010PropOp55
 70
     1
102
RTVSPost2010Prop56
140
1.0
102
RTVSPost2010PropOp56
 70
     1
102
RTVSPost2010Prop57
140
1.0
102
RTVSPost2010PropOp57
 70
     1
102
RTVSPropertyOp0
 70
     1
102
RTVSPropertyOp1
 70
     1
102
RTVSPropertyOp2
 70
     1
102
RTVSPropertyOp3
 70
     1
102
RTVSPropertyOp4
 70
     1
102
RTVSPropertyOp5
 70
     1
102
RTVSPropertyOp6
 70
     1
102
RTVSPropertyOp7
 70
     1
102
RTVSPropertyOp8
 70
     1
102
RTVSPropertyOp9
 70
     1
102
RTVSPropertyOp10
 70
     1
102
RTVSPropertyOp11
 70
     1
102
RTVSPropertyOp12
 70
     1
102
RTVSPropertyOp13
 70
     1
102
RTVSPropertyOp14
 70
     1
102
RTVSPropertyOp15
 70
     1
102
RTVSPropertyOp16
 70
     1
102
RTVSPropertyOp17
 70
     1
102
RTVSPropertyOp18
 70
     1
102
RTVSPropertyOp19
 70
     1
102
RTVSPropertyOp20
 70
     1
102
RTVSPropertyOp21
 70
     1
102
RTVSPropertyOp22
 70
     1
102
RTVSPropertyOp23
 70
     1
102
RTVSPropertyOp24
 70
     1
102
RTVSPropertyOp25
 70
     1
102
RTVSPropertyOp26
 70
     1
102
RTVSPropertyOp27
 70
     1
102
RTVSPropertyOp28
 70
     1
102
RTVSPropertyOp29
 70
     1
102
RTVSPropertyOp30
 70
     1
102
RTVSPropertyOp31
 70
     1
102
RTVSPropertyOp32
 70
     1
102
RTVSPropertyOp33
 70
     1
102
RTVSPropertyOp34
 70
     1
102
RTVSPropertyOp35
 70
     1
102
RTVSPropertyOp36
 70
     1
102
RTVSPropertyOp37
 70
     1
102
RTVSPropertyOp38
 70
     1
102
RTVSPropertyOp39
 70
     1
102
RTVSPropertyOp40
 70
     1
102
RTVSPropertyOp41
 70
     1
102
RTVSPropertyOp42
 70
     1
102
RTVSPropertyOp43
 70
     1
102
RTVSPropertyOp44
 70
     1
102
RTVSPropertyOp45
 70
     1
102
RTVSPropertyOp46
 70
     1
102
RTVSPropertyOp47
 70
     1
102
RTVSPropertyOp48
 70
     1
102
RTVSPropertyOp49
 70
     1
102
RTVSPropertyOp50
 70
     1
102
RTVSPropertyOp51
 70
     0
102
RTVSPropertyOp52
 70
     0
102
RTVSPropertyOp53
 70
     1
102
RTVSPropertyOp54
 70
     1
102
RTVSPropertyOp55
 70
     1
102
RTVSPropertyOp56
 70
     1
102
RTVSPropertyOp57
 70
     1
102
RTVSPropertyOp58
 70
     1
102
RTVSPropertyOp59
 70
     1
102
RTVSPropertyOp60
 70
     1
102
RTVSPropertyOp61
 70
     1
102
RTVSPropertyOp62
 70
     1
  0
XRECORD
  5
690
102
{ACAD_REACTORS
330
68F
102
}
330
68F
100
AcDbXrecord
280
     1
102
RTVSPost2010Prop28
280
     0
102
RTVSPost2010PropOp28
 70
     1
102
RTVSPost2010Prop29
280
     1
102
RTVSPost2010PropOp29
 70
     1
102
RTVSPost2010Prop30
280
     1
102
RTVSPost2010PropOp30
 70
     1
102
RTVSPost2010Prop31
280
     0
102
RTVSPost2010PropOp31
 70
     1
102
RTVSPost2010Prop32
280
     0
102
RTVSPost2010PropOp32
 70
     1
102
RTVSPost2010Prop33
280
     0
102
RTVSPost2010PropOp33
 70
     1
102
RTVSPost2010Prop34
280
     0
102
RTVSPost2010PropOp34
 70
     1
102
RTVSPost2010Prop35
280
     0
102
RTVSPost2010PropOp35
 70
     1
102
RTVSPost2010Prop36
280
     0
102
RTVSPost2010PropOp36
 70
     1
102
RTVSPost2010Prop37
 90
       50
102
RTVSPost2010PropOp37
 70
     1
102
RTVSPost2010Prop38
140
0.0
102
RTVSPost2010PropOp38
 70
     1
102
RTVSPost2010Prop39
140
1.0
102
RTVSPost2010PropOp39
 70
     1
102
RTVSPost2010Prop40
 90
        0
102
RTVSPost2010PropOp40
 70
     1
102
RTVSPost2010Prop41ColorIndex
 90
       18
102
RTVSPost2010Prop41ColorRGB
 90
        0
102
RTVSPost2010PropOp41
 70
     1
102
RTVSPost2010Prop42
 90
       50
102
RTVSPost2010PropOp42
 70
     1
102
RTVSPost2010Prop43
 90
        3
102
RTVSPost2010PropOp43
 70
     1
102
RTVSPost2010Prop44ColorIndex
 90
        5
102
RTVSPost2010Prop44ColorRGB
 90
      255
102
RTVSPost2010PropOp44
 70
     1
102
RTVSPost2010Prop45
280
     0
102
RTVSPost2010PropOp45
 70
     1
102
RTVSPost2010Prop46
 90
       50
102
RTVSPost2010PropOp46
 70
     1
102
RTVSPost2010Prop47
 90
       50
102
RTVSPost2010PropOp47
 70
     1
102
RTVSPost2010Prop48
 90
       50
102
RTVSPost2010PropOp48
 70
     1
102
RTVSPost2010Prop49
280
     0
102
RTVSPost2010PropOp49
 70
     1
102
RTVSPost2010Prop50
 90
       50
102
RTVSPost2010PropOp50
 70
     1
102
RTVSPost2010Prop51ColorIndex
 90
      256
102
RTVSPost2010Prop51ColorRGB
 90
-16777216
102
RTVSPost2010PropOp51
 70
     0
102
RTVSPost2010Prop52
140
1.0
102
RTVSPost2010PropOp52
 70
     0
102
RTVSPost2010Prop53
 90
        2
102
RTVSPost2010PropOp53
 70
     1
102
RTVSPost2010Prop54
  1
strokes_ogs.tif
102
RTVSPost2010PropOp54
 70
     1
102
RTVSPost2010Prop55
280
     0
102
RTVSPost2010PropOp55
 70
     1
102
RTVSPost2010Prop56
140
1.0
102
RTVSPost2010PropOp56
 70
     1
102
RTVSPost2010Prop57
140
1.0
102
RTVSPost2010PropOp57
 70
     1
102
RTVSPropertyOp0
 70
     1
102
RTVSPropertyOp1
 70
     1
102
RTVSPropertyOp2
 70
     1
102
RTVSPropertyOp3
 70
     1
102
RTVSPropertyOp4
 70
     1
102
RTVSPropertyOp5
 70
     1
102
RTVSPropertyOp6
 70
     1
102
RTVSPropertyOp7
 70
     1
102
RTVSPropertyOp8
 70
     1
102
RTVSPropertyOp9
 70
     1
102
RTVSPropertyOp10
 70
     1
102
RTVSPropertyOp11
 70
     1
102
RTVSPropertyOp12
 70
     1
102
RTVSPropertyOp13
 70
     1
102
RTVSPropertyOp14
 70
     1
102
RTVSPropertyOp15
 70
     1
102
RTVSPropertyOp16
 70
     1
102
RTVSPropertyOp17
 70
     1
102
RTVSPropertyOp18
 70
     1
102
RTVSPropertyOp19
 70
     1
102
RTVSPropertyOp20
 70
     1
102
RTVSPropertyOp21
 70
     1
102
RTVSPropertyOp22
 70
     1
102
RTVSPropertyOp23
 70
     1
102
RTVSPropertyOp24
 70
     1
102
RTVSPropertyOp25
 70
     1
102
RTVSPropertyOp26
 70
     1
102
RTVSPropertyOp27
 70
     1
102
RTVSPropertyOp28
 70
     1
102
RTVSPropertyOp29
 70
     1
102
RTVSPropertyOp30
 70
     1
102
RTVSPropertyOp31
 70
     1
102
RTVSPropertyOp32
 70
     1
102
RTVSPropertyOp33
 70
     1
102
RTVSPropertyOp34
 70
     1
102
RTVSPropertyOp35
 70
     1
102
RTVSPropertyOp36
 70
     1
102
RTVSPropertyOp37
 70
     1
102
RTVSPropertyOp38
 70
     1
102
RTVSPropertyOp39
 70
     1
102
RTVSPropertyOp40
 70
     1
102
RTVSPropertyOp41
 70
     1
102
RTVSPropertyOp42
 70
     1
102
RTVSPropertyOp43
 70
     1
102
RTVSPropertyOp44
 70
     1
102
RTVSPropertyOp45
 70
     1
102
RTVSPropertyOp46
 70
     1
102
RTVSPropertyOp47
 70
     1
102
RTVSPropertyOp48
 70
     1
102
RTVSPropertyOp49
 70
     1
102
RTVSPropertyOp50
 70
     1
102
RTVSPropertyOp51
 70
     0
102
RTVSPropertyOp52
 70
     0
102
RTVSPropertyOp53
 70
     1
102
RTVSPropertyOp54
 70
     1
102
RTVSPropertyOp55
 70
     1
102
RTVSPropertyOp56
 70
     1
102
RTVSPropertyOp57
 70
     1
102
RTVSPropertyOp58
 70
     1
102
RTVSPropertyOp59
 70
     1
102
RTVSPropertyOp60
 70
     1
102
RTVSPropertyOp61
 70
     1
102
RTVSPropertyOp62
 70
     1
  0
ACDBASSOCGEOMDEPENDENCY
  5
450
330
44E
100
AcDbAssocDependency
 90
        2
 90
        0
290
     1
290
     1
290
     1
290
     1
 90
   -10000
330
29F
290
     0
330
0
330
0
360
0
 90
        2
100
AcDbAssocGeomDependency
 90
        0
290
     1
  1
AcDbAssocSingleEdgePersSubentId
290
     0
  0
ACDBASSOCGEOMDEPENDENCY
  5
500
330
44E
100
AcDbAssocDependency
 90
        2
 90
        0
290
     1
290
     1
290
     1
290
     1
 90
   -10000
330
4B9
290
     0
330
0
330
0
360
0
 90
        9
100
AcDbAssocGeomDependency
 90
        0
290
     1
  1
AcDbAssocSingleEdgePersSubentId
290
     0
  0
ACDBASSOCGEOMDEPENDENCY
  5
5D8
330
44E
100
AcDbAssocDependency
 90
        2
 90
        0
290
     1
290
     1
290
     1
290
     1
 90
   -10000
330
5D0
290
     0
330
0
330
0
360
0
 90
       17
100
AcDbAssocGeomDependency
 90
        0
290
     1
  1
AcDbAssocSingleEdgePersSubentId
290
     0
  0
ACDBASSOCGEOMDEPENDENCY
  5
5DC
330
44E
100
AcDbAssocDependency
 90
        2
 90
        0
290
     1
290
     1
290
     1
290
     1
 90
   -10000
330
5D3
290
     0
330
0
330
0
360
0
 90
       21
100
AcDbAssocGeomDependency
 90
        0
290
     1
  1
AcDbAssocSingleEdgePersSubentId
290
     0
  0
ACDBASSOCGEOMDEPENDENCY
  5
501
330
44E
100
AcDbAssocDependency
 90
        2
 90
        0
290
     1
290
     1
290
     1
290
     1
 90
   -10000
330
4BB
290
     0
330
0
330
0
360
0
 90
       10
100
AcDbAssocGeomDependency
 90
        0
290
     1
  1
AcDbAssocSingleEdgePersSubentId
290
     0
  0
ACDBASSOCGEOMDEPENDENCY
  5
5D9
330
44E
100
AcDbAssocDependency
 90
        2
 90
        0
290
     1
290
     1
290
     1
290
     1
 90
   -10000
330
5CF
290
     0
330
0
330
0
360
0
 90
       18
100
AcDbAssocGeomDependency
 90
        0
290
     1
  1
AcDbAssocSingleEdgePersSubentId
290
     0
  0
ACDBASSOCGEOMDEPENDENCY
  5
5DD
330
44E
100
AcDbAssocDependency
 90
        2
 90
        0
290
     1
290
     1
290
     1
290
     1
 90
   -10000
330
5D4
290
     0
330
0
330
0
360
0
 90
       22
100
AcDbAssocGeomDependency
 90
        0
290
     1
  1
AcDbAssocSingleEdgePersSubentId
290
     0
  0
ACDBASSOCGEOMDEPENDENCY
  5
5ED
330
44E
100
AcDbAssocDependency
 90
        2
 90
        0
290
     1
290
     1
290
     1
290
     1
 90
   -10000
330
5EA
290
     0
330
0
330
0
360
0
 90
       23
100
AcDbAssocGeomDependency
 90
        0
290
     1
  1
AcDbAssocSingleEdgePersSubentId
290
     0
  0
ACDBASSOCGEOMDEPENDENCY
  5
44F
330
44E
100
AcDbAssocDependency
 90
        2
 90
        0
290
     1
290
     1
290
     1
290
     1
 90
   -10000
330
2A0
290
     0
330
0
330
0
360
0
 90
        1
100
AcDbAssocGeomDependency
 90
        0
290
     1
  1
AcDbAssocSingleEdgePersSubentId
290
     0
  0
ACDBASSOCGEOMDEPENDENCY
  5
5DB
330
44E
100
AcDbAssocDependency
 90
        2
 90
        0
290
     1
290
     1
290
     1
290
     1
 90
   -10000
330
5D2
290
     0
330
0
330
0
360
0
 90
       20
100
AcDbAssocGeomDependency
 90
        0
290
     1
  1
AcDbAssocSingleEdgePersSubentId
290
     0
  0
ACDBASSOCGEOMDEPENDENCY
  5
5DA
330
44E
100
AcDbAssocDependency
 90
        2
 90
        0
290
     1
290
     1
290
     1
290
     1
 90
   -10000
330
5D1
290
     0
330
0
330
0
360
0
 90
       19
100
AcDbAssocGeomDependency
 90
        0
290
     1
  1
AcDbAssocSingleEdgePersSubentId
290
     0
  0
ACDBASSOCGEOMDEPENDENCY
  5
5EE
330
44E
100
AcDbAssocDependency
 90
        2
 90
        0
290
     1
290
     1
290
     1
290
     1
 90
   -10000
330
5E9
290
     0
330
0
330
0
360
0
 90
       24
100
AcDbAssocGeomDependency
 90
        0
290
     1
  1
AcDbAssocSingleEdgePersSubentId
290
     0
  0
ACDBASSOCGEOMDEPENDENCY
  5
49A
330
497
100
AcDbAssocDependency
 90
        2
 90
        0
290
     1
290
     1
290
     1
290
     1
 90
   -10000
330
490
290
     0
330
0
330
0
360
0
 90
        3
100
AcDbAssocGeomDependency
 90
        0
290
     1
  1
AcDbAssocSingleEdgePersSubentId
290
     0
  0
ACDBASSOCGEOMDEPENDENCY
  5
49B
330
497
100
AcDbAssocDependency
 90
        2
 90
        0
290
     1
290
     1
290
     1
290
     1
 90
   -10000
330
48F
290
     0
330
0
330
0
360
0
 90
        4
100
AcDbAssocGeomDependency
 90
        0
290
     1
  1
AcDbAssocSingleEdgePersSubentId
290
     0
  0
ACDBASSOCGEOMDEPENDENCY
  5
49C
330
497
100
AcDbAssocDependency
 90
        2
 90
        0
290
     1
290
     1
290
     1
290
     1
 90
   -10000
330
491
290
     0
330
0
330
0
360
0
 90
        5
100
AcDbAssocGeomDependency
 90
        0
290
     1
  1
AcDbAssocSingleEdgePersSubentId
290
     0
  0
ACDBASSOCGEOMDEPENDENCY
  5
49D
330
497
100
AcDbAssocDependency
 90
        2
 90
        0
290
     1
290
     1
290
     1
290
     1
 90
   -10000
330
492
290
     0
330
0
330
0
360
0
 90
        6
100
AcDbAssocGeomDependency
 90
        0
290
     1
  1
AcDbAssocSingleEdgePersSubentId
290
     0
  0
ACDBASSOCGEOMDEPENDENCY
  5
49E
330
497
100
AcDbAssocDependency
 90
        2
 90
        0
290
     1
290
     1
290
     1
290
     1
 90
   -10000
330
493
290
     0
330
0
330
0
360
0
 90
        7
100
AcDbAssocGeomDependency
 90
        0
290
     1
  1
AcDbAssocSingleEdgePersSubentId
290
     0
  0
ACDBASSOCGEOMDEPENDENCY
  5
49F
330
497
100
AcDbAssocDependency
 90
        2
 90
        0
290
     1
290
     1
290
     1
290
     1
 90
   -10000
330
494
290
     0
330
0
330
0
360
0
 90
        8
100
AcDbAssocGeomDependency
 90
        0
290
     1
  1
AcDbAssocSingleEdgePersSubentId
290
     0
  0
ENDSEC
  0
EOF
