  0
SECTION
  2
HEADER
  9
$ACADVER
  1
AC1024
  9
$ACADMAINTVER
 70
   155
  9
$DWGCODEPAGE
  3
ANSI_1252
  9
$LASTSAVEDBY
  1
Jason
  9
$INSBASE
 10
0.0
 20
0.0
 30
0.0
  9
$EXTMIN
 10
9177.87277747265
 20
3932.979644344135
 30
0.0
  9
$EXTMAX
 10
9561.52782741047
 20
4473.029260434318
 30
0.0
  9
$LIMMIN
 10
0.0
 20
0.0
  9
$LIMMAX
 10
12.0
 20
9.0
  9
$ORTHOMODE
 70
     0
  9
$REGENMODE
 70
     1
  9
$FILLMODE
 70
     1
  9
$QTEXTMODE
 70
     0
  9
$MIRRTEXT
 70
     1
  9
$LTSCALE
 40
5.0
  9
$ATTMODE
 70
     1
  9
$TEXTSIZE
 40
0.2
  9
$TRACEWID
 40
0.05
  9
$TEXTSTYLE
  7
Standard
  9
$CLAYER
  8
Specialized_Lines
  9
$CELTYPE
  6
PLASTER
  9
$CECOLOR
 62
   256
  9
$CELTSCALE
 40
3.0
  9
$DISPSILH
 70
     0
  9
$DIMSCALE
 40
1.0
  9
$DIMASZ
 40
0.18
  9
$DIMEXO
 40
0.0625
  9
$DIMDLI
 40
0.38
  9
$DIMRND
 40
0.0
  9
$DIMDLE
 40
0.0
  9
$DIMEXE
 40
0.18
  9
$DIMTP
 40
0.0
  9
$DIMTM
 40
0.0
  9
$DIMTXT
 40
0.18
  9
$DIMCEN
 40
0.09
  9
$DIMTSZ
 40
0.0
  9
$DIMTOL
 70
     0
  9
$DIMLIM
 70
     0
  9
$DIMTIH
 70
     1
  9
$DIMTOH
 70
     1
  9
$DIMSE1
 70
     0
  9
$DIMSE2
 70
     0
  9
$DIMTAD
 70
     0
  9
$DIMZIN
 70
     0
  9
$DIMBLK
  1

  9
$DIMASO
 70
     1
  9
$DIMSHO
 70
     1
  9
$DIMPOST
  1

  9
$DIMAPOST
  1

  9
$DIMALT
 70
     0
  9
$DIMALTD
 70
     2
  9
$DIMALTF
 40
25.4
  9
$DIMLFAC
 40
1.0
  9
$DIMTOFL
 70
     0
  9
$DIMTVP
 40
0.0
  9
$DIMTIX
 70
     0
  9
$DIMSOXD
 70
     0
  9
$DIMSAH
 70
     0
  9
$DIMBLK1
  1

  9
$DIMBLK2
  1

  9
$DIMSTYLE
  2
Standard
  9
$DIMCLRD
 70
     0
  9
$DIMCLRE
 70
     0
  9
$DIMCLRT
 70
     0
  9
$DIMTFAC
 40
1.0
  9
$DIMGAP
 40
0.09
  9
$DIMJUST
 70
     0
  9
$DIMSD1
 70
     0
  9
$DIMSD2
 70
     0
  9
$DIMTOLJ
 70
     1
  9
$DIMTZIN
 70
     0
  9
$DIMALTZ
 70
     0
  9
$DIMALTTZ
 70
     0
  9
$DIMUPT
 70
     0
  9
$DIMDEC
 70
     4
  9
$DIMTDEC
 70
     4
  9
$DIMALTU
 70
     2
  9
$DIMALTTD
 70
     2
  9
$DIMTXSTY
  7
Standard
  9
$DIMAUNIT
 70
     0
  9
$DIMADEC
 70
     0
  9
$DIMALTRND
 40
0.0
  9
$DIMAZIN
 70
     0
  9
$DIMDSEP
 70
    46
  9
$DIMATFIT
 70
     3
  9
$DIMFRAC
 70
     0
  9
$DIMLDRBLK
  1

  9
$DIMLUNIT
 70
     2
  9
$DIMLWD
 70
    -2
  9
$DIMLWE
 70
    -2
  9
$DIMTMOVE
 70
     0
  9
$DIMFXL
 40
1.0
  9
$DIMFXLON
 70
     0
  9
$DIMJOGANG
 40
0.7853981633974483
  9
$DIMTFILL
 70
     0
  9
$DIMTFILLCLR
 70
     0
  9
$DIMARCSYM
 70
     0
  9
$DIMLTYPE
  6

  9
$DIMLTEX1
  6

  9
$DIMLTEX2
  6

  9
$DIMTXTDIRECTION
 70
     0
  9
$LUNITS
 70
     2
  9
$LUPREC
 70
     4
  9
$SKETCHINC
 40
0.1
  9
$FILLETRAD
 40
0.5
  9
$AUNITS
 70
     0
  9
$AUPREC
 70
     0
  9
$MENU
  1
.
  9
$ELEVATION
 40
0.0
  9
$PELEVATION
 40
0.0
  9
$THICKNESS
 40
0.0
  9
$LIMCHECK
 70
     0
  9
$CHAMFERA
 40
0.5
  9
$CHAMFERB
 40
0.5
  9
$CHAMFERC
 40
1.0
  9
$CHAMFERD
 40
0.0
  9
$SKPOLY
 70
     0
  9
$TDCREATE
 40
2456216.552802164
  9
$TDUCREATE
 40
2456216.011135498
  9
$TDUPDATE
 40
2456636.587741516
  9
$TDUUPDATE
 40
2456636.046074850
  9
$TDINDWG
 40
0.0091343287
  9
$TDUSRTIMER
 40
0.0091343287
  9
$USRTIMER
 70
     1
  9
$ANGBASE
 50
0.0
  9
$ANGDIR
 70
     0
  9
$PDMODE
 70
     0
  9
$PDSIZE
 40
0.0
  9
$PLINEWID
 40
0.0
  9
$SPLFRAME
 70
     0
  9
$SPLINETYPE
 70
     6
  9
$SPLINESEGS
 70
     8
  9
$HANDSEED
  5
48B
  9
$SURFTAB1
 70
     6
  9
$SURFTAB2
 70
     6
  9
$SURFTYPE
 70
     6
  9
$SURFU
 70
     6
  9
$SURFV
 70
     6
  9
$UCSBASE
  2

  9
$UCSNAME
  2

  9
$UCSORG
 10
0.0
 20
0.0
 30
0.0
  9
$UCSXDIR
 10
1.0
 20
0.0
 30
0.0
  9
$UCSYDIR
 10
0.0
 20
1.0
 30
0.0
  9
$UCSORTHOREF
  2

  9
$UCSORTHOVIEW
 70
     0
  9
$UCSORGTOP
 10
0.0
 20
0.0
 30
0.0
  9
$UCSORGBOTTOM
 10
0.0
 20
0.0
 30
0.0
  9
$UCSORGLEFT
 10
0.0
 20
0.0
 30
0.0
  9
$UCSORGRIGHT
 10
0.0
 20
0.0
 30
0.0
  9
$UCSORGFRONT
 10
0.0
 20
0.0
 30
0.0
  9
$UCSORGBACK
 10
0.0
 20
0.0
 30
0.0
  9
$PUCSBASE
  2

  9
$PUCSNAME
  2

  9
$PUCSORG
 10
0.0
 20
0.0
 30
0.0
  9
$PUCSXDIR
 10
1.0
 20
0.0
 30
0.0
  9
$PUCSYDIR
 10
0.0
 20
1.0
 30
0.0
  9
$PUCSORTHOREF
  2

  9
$PUCSORTHOVIEW
 70
     0
  9
$PUCSORGTOP
 10
0.0
 20
0.0
 30
0.0
  9
$PUCSORGBOTTOM
 10
0.0
 20
0.0
 30
0.0
  9
$PUCSORGLEFT
 10
0.0
 20
0.0
 30
0.0
  9
$PUCSORGRIGHT
 10
0.0
 20
0.0
 30
0.0
  9
$PUCSORGFRONT
 10
0.0
 20
0.0
 30
0.0
  9
$PUCSORGBACK
 10
0.0
 20
0.0
 30
0.0
  9
$USERI1
 70
     0
  9
$USERI2
 70
     0
  9
$USERI3
 70
     0
  9
$USERI4
 70
     0
  9
$USERI5
 70
     0
  9
$USERR1
 40
0.0
  9
$USERR2
 40
0.0
  9
$USERR3
 40
0.0
  9
$USERR4
 40
0.0
  9
$USERR5
 40
0.0
  9
$WORLDVIEW
 70
     1
  9
$SHADEDGE
 70
     3
  9
$SHADEDIF
 70
    70
  9
$TILEMODE
 70
     1
  9
$MAXACTVP
 70
    64
  9
$PINSBASE
 10
0.0
 20
0.0
 30
0.0
  9
$PLIMCHECK
 70
     0
  9
$PEXTMIN
 10
1.000000000000000E+20
 20
1.000000000000000E+20
 30
1.000000000000000E+20
  9
$PEXTMAX
 10
-1.000000000000000E+20
 20
-1.000000000000000E+20
 30
-1.000000000000000E+20
  9
$PLIMMIN
 10
0.0
 20
0.0
  9
$PLIMMAX
 10
12.0
 20
9.0
  9
$UNITMODE
 70
     0
  9
$VISRETAIN
 70
     1
  9
$PLINEGEN
 70
     0
  9
$PSLTSCALE
 70
     1
  9
$TREEDEPTH
 70
  3020
  9
$CMLSTYLE
  2
Standard
  9
$CMLJUST
 70
     0
  9
$CMLSCALE
 40
1.0
  9
$PROXYGRAPHICS
 70
     1
  9
$MEASUREMENT
 70
     0
  9
$CELWEIGHT
370
    -1
  9
$ENDCAPS
280
     0
  9
$JOINSTYLE
280
     0
  9
$LWDISPLAY
290
     1
  9
$INSUNITS
 70
     0
  9
$HYPERLINKBASE
  1

  9
$STYLESHEET
  1

  9
$XEDIT
290
     1
  9
$CEPSNTYPE
380
     0
  9
$PSTYLEMODE
290
     1
  9
$FINGERPRINTGUID
  2
{3C278D47-5AD4-4C22-8F9E-E662A79A7C00}
  9
$VERSIONGUID
  2
{7ED2A47B-A42E-4E58-879E-3E4ECBAC3B13}
  9
$EXTNAMES
290
     1
  9
$PSVPSCALE
 40
0.0
  9
$OLESTARTUP
290
     0
  9
$SORTENTS
280
   127
  9
$INDEXCTL
280
     0
  9
$HIDETEXT
280
     1
  9
$XCLIPFRAME
280
     0
  9
$HALOGAP
280
     0
  9
$OBSCOLOR
 70
   257
  9
$OBSLTYPE
280
     0
  9
$INTERSECTIONDISPLAY
280
     0
  9
$INTERSECTIONCOLOR
 70
   257
  9
$DIMASSOC
280
     2
  9
$PROJECTNAME
  1

  9
$CAMERADISPLAY
290
     0
  9
$LENSLENGTH
 40
50.0
  9
$CAMERAHEIGHT
 40
0.0
  9
$STEPSPERSEC
 40
2.0
  9
$STEPSIZE
 40
6.0
  9
$3DDWFPREC
 40
2.0
  9
$PSOLWIDTH
 40
0.25
  9
$PSOLHEIGHT
 40
4.0
  9
$LOFTANG1
 40
1.570796326794896
  9
$LOFTANG2
 40
1.570796326794896
  9
$LOFTMAG1
 40
0.0
  9
$LOFTMAG2
 40
0.0
  9
$LOFTPARAM
 70
     7
  9
$LOFTNORMALS
280
     1
  9
$LATITUDE
 40
37.795
  9
$LONGITUDE
 40
-122.394
  9
$NORTHDIRECTION
 40
0.0
  9
$TIMEZONE
 70
 -8000
  9
$LIGHTGLYPHDISPLAY
280
     1
  9
$TILEMODELIGHTSYNCH
280
     1
  9
$CMATERIAL
347
3C
  9
$SOLIDHIST
280
     1
  9
$SHOWHIST
280
     1
  9
$DWFFRAME
280
     2
  9
$DGNFRAME
280
     2
  9
$REALWORLDSCALE
290
     1
  9
$INTERFERECOLOR
 62
   256
  9
$INTERFEREOBJVS
345
33
  9
$INTERFEREVPVS
346
222
  9
$CSHADOW
280
     0
  9
$SHADOWPLANELOCATION
 40
0.0
  0
ENDSEC
  0
SECTION
  2
CLASSES
  0
CLASS
  1
ACDBDICTIONARYWDFLT
  2
AcDbDictionaryWithDefault
  3
ObjectDBX Classes
 90
        0
 91
        1
280
     0
281
     0
  0
CLASS
  1
VISUALSTYLE
  2
AcDbVisualStyle
  3
ObjectDBX Classes
 90
     4095
 91
       26
280
     0
281
     0
  0
CLASS
  1
MATERIAL
  2
AcDbMaterial
  3
ObjectDBX Classes
 90
     1153
 91
        3
280
     0
281
     0
  0
CLASS
  1
WIPEOUT
  2
AcDbWipeout
  3
WipeOut|Product Desc: Object Enabler for WipeOut entity | Company: Autodesk, Inc. | WEB Address: www.autodesk.com
 90
     2175
 91
        1
280
     0
281
     1
  0
CLASS
  1
SCALE
  2
AcDbScale
  3
ObjectDBX Classes
 90
     1153
 91
       33
280
     0
281
     0
  0
CLASS
  1
DICTIONARYVAR
  2
AcDbDictionaryVar
  3
ObjectDBX Classes
 90
        0
 91
       17
280
     0
281
     0
  0
CLASS
  1
TABLESTYLE
  2
AcDbTableStyle
  3
ObjectDBX Classes
 90
     4095
 91
        1
280
     0
281
     0
  0
CLASS
  1
MLEADERSTYLE
  2
AcDbMLeaderStyle
  3
ACDB_MLEADERSTYLE_CLASS
 90
     4095
 91
        1
280
     0
281
     0
  0
CLASS
  1
ACDBSECTIONVIEWSTYLE
  2
AcDbSectionViewStyle
  3
ObjectDBX Classes
 90
     1025
 91
        1
280
     0
281
     0
  0
CLASS
  1
ACDBDETAILVIEWSTYLE
  2
AcDbDetailViewStyle
  3
ObjectDBX Classes
 90
     1025
 91
        1
280
     0
281
     0
  0
CLASS
  1
WIPEOUTVARIABLES
  2
AcDbWipeoutVariables
  3
"WipeOut|Product Desc:     WipeOut Dbx Application|Company:          Autodesk, Inc.|WEB Address:      www.autodesk.com"
 90
        0
 91
        1
280
     0
281
     0
  0
CLASS
  1
EXACXREFPANELOBJECT
  2
ExAcXREFPanelObject
  3
EXAC_ESW
 90
     1025
 91
        1
280
     0
281
     0
  0
CLASS
  1
NPOCOLLECTION
  2
AcDbImpNonPersistentObjectsCollection
  3
ObjectDBX Classes
 90
     1153
 91
        1
280
     0
281
     0
  0
CLASS
  1
IMAGE
  2
AcDbRasterImage
  3
ISM
 90
     2175
 91
        2
280
     0
281
     1
  0
CLASS
  1
IMAGEDEF_REACTOR
  2
AcDbRasterImageDefReactor
  3
ISM
 90
        1
 91
        2
280
     0
281
     0
  0
CLASS
  1
SORTENTSTABLE
  2
AcDbSortentsTable
  3
ObjectDBX Classes
 90
        0
 91
        1
280
     0
281
     0
  0
CLASS
  1
IMAGEDEF
  2
AcDbRasterImageDef
  3
ISM
 90
        0
 91
        2
280
     0
281
     0
  0
CLASS
  1
RASTERVARIABLES
  2
AcDbRasterVariables
  3
ISM
 90
        0
 91
        1
280
     0
281
     0
  0
CLASS
  1
ACAD_EVALUATION_GRAPH
  2
AcDbEvalGraph
  3
ObjectDBX Classes
 90
     1153
 91
        0
280
     0
281
     0
  0
CLASS
  1
ACAECUSTOBJ
  2
AcAeEditorObj
  3
AcAeEditorObj
 90
     1024
 91
        0
280
     0
281
     0
  0
CLASS
  1
ACDB_DYNAMICBLOCKPURGEPREVENTER_VERSION
  2
AcDbDynamicBlockPurgePreventer
  3
ObjectDBX Classes
 90
     1153
 91
        0
280
     0
281
     0
  0
CLASS
  1
CELLSTYLEMAP
  2
AcDbCellStyleMap
  3
ObjectDBX Classes
 90
     1152
 91
        2
280
     0
281
     0
  0
ENDSEC
  0
SECTION
  2
TABLES
  0
TABLE
  2
VPORT
  5
8
330
0
100
AcDbSymbolTable
 70
     1
  0
VPORT
  5
29
330
8
100
AcDbSymbolTableRecord
100
AcDbViewportTableRecord
  2
*Active
 70
     0
 10
0.0
 20
0.0
 11
1.0
 21
1.0
 12
9473.774592297326
 22
4057.120550594183
 13
0.0
 23
0.0
 14
0.5
 24
0.5
 15
0.5
 25
0.5
 16
0.0
 26
0.0
 36
1.0
 17
0.0
 27
0.0
 37
0.0
 40
1049.44264416069
 41
1.816348195329086
 42
50.0
 43
0.0
 44
0.0
 50
0.0
 51
0.0
 71
     0
 72
   100
 73
     1
 74
     3
 75
     0
 76
     0
 77
     0
 78
     0
281
     0
 65
     1
110
0.0
120
0.0
130
0.0
111
1.0
121
0.0
131
0.0
112
0.0
122
1.0
132
0.0
 79
     0
146
0.0
348
2F
 60
     3
 61
     5
292
     1
282
     1
141
0.0
142
0.0
 63
   250
1001
ACAD_NAV_VCDISPLAY
1070
     3
  0
ENDTAB
  0
TABLE
  2
LTYPE
  5
5
330
0
100
AcDbSymbolTable
 70
     8
  0
LTYPE
  5
14
330
5
100
AcDbSymbolTableRecord
100
AcDbLinetypeTableRecord
  2
ByBlock
 70
     0
  3

 72
    65
 73
     0
 40
0.0
  0
LTYPE
  5
15
330
5
100
AcDbSymbolTableRecord
100
AcDbLinetypeTableRecord
  2
ByLayer
 70
     0
  3

 72
    65
 73
     0
 40
0.0
  0
LTYPE
  5
16
330
5
100
AcDbSymbolTableRecord
100
AcDbLinetypeTableRecord
  2
Continuous
 70
     0
  3
Solid line
 72
    65
 73
     0
 40
0.0
  0
LTYPE
  5
146
330
5
100
AcDbSymbolTableRecord
100
AcDbLinetypeTableRecord
  2
Wipeout_Contour
 70
     0
  3
- - - - - 
 72
    65
 73
     2
 40
1000.0
 49
0.0
 74
     0
 49
-1000.0
 74
     0
  0
LTYPE
  5
17C
330
5
100
AcDbSymbolTableRecord
100
AcDbLinetypeTableRecord
  2
Hidden
 70
     0
  3
- - - - - 
 72
    65
 73
     2
 40
4.938889980316162
 49
2.822222709655761
 74
     0
 49
-2.1166672706604
 74
     0
  0
LTYPE
  5
19E
330
5
100
AcDbSymbolTableRecord
100
AcDbLinetypeTableRecord
  2
Above
 70
     0
  3
- - - - - 
 72
    65
 73
     2
 40
9.599999999999999
 49
6.0
 74
     0
 49
-3.6
 74
     0
  0
LTYPE
  5
1A2
330
5
100
AcDbSymbolTableRecord
100
AcDbLinetypeTableRecord
  2
Sketch
 70
     0
  3
??????????
 72
    65
 73
     3
 40
40.0
 49
0.0
 74
     4
 75
     1
340
1A3
 46
0.3174603174603174
 50
0.0
 44
0.0
 45
0.0
 49
-40.0
 74
     0
 49
0.0
 74
     0
  0
LTYPE
  5
23D
330
5
100
AcDbSymbolTableRecord
100
AcDbLinetypeTableRecord
  2
ZIGZAG
 70
     0
  3
Zig zag /\/\/\/\/\/\/\/\/\/\/\/\/\/\/\/\/\/\/\/
 72
    65
 73
     4
 40
0.8001000000000001
 49
0.0001
 74
     0
 49
-0.2
 74
     4
 75
   131
340
241
 46
0.2
 50
0.0
 44
-0.2
 45
0.0
 49
-0.4
 74
     4
 75
   131
340
241
 46
0.2
 50
180.0
 44
0.2
 45
0.0
 49
-0.2
 74
     0
  0
LTYPE
  5
29A
330
5
100
AcDbSymbolTableRecord
100
AcDbLinetypeTableRecord
  2
DASHEDX2
 70
     0
  3
Dashed (2x) ____  ____  ____  ____  ____  ___
 72
    65
 73
     2
 40
1.5
 49
1.0
 74
     0
 49
-0.5
 74
     0
  0
LTYPE
  5
33D
330
5
100
AcDbSymbolTableRecord
100
AcDbLinetypeTableRecord
  2
PLASTER
 70
     0
  3
PLASTER
 72
    65
 73
     2
 40
2.379214999999999
 49
0.000024
 74
     4
 75
     1
340
33E
 46
0.2
 50
0.0
 44
0.0
 45
0.0
 49
-2.379191
 74
     0
  0
ENDTAB
  0
TABLE
  2
LAYER
  5
2
102
{ACAD_XDICTIONARY
360
248
102
}
330
0
100
AcDbSymbolTable
 70
     6
  0
LAYER
  5
10
102
{ACAD_XDICTIONARY
360
29B
102
}
330
2
100
AcDbSymbolTableRecord
100
AcDbLayerTableRecord
  2
0
 70
     0
 62
     7
  6
Continuous
370
    -3
390
F
347
3E
  0
LAYER
  5
40
102
{ACAD_XDICTIONARY
360
29D
102
}
330
2
100
AcDbSymbolTableRecord
100
AcDbLayerTableRecord
  2
Specialized_Fills
 70
     0
 62
     7
  6
Continuous
370
    -3
390
F
347
3E
  0
LAYER
  5
178
102
{ACAD_XDICTIONARY
360
29F
102
}
330
2
100
AcDbSymbolTableRecord
100
AcDbLayerTableRecord
  2
Specialized_Lines
 70
     0
 62
     7
  6
Continuous
370
    -3
390
F
347
3E
  0
LAYER
  5
1DF
102
{ACAD_XDICTIONARY
360
2A1
102
}
330
2
100
AcDbSymbolTableRecord
100
AcDbLayerTableRecord
  2
Specialized_Text
 70
     0
 62
     7
  6
Continuous
370
    -3
390
F
347
3E
  0
LAYER
  5
23E
102
{ACAD_XDICTIONARY
360
23F
102
}
330
2
100
AcDbSymbolTableRecord
100
AcDbLayerTableRecord
  2
Viewport
 70
     0
 62
     7
  6
Continuous
370
    -3
390
F
347
3E
1001
AcAecLayerStandard
1000

1000

1001
AcCmTransparency
1071
        0
  0
LAYER
  5
3A1
330
2
100
AcDbSymbolTableRecord
100
AcDbLayerTableRecord
  2
Defpoints
 70
     0
 62
     7
  6
Continuous
290
     0
370
    -3
390
F
347
3E
  0
ENDTAB
  0
TABLE
  2
STYLE
  5
3
330
0
100
AcDbSymbolTable
 70
     6
  0
STYLE
  5
11
330
3
100
AcDbSymbolTableRecord
100
AcDbTextStyleTableRecord
  2
Standard
 70
     0
 40
0.0
 41
1.0
 50
0.0
 71
     0
 42
0.2
  3
txt
  4
BIGFONT.SHX
  0
STYLE
  5
1A3
330
3
100
AcDbSymbolTableRecord
100
AcDbTextStyleTableRecord
  2

 70
     1
 40
0.2
 41
1.0
 50
0.0
 71
     0
 42
0.2
  3
14A Wall _ Roof_ Flush Eaves1.Shx
  4

  0
STYLE
  5
1C8
330
3
100
AcDbSymbolTableRecord
100
AcDbTextStyleTableRecord
  2
GENERATED_STYLE_1
 70
     0
 40
0.0
 41
1.0
 50
0.0
 71
     0
 42
0.2
  3
ARIALUNI.TTF
  4

1001
ACAD
1000
Arial Unicode MS
1071
       34
  0
STYLE
  5
240
330
3
100
AcDbSymbolTableRecord
100
AcDbTextStyleTableRecord
  2
GENERATED_STYLE_2
 70
     0
 40
0.0
 41
1.0
 50
0.0
 71
     0
 42
0.2
  3
ARIALUNI.TTF
  4

1001
ACAD
1000
Arial Unicode MS
1071
       34
  0
STYLE
  5
241
330
3
100
AcDbSymbolTableRecord
100
AcDbTextStyleTableRecord
  2

 70
     1
 40
0.0
 41
1.0
 50
0.0
 71
     0
 42
0.2
  3
ltypeshp.shx
  4

  0
STYLE
  5
33E
330
3
100
AcDbSymbolTableRecord
100
AcDbTextStyleTableRecord
  2

 70
     1
 40
0.0
 41
1.0
 50
0.0
 71
     0
 42
0.2
  3
P:\VERT-X CONSULTING LTD\2013\10 OCT\1310-015- SPECIALIZED CONSTRUCTION PRODUCTS - CONTRACT DRAUGHTING\DRAWINGS\PLASTER.SHX
  4

  0
ENDTAB
  0
TABLE
  2
VIEW
  5
6
330
0
100
AcDbSymbolTable
 70
     0
  0
ENDTAB
  0
TABLE
  2
UCS
  5
7
330
0
100
AcDbSymbolTable
 70
     0
  0
ENDTAB
  0
TABLE
  2
APPID
  5
9
330
0
100
AcDbSymbolTable
 70
    11
  0
APPID
  5
12
330
9
100
AcDbSymbolTableRecord
100
AcDbRegAppTableRecord
  2
ACAD
 70
     0
  0
APPID
  5
242
330
9
100
AcDbSymbolTableRecord
100
AcDbRegAppTableRecord
  2
ACAD_PSEXT
 70
     0
  0
APPID
  5
243
330
9
100
AcDbSymbolTableRecord
100
AcDbRegAppTableRecord
  2
ACAD_NAV_VCDISPLAY
 70
     0
  0
APPID
  5
244
330
9
100
AcDbSymbolTableRecord
100
AcDbRegAppTableRecord
  2
AcAecLayerStandard
 70
     0
  0
APPID
  5
245
330
9
100
AcDbSymbolTableRecord
100
AcDbRegAppTableRecord
  2
AcCmTransparency
 70
     0
  0
APPID
  5
246
330
9
100
AcDbSymbolTableRecord
100
AcDbRegAppTableRecord
  2
GradientColor1ACI
 70
     0
  0
APPID
  5
247
330
9
100
AcDbSymbolTableRecord
100
AcDbRegAppTableRecord
  2
GradientColor2ACI
 70
     0
  0
APPID
  5
273
330
9
100
AcDbSymbolTableRecord
100
AcDbRegAppTableRecord
  2
ACAD_EXEMPT_FROM_CAD_STANDARDS
 70
     0
  0
APPID
  5
284
330
9
100
AcDbSymbolTableRecord
100
AcDbRegAppTableRecord
  2
ACAUTHENVIRON
 70
     0
  0
APPID
  5
297
330
9
100
AcDbSymbolTableRecord
100
AcDbRegAppTableRecord
  2
AcDbDynamicBlockTrueName
 70
     0
  0
APPID
  5
298
330
9
100
AcDbSymbolTableRecord
100
AcDbRegAppTableRecord
  2
AcDbDynamicBlockGUID
 70
     0
  0
ENDTAB
  0
TABLE
  2
DIMSTYLE
  5
A
330
0
100
AcDbSymbolTable
 70
     4
100
AcDbDimStyleTable
 71
     1
340
27
  0
DIMSTYLE
105
27
330
A
100
AcDbSymbolTableRecord
100
AcDbDimStyleTableRecord
  2
Standard
 70
     0
340
11
  0
DIMSTYLE
105
1CB
102
{ACAD_REACTORS
330
1CA
102
}
330
A
100
AcDbSymbolTableRecord
100
AcDbDimStyleTableRecord
  2
GENERATED_STYLE__1
 70
     0
 41
3.799999999999999
 42
15.0
 77
     1
140
5.0
172
     1
176
     7
177
     7
178
     7
179
     2
271
     0
340
1C8
342
1CC
343
1CC
344
1CC
  0
DIMSTYLE
105
1DD
102
{ACAD_REACTORS
330
1DC
102
}
330
A
100
AcDbSymbolTableRecord
100
AcDbDimStyleTableRecord
  2
GENERATED_STYLE__2
 70
     0
 41
3.799999999999999
 42
0.0
 73
     0
 74
     0
 77
     1
140
5.0
172
     1
176
     7
177
     7
178
     7
179
     2
271
     0
340
1C8
342
1CC
343
1CC
344
1CC
  0
DIMSTYLE
105
1E1
330
A
100
AcDbSymbolTableRecord
100
AcDbDimStyleTableRecord
  2
GENERATED_STYLE__3
 70
     0
 41
7.295999999999999
172
     1
341
1E2
  0
ENDTAB
  0
TABLE
  2
BLOCK_RECORD
  5
1
330
0
100
AcDbSymbolTable
 70
     7
  0
BLOCK_RECORD
  5
1F
330
1
100
AcDbSymbolTableRecord
100
AcDbBlockTableRecord
  2
*Model_Space
340
22
 70
     0
280
     1
281
     0
  0
BLOCK_RECORD
  5
1B
330
1
100
AcDbSymbolTableRecord
100
AcDbBlockTableRecord
  2
*Paper_Space
340
1E
 70
     0
280
     1
281
     0
  0
BLOCK_RECORD
  5
23
330
1
100
AcDbSymbolTableRecord
100
AcDbBlockTableRecord
  2
*Paper_Space0
340
26
 70
     0
280
     1
281
     0
  0
BLOCK_RECORD
  5
48
102
{ACAD_XDICTIONARY
360
285
102
}
330
1
100
AcDbSymbolTableRecord
100
AcDbBlockTableRecord
  2
Fill_1
340
0
102
{BLKREFS
331
16E
102
}
 70
     0
280
     1
281
     0
1001
AcDbDynamicBlockGUID
1000
{D4A43954-637C-4AB1-A84A-E3B2D59C54B4}
  0
BLOCK_RECORD
  5
1BE
330
1
100
AcDbSymbolTableRecord
100
AcDbBlockTableRecord
  2
*D2
340
0
 70
     0
280
     1
281
     0
  0
BLOCK_RECORD
  5
1CC
330
1
100
AcDbSymbolTableRecord
100
AcDbBlockTableRecord
  2
ARROWHEAD_6
340
0
102
{BLKREFS
331
3AE
331
3AF
331
3C0
331
3C1
102
}
 70
     0
280
     1
281
     0
  0
BLOCK_RECORD
  5
1D1
330
1
100
AcDbSymbolTableRecord
100
AcDbBlockTableRecord
  2
*D4
340
0
 70
     0
280
     1
281
     0
  0
BLOCK_RECORD
  5
1E2
330
1
100
AcDbSymbolTableRecord
100
AcDbBlockTableRecord
  2
ARROWHEAD_5
340
0
 70
     0
280
     1
281
     0
  0
BLOCK_RECORD
  5
1F7
330
1
100
AcDbSymbolTableRecord
100
AcDbBlockTableRecord
  2
14A Wall _ Roof_ Flush Eaves_STORY_MARKER
340
0
 70
     0
280
     1
281
     0
  0
ENDTAB
  0
ENDSEC
  0
SECTION
  2
BLOCKS
  0
BLOCK
  5
20
330
1F
100
AcDbEntity
  8
0
100
AcDbBlockBegin
  2
*Model_Space
 70
     0
 10
0.0
 20
0.0
 30
0.0
  3
*Model_Space
  1

  0
ENDBLK
  5
21
330
1F
100
AcDbEntity
  8
0
100
AcDbBlockEnd
  0
BLOCK
  5
1C
330
1B
100
AcDbEntity
 67
     1
  8
0
100
AcDbBlockBegin
  2
*Paper_Space
 70
     0
 10
0.0
 20
0.0
 30
0.0
  3
*Paper_Space
  1

  0
ENDBLK
  5
1D
330
1B
100
AcDbEntity
 67
     1
  8
0
100
AcDbBlockEnd
  0
BLOCK
  5
24
330
23
100
AcDbEntity
 67
     1
  8
0
100
AcDbBlockBegin
  2
*Paper_Space0
 70
     0
 10
0.0
 20
0.0
 30
0.0
  3
*Paper_Space0
  1

  0
ENDBLK
  5
25
330
23
100
AcDbEntity
 67
     1
  8
0
100
AcDbBlockEnd
  0
BLOCK
  5
49
330
48
100
AcDbEntity
  8
0
100
AcDbBlockBegin
  2
Fill_1
 70
     0
 10
0.0
 20
0.0
 30
0.0
  3
Fill_1
  1

  0
WIPEOUT
  5
27E
330
48
100
AcDbEntity
  8
Specialized_Fills
  6
Wipeout_Contour
 62
   254
 48
40785.38849287883
160
               140
310
8C00000001000000840000000600000005000000E2A110999631C240A1A96F21884DAF400000000000000000DDA11099964AC240A1A96F21884DAF400000000000000000DDA11099964AC240F26EB2C7754BB0400000000000000000E2A110999631C240F26EB2C7754BB0400000000000000000E2A110999631C240A1A96F
310
21884DAF400000000000000000
370
     0
100
AcDbWipeout
 90
        0
 10
9315.176546172185
 20
4006.765880097825
 30
0.0
 11
49.9999999999909
 21
0.0
 31
0.0
 12
0.0
 22
164.6941982866569
 32
0.0
 13
1.0
 23
1.0
340
0
 70
    15
280
     1
281
    50
282
    50
283
     0
290
     0
360
0
 71
     2
 91
        5
 14
-0.5000000000000182
 24
0.4999999999999986
 14
0.4999999999999818
 24
0.4999999999999986
 14
0.4999999999999818
 24
-0.5000000000000014
 14
-0.5000000000000182
 24
-0.5000000000000014
 14
-0.5000000000000182
 24
0.4999999999999986
  0
LINE
  5
280
102
{ACAD_REACTORS
330
296
102
}
330
48
100
AcDbEntity
  8
Specialized_Fills
  6
Continuous
100
AcDbLine
 10
9315.176546172185
 20
4006.765880097825
 30
0.0
 11
9365.176546172175
 21
4006.765880097825
 31
0.0
  0
LINE
  5
281
102
{ACAD_REACTORS
330
296
102
}
330
48
100
AcDbEntity
  8
Specialized_Fills
  6
Continuous
100
AcDbLine
 10
9365.176546172175
 20
4006.765880097825
 30
0.0
 11
9365.176546172175
 21
4171.460078384481
 31
0.0
  0
LINE
  5
282
102
{ACAD_REACTORS
330
296
102
}
330
48
100
AcDbEntity
  8
Specialized_Fills
  6
Continuous
100
AcDbLine
 10
9365.176546172175
 20
4171.460078384481
 30
0.0
 11
9315.176546172185
 21
4171.460078384481
 31
0.0
  0
LINE
  5
283
102
{ACAD_REACTORS
330
296
102
}
330
48
100
AcDbEntity
  8
Specialized_Fills
  6
Continuous
100
AcDbLine
 10
9315.176546172185
 20
4171.460078384481
 30
0.0
 11
9315.176546172185
 21
4006.765880097825
 31
0.0
  0
HATCH
  5
296
330
48
100
AcDbEntity
  8
0
 62
   251
420
  6250335
100
AcDbHatch
 10
0.0
 20
0.0
 30
0.0
210
0.0
220
0.0
230
1.0
  2
HPCRC1E0
 70
     0
 71
     1
 91
        1
 92
        7
 72
     0
 73
     1
 93
        4
 10
9365.176546172175
 20
4171.460078384481
 10
9315.176546172185
 20
4171.460078384481
 10
9315.176546172185
 20
4006.765880097825
 10
9365.176546172175
 20
4006.765880097825
 97
        4
330
282
330
283
330
280
330
281
 75
     1
 76
     2
 52
0.0
 41
0.12
 77
     0
 78
    78
 53
82.8749847
 43
0.0
 44
4.2
 45
-0.0000004961129005
 46
8.399999852931037
 79
     2
 49
0.9674709324
 49
-66.75549316799998
 53
75.96376039999999
 43
0.12
 44
5.16
 45
-0.000000348785556
 46
8.399999709154096
 79
     2
 49
0.4947726600000001
 49
-34.139315184
 53
63.43495179999999
 43
0.24
 44
5.639999999999999
 45
-0.0000000286036308
 46
8.400000041591663
 79
     2
 49
1.073312639999999
 49
-17.70965881199999
 53
45.0
 43
0.72
 44
6.599999999999999
 45
0.0000000000000009
 46
8.400000002875099
 79
     2
 49
1.527350688
 49
-10.352043456
 53
33.6900673
 43
1.799999999999999
 44
7.679999999999999
 45
0.0000001596020127
 46
8.399999824188462
 79
     2
 49
0.4326661440000001
 49
-29.85396423600001
 53
33.6900673
 43
10.2
 44
7.679999999999999
 45
0.0000001596020127
 46
8.399999824188462
 79
     2
 49
0.4326661440000001
 49
-29.85396423600001
 53
33.6900673
 43
18.6
 44
7.679999999999999
 45
0.0000001596020127
 46
8.399999824188462
 79
     2
 49
0.4326661440000001
 49
-29.85396423600001
 53
26.5650501
 43
2.16
 44
7.919999999999999
 45
-0.0000000460215162
 46
8.400000143556356
 79
     2
 49
0.26832816
 49
-18.514643556
 53
26.5650501
 43
10.56
 44
7.919999999999999
 45
-0.0000000460215162
 46
8.400000143556356
 79
     2
 49
0.26832816
 49
-18.514643556
 53
18.434948
 43
2.399999999999999
 44
8.039999999999999
 45
0.0000002686412607
 46
8.399999851558131
 79
     2
 49
0.3794733239999999
 49
-26.183659056
 53
18.434948
 43
10.8
 44
8.039999999999999
 45
0.0000002686412607
 46
8.399999851558131
 79
     2
 49
0.3794733239999999
 49
-26.183659056
 53
18.434948
 43
19.2
 44
8.039999999999999
 45
0.0000002686412607
 46
8.399999851558131
 79
     2
 49
0.3794733239999999
 49
-26.183659056
 53
26.5650501
 43
2.759999999999999
 44
8.16
 45
-0.0000000460215162
 46
8.400000143556356
 79
     2
 49
0.26832816
 49
-18.514643556
 53
26.5650501
 43
11.16
 44
8.16
 45
-0.0000000460215162
 46
8.400000143556356
 79
     2
 49
0.26832816
 49
-18.514643556
 53
11.3099327
 43
3.0
 44
8.279999999999999
 45
-0.0000000543109101
 46
8.400000069389928
 79
     2
 49
0.6118823435999998
 49
-42.21988036799999
 53
11.3099327
 43
11.4
 44
8.279999999999999
 45
-0.0000000543109101
 46
8.400000069389928
 79
     2
 49
0.6118823435999998
 49
-42.21988036799999
 53
11.3099327
 43
19.8
 44
8.279999999999999
 45
-0.0000000543109101
 46
8.400000069389928
 79
     2
 49
0.6118823435999998
 49
-42.21988036799999
 53
11.3099327
 43
28.2
 44
8.279999999999999
 45
-0.0000000543109101
 46
8.400000069389928
 79
     2
 49
0.6118823435999998
 49
-42.21988036799999
 53
11.3099327
 43
36.6
 44
8.279999999999999
 45
-0.0000000543109101
 46
8.400000069389928
 79
     2
 49
0.6118823435999998
 49
-42.21988036799999
 53
0.0
 43
3.599999999999999
 44
8.4
 45
0.0
 46
8.4
 79
     2
 49
1.199999999999999
 49
-7.199999999999999
 53
348.6900673
 43
4.799999999999999
 44
8.4
 45
0.0000000543109101
 46
8.400000069389928
 79
     2
 49
0.6118823435999998
 49
-42.21988036799999
 53
348.6900673
 43
13.2
 44
8.4
 45
0.0000000543109101
 46
8.400000069389928
 79
     2
 49
0.6118823435999998
 49
-42.21988036799999
 53
348.6900673
 43
21.6
 44
8.4
 45
0.0000000543109101
 46
8.400000069389928
 79
     2
 49
0.6118823435999998
 49
-42.21988036799999
 53
348.6900673
 43
30.0
 44
8.4
 45
0.0000000543109101
 46
8.400000069389928
 79
     2
 49
0.6118823435999998
 49
-42.21988036799999
 53
348.6900673
 43
38.4
 44
8.4
 45
0.0000000543109101
 46
8.400000069389928
 79
     2
 49
0.6118823435999998
 49
-42.21988036799999
 53
333.4349499
 43
5.399999999999999
 44
8.279999999999999
 45
0.0000000460215162
 46
8.400000143556356
 79
     2
 49
0.2683281599999999
 49
-18.514643556
 53
333.4349499
 43
13.8
 44
8.279999999999999
 45
0.0000000460215162
 46
8.400000143556356
 79
     2
 49
0.2683281599999999
 49
-18.514643556
 53
341.565052
 43
5.639999999999999
 44
8.16
 45
-0.0000002686412607
 46
8.399999851558131
 79
     2
 49
0.379473324
 49
-26.183659056
 53
341.565052
 43
14.04
 44
8.16
 45
-0.0000002686412607
 46
8.399999851558131
 79
     2
 49
0.379473324
 49
-26.183659056
 53
341.565052
 43
22.44
 44
8.16
 45
-0.0000002686412607
 46
8.399999851558131
 79
     2
 49
0.379473324
 49
-26.183659056
 53
333.4349499
 43
6.0
 44
8.039999999999999
 45
0.0000000460215162
 46
8.400000143556356
 79
     2
 49
0.2683281599999999
 49
-18.514643556
 53
333.4349499
 43
14.4
 44
8.039999999999999
 45
0.0000000460215162
 46
8.400000143556356
 79
     2
 49
0.2683281599999999
 49
-18.514643556
 53
326.3099327
 43
6.24
 44
7.919999999999999
 45
-0.0000001596020127
 46
8.399999824188462
 79
     2
 49
0.4326661440000001
 49
-29.85396423600001
 53
326.3099327
 43
14.64
 44
7.919999999999999
 45
-0.0000001596020127
 46
8.399999824188462
 79
     2
 49
0.4326661440000001
 49
-29.85396423600001
 53
326.3099327
 43
23.04
 44
7.919999999999999
 45
-0.0000001596020127
 46
8.399999824188462
 79
     2
 49
0.4326661440000001
 49
-29.85396423600001
 53
315.0
 43
6.599999999999999
 44
7.679999999999999
 45
-0.0000000000000009
 46
8.400000002875099
 79
     2
 49
1.527350688
 49
-10.352043456
 53
296.5650482
 43
7.679999999999999
 44
6.599999999999999
 45
0.0000000286036308
 46
8.400000041591663
 79
     2
 49
1.073312639999999
 49
-17.70965881199999
 53
284.0362396
 43
8.16
 44
5.639999999999999
 45
0.000000348785556
 46
8.399999709154096
 79
     2
 49
0.4947726600000001
 49
-34.139315184
 53
277.1250153
 43
8.279999999999999
 44
5.16
 45
0.0000004961129005
 46
8.399999852931037
 79
     2
 49
0.9674709324
 49
-66.75549316799998
 53
277.1250153
 43
0.0
 44
4.2
 45
0.0000004961129005
 46
8.399999852931037
 79
     2
 49
0.9674709324
 49
-66.75549316799998
 53
284.0362396
 43
0.12
 44
3.239999999999999
 45
0.000000348785556
 46
8.399999709154096
 79
     2
 49
0.4947726600000001
 49
-34.139315184
 53
296.5650482
 43
0.24
 44
2.759999999999999
 45
0.0000000286036308
 46
8.400000041591663
 79
     2
 49
1.073312639999999
 49
-17.70965881199999
 53
315.0
 43
0.72
 44
1.799999999999999
 45
-0.0000000000000009
 46
8.400000002875099
 79
     2
 49
1.527350688
 49
-10.352043456
 53
326.3099327
 43
1.799999999999999
 44
0.72
 45
-0.0000001596020127
 46
8.399999824188462
 79
     2
 49
0.4326661440000001
 49
-29.85396423600001
 53
326.3099327
 43
10.2
 44
0.72
 45
-0.0000001596020127
 46
8.399999824188462
 79
     2
 49
0.4326661440000001
 49
-29.85396423600001
 53
326.3099327
 43
18.6
 44
0.72
 45
-0.0000001596020127
 46
8.399999824188462
 79
     2
 49
0.4326661440000001
 49
-29.85396423600001
 53
333.4349499
 43
2.16
 44
0.48
 45
0.0000000460215162
 46
8.400000143556356
 79
     2
 49
0.2683281599999999
 49
-18.514643556
 53
333.4349499
 43
10.56
 44
0.48
 45
0.0000000460215162
 46
8.400000143556356
 79
     2
 49
0.2683281599999999
 49
-18.514643556
 53
341.565052
 43
2.399999999999999
 44
0.36
 45
-0.0000002686412607
 46
8.399999851558131
 79
     2
 49
0.379473324
 49
-26.183659056
 53
341.565052
 43
10.8
 44
0.36
 45
-0.0000002686412607
 46
8.399999851558131
 79
     2
 49
0.379473324
 49
-26.183659056
 53
341.565052
 43
19.2
 44
0.36
 45
-0.0000002686412607
 46
8.399999851558131
 79
     2
 49
0.379473324
 49
-26.183659056
 53
333.4349499
 43
2.759999999999999
 44
0.24
 45
0.0000000460215162
 46
8.400000143556356
 79
     2
 49
0.2683281599999999
 49
-18.514643556
 53
333.4349499
 43
11.16
 44
0.24
 45
0.0000000460215162
 46
8.400000143556356
 79
     2
 49
0.2683281599999999
 49
-18.514643556
 53
348.6900673
 43
3.0
 44
0.12
 45
0.0000000543109101
 46
8.400000069389928
 79
     2
 49
0.6118823435999998
 49
-42.21988036799999
 53
348.6900673
 43
11.4
 44
0.12
 45
0.0000000543109101
 46
8.400000069389928
 79
     2
 49
0.6118823435999998
 49
-42.21988036799999
 53
348.6900673
 43
19.8
 44
0.12
 45
0.0000000543109101
 46
8.400000069389928
 79
     2
 49
0.6118823435999998
 49
-42.21988036799999
 53
348.6900673
 43
28.2
 44
0.12
 45
0.0000000543109101
 46
8.400000069389928
 79
     2
 49
0.6118823435999998
 49
-42.21988036799999
 53
348.6900673
 43
36.6
 44
0.12
 45
0.0000000543109101
 46
8.400000069389928
 79
     2
 49
0.6118823435999998
 49
-42.21988036799999
 53
0.0
 43
3.599999999999999
 44
0.0
 45
0.0
 46
8.4
 79
     2
 49
1.199999999999999
 49
-7.199999999999999
 53
11.3099327
 43
4.799999999999999
 44
0.0
 45
-0.0000000543109101
 46
8.400000069389928
 79
     2
 49
0.6118823435999998
 49
-42.21988036799999
 53
11.3099327
 43
13.2
 44
0.0
 45
-0.0000000543109101
 46
8.400000069389928
 79
     2
 49
0.6118823435999998
 49
-42.21988036799999
 53
11.3099327
 43
21.6
 44
0.0
 45
-0.0000000543109101
 46
8.400000069389928
 79
     2
 49
0.6118823435999998
 49
-42.21988036799999
 53
11.3099327
 43
30.0
 44
0.0
 45
-0.0000000543109101
 46
8.400000069389928
 79
     2
 49
0.6118823435999998
 49
-42.21988036799999
 53
11.3099327
 43
38.4
 44
0.0
 45
-0.0000000543109101
 46
8.400000069389928
 79
     2
 49
0.6118823435999998
 49
-42.21988036799999
 53
26.5650501
 43
5.399999999999999
 44
0.12
 45
-0.0000000460215162
 46
8.400000143556356
 79
     2
 49
0.26832816
 49
-18.514643556
 53
26.5650501
 43
13.8
 44
0.12
 45
-0.0000000460215162
 46
8.400000143556356
 79
     2
 49
0.26832816
 49
-18.514643556
 53
18.434948
 43
5.639999999999999
 44
0.24
 45
0.0000002686412607
 46
8.399999851558131
 79
     2
 49
0.3794733239999999
 49
-26.183659056
 53
18.434948
 43
14.04
 44
0.24
 45
0.0000002686412607
 46
8.399999851558131
 79
     2
 49
0.3794733239999999
 49
-26.183659056
 53
18.434948
 43
22.44
 44
0.24
 45
0.0000002686412607
 46
8.399999851558131
 79
     2
 49
0.3794733239999999
 49
-26.183659056
 53
26.5650501
 43
6.0
 44
0.36
 45
-0.0000000460215162
 46
8.400000143556356
 79
     2
 49
0.26832816
 49
-18.514643556
 53
26.5650501
 43
14.4
 44
0.36
 45
-0.0000000460215162
 46
8.400000143556356
 79
     2
 49
0.26832816
 49
-18.514643556
 53
33.6900673
 43
6.24
 44
0.48
 45
0.0000001596020127
 46
8.399999824188462
 79
     2
 49
0.4326661440000001
 49
-29.85396423600001
 53
33.6900673
 43
14.64
 44
0.48
 45
0.0000001596020127
 46
8.399999824188462
 79
     2
 49
0.4326661440000001
 49
-29.85396423600001
 53
33.6900673
 43
23.04
 44
0.48
 45
0.0000001596020127
 46
8.399999824188462
 79
     2
 49
0.4326661440000001
 49
-29.85396423600001
 53
45.0
 43
6.599999999999999
 44
0.72
 45
0.0000000000000009
 46
8.400000002875099
 79
     2
 49
1.527350688
 49
-10.352043456
 53
63.43495179999999
 43
7.679999999999999
 44
1.799999999999999
 45
-0.0000000286036308
 46
8.400000041591663
 79
     2
 49
1.073312639999999
 49
-17.70965881199999
 53
75.96376039999999
 43
8.16
 44
2.759999999999999
 45
-0.000000348785556
 46
8.399999709154096
 79
     2
 49
0.4947726600000001
 49
-34.139315184
 53
82.8749847
 43
8.279999999999999
 44
3.239999999999999
 45
-0.0000004961129005
 46
8.399999852931037
 79
     2
 49
0.9674709324
 49
-66.75549316799998
 47
0.2471992176068177
 98
        1
 10
9345.290946868209
 20
4131.890546527213
1001
GradientColor1ACI
1070
     5
1001
GradientColor2ACI
1070
     2
1001
ACAD
1010
0.0
1020
0.0
1030
0.0
  0
ENDBLK
  5
4A
330
48
100
AcDbEntity
  8
0
100
AcDbBlockEnd
  0
BLOCK
  5
1BF
330
1BE
100
AcDbEntity
  8
0
100
AcDbBlockBegin
  2
*D2
 70
     1
 10
0.0
 20
0.0
 30
0.0
  3
*D2
  1

  0
LINE
  5
3AB
330
1BE
100
AcDbEntity
  8
Specialized_Lines
  6
Continuous
 62
     7
440
 16777216
370
    -2
100
AcDbLine
 10
9293.484861524666
 20
4187.486553593601
 30
0.0
 11
9293.484861524666
 21
4207.846368681364
 31
0.0
  0
LINE
  5
3AC
330
1BE
100
AcDbEntity
  8
Specialized_Lines
  6
Continuous
 62
     7
440
 16777216
370
    -2
100
AcDbLine
 10
9381.527827410492
 20
4187.486553693344
 30
0.0
 11
9381.527827410492
 21
4207.846368681364
 31
0.0
  0
LINE
  5
3AD
330
1BE
100
AcDbEntity
  8
Specialized_Lines
  6
Continuous
 62
     7
440
 16777216
370
    -2
100
AcDbLine
 10
9297.284861524666
 20
4207.666368681364
 30
0.0
 11
9377.727827410492
 21
4207.666368681364
 31
0.0
  0
INSERT
  5
3AE
330
1BE
100
AcDbEntity
  8
Specialized_Lines
  6
Continuous
 62
     7
440
 16777216
370
    -2
100
AcDbBlockReference
  2
ARROWHEAD_6
 10
9293.484861524666
 20
4207.666368681364
 30
0.0
 41
3.799999999999999
 42
3.799999999999999
 43
3.799999999999999
 50
180.0
  0
INSERT
  5
3AF
330
1BE
100
AcDbEntity
  8
Specialized_Lines
  6
Continuous
 62
     7
440
 16777216
370
    -2
100
AcDbBlockReference
  2
ARROWHEAD_6
 10
9381.527827410492
 20
4207.666368681364
 30
0.0
 41
3.799999999999999
 42
3.799999999999999
 43
3.799999999999999
  0
MTEXT
  5
3B0
330
1BE
100
AcDbEntity
  8
Specialized_Lines
  6
Continuous
 62
     7
440
 16777216
100
AcDbMText
 10
9336.410094141184
 20
4212.911593783683
 30
0.0
 40
5.0
 41
0.0
 46
0.0
 71
     5
 72
     1
  1
\A1;Approx 80mm overhang
  7
GENERATED_STYLE_1
 73
     1
 44
1.0
  0
POINT
  5
3B1
330
1BE
100
AcDbEntity
  8
Defpoints
  6
Continuous
 62
     0
440
 16777216
100
AcDbPoint
 10
9293.484861524666
 20
4172.486553593602
 30
0.0
  0
POINT
  5
3B2
330
1BE
100
AcDbEntity
  8
Defpoints
  6
Continuous
 62
     0
440
 16777216
100
AcDbPoint
 10
9381.527827410492
 20
4172.486553693344
 30
0.0
  0
POINT
  5
3B3
330
1BE
100
AcDbEntity
  8
Defpoints
  6
Continuous
 62
     0
440
 16777216
100
AcDbPoint
 10
9381.527827410492
 20
4207.666368681364
 30
0.0
  0
ENDBLK
  5
1C0
330
1BE
100
AcDbEntity
  8
0
100
AcDbBlockEnd
  0
BLOCK
  5
1CD
330
1CC
100
AcDbEntity
  8
0
100
AcDbBlockBegin
  2
ARROWHEAD_6
 70
     0
 10
0.0
 20
0.0
 30
0.0
  3
ARROWHEAD_6
  1

  0
LINE
  5
1CF
330
1CC
100
AcDbEntity
  8
0
  6
Continuous
 62
     0
370
     0
100
AcDbLine
 10
-0.5
 20
-0.5
 30
0.0
 11
0.5
 21
0.5
 31
0.0
  0
LINE
  5
1D0
330
1CC
100
AcDbEntity
  8
0
  6
Continuous
 62
     0
370
     0
100
AcDbLine
 10
0.0
 20
0.0
 30
0.0
 11
-1.0
 21
0.0
 31
0.0
  0
ENDBLK
  5
1CE
330
1CC
100
AcDbEntity
  8
0
100
AcDbBlockEnd
  0
BLOCK
  5
1D2
330
1D1
100
AcDbEntity
  8
0
100
AcDbBlockBegin
  2
*D4
 70
     1
 10
0.0
 20
0.0
 30
0.0
  3
*D4
  1

  0
LINE
  5
3BD
330
1D1
100
AcDbEntity
  8
Specialized_Lines
  6
Continuous
 62
     7
440
 16777216
370
    -2
100
AcDbLine
 10
9413.045587330861
 20
4142.937009534362
 30
0.0
 11
9421.60112160487
 21
4142.937009534362
 31
0.0
  0
LINE
  5
3BE
330
1D1
100
AcDbEntity
  8
Specialized_Lines
  6
Continuous
 62
     7
440
 16777216
370
    -2
100
AcDbLine
 10
9393.045587330879
 20
4172.486553693344
 30
0.0
 11
9421.60112160487
 21
4172.486553693344
 31
0.0
  0
LINE
  5
3BF
330
1D1
100
AcDbEntity
  8
Specialized_Lines
  6
Continuous
 62
     7
440
 16777216
370
    -2
100
AcDbLine
 10
9421.42112160487
 20
4146.737009534362
 30
0.0
 11
9421.42112160487
 21
4168.686553693343
 31
0.0
  0
INSERT
  5
3C0
330
1D1
100
AcDbEntity
  8
Specialized_Lines
  6
Continuous
 62
     7
440
 16777216
370
    -2
100
AcDbBlockReference
  2
ARROWHEAD_6
 10
9421.42112160487
 20
4142.937009534362
 30
0.0
 41
3.799999999999999
 42
3.799999999999999
 43
3.799999999999999
 50
270.0
  0
INSERT
  5
3C1
330
1D1
100
AcDbEntity
  8
Specialized_Lines
  6
Continuous
 62
     7
440
 16777216
370
    -2
100
AcDbBlockReference
  2
ARROWHEAD_6
 10
9421.42112160487
 20
4172.486553693344
 30
0.0
 41
3.799999999999999
 42
3.799999999999999
 43
3.799999999999999
 50
90.0
  0
MTEXT
  5
3C2
330
1D1
100
AcDbEntity
  8
Specialized_Lines
  6
Continuous
 62
     7
440
 16777216
100
AcDbMText
 10
9416.866551345661
 20
4157.711781613853
 30
0.0
 40
5.0
 41
0.0
 46
0.0
 71
     5
 72
     1
  1
\A1;30
  7
GENERATED_STYLE_1
 11
0.0000000000000001
 21
1.0
 31
0.0
 73
     1
 44
1.0
  0
POINT
  5
3C3
330
1D1
100
AcDbEntity
  8
Defpoints
  6
Continuous
 62
     0
440
 16777216
100
AcDbPoint
 10
9413.045587330861
 20
4142.937009534362
 30
0.0
  0
POINT
  5
3C4
330
1D1
100
AcDbEntity
  8
Defpoints
  6
Continuous
 62
     0
440
 16777216
100
AcDbPoint
 10
9393.045587330879
 20
4172.486553693344
 30
0.0
  0
POINT
  5
3C5
330
1D1
100
AcDbEntity
  8
Defpoints
  6
Continuous
 62
     0
440
 16777216
100
AcDbPoint
 10
9421.42112160487
 20
4172.486553693344
 30
0.0
  0
ENDBLK
  5
1D3
330
1D1
100
AcDbEntity
  8
0
100
AcDbBlockEnd
  0
BLOCK
  5
1E3
330
1E2
100
AcDbEntity
  8
0
100
AcDbBlockBegin
  2
ARROWHEAD_5
 70
     0
 10
0.0
 20
0.0
 30
0.0
  3
ARROWHEAD_5
  1

  0
SOLID
  5
1E5
330
1E2
100
AcDbEntity
  8
0
  6
Continuous
 62
     0
370
     0
100
AcDbTrace
 10
-1.0
 20
0.2679
 30
0.0
 11
0.0
 21
0.0
 31
0.0
 12
-1.0
 22
-0.2679
 32
0.0
 13
-1.0
 23
0.2679
 33
0.0
  0
LINE
  5
1E6
330
1E2
100
AcDbEntity
  8
0
  6
Continuous
 62
     0
370
     0
100
AcDbLine
 10
0.0
 20
0.0
 30
0.0
 11
-1.0
 21
0.0
 31
0.0
  0
ENDBLK
  5
1E4
330
1E2
100
AcDbEntity
  8
0
100
AcDbBlockEnd
  0
BLOCK
  5
1F8
330
1F7
100
AcDbEntity
  8
0
100
AcDbBlockBegin
  2
14A Wall _ Roof_ Flush Eaves_STORY_MARKER
 70
     0
 10
0.0
 20
0.0
 30
0.0
  3
14A Wall _ Roof_ Flush Eaves_STORY_MARKER
  1

  0
ENDBLK
  5
1F9
330
1F7
100
AcDbEntity
  8
0
100
AcDbBlockEnd
  0
ENDSEC
  0
SECTION
  2
ENTITIES
  0
HATCH
  5
3F
330
1F
100
AcDbEntity
  8
Specialized_Fills
  6
Continuous
 62
   254
420
 14671839
370
    13
100
AcDbHatch
 10
0.0
 20
0.0
 30
0.0
210
0.0
220
0.0
230
1.0
  2
SOLID
 70
     1
 71
     1
 91
        1
 92
        2
 72
     0
 73
     1
 93
        4
 10
9293.484861524666
 20
4172.486553593602
 10
9293.484861524666
 20
4127.486553593607
 10
9203.720213479616
 20
4127.48655369335
 10
9203.720213479616
 20
4172.486553693344
 97
        1
330
41
 75
     0
 76
     1
 98
        0
450
        0
451
        0
460
0.0
461
0.0
452
        1
462
0.0
453
        0
470

  0
LWPOLYLINE
  5
41
102
{ACAD_REACTORS
330
3F
102
}
330
1F
100
AcDbEntity
  8
Specialized_Fills
  6
Continuous
100
AcDbPolyline
 90
        4
 70
   129
 43
0.0
 10
9293.484861524666
 20
4172.486553593602
 10
9293.484861524666
 20
4127.486553593607
 10
9203.720213479616
 20
4127.48655369335
 10
9203.720213479616
 20
4172.486553693344
  0
HATCH
  5
42
330
1F
100
AcDbEntity
  8
Specialized_Fills
  6
Continuous
100
AcDbHatch
 10
0.0
 20
0.0
 30
0.0
210
0.0
220
0.0
230
1.0
  2
ANSI31
 70
     0
 71
     1
 91
        1
 92
        1
 93
        4
 72
     1
 10
9382.589367957104
 20
4157.868750248826
 11
9382.589367957104
 21
4164.854416953143
 72
     2
 10
9377.288537399245
 20
4172.785707811004
 40
9.539611065190696
 50
56.24345084474557
 51
126.4590271224791
 73
     0
 72
     1
 10
9371.619644631772
 20
4165.113170156096
 11
9371.619644631772
 21
4157.477030013569
 72
     2
 10
9377.362296773005
 20
4150.453732244375
 40
9.07219737274098
 50
230.7285925272652
 51
305.1811705390071
 73
     0
 97
        1
330
43
 75
     0
 76
     2
 52
0.0
 41
1.0
 77
     0
 78
     1
 53
45.0
 43
-0.9384594533676136
 44
-0.0682592855500843
 45
-0.4419417382415923
 46
0.4419417382415923
 79
     0
 98
        0
  0
LWPOLYLINE
  5
43
102
{ACAD_REACTORS
330
42
102
}
330
1F
100
AcDbEntity
  8
Specialized_Fills
  6
Continuous
100
AcDbPolyline
 90
        4
 70
   129
 43
0.0
 10
9382.589367957104
 20
4157.868750248826
 10
9382.589367957104
 20
4164.854416953143
 42
-0.316333235992027
 10
9371.619644631772
 20
4165.113170156096
 10
9371.619644631772
 20
4157.477030013569
 42
-0.3367925988523437
  0
HATCH
  5
44
330
1F
100
AcDbEntity
  8
Specialized_Fills
  6
Continuous
100
AcDbHatch
 10
0.0
 20
0.0
 30
0.0
210
0.0
220
0.0
230
1.0
  2
LINES___ANGLED
 70
     0
 71
     1
 91
        1
 92
        2
 72
     0
 73
     1
 93
        4
 10
9295.176546172173
 20
4116.881458748818
 10
9314.176546172179
 20
4116.881458748818
 10
9314.176546172179
 20
4166.88145874883
 10
9295.176546172173
 20
4166.88145874883
 97
        1
330
45
 75
     0
 76
     2
 52
0.0
 41
1.0
 77
     0
 78
     1
 53
44.99999999999999
 43
0.0
 44
0.0
 45
-1.838477563650065
 46
1.838477563650065
 79
     0
 98
        0
  0
LWPOLYLINE
  5
45
102
{ACAD_REACTORS
330
44
102
}
330
1F
100
AcDbEntity
  8
Specialized_Fills
  6
Continuous
100
AcDbPolyline
 90
        4
 70
   129
 43
0.0
 10
9295.176546172173
 20
4116.881458748818
 10
9314.176546172179
 20
4116.881458748818
 10
9314.176546172179
 20
4166.88145874883
 10
9295.176546172173
 20
4166.88145874883
  0
HATCH
  5
46
330
1F
100
AcDbEntity
  8
Specialized_Fills
  6
Continuous
 62
   254
420
 14671839
370
    13
100
AcDbHatch
 10
0.0
 20
0.0
 30
0.0
210
0.0
220
0.0
230
1.0
  2
SOLID
 70
     1
 71
     1
 91
        1
 92
        2
 72
     0
 73
     1
 93
        4
 10
9323.947047228818
 20
4292.075391602819
 10
9339.824370292838
 20
4324.22226577383
 10
9277.522073321884
 20
4354.993335190292
 10
9261.644750257865
 20
4322.846461019281
 97
        1
330
47
 75
     0
 76
     1
 98
        0
450
        0
451
        0
460
0.0
461
0.0
452
        1
462
0.0
453
        0
470

  0
LWPOLYLINE
  5
47
102
{ACAD_REACTORS
330
46
102
}
330
1F
100
AcDbEntity
  8
Specialized_Fills
  6
Continuous
100
AcDbPolyline
 90
        4
 70
   129
 43
0.0
 10
9323.947047228818
 20
4292.075391602819
 10
9339.824370292838
 20
4324.22226577383
 10
9277.522073321884
 20
4354.993335190292
 10
9261.644750257865
 20
4322.846461019281
  0
INSERT
  5
16E
330
1F
100
AcDbEntity
  8
Specialized_Fills
  6
Continuous
 62
    30
420
 16742400
370
    20
100
AcDbBlockReference
  2
Fill_1
 10
0.0
 20
0.0
 30
0.0
  0
HATCH
  5
16F
330
1F
100
AcDbEntity
  8
Specialized_Fills
  6
Continuous
100
AcDbHatch
 10
0.0
 20
0.0
 30
0.0
210
0.0
220
0.0
230
1.0
  2
WOODFACE
 70
     0
 71
     1
 91
        1
 92
        2
 72
     0
 73
     1
 93
        8
 10
9383.527827410471
 20
4142.937009534362
 10
9401.527827410474
 20
4142.937009534362
 10
9401.527827410474
 20
4290.650382949453
 10
9383.527827410471
 20
4290.650382949453
 10
9383.527827410471
 20
4157.937009534377
 10
9388.527827410495
 20
4157.937009534377
 10
9388.527827410495
 20
4152.937009534353
 10
9383.527827410471
 20
4152.937009534353
 97
        1
330
170
 75
     0
 76
     2
 52
0.0
 41
1.0
 77
     0
 78
    38
 53
0.0
 43
9392.527827410471
 44
4216.793696241908
 45
100.0
 46
100.0
 79
     2
 49
5.0
 49
-95.00000000000001
 53
90.0
 43
9432.527827410472
 44
4251.793696241907
 45
-100.0
 46
100.0
 79
     2
 49
10.0
 49
-90.00000000000001
 53
44.99999999999999
 43
9412.527827410471
 44
4241.793696241908
 45
0.0
 46
100.0000000019025
 79
     6
 49
7.070000000000001
 49
-21.21
 49
7.070000000000001
 49
-14.14
 49
49.5
 49
-42.43135622999999
 53
44.99999999999999
 43
9387.527827410471
 44
4211.793696241907
 45
0.0
 46
100.0000000019025
 79
     4
 49
7.071
 49
-14.142
 49
7.071
 49
-113.1373562
 53
44.99999999999999
 43
9422.527827410471
 44
4221.793696241908
 45
0.0
 46
100.0000000019025
 79
     2
 49
7.071
 49
-134.3503562
 53
44.99999999999999
 43
9432.527827410472
 44
4216.793696241908
 45
0.0
 46
100.0000000019025
 79
     2
 49
7.071
 49
-134.3503562
 53
44.99999999999999
 43
9417.527827410472
 44
4226.793696241908
 45
0.0
 46
100.0000000019025
 79
     2
 49
7.071
 49
-134.3503562
 53
44.99999999999999
 43
9412.527827410471
 44
4231.793696241908
 45
0.0
 46
100.0000000019025
 79
     2
 49
14.142
 49
-127.2793562
 53
44.99999999999999
 43
9437.527827410471
 44
4306.793696241908
 45
0.0
 46
100.0000000019025
 79
     2
 49
14.142
 49
-127.2793562
 53
44.99999999999999
 43
9402.527827410471
 44
4236.793696241908
 45
0.0
 46
100.0000000019025
 79
     2
 49
28.284
 49
-113.1373562
 53
44.99999999999999
 43
9397.52782741047
 44
4241.793696241908
 45
0.0
 46
100.0000000019025
 79
     2
 49
28.284
 49
-113.1373562
 53
44.99999999999999
 43
9462.527827410472
 44
4271.793696241908
 45
0.0
 46
100.0000000019025
 79
     2
 49
28.284
 49
-113.1373562
 53
44.99999999999999
 43
9392.527827410471
 44
4251.793696241907
 45
0.0
 46
100.0000000019025
 79
     2
 49
21.2132
 49
-120.2081562
 53
44.99999999999999
 43
9372.52782741047
 44
4266.793696241908
 45
0.0
 46
100.0000000019025
 79
     2
 49
21.2132
 49
-120.2081562
 53
44.99999999999999
 43
9382.527827410472
 44
4256.793696241908
 45
0.0
 46
100.0000000019025
 79
     2
 49
21.2132
 49
-120.2081562
 53
44.99999999999999
 43
9447.527827410471
 44
4286.793696241907
 45
0.0
 46
100.0000000019025
 79
     2
 49
35.35534
 49
-106.0660162
 53
44.99999999999999
 43
9437.527827410471
 44
4291.793696241908
 45
0.0
 46
100.0000000019025
 79
     2
 49
35.35534
 49
-106.0660162
 53
44.99999999999999
 43
9447.527827410471
 44
4266.793696241908
 45
0.0
 46
100.0000000019025
 79
     2
 49
49.49747460000001
 49
-91.92388150000001
 53
26.5650512
 43
9402.527827410471
 44
4226.793696241908
 45
100.0000000000093
 46
0.000000040006455
 79
     2
 49
11.180339
 49
-212.426458
 53
26.5650512
 43
9422.527827410471
 44
4256.793696241908
 45
100.0000000000093
 46
0.000000040006455
 79
     2
 49
11.180339
 49
-212.426458
 53
26.5650512
 43
9417.527827410472
 44
4246.793696241907
 45
100.0000000000093
 46
0.000000040006455
 79
     2
 49
11.180339
 49
-212.426458
 53
26.5650512
 43
9397.52782741047
 44
4216.793696241908
 45
100.0000000000093
 46
0.000000040006455
 79
     2
 49
22.36067999999999
 49
-201.2461177
 53
26.5650512
 43
9417.527827410472
 44
4261.793696241908
 45
100.0000000000093
 46
0.000000040006455
 79
     2
 49
33.5410196
 49
-190.0657781
 53
26.5650512
 43
9407.527827410472
 44
4266.793696241908
 45
100.0000000000093
 46
0.000000040006455
 79
     2
 49
44.72135950000001
 49
-178.8854382
 53
26.5650512
 43
9397.52782741047
 44
4271.793696241908
 45
100.0000000000093
 46
0.000000040006455
 79
     2
 49
44.72135950000001
 49
-178.8854382
 53
26.5650512
 43
9382.527827410472
 44
4301.793696241907
 45
100.0000000000093
 46
0.000000040006455
 79
     2
 49
44.72135950000001
 49
-178.8854382
 53
26.5650512
 43
9382.527827410472
 44
4291.793696241908
 45
100.0000000000093
 46
0.000000040006455
 79
     2
 49
55.90169999999999
 49
-167.7050977
 53
26.5650512
 43
9387.527827410471
 44
4281.793696241908
 45
100.0000000000093
 46
0.000000040006455
 79
     2
 49
55.90169999999999
 49
-167.7050977
 53
63.43494882000001
 43
9422.527827410471
 44
4241.793696241908
 45
0.0000000050998636
 46
100.0000000000093
 79
     2
 49
11.18033899999999
 49
-212.4264579999999
 53
63.43494882000001
 43
9407.527827410472
 44
4231.793696241908
 45
0.0000000050998636
 46
100.0000000000093
 79
     2
 49
11.18033899999999
 49
-212.4264579999999
 53
63.43494882000001
 43
9392.527827410471
 44
4216.793696241908
 45
0.0000000050998636
 46
100.0000000000093
 79
     2
 49
22.36067999999998
 49
-201.2461176999999
 53
63.43494882000001
 43
9422.527827410471
 44
4231.793696241908
 45
0.0000000050998636
 46
100.0000000000093
 79
     2
 49
22.36067999999998
 49
-201.2461176999999
 53
63.43494882000001
 43
9382.527827410472
 44
4211.793696241907
 45
0.0000000050998636
 46
100.0000000000093
 79
     2
 49
33.54101959999996
 49
-190.0657780999998
 53
63.43494882000001
 43
9372.52782741047
 44
4211.793696241907
 45
0.0000000050998636
 46
100.0000000000093
 79
     2
 49
44.72135949999997
 49
-178.8854381999998
 53
63.43494882000001
 43
9462.527827410472
 44
4216.793696241908
 45
0.0000000050998636
 46
100.0000000000093
 79
     2
 49
44.72135949999997
 49
-178.8854381999998
 53
63.43494882000001
 43
9427.52782741047
 44
4226.793696241908
 45
0.0000000050998636
 46
100.0000000000093
 79
     2
 49
44.72135949999997
 49
-178.8854381999998
 53
63.43494882000001
 43
9447.527827410471
 44
4216.793696241908
 45
0.0000000050998636
 46
100.0000000000093
 79
     2
 49
55.90169999999996
 49
-167.7050976999998
 53
63.43494882000001
 43
9437.527827410471
 44
4221.793696241908
 45
0.0000000050998636
 46
100.0000000000093
 79
     2
 49
55.90169999999996
 49
-167.7050976999998
 98
        0
  0
LWPOLYLINE
  5
170
102
{ACAD_REACTORS
330
16F
102
}
330
1F
100
AcDbEntity
  8
Specialized_Fills
  6
Continuous
100
AcDbPolyline
 90
        8
 70
   129
 43
0.0
 10
9383.527827410471
 20
4142.937009534362
 10
9401.527827410474
 20
4142.937009534362
 10
9401.527827410474
 20
4290.650382949453
 10
9383.527827410471
 20
4290.650382949453
 10
9383.527827410471
 20
4157.937009534377
 10
9388.527827410495
 20
4157.937009534377
 10
9388.527827410495
 20
4152.937009534353
 10
9383.527827410471
 20
4152.937009534353
  0
HATCH
  5
171
330
1F
100
AcDbEntity
  8
Specialized_Fills
  6
Continuous
 62
   254
420
 14671839
370
    13
100
AcDbHatch
 10
0.0
 20
0.0
 30
0.0
210
0.0
220
0.0
230
1.0
  2
SOLID
 70
     1
 71
     1
 91
        1
 92
        2
 72
     1
 73
     1
 93
       11
 10
9193.7202133796
 20
4006.765880097825
 42
0.0
 10
9203.720213379599
 20
4006.765880097825
 42
0.0
 10
9203.720213394706
 20
4031.796313854456
 42
-0.0447964665968842
 10
9203.658367168511
 20
4035.819446242856
 42
-0.0185425584244973
 10
9203.72021339814
 20
4037.486556137812
 42
0.0
 10
9203.720213423286
 20
4079.152339943653
 42
-0.0370977922903592
 10
9203.720213425297
 20
4082.486552556356
 42
0.0
 10
9203.720213450445
 20
4124.152338956085
 42
-0.0370978159946579
 10
9203.720213479616
 20
4127.486553693389
 42
0.0
 10
9203.720213479616
 20
4172.486553693344
 42
0.0
 10
9193.720213479615
 20
4172.486553693344
 42
0.0
 97
        1
330
172
 75
     0
 76
     1
 98
        0
450
        0
451
        0
460
0.0
461
0.0
452
        1
462
0.0
453
        0
470

  0
LWPOLYLINE
  5
172
102
{ACAD_REACTORS
330
171
102
}
330
1F
100
AcDbEntity
  8
Specialized_Fills
  6
Continuous
100
AcDbPolyline
 90
       11
 70
   129
 43
0.0
 10
9193.7202133796
 20
4006.765880097825
 10
9203.720213379599
 20
4006.765880097825
 10
9203.720213394706
 20
4031.796313854456
 42
-0.0447964665968842
 10
9203.658367168511
 20
4035.819446242856
 42
-0.0185425584244973
 10
9203.72021339814
 20
4037.486556137812
 10
9203.720213423286
 20
4079.152339943653
 42
-0.0370977922903592
 10
9203.720213425297
 20
4082.486552556356
 10
9203.720213450445
 20
4124.152338956085
 42
-0.0370978159946579
 10
9203.720213479616
 20
4127.486553693389
 10
9203.720213479616
 20
4172.486553693344
 10
9193.720213479615
 20
4172.486553693344
  0
HATCH
  5
173
330
1F
100
AcDbEntity
  8
Specialized_Fills
  6
Continuous
 62
   254
420
 14671839
370
    13
100
AcDbHatch
 10
0.0
 20
0.0
 30
0.0
210
0.0
220
0.0
230
1.0
  2
SOLID
 70
     1
 71
     1
 91
        1
 92
        2
 72
     0
 73
     1
 93
        4
 10
9193.720213479615
 20
4172.486553693344
 10
9183.367732311559
 20
4172.486553693344
 10
9183.367732311559
 20
4162.486553693353
 10
9193.72021347358
 20
4162.486553693353
 97
        1
330
174
 75
     0
 76
     1
 98
        0
450
        0
451
        0
460
0.0
461
0.0
452
        1
462
0.0
453
        0
470

  0
LWPOLYLINE
  5
174
102
{ACAD_REACTORS
330
173
102
}
330
1F
100
AcDbEntity
  8
Specialized_Fills
  6
Continuous
100
AcDbPolyline
 90
        4
 70
   129
 43
0.0
 10
9193.720213479615
 20
4172.486553693344
 10
9183.367732311559
 20
4172.486553693344
 10
9183.367732311559
 20
4162.486553693353
 10
9193.72021347358
 20
4162.486553693353
  0
HATCH
  5
175
330
1F
100
AcDbEntity
  8
Specialized_Fills
  6
Continuous
100
AcDbHatch
 10
0.0
 20
0.0
 30
0.0
210
0.0
220
0.0
230
1.0
  2
APDCONC
 70
     0
 71
     1
 91
        1
 92
        1
 93
        4
 72
     2
 10
9377.052088049662
 20
4171.616922244093
 40
8.368213162057609
 50
229.0469782395313
 51
310.9530217604687
 73
     1
 72
     1
 10
9382.53694971233
 20
4165.296852302467
 11
9382.53694971233
 21
4170.183090722722
 72
     2
 10
9377.052088049662
 20
4164.729418297379
 40
7.734743071462002
 50
44.83663196478882
 51
135.1633680352111
 73
     1
 72
     1
 10
9371.567226386996
 20
4170.183090722722
 11
9371.567226386996
 21
4165.296852302467
 97
        1
330
176
 75
     0
 76
     2
 52
0.0
 41
1.0
 77
     0
 78
     5
 53
0.0
 43
-0.9384594533676136
 44
-0.0682592855500843
 45
0.5
 46
0.5
 79
     2
 49
0.1
 49
-0.9000000000000001
 53
90.0
 43
-0.8384594533677045
 44
-0.0682592855500843
 45
-0.5
 46
0.5
 79
     2
 49
0.1
 49
-0.9000000000000001
 53
45.0
 43
-0.9384594533676136
 44
-0.0682592855500843
 45
0.0
 46
0.9999999997361818
 79
     2
 49
0.1414235625
 49
-0.5656854240000002
 53
7.600000000000001
 43
-0.6384594533674317
 44
-0.0682592855500843
 45
0.2147397874986048
 46
0.280867982627166
 79
     2
 49
0.0
 49
-0.4999999999999992
 53
352.4
 43
-0.6384594533674317
 44
-0.0682592855500843
 45
0.2808679826271661
 46
0.2147397874986046
 79
     2
 49
0.0
 49
-0.4999999999999992
 98
        0
  0
LWPOLYLINE
  5
176
102
{ACAD_REACTORS
330
175
102
}
330
1F
100
AcDbEntity
  8
Specialized_Fills
  6
Continuous
100
AcDbPolyline
 90
        4
 70
   129
 43
0.0
 10
9371.567226386996
 20
4165.296852302467
 42
0.3734174800382324
 10
9382.53694971233
 20
4165.296852302467
 10
9382.53694971233
 20
4170.183090722722
 42
0.4158848092096016
 10
9371.567226386996
 20
4170.183090722722
  0
LINE
  5
177
330
1F
100
AcDbEntity
  8
Specialized_Lines
  6
Continuous
100
AcDbLine
 10
9183.367732311555
 20
4360.122361103115
 30
0.0
 11
9381.527827410492
 21
4262.251201638407
 31
0.0
  0
LINE
  5
179
330
1F
100
AcDbEntity
  8
Specialized_Lines
  6
Continuous
100
AcDbLine
 10
9183.367732311559
 20
4162.486553693353
 30
0.0
 11
9193.72021347358
 21
4162.486553693353
 31
0.0
  0
LINE
  5
17A
330
1F
100
AcDbEntity
  8
Specialized_Lines
  6
Continuous
100
AcDbLine
 10
9183.367732311559
 20
4262.251201638407
 30
0.0
 11
9193.419685138309
 21
4262.251201638407
 31
0.0
  0
LINE
  5
17B
330
1F
100
AcDbEntity
  8
Specialized_Lines
  6
Continuous
100
AcDbLine
 10
9183.367732311559
 20
4172.486553693344
 30
0.0
 11
9381.527827410492
 21
4172.486553693344
 31
0.0
  0
LINE
  5
17D
330
1F
100
AcDbEntity
  8
Specialized_Lines
  6
DASHEDX2
100
AcDbLine
 10
9367.816100085848
 20
4006.756808372458
 30
0.0
 11
9367.816100085848
 21
4170.083238517327
 31
0.0
  0
LINE
  5
17E
330
1F
100
AcDbEntity
  8
Specialized_Lines
  6
Continuous
100
AcDbLine
 10
9293.484861524666
 20
4127.486553593607
 30
0.0
 11
9293.484861524666
 21
4006.765880097825
 31
0.0
  0
LINE
  5
17F
330
1F
100
AcDbEntity
  8
Specialized_Lines
  6
Continuous
100
AcDbLine
 10
9383.527827410471
 20
4152.937009534353
 30
0.0
 11
9383.527827410471
 21
4143.513803096337
 31
0.0
  0
LINE
  5
180
330
1F
100
AcDbEntity
  8
Specialized_Lines
  6
Continuous
100
AcDbLine
 10
9193.720213479615
 20
4172.486553693344
 30
0.0
 11
9193.7202133796
 21
4006.765880097825
 31
0.0
  0
LINE
  5
181
330
1F
100
AcDbEntity
  8
Specialized_Lines
  6
Continuous
100
AcDbLine
 10
9381.527827410492
 20
4262.251201638407
 30
0.0
 11
9381.527827410492
 21
4172.544302065886
 31
0.0
  0
LINE
  5
182
330
1F
100
AcDbEntity
  8
Specialized_Lines
  6
Continuous
100
AcDbLine
 10
9203.720213379599
 20
4053.784180833501
 30
0.0
 11
9203.720213379599
 21
4006.765880097825
 31
0.0
  0
LINE
  5
183
330
1F
100
AcDbEntity
  8
Specialized_Lines
  6
Continuous
100
AcDbLine
 10
9203.720213479616
 20
4172.486553693344
 30
0.0
 11
9203.720213379599
 21
4006.765880097825
 31
0.0
  0
LINE
  5
184
330
1F
100
AcDbEntity
  8
Specialized_Lines
  6
Continuous
100
AcDbLine
 10
9248.720213479602
 20
4127.486553593368
 30
0.0
 11
9203.720213279638
 21
4127.486553593368
 31
0.0
  0
LINE
  5
185
330
1F
100
AcDbEntity
  8
Specialized_Lines
  6
Continuous
100
AcDbLine
 10
9293.419685138308
 20
4262.251201638407
 30
0.0
 11
9381.527827410492
 21
4262.251201638407
 31
0.0
  0
LINE
  5
186
330
1F
100
AcDbEntity
  8
Specialized_Lines
  6
Continuous
100
AcDbLine
 10
9193.419685138309
 20
4293.131994711292
 30
0.0
 11
9293.419685138308
 21
4293.131994711292
 31
0.0
  0
LINE
  5
187
330
1F
100
AcDbEntity
  8
Specialized_Lines
  6
Continuous
100
AcDbLine
 10
9277.522073321883
 20
4354.993335190292
 30
0.0
 11
9339.824370292838
 21
4324.222265773829
 31
0.0
  0
LINE
  5
188
330
1F
100
AcDbEntity
  8
Specialized_Lines
  6
Continuous
100
AcDbLine
 10
9277.522073321883
 20
4354.99333519029
 30
0.0
 11
9261.644750257863
 21
4322.846461019281
 31
0.0
  0
LINE
  5
189
330
1F
100
AcDbEntity
  8
Specialized_Lines
  6
Continuous
100
AcDbLine
 10
9203.720213479616
 20
4172.486553593356
 30
0.0
 11
9293.72021347962
 21
4127.486553593368
 31
0.0
  0
LINE
  5
18A
330
1F
100
AcDbEntity
  8
Specialized_Lines
  6
Continuous
100
AcDbLine
 10
9193.419685138309
 20
4232.39939652042
 30
0.0
 11
9293.419685138308
 21
4232.39939652042
 31
0.0
  0
LINE
  5
18B
330
1F
100
AcDbEntity
  8
Specialized_Lines
  6
Continuous
100
AcDbLine
 10
9293.72021347962
 20
4172.486553693344
 30
0.0
 11
9203.720213479616
 21
4127.486553693357
 31
0.0
  0
LINE
  5
18C
330
1F
100
AcDbEntity
  8
Specialized_Lines
  6
Continuous
100
AcDbLine
 10
9261.644750257863
 20
4322.846461019281
 30
0.0
 11
9323.947047228818
 21
4292.07539160282
 31
0.0
  0
LINE
  5
18D
330
1F
100
AcDbEntity
  8
Specialized_Lines
  6
Continuous
100
AcDbLine
 10
9339.824370292836
 20
4324.222265773829
 30
0.0
 11
9323.947047228818
 21
4292.07539160282
 31
0.0
  0
LINE
  5
18E
330
1F
100
AcDbEntity
  8
Specialized_Lines
  6
Continuous
100
AcDbLine
 10
9183.367732311557
 20
4403.180026419555
 30
0.0
 11
9450.656008184816
 21
4271.50739870584
 31
0.0
  0
LINE
  5
18F
330
1F
100
AcDbEntity
  8
Specialized_Lines
  6
Continuous
100
AcDbLine
 10
9183.367732311557
 20
4439.720919652361
 30
0.0
 11
9465.164405011694
 21
4300.882602909724
 31
0.0
  0
LINE
  5
190
330
1F
100
AcDbEntity
  8
Specialized_Lines
  6
Continuous
100
AcDbLine
 10
9450.656008184816
 20
4271.50739870584
 30
0.0
 11
9465.164405011694
 21
4300.882602909724
 31
0.0
  0
LINE
  5
191
330
1F
100
AcDbEntity
  8
Specialized_Lines
  6
Continuous
100
AcDbLine
 10
9411.527827410491
 20
4275.21188794352
 30
0.0
 11
9411.527827410491
 21
4205.211887943508
 31
0.0
  0
LINE
  5
192
330
1F
100
AcDbEntity
  8
Specialized_Lines
  6
Continuous
100
AcDbLine
 10
9421.527827410491
 20
4195.211887943507
 30
0.0
 11
9525.981453752908
 21
4195.211887943507
 31
0.0
  0
LINE
  5
193
330
1F
100
AcDbEntity
  8
Specialized_Lines
  6
Continuous
100
AcDbLine
 10
9535.981453752908
 20
4205.211887943508
 30
0.0
 11
9535.981453752908
 21
4285.996328124404
 31
0.0
  0
LWPOLYLINE
  5
194
330
1F
100
AcDbEntity
  8
Specialized_Lines
  6
DASHEDX2
100
AcDbPolyline
 90
        2
 70
   128
 43
0.0
 10
9294.324694463231
 20
4006.765880097825
 10
9294.324694463231
 20
4160.905301489131
  0
LWPOLYLINE
  5
195
330
1F
100
AcDbEntity
  8
Specialized_Lines
  6
Continuous
100
AcDbPolyline
 90
        4
 70
   129
 43
0.0
 10
9365.176546172175
 20
4171.460078384481
 10
9315.176546172185
 20
4171.460078384481
 10
9315.176546172185
 20
4006.765880097825
 10
9365.176546172175
 20
4006.765880097825
  0
LWPOLYLINE
  5
196
330
1F
100
AcDbEntity
  8
Specialized_Lines
  6
Continuous
100
AcDbPolyline
 90
        2
 70
   128
 43
0.0
 10
9323.947047228818
 20
4292.07539160282
 10
9277.522073321883
 20
4354.993335190292
  0
LWPOLYLINE
  5
197
330
1F
100
AcDbEntity
  8
Specialized_Lines
  6
Continuous
100
AcDbPolyline
 90
        2
 70
   128
 43
0.0
 10
9261.644750257863
 20
4322.846461019281
 10
9339.824370292838
 20
4324.222265773829
  0
LWPOLYLINE
  5
198
330
1F
100
AcDbEntity
  8
Specialized_Lines
  6
Continuous
100
AcDbPolyline
 90
        8
 70
   129
 43
0.0
 10
9383.527827410471
 20
4142.937009534362
 10
9401.527827410474
 20
4142.937009534362
 10
9401.527827410474
 20
4290.650382949453
 10
9383.527827410471
 20
4290.650382949453
 10
9383.527827410471
 20
4157.937009534377
 10
9388.527827410495
 20
4157.937009534377
 10
9388.527827410495
 20
4152.937009534353
 10
9383.527827410471
 20
4152.937009534353
  0
LWPOLYLINE
  5
199
330
1F
100
AcDbEntity
  8
Specialized_Lines
  6
Continuous
100
AcDbPolyline
 90
        2
 70
   128
 43
0.0
 10
9548.754640581377
 20
4295.604108032897
 42
2.99303481963377
 10
9541.527827410488
 20
4305.211887943521
  0
LWPOLYLINE
  5
19A
330
1F
100
AcDbEntity
  8
Specialized_Lines
  6
Continuous
100
AcDbPolyline
 90
        4
 70
   129
 43
0.0
 10
9295.176546172173
 20
4116.881458748818
 10
9314.176546172179
 20
4116.881458748818
 10
9314.176546172179
 20
4166.88145874883
 10
9295.176546172173
 20
4166.88145874883
  0
LWPOLYLINE
  5
19B
330
1F
100
AcDbEntity
  8
Specialized_Lines
  6
Continuous
100
AcDbPolyline
 90
        4
 70
   129
 43
0.0
 10
9203.720213479616
 20
4172.486553593356
 10
9293.72021347962
 20
4172.486553593356
 10
9293.72021347962
 20
4127.486553593368
 10
9203.720213479616
 20
4127.486553593368
  0
LWPOLYLINE
  5
19C
330
1F
100
AcDbEntity
  8
Specialized_Lines
  6
Continuous
100
AcDbPolyline
 90
        2
 70
   128
 43
0.0
 10
9293.419685138308
 20
4232.39939652042
 10
9293.419685138308
 20
4293.131994711292
  0
LWPOLYLINE
  5
19D
330
1F
100
AcDbEntity
  8
Specialized_Lines
  6
Continuous
100
AcDbPolyline
 90
        2
 70
   128
 43
0.0
 10
9193.419685138309
 20
4232.39939652042
 10
9193.419685138309
 20
4293.131994711292
  0
LWPOLYLINE
  5
19F
330
1F
100
AcDbEntity
  8
Specialized_Fills
  6
DASHEDX2
 62
   253
420
 10461087
370
    20
100
AcDbPolyline
 90
       10
 70
   128
 43
0.0
 10
9204.927902749325
 20
4035.863290192881
 42
-0.650292287080905
 10
9239.65836757061
 20
4053.819446344496
 10
9257.658367511005
 20
4040.319446265101
 42
1.958526248067233
 10
9257.658367511005
 20
4076.319446265102
 10
9239.658367532427
 20
4062.819446236463
 42
-1.94495401580282
 10
9239.658367532427
 20
4098.819446236462
 10
9257.658367472821
 20
4085.319446157067
 42
1.93420930350276
 10
9257.658367472821
 20
4121.319446157067
 10
9239.658367494243
 20
4107.819446128429
 42
-0.6729059924362284
 10
9204.816787938904
 20
4127.486553593368
  0
LWPOLYLINE
  5
1A0
330
1F
100
AcDbEntity
  8
Specialized_Fills
  6
DASHEDX2
 62
   253
420
 10461087
370
    20
100
AcDbPolyline
 90
        4
 70
   128
 43
0.0
 10
9291.960309077447
 20
4006.765880097825
 42
0.726653791059138
 10
9257.596521161719
 20
4029.652338706584
 10
9239.596521183141
 20
4016.152338677946
 42
-0.677729115377132
 10
9204.930561116086
 20
4035.819446242866
  0
LWPOLYLINE
  5
1A1
330
1F
100
AcDbEntity
  8
Specialized_Fills
  6
DASHEDX2
 62
   253
420
 10461087
370
    20
100
AcDbPolyline
 90
        2
 70
   128
 43
0.0
 10
9212.096051053588
 20
4006.765880097826
 42
-0.3411583879855176
 10
9239.596521221326
 20
4007.152338785979
  0
LWPOLYLINE
  5
1A5
330
1F
100
AcDbEntity
  8
0
  6
Continuous
100
AcDbPolyline
 90
        6
 70
   128
 43
0.0
 10
9385.970346000904
 20
4006.765880097825
 10
9254.482663762457
 20
4006.765880097825
 10
9252.482663762462
 20
4012.260834936733
 10
9248.482663762457
 20
4001.270925258915
 10
9246.482663762462
 20
4006.765880097825
 10
9187.561537348464
 20
4006.765880097825
  0
LWPOLYLINE
  5
1A6
330
1F
100
AcDbEntity
  8
0
  6
Continuous
100
AcDbPolyline
 90
        6
 70
   128
 43
0.0
 10
9183.367732311559
 20
4154.420244882768
 10
9183.367732311559
 20
4207.712736234628
 10
9188.862687150468
 20
4209.712736234623
 10
9177.87277747265
 20
4213.712736234628
 10
9183.367732311559
 20
4215.712736234624
 10
9183.367732311559
 20
4456.547997216992
  0
ARC
  5
1A7
330
1F
100
AcDbEntity
  8
Specialized_Lines
  6
Continuous
100
AcDbCircle
 10
9545.981453752899
 20
4285.996328124404
 30
0.0
 40
9.999999999999786
100
AcDbArc
 50
73.89975969539377
 51
180.0
  0
CIRCLE
  5
1A8
330
1F
100
AcDbEntity
  8
Specialized_Lines
  6
Continuous
100
AcDbCircle
 10
9202.813904000795
 20
4240.12583963406
 30
0.0
 40
1.999999999999964
  0
CIRCLE
  5
1A9
330
1F
100
AcDbEntity
  8
Specialized_Lines
  6
Continuous
100
AcDbCircle
 10
9202.813904000795
 20
4284.376563642753
 30
0.0
 40
1.999999999999964
  0
CIRCLE
  5
1AA
330
1F
100
AcDbEntity
  8
Specialized_Lines
  6
Continuous
100
AcDbCircle
 10
9285.045649016806
 20
4284.376563642753
 30
0.0
 40
1.999999999999964
  0
CIRCLE
  5
1AB
330
1F
100
AcDbEntity
  8
Specialized_Lines
  6
Continuous
100
AcDbCircle
 10
9244.09030045941
 20
4284.376563642753
 30
0.0
 40
1.999999999999964
  0
CIRCLE
  5
1AC
330
1F
100
AcDbEntity
  8
Specialized_Lines
  6
Continuous
100
AcDbCircle
 10
9224.067685609126
 20
4284.376563642753
 30
0.0
 40
1.999999999999964
  0
CIRCLE
  5
1AD
330
1F
100
AcDbEntity
  8
Specialized_Lines
  6
Continuous
100
AcDbCircle
 10
9265.478093594941
 20
4284.376563642753
 30
0.0
 40
1.999999999999964
  0
CIRCLE
  5
1AE
330
1F
100
AcDbEntity
  8
Specialized_Lines
  6
Continuous
100
AcDbCircle
 10
9202.813904000795
 20
4273.939362530891
 30
0.0
 40
1.999999999999964
  0
CIRCLE
  5
1AF
330
1F
100
AcDbEntity
  8
Specialized_Lines
  6
Continuous
100
AcDbCircle
 10
9285.045649016806
 20
4273.939362530891
 30
0.0
 40
1.999999999999964
  0
CIRCLE
  5
1B0
330
1F
100
AcDbEntity
  8
Specialized_Lines
  6
Continuous
100
AcDbCircle
 10
9244.09030045941
 20
4273.939362530891
 30
0.0
 40
1.999999999999964
  0
CIRCLE
  5
1B1
330
1F
100
AcDbEntity
  8
Specialized_Lines
  6
Continuous
100
AcDbCircle
 10
9224.067685609126
 20
4273.939362530891
 30
0.0
 40
1.999999999999964
  0
CIRCLE
  5
1B2
330
1F
100
AcDbEntity
  8
Specialized_Lines
  6
Continuous
100
AcDbCircle
 10
9265.478093594941
 20
4273.939362530891
 30
0.0
 40
1.999999999999964
  0
CIRCLE
  5
1B3
330
1F
100
AcDbEntity
  8
Specialized_Lines
  6
Continuous
100
AcDbCircle
 10
9285.045649016806
 20
4240.12583963406
 30
0.0
 40
1.999999999999964
  0
CIRCLE
  5
1B4
330
1F
100
AcDbEntity
  8
Specialized_Lines
  6
Continuous
100
AcDbCircle
 10
9244.09030045941
 20
4240.12583963406
 30
0.0
 40
1.999999999999964
  0
CIRCLE
  5
1B5
330
1F
100
AcDbEntity
  8
Specialized_Lines
  6
Continuous
100
AcDbCircle
 10
9224.067685609126
 20
4240.12583963406
 30
0.0
 40
1.999999999999964
  0
CIRCLE
  5
1B6
330
1F
100
AcDbEntity
  8
Specialized_Lines
  6
Continuous
100
AcDbCircle
 10
9265.478093594941
 20
4240.12583963406
 30
0.0
 40
1.999999999999964
  0
CIRCLE
  5
1B7
330
1F
100
AcDbEntity
  8
Specialized_Lines
  6
Continuous
100
AcDbCircle
 10
9202.813904000795
 20
4250.563040745922
 30
0.0
 40
1.999999999999964
  0
CIRCLE
  5
1B8
330
1F
100
AcDbEntity
  8
Specialized_Lines
  6
Continuous
100
AcDbCircle
 10
9285.045649016806
 20
4250.563040745922
 30
0.0
 40
1.999999999999964
  0
CIRCLE
  5
1B9
330
1F
100
AcDbEntity
  8
Specialized_Lines
  6
Continuous
100
AcDbCircle
 10
9244.09030045941
 20
4250.563040745922
 30
0.0
 40
1.999999999999964
  0
CIRCLE
  5
1BA
330
1F
100
AcDbEntity
  8
Specialized_Lines
  6
Continuous
100
AcDbCircle
 10
9224.067685609126
 20
4250.563040745922
 30
0.0
 40
1.999999999999964
  0
CIRCLE
  5
1BB
330
1F
100
AcDbEntity
  8
Specialized_Lines
  6
Continuous
100
AcDbCircle
 10
9265.478093594941
 20
4250.563040745922
 30
0.0
 40
1.999999999999964
  0
ARC
  5
1BC
330
1F
100
AcDbEntity
  8
Specialized_Lines
  6
Continuous
100
AcDbCircle
 10
9421.527827410489
 20
4205.211887943508
 30
0.0
 40
9.99999999999801
100
AcDbArc
 50
180.0
 51
270.0
  0
ARC
  5
1BD
330
1F
100
AcDbEntity
  8
Specialized_Lines
  6
Continuous
100
AcDbCircle
 10
9525.981453752908
 20
4205.211887943508
 30
0.0
 40
9.999999999999786
100
AcDbArc
 50
270.0
 51
0.0
  0
DIMENSION
  5
1CA
330
1F
100
AcDbEntity
  8
Specialized_Lines
  6
Continuous
100
AcDbDimension
280
     0
  2
*D2
 10
9381.527827410492
 20
4207.666368681364
 30
0.0
 11
9336.410094141184
 21
4207.666368681364
 31
0.0
 70
   160
  1
Approx 80mm overhang
 71
     5
 42
88.04296588582474
 73
     0
 74
     0
 75
     0
  3
GENERATED_STYLE__1
100
AcDbAlignedDimension
 13
9293.484861524666
 23
4172.486553593602
 33
0.0
 14
9381.527827410492
 24
4172.486553693344
 34
0.0
100
AcDbRotatedDimension
1001
ACAD
1000
DSTYLE
1002
{
1070
   147
1040
2.0
1002
}
  0
DIMENSION
  5
1DC
330
1F
100
AcDbEntity
  8
Specialized_Lines
  6
Continuous
100
AcDbDimension
280
     0
  2
*D4
 10
9421.42112160487
 20
4172.486553693344
 30
0.0
 11
9416.866551345661
 21
4157.711781613853
 31
0.0
 70
    32
  1
<>
 71
     5
 42
29.54954415898192
 73
     0
 74
     0
 75
     0
  3
GENERATED_STYLE__2
100
AcDbAlignedDimension
 13
9413.045587330861
 23
4142.937009534362
 33
0.0
 14
9393.045587330879
 24
4172.486553693344
 34
0.0
 50
90.0
100
AcDbRotatedDimension
1001
ACAD
1000
DSTYLE
1002
{
1070
   147
1040
2.0
1002
}
  0
MTEXT
  5
1DE
102
{ACAD_REACTORS
330
1E0
102
}
330
1F
100
AcDbEntity
  8
Specialized_Text
  6
Continuous
100
AcDbMText
 10
9429.223589188353
 20
4183.508354778946
 30
0.0
 40
5.5
 41
122.8581711036063
 46
12.75121089548501
 71
     4
 72
     1
  1
{ensure plaster and mesh is applied up behind selected barge board}
  7
GENERATED_STYLE_1
 73
     1
 44
1.0
  0
LEADER
  5
1E0
330
1F
100
AcDbEntity
  8
Specialized_Text
  6
Continuous
 62
   251
420
  6250335
370
    13
100
AcDbLeader
  3
GENERATED_STYLE__3
 73
     0
 40
16.27989995452478
 41
118.325034106412
 76
     3
 10
9369.714502300933
 20
4171.223180161175
 30
0.0
 10
9378.443670430929
 20
4183.510632612766
 30
0.0
 10
9429.133589188353
 20
4183.508354778946
 30
0.0
340
1DE
  0
MTEXT
  5
1E7
102
{ACAD_REACTORS
330
1E8
102
}
330
1F
100
AcDbEntity
  8
Specialized_Text
  6
Continuous
100
AcDbMText
 10
9411.845191554803
 20
4094.884707846926
 30
0.0
 40
5.5
 41
140.489126618239
 46
34.83627658934687
 71
     4
 72
     1
  1
{continuous non-ventilated horizontal 45mm x 20mm EPS batten to close off cavity from roof space}
  7
GENERATED_STYLE_1
 73
     1
 44
1.0
  0
LEADER
  5
1E8
330
1F
100
AcDbEntity
  8
Specialized_Text
  6
Continuous
 62
   251
420
  6250335
370
    13
100
AcDbLeader
  3
GENERATED_STYLE__3
 73
     0
 40
25.63415188722147
 41
131.2421555252387
 76
     3
 10
9303.590255819392
 20
4121.378330184471
 30
0.0
 10
9303.590255819392
 20
4094.872606387178
 30
0.0
 10
9411.755191554803
 20
4094.884707846926
 30
0.0
340
1E7
  0
MTEXT
  5
1E9
102
{ACAD_REACTORS
330
1EA
102
}
330
1F
100
AcDbEntity
  8
Specialized_Text
  6
Continuous
100
AcDbMText
 10
9411.845191554803
 20
4047.911992840145
 30
0.0
 40
5.5
 41
138.0946634586694
 46
16.31531096026399
 71
     4
 72
     1
  1
{breather type building wrap as  installed by the builder}
  7
GENERATED_STYLE_1
 73
     1
 44
1.0
  0
LEADER
  5
1EA
330
1F
100
AcDbEntity
  8
Specialized_Text
  6
Continuous
 62
   251
420
  6250335
370
    13
100
AcDbLeader
  3
GENERATED_STYLE__3
 73
     0
 40
16.27989995452478
 41
134.3410641200545
 76
     2
 10
9294.324694463231
 20
4048.597774621762
 30
0.0
 10
9411.755191554803
 20
4047.911992840145
 30
0.0
340
1E9
  0
MTEXT
  5
1EB
102
{ACAD_REACTORS
330
1EC
102
}
330
1F
100
AcDbEntity
  8
Specialized_Text
  6
Continuous
100
AcDbMText
 10
9411.845191554803
 20
4028.691027067874
 30
0.0
 40
5.5
 41
137.3873848443986
 46
7.11937270143947
 71
     4
 72
     1
  1
{20mm cavity}
  7
GENERATED_STYLE_1
 73
     1
 44
1.0
  0
LEADER
  5
1EC
330
1F
100
AcDbEntity
  8
Specialized_Text
  6
Continuous
 62
   251
420
  6250335
370
    13
100
AcDbLeader
  3
GENERATED_STYLE__3
 73
     0
 40
7.139495225102319
 41
42.82571623465211
 76
     2
 10
9305.039600094136
 20
4029.387327612398
 30
0.0
 10
9411.755191554803
 20
4028.691027067874
 30
0.0
340
1EB
  0
MTEXT
  5
1ED
102
{ACAD_REACTORS
330
1EE
102
}
330
1F
100
AcDbEntity
  8
Specialized_Text
  6
Continuous
100
AcDbMText
 10
9411.845191554803
 20
4014.545199300232
 30
0.0
 40
5.5
 41
139.2808580142996
 46
14.80851054689339
 71
     4
 72
     1
  1
{cavity insulation minimum R=0.9}
  7
GENERATED_STYLE_1
 73
     1
 44
1.0
  0
LEADER
  5
1EE
330
1F
100
AcDbEntity
  8
Specialized_Text
  6
Continuous
 62
   251
420
  6250335
370
    13
100
AcDbLeader
  3
GENERATED_STYLE__3
 73
     0
 40
7.139495225102319
 41
109.756139154161
 76
     2
 10
9283.497279236442
 20
4015.236974744685
 30
0.0
 10
9411.755191554803
 20
4014.545199300232
 30
0.0
340
1ED
  0
MTEXT
  5
1EF
102
{ACAD_REACTORS
330
1F0
102
}
330
1F
100
AcDbEntity
  8
Specialized_Text
  6
Continuous
100
AcDbMText
 10
9429.223589188353
 20
4372.460267583417
 30
0.0
 40
5.5
 41
102.8838766167723
 46
0.0
 71
     4
 72
     1
  1
{selected roofing }
  7
GENERATED_STYLE_1
 73
     1
 44
1.0
  0
LEADER
  5
1F0
330
1F
100
AcDbEntity
  8
Specialized_Text
  6
Continuous
 62
   251
420
  6250335
370
    13
100
AcDbLeader
  3
GENERATED_STYLE__3
 73
     0
 40
7.207025920873125
 41
53.51057298772169
 76
     2
 10
9272.061006124602
 20
4373.232770815683
 30
0.0
 10
9429.133589188353
 20
4372.460267583417
 30
0.0
340
1EF
  0
MTEXT
  5
1F1
102
{ACAD_REACTORS
330
1F2
102
}
330
1F
100
AcDbEntity
  8
Specialized_Text
  6
Continuous
100
AcDbMText
 10
9411.845191554803
 20
4121.185685922077
 30
0.0
 40
5.5
 41
140.7130371863645
 46
25.54960764882287
 71
     4
 72
     1
  1
{8-10mm MS sealant and PEF backing rod supplied and installed by others}
  7
GENERATED_STYLE_1
 73
     1
 44
1.0
  0
LEADER
  5
1F2
330
1F
100
AcDbEntity
  8
Specialized_Text
  6
Continuous
 62
   251
420
  6250335
370
    13
100
AcDbLeader
  3
GENERATED_STYLE__3
 73
     0
 40
16.37369258753979
 41
128.5784447476125
 76
     3
 10
9377.977001509778
 20
4157.000197432759
 30
0.0
 10
9377.977001509778
 20
4121.181061724769
 30
0.0
 10
9411.755191554803
 20
4121.185685922077
 30
0.0
340
1F1
  0
MTEXT
  5
1F3
102
{ACAD_REACTORS
330
1F4
102
}
330
1F
100
AcDbEntity
  8
Specialized_Text
  6
Continuous
100
AcDbMText
 10
9429.223589188353
 20
4139.23386984211
 30
0.0
 40
5.5
 41
102.8838766167723
 46
0.0
 71
     4
 72
     1
  1
{6 x 6mm weather groove}
  7
GENERATED_STYLE_1
 73
     1
 44
1.0
  0
LEADER
  5
1F4
330
1F
100
AcDbEntity
  8
Specialized_Text
  6
Continuous
 62
   251
420
  6250335
370
    13
100
AcDbLeader
  3
GENERATED_STYLE__3
 73
     0
 40
7.139495225102319
 41
83.9331514324693
 76
     3
 10
9388.527827410495
 20
4155.437009534365
 30
0.0
 10
9404.548668429322
 20
4139.23386984211
 30
0.0
 10
9429.133589188353
 20
4139.23386984211
 30
0.0
340
1F3
  0
MTEXT
  5
1F5
102
{ACAD_REACTORS
330
1F6
102
}
330
1F
100
AcDbEntity
  8
Specialized_Text
  6
Continuous
100
AcDbMText
 10
9411.845191554803
 20
4068.240752545498
 30
0.0
 40
5.5
 41
138.3958215411361
 46
25.60844213060758
 71
     4
 72
     1
  1
50mm EPS or {\C30;\c30975;75mm Neopor® EPS}
  7
GENERATED_STYLE_1
 73
     1
 44
1.0
  0
LEADER
  5
1F6
330
1F
100
AcDbEntity
  8
Specialized_Text
  6
Continuous
 62
   251
420
  6250335
370
    13
100
AcDbLeader
  3
GENERATED_STYLE__3
 73
     0
 40
7.124488403819918
 41
121.0900409276944
 76
     2
 10
9347.872348370861
 20
4068.79660997093
 30
0.0
 10
9411.755191554803
 20
4068.240752545498
 30
0.0
340
1F5
  0
LINE
  5
263
330
1F
100
AcDbEntity
  8
Viewport
 62
     7
420
 16777215
100
AcDbLine
 10
9553.439176878946
 20
4473.029259982932
 30
0.0
 11
9553.439176878946
 21
3932.979644344135
 31
0.0
  0
LINE
  5
264
330
1F
100
AcDbEntity
  8
Viewport
 62
     7
420
 16777215
100
AcDbLine
 10
9553.439176878946
 20
3932.979644344135
 30
0.0
 11
9180.297449792963
 21
3932.979644344135
 31
0.0
  0
MTEXT
  5
267
330
1F
100
AcDbEntity
  8
Specialized_Lines
 62
    30
420
 16742400
100
AcDbMText
 10
9258.59381458344
 20
3974.312511055846
 30
0.0
 40
7.0
 41
63.23088711380842
 46
0.0
 71
     1
 72
     5
  1
CAVITECLAD
  7
GENERATED_STYLE_2
 73
     1
 44
1.0
1001
ACAD
1000
ACAD_MTEXT_COLUMN_INFO_BEGIN
1070
    75
1070
     2
1070
    79
1070
     0
1070
    76
1070
     1
1070
    78
1070
     0
1070
    48
1040
63.23088711380842
1070
    49
1040
12.5
1070
    50
1070
     1
1040
0.0
1000
ACAD_MTEXT_COLUMN_INFO_END
  0
LINE
  5
268
330
1F
100
AcDbEntity
  8
Viewport
 62
     7
420
 16777215
100
AcDbLine
 10
9180.297449792963
 20
3932.979644344135
 30
0.0
 11
9180.297449792963
 21
4473.029259982932
 31
0.0
  0
LINE
  5
269
330
1F
100
AcDbEntity
  8
Viewport
 62
     7
420
 16777215
100
AcDbLine
 10
9553.439176878946
 20
4473.029259982932
 30
0.0
 11
9180.297449792963
 21
4473.029259982932
 31
0.0
  0
MTEXT
  5
26A
330
1F
100
AcDbEntity
  8
Specialized_Lines
100
AcDbMText
 10
9257.126849597892
 20
3989.907798035016
 30
0.0
 40
10.0
 41
246.5994352110938
 46
0.0
 71
     1
 72
     5
  1
{\fArial|b1|i0|c0|p34;Wall / Roof: Flush Eaves}
 73
     1
 44
1.0
1001
ACAD
1000
ACAD_MTEXT_COLUMN_INFO_BEGIN
1070
    75
1070
     2
1070
    79
1070
     0
1070
    76
1070
     1
1070
    78
1070
     0
1070
    48
1040
246.5994352110938
1070
    49
1040
12.5
1070
    50
1070
     1
1040
0.0
1000
ACAD_MTEXT_COLUMN_INFO_END
  0
MTEXT
  5
26B
330
1F
100
AcDbEntity
  8
Specialized_Lines
 62
    30
420
 16742400
100
AcDbMText
 10
9228.341994116524
 20
3970.364826515362
 30
0.0
 40
4.0
 41
34.37092666967328
 46
0.0
 71
     5
 72
     5
  1
SCALE: 1:2
  7
GENERATED_STYLE_2
 73
     1
 44
1.0
1001
ACAD
1000
ACAD_MTEXT_COLUMN_INFO_BEGIN
1070
    75
1070
     2
1070
    79
1070
     0
1070
    76
1070
     1
1070
    78
1070
     0
1070
    48
1040
34.37092666967328
1070
    49
1040
12.5
1070
    50
1070
     1
1040
0.0
1000
ACAD_MTEXT_COLUMN_INFO_END
  0
HATCH
  5
26C
330
1F
100
AcDbEntity
  8
0
 62
    30
420
 16742400
370
     5
100
AcDbHatch
 10
0.0
 20
0.0
 30
0.0
210
0.0
220
0.0
230
1.0
  2
SOLID
 70
     1
 71
     0
 91
        1
 92
        1
 93
        4
 72
     1
 10
9251.495979498038
 20
3975.387786015753
 11
9251.495979498038
 21
3995.387786015753
 72
     1
 10
9251.495979498038
 20
3995.387786015753
 11
9206.495979498038
 21
3995.387786015753
 72
     1
 10
9206.495979498038
 20
3995.387786015753
 11
9206.495979498038
 21
3975.387786015753
 72
     1
 10
9206.495979498038
 20
3975.387786015753
 11
9251.495979498038
 21
3975.387786015753
 97
        0
 75
     1
 76
     1
 98
        1
 10
9236.911152687568
 20
3981.521466518877
450
        0
451
        0
460
0.0
461
0.0
452
        0
462
1.0
453
        2
463
0.0
 63
     5
421
      255
463
1.0
 63
     2
421
 16776960
470
LINEAR
1001
GradientColor1ACI
1070
     5
1001
GradientColor2ACI
1070
     2
1001
ACAD
1010
0.0
1020
0.0
1030
0.0
  0
LWPOLYLINE
  5
26D
330
1F
100
AcDbEntity
  8
0
370
     5
100
AcDbPolyline
 90
        5
 70
     0
 43
0.0
 10
9206.495979498038
 20
3995.387786015753
 10
9206.495979498038
 20
3975.387786015753
 10
9251.495979498038
 20
3975.387786015753
 10
9251.495979498038
 20
3995.387786015753
 10
9206.495979498038
 20
3995.387786015753
  0
MTEXT
  5
26E
330
1F
100
AcDbEntity
  8
Specialized_Lines
100
AcDbMText
 10
9229.200794586926
 20
3985.192941369365
 30
0.0
 40
10.0
 41
90.34063603881987
 46
0.0
 71
     5
 72
     5
  1
{\fArial|b1|i0|c0|p34;14A}
 73
     1
 44
1.0
1001
ACAD
1000
ACAD_MTEXT_COLUMN_INFO_BEGIN
1070
    75
1070
     2
1070
    79
1070
     0
1070
    76
1070
     1
1070
    78
1070
     0
1070
    48
1040
90.34063603881987
1070
    49
1040
12.5
1070
    50
1070
     1
1040
0.0
1000
ACAD_MTEXT_COLUMN_INFO_END
  0
LWPOLYLINE
  5
26F
330
1F
100
AcDbEntity
  8
0
370
     5
100
AcDbPolyline
 90
        4
 70
     0
 43
0.0
 10
9206.495979498038
 20
3975.387786015753
 10
9206.495979498038
 20
3965.387786015753
 10
9251.495979498038
 20
3965.387786015753
 10
9251.495979498038
 20
3975.387786015753
  0
HATCH
  5
377
330
1F
100
AcDbEntity
  8
0
 62
    30
420
 16742400
100
AcDbHatch
 10
0.0
 20
0.0
 30
0.0
210
0.0
220
0.0
230
1.0
  2
SOLID
 70
     1
 71
     1
 91
        1
 92
        7
 72
     0
 73
     1
 93
        4
 10
9206.417056457881
 20
3951.56618528789
 10
9206.417056457881
 20
3946.56618528789
 10
9211.417056457886
 20
3946.56618528789
 10
9211.417056457879
 20
3951.56618528789
 97
        1
330
378
 75
     1
 76
     1
 47
0.0321901215665183
 98
        1
 10
9208.206504586582
 20
3950.143204697647
450
        0
451
        0
460
0.0
461
0.0
452
        0
462
1.0
453
        2
463
0.0
 63
     5
421
      255
463
1.0
 63
     2
421
 16776960
470
LINEAR
1001
GradientColor1ACI
1070
     5
1001
GradientColor2ACI
1070
     2
1001
ACAD
1010
0.0
1020
0.0
1030
0.0
  0
LWPOLYLINE
  5
378
102
{ACAD_REACTORS
330
377
102
}
330
1F
100
AcDbEntity
  8
0
 62
    30
420
 16742400
100
AcDbPolyline
 90
        4
 70
     1
 43
0.0
 10
9206.417056457881
 20
3951.56618528789
 10
9211.417056457879
 20
3951.56618528789
 10
9211.417056457886
 20
3946.56618528789
 10
9206.417056457881
 20
3946.56618528789
  0
LINE
  5
379
330
1F
100
AcDbEntity
  8
0
 62
    30
420
 16742400
100
AcDbLine
 10
9206.417056457881
 20
3951.56618528789
 30
0.0
 11
9211.417056457881
 21
3951.56618528789
 31
0.0
  0
LWPOLYLINE
  5
37A
330
1F
100
AcDbEntity
  8
0
370
     5
100
AcDbPolyline
 90
        2
 70
     0
 43
0.0
 10
9211.417056457881
 20
3949.06618528789
 10
9532.571114381561
 20
3949.06618528789
  0
MTEXT
  5
37B
330
1F
100
AcDbEntity
  8
Specialized_Text
  6
Continuous
100
AcDbMText
 10
9214.980735773016
 20
3951.592652321482
 30
0.0
 40
3.0
 41
163.0041735515597
 46
0.0
 71
     4
 72
     1
  1
© copyright 2013 Specialized Building Products Ltd
  7
GENERATED_STYLE_2
 73
     1
 44
1.0
  0
MTEXT
  5
37C
330
1F
100
AcDbEntity
  8
Specialized_Text
  6
Continuous
100
AcDbMText
 10
9392.881736446696
 20
3951.592652321482
 30
0.0
 40
3.0
 41
163.0041735515597
 46
0.0
 71
     4
 72
     1
  1
All Dimensions to be site checked before construction & installation
  7
GENERATED_STYLE_2
 73
     1
 44
1.0
  0
MTEXT
  5
37D
330
1F
100
AcDbEntity
  8
Specialized_Text
  6
Continuous
100
AcDbMText
 10
9239.528923718355
 20
4421.953936156916
 30
0.0
 40
3.0
 41
48.87340123734884
 46
0.0
 71
     4
 72
     1
  1
Appraisal No.510 [2013]
  7
GENERATED_STYLE_2
 73
     1
 44
1.0
  0
IMAGE
  5
37E
330
1F
100
AcDbEntity
  8
0
 62
     7
420
 16777215
160
               140
310
8C0000000100000084000000060000000500000024CE0551590AC240A6E8A3F84049B140000000000000000024CE0551590AC24077A09C7D0779B1400000000000000000B2B28696AC23C24077A09C7D0779B1400000000000000000B2B28696AC23C240A6E8A3F84049B140000000000000000024CE0551590AC240A6E8A3
310
F84049B1400000000000000000
100
AcDbRasterImage
 90
        0
 10
9236.697785115866
 20
4425.253793949412
 30
0.0
 11
0.0611721721957824
 21
0.0
 31
0.0
 12
0.0
 22
0.0611721721957824
 32
0.0
 13
828.0
 23
781.0
340
35C
 70
     7
280
     0
281
    50
282
    50
283
     0
290
     0
360
37F
 71
     1
 91
        2
 14
-0.5
 24
-0.5
 14
827.5
 24
780.5
  0
MTEXT
  5
380
330
1F
100
AcDbEntity
  8
Specialized_Text
  6
Continuous
 62
    30
420
 16742400
370
    20
100
AcDbMText
 10
9431.437110235908
 20
3938.468748501369
 30
0.0
 40
5.5
 41
111.9228601720179
 46
0.0
 71
     7
 72
     1
  1
{\fArial Unicode MS|b1|i0|c0|p34;web \fArial Unicode MS|b0|i0|c0|p34;\C256;www.specialized.co.nz}
  7
GENERATED_STYLE_2
 73
     1
 44
1.12662050634974
  0
IMAGE
  5
381
330
1F
100
AcDbEntity
  8
0
 62
     7
420
 16777215
160
               140
310
8C00000001000000840000000600000005000000599D1264E871C2402C2B586B384FB1400000000000000000599D1264E871C240AFC28A4E6676B14000000000000000001EAEF236B8A8C240AFC28A4E6676B14000000000000000001EAEF236B8A8C2402C2B586B384FB1400000000000000000599D1264E871C2402C2B58
310
6B384FB1400000000000000000
100
AcDbRasterImage
 90
        0
 10
9443.81555397685
 20
4431.22038794569
 30
0.0
 11
0.0434841820317712
 21
0.0
 31
0.0
 12
0.0
 22
0.0434841820317712
 32
0.0
 13
2521.0
 23
901.0
340
35D
 70
     7
280
     0
281
    50
282
    50
283
     0
290
     0
360
382
 71
     1
 91
        2
 14
-0.5
 24
-0.5
 14
2520.5
 24
900.5
  0
LWPOLYLINE
  5
383
330
1F
100
AcDbEntity
  8
Specialized_Lines
  6
PLASTER
 48
3.0
100
AcDbPolyline
 90
        3
 70
     0
 43
0.0
 10
9370.518437292815
 20
4006.754314506841
 10
9370.518437292815
 20
4171.025977573985
 10
9365.176546172175
 20
4171.460078384481
  0
ENDSEC
  0
SECTION
  2
OBJECTS
  0
DICTIONARY
  5
C
330
0
100
AcDbDictionary
281
     1
  3
ACAD_CIP_PREVIOUS_PRODUCT_INFO
350
238
  3
ACAD_COLOR
350
22C
  3
ACAD_DETAILVIEWSTYLE
350
231
  3
ACAD_GROUP
350
D
  3
ACAD_IMAGE_DICT
350
25D
  3
ACAD_IMAGE_VARS
350
262
  3
ACAD_LAYOUT
350
1A
  3
ACAD_MATERIAL
350
3B
  3
ACAD_MLEADERSTYLE
350
21F
  3
ACAD_MLINESTYLE
350
17
  3
ACAD_PLOTSETTINGS
350
19
  3
ACAD_PLOTSTYLENAME
350
E
  3
ACAD_SCALELIST
350
148
  3
ACAD_SECTIONVIEWSTYLE
350
22F
  3
ACAD_TABLESTYLE
350
21E
  3
ACAD_VISUALSTYLE
350
2A
  3
ACAD_WIPEOUT_VARS
350
239
  3
ACDB_RECOMPOSE_DATA
350
44A
  3
AcDbVariableDictionary
350
1FC
  3
AcDsDecomposeData
350
450
  3
WATERMARKS
350
1FA
  0
DICTIONARY
  5
248
330
2
100
AcDbDictionary
280
     1
281
     1
  3
ACAD_LAYERSTATES
360
249
  0
DICTIONARY
  5
29B
330
10
100
AcDbDictionary
280
     1
281
     1
  3
ADSK_XREC_LAYER_RECONCILED
360
29C
  0
DICTIONARY
  5
29D
330
40
100
AcDbDictionary
280
     1
281
     1
  3
ADSK_XREC_LAYER_RECONCILED
360
29E
  0
DICTIONARY
  5
29F
330
178
100
AcDbDictionary
280
     1
281
     1
  3
ADSK_XREC_LAYER_RECONCILED
360
2A0
  0
DICTIONARY
  5
2A1
330
1DF
100
AcDbDictionary
280
     1
281
     1
  3
ADSK_XREC_LAYER_RECONCILED
360
2A2
  0
DICTIONARY
  5
23F
330
23E
100
AcDbDictionary
280
     1
281
     1
  3
ADSK_XREC_LAYER_RECONCILED
360
2A3
  0
DICTIONARY
  5
285
330
48
100
AcDbDictionary
280
     1
281
     1
  3
ACAD_SORTENTS
360
294
  0
IMAGEDEF_REACTOR
  5
37F
330
37E
100
AcDbRasterImageDefReactor
 90
        2
330
37E
  0
IMAGEDEF_REACTOR
  5
382
330
381
100
AcDbRasterImageDefReactor
 90
        2
330
381
  0
XRECORD
  5
238
102
{ACAD_REACTORS
330
C
102
}
330
C
100
AcDbXrecord
280
     1
300
ACD
300
2014
300
BDSPRM_F_S
  0
DICTIONARY
  5
22C
102
{ACAD_REACTORS
330
C
102
}
330
C
100
AcDbDictionary
281
     1
  0
DICTIONARY
  5
231
102
{ACAD_REACTORS
330
C
102
}
330
C
100
AcDbDictionary
281
     1
  3
Imperial24
350
232
  0
DICTIONARY
  5
D
102
{ACAD_REACTORS
330
C
102
}
330
C
100
AcDbDictionary
281
     1
  0
DICTIONARY
  5
25D
102
{ACAD_REACTORS
330
C
102
}
330
C
100
AcDbDictionary
281
     1
  3
BRANZ logo. Do not place on drawing without number 510-
350
35C
  3
logo sharp
350
35D
  0
RASTERVARIABLES
  5
262
102
{ACAD_REACTORS
330
C
102
}
330
C
100
AcDbRasterVariables
 90
        0
 70
     1
 71
     1
 72
     0
  0
DICTIONARY
  5
1A
102
{ACAD_REACTORS
330
C
102
}
330
C
100
AcDbDictionary
281
     1
  3
Layout1
350
1E
  3
Layout2
350
26
  3
Model
350
22
  0
DICTIONARY
  5
3B
102
{ACAD_REACTORS
330
C
102
}
330
C
100
AcDbDictionary
281
     1
  3
ByBlock
350
3D
  3
ByLayer
350
3C
  3
Global
350
3E
  0
DICTIONARY
  5
21F
102
{ACAD_REACTORS
330
C
102
}
330
C
100
AcDbDictionary
281
     1
  3
Standard
350
22E
  0
DICTIONARY
  5
17
102
{ACAD_REACTORS
330
C
102
}
330
C
100
AcDbDictionary
281
     1
  3
Standard
350
18
  0
DICTIONARY
  5
19
102
{ACAD_REACTORS
330
C
102
}
330
C
100
AcDbDictionary
281
     1
  0
ACDBDICTIONARYWDFLT
  5
E
102
{ACAD_REACTORS
330
C
102
}
330
C
100
AcDbDictionary
281
     1
  3
Normal
350
F
100
AcDbDictionaryWithDefault
340
F
  0
DICTIONARY
  5
148
102
{ACAD_REACTORS
330
C
102
}
330
C
100
AcDbDictionary
281
     1
  3
A0
350
149
  3
A1
350
14A
  3
A2
350
14B
  3
A3
350
14C
  3
A4
350
14D
  3
A5
350
14E
  3
A6
350
14F
  3
A7
350
150
  3
A8
350
151
  3
A9
350
152
  3
B0
350
153
  3
B1
350
154
  3
B2
350
155
  3
B3
350
156
  3
B4
350
157
  3
B5
350
158
  3
B6
350
159
  3
B7
350
15A
  3
B8
350
15B
  3
B9
350
15C
  3
C0
350
15D
  3
C1
350
15E
  3
C2
350
15F
  3
C3
350
160
  3
C4
350
161
  3
C5
350
162
  3
C6
350
163
  3
C7
350
164
  3
C8
350
165
  3
C9
350
166
  3
D0
350
167
  3
D1
350
168
  3
D2
350
169
  0
DICTIONARY
  5
22F
102
{ACAD_REACTORS
330
C
102
}
330
C
100
AcDbDictionary
281
     1
  3
Imperial24
350
230
  0
DICTIONARY
  5
21E
102
{ACAD_REACTORS
330
C
102
}
330
C
100
AcDbDictionary
281
     1
  3
Standard
350
22D
  0
DICTIONARY
  5
2A
102
{ACAD_REACTORS
330
C
102
}
330
C
100
AcDbDictionary
281
     1
  3
2dWireframe
350
2F
  3
3D Hidden
350
31
  3
3dWireframe
350
30
  3
Basic
350
32
  3
Brighten
350
36
  3
ColorChange
350
3A
  3
Conceptual
350
34
  3
Dim
350
35
  3
EdgeColorOff
350
22B
  3
Facepattern
350
39
  3
Flat
350
2B
  3
FlatWithEdges
350
2C
  3
Gouraud
350
2D
  3
GouraudWithEdges
350
2E
  3
Hidden
350
223
  3
JitterOff
350
229
  3
Linepattern
350
38
  3
OverhangOff
350
22A
  3
Realistic
350
33
  3
Shaded
350
228
  3
Shaded with edges
350
227
  3
Shades of Gray
350
224
  3
Sketchy
350
225
  3
Thicken
350
37
  3
Wireframe
350
222
  3
X-Ray
350
226
  0
WIPEOUTVARIABLES
  5
239
102
{ACAD_REACTORS
330
C
102
}
330
C
100
AcDbWipeoutVariables
 70
     1
  0
XRECORD
  5
44A
102
{ACAD_REACTORS
330
C
102
}
330
C
100
AcDbXrecord
280
     1
 90
        1
330
22D
330
267
330
26A
330
26B
330
26E
  0
DICTIONARY
  5
1FC
102
{ACAD_REACTORS
330
C
102
}
330
C
100
AcDbDictionary
281
     1
  3
CANNOSCALE
350
1FD
  3
CMLEADERSTYLE
350
2B1
  3
CTABLESTYLE
350
2B0
  3
CVIEWDETAILSTYLE
350
2B2
  3
CVIEWSECTIONSTYLE
350
2B3
  3
HPCOLOR
350
28B
  3
LAYEREVAL
350
2B4
  3
LAYERNOTIFY
350
2B5
  0
DICTIONARY
  5
450
102
{ACAD_REACTORS
330
C
102
}
330
C
100
AcDbDictionary
281
     1
  3
AcDsRecords
350
452
  3
AcDsSchemas
350
451
1001
ACAD
1070
     2
  0
DICTIONARY
  5
1FA
102
{ACAD_REACTORS
330
C
102
}
330
C
100
AcDbDictionary
281
     1
  3
AC_WATERMARK
350
1FB
  0
DICTIONARY
  5
249
102
{ACAD_REACTORS
330
248
102
}
330
248
100
AcDbDictionary
281
     1
  0
XRECORD
  5
29C
102
{ACAD_REACTORS
330
29B
102
}
330
29B
100
AcDbXrecord
280
     1
290
     1
  0
XRECORD
  5
29E
102
{ACAD_REACTORS
330
29D
102
}
330
29D
100
AcDbXrecord
280
     1
290
     1
  0
XRECORD
  5
2A0
102
{ACAD_REACTORS
330
29F
102
}
330
29F
100
AcDbXrecord
280
     1
290
     1
  0
XRECORD
  5
2A2
102
{ACAD_REACTORS
330
2A1
102
}
330
2A1
100
AcDbXrecord
280
     1
290
     1
  0
XRECORD
  5
2A3
102
{ACAD_REACTORS
330
23F
102
}
330
23F
100
AcDbXrecord
280
     1
290
     1
  0
SORTENTSTABLE
  5
294
102
{ACAD_REACTORS
330
285
102
}
330
285
100
AcDbSortentsTable
330
48
331
282
  5
289
331
280
  5
282
331
27E
  5
27E
331
296
  5
281
331
283
  5
28C
331
281
  5
283
  0
ACDBDETAILVIEWSTYLE
  5
232
102
{ACAD_XDICTIONARY
360
2AD
102
}
102
{ACAD_REACTORS
330
231
102
}
330
231
100
AcDbModelDocViewStyle
 70
     0
  3
Imperial24
290
     0
100
AcDbDetailViewStyle
 70
     0
 71
     0
 90
        3
 71
     1
340
11
 62
   256
 40
0.24
340
0
 62
   256
 40
0.24
300

 40
0.36
280
     3
 71
     2
340
16
 90
       25
 62
   256
 71
     3
340
11
 62
   256
 40
0.24
 90
        1
 40
0.75
 90
        1
300
%<\AcVar ViewType \f "%tc1">% %<\AcVar ViewDetailId>%\PSCALE %<\AcVar ViewScale \f "%sn">%
 71
     4
340
16
 90
       25
 62
   256
340
16
 90
       25
 62
   256
280
     0
  0
IMAGEDEF
  5
35C
102
{ACAD_REACTORS
330
25D
330
37F
102
}
330
25D
100
AcDbRasterImageDef
 90
        0
  1
P:\VERT-X CONSULTING LTD\2013\10 Oct\1310-015- Specialized Construction Products - Contract draughting\Drawings\BRANZ logo. Do not place on drawing without number 510-.jpg
 10
828.0
 20
781.0
 11
0.0846666666666667
 21
0.0846666666666667
280
     1
281
     5
  0
IMAGEDEF
  5
35D
102
{ACAD_REACTORS
330
25D
330
382
102
}
330
25D
100
AcDbRasterImageDef
 90
        0
  1
P:\VERT-X CONSULTING LTD\2013\10 Oct\1310-015- Specialized Construction Products - Contract draughting\Drawings\logo sharp.JPG
 10
2521.0
 20
901.0
 11
0.2645833333333333
 21
0.2645833333333333
280
     1
281
     5
  0
LAYOUT
  5
1E
102
{ACAD_REACTORS
330
1A
102
}
330
1A
100
AcDbPlotSettings
  1

  2
none_device
  4

  6

 40
0.0
 41
0.0
 42
0.0
 43
0.0
 44
0.0
 45
0.0
 46
0.0
 47
0.0
 48
0.0
 49
0.0
140
0.0
141
0.0
142
1.0
143
1.0
 70
   688
 72
     0
 73
     0
 74
     5
  7

 75
    16
147
1.0
 76
     0
 77
     2
 78
   300
148
0.0
149
0.0
100
AcDbLayout
  1
Layout1
 70
     1
 71
     1
 10
0.0
 20
0.0
 11
12.0
 21
9.0
 12
0.0
 22
0.0
 32
0.0
 14
1.000000000000000E+20
 24
1.000000000000000E+20
 34
1.000000000000000E+20
 15
-1.000000000000000E+20
 25
-1.000000000000000E+20
 35
-1.000000000000000E+20
146
0.0
 13
0.0
 23
0.0
 33
0.0
 16
1.0
 26
0.0
 36
0.0
 17
0.0
 27
1.0
 37
0.0
 76
     0
330
1B
  0
LAYOUT
  5
26
102
{ACAD_REACTORS
330
1A
102
}
330
1A
100
AcDbPlotSettings
  1

  2
none_device
  4

  6

 40
0.0
 41
0.0
 42
0.0
 43
0.0
 44
0.0
 45
0.0
 46
0.0
 47
0.0
 48
0.0
 49
0.0
140
0.0
141
0.0
142
1.0
143
1.0
 70
   688
 72
     0
 73
     0
 74
     5
  7

 75
    16
147
1.0
 76
     0
 77
     2
 78
   300
148
0.0
149
0.0
100
AcDbLayout
  1
Layout2
 70
     1
 71
     2
 10
0.0
 20
0.0
 11
0.0
 21
0.0
 12
0.0
 22
0.0
 32
0.0
 14
0.0
 24
0.0
 34
0.0
 15
0.0
 25
0.0
 35
0.0
146
0.0
 13
0.0
 23
0.0
 33
0.0
 16
1.0
 26
0.0
 36
0.0
 17
0.0
 27
1.0
 37
0.0
 76
     0
330
23
  0
LAYOUT
  5
22
102
{ACAD_REACTORS
330
1A
102
}
330
1A
100
AcDbPlotSettings
  1

  2
none_device
  4

  6

 40
0.0
 41
0.0
 42
0.0
 43
0.0
 44
0.0
 45
0.0
 46
0.0
 47
0.0
 48
0.0
 49
0.0
140
0.0
141
0.0
142
1.0
143
1.0
 70
  1712
 72
     0
 73
     0
 74
     0
  7

 75
     0
147
1.0
 76
     0
 77
     2
 78
   300
148
0.0
149
0.0
100
AcDbLayout
  1
Model
 70
     1
 71
     0
 10
0.0
 20
0.0
 11
12.0
 21
9.0
 12
0.0
 22
0.0
 32
0.0
 14
1.000000000000000E+20
 24
1.000000000000000E+20
 34
1.000000000000000E+20
 15
-1.000000000000000E+20
 25
-1.000000000000000E+20
 35
-1.000000000000000E+20
146
0.0
 13
0.0
 23
0.0
 33
0.0
 16
1.0
 26
0.0
 36
0.0
 17
0.0
 27
1.0
 37
0.0
 76
     0
330
1F
331
29
  0
MATERIAL
  5
3D
102
{ACAD_REACTORS
330
3B
102
}
330
3B
100
AcDbMaterial
  1
ByBlock
 73
     1
 78
     1
172
     1
176
     1
270
     1
274
     1
  0
MATERIAL
  5
3C
102
{ACAD_REACTORS
330
3B
102
}
330
3B
100
AcDbMaterial
  1
ByLayer
 73
     1
 78
     1
172
     1
176
     1
270
     1
274
     1
  0
MATERIAL
  5
3E
102
{ACAD_REACTORS
330
3B
102
}
330
3B
100
AcDbMaterial
  1
Global
 73
     1
 78
     1
172
     1
176
     1
270
     1
274
     1
  0
MLEADERSTYLE
  5
22E
102
{ACAD_XDICTIONARY
360
487
102
}
102
{ACAD_REACTORS
330
21F
102
}
330
21F
100
AcDbMLeaderStyle
179
     2
170
     2
171
     1
172
     0
 90
        2
 40
0.0
 41
0.0
173
     1
 91
-1056964608
340
14
 92
       -2
290
     1
 42
0.09
291
     1
 43
0.36
  3
Standard
 44
0.18
300

342
11
174
     1
178
     6
175
     1
176
     0
 93
-1056964608
 45
0.18
292
     0
297
     0
 46
0.18
 94
-1056964608
 47
1.0
 49
1.0
140
1.0
293
     1
141
0.0
294
     1
177
     0
142
1.0
295
     0
296
     0
143
0.125
271
     0
272
     9
273
     9
  0
MLINESTYLE
  5
18
102
{ACAD_REACTORS
330
17
102
}
330
17
100
AcDbMlineStyle
  2
STANDARD
 70
     0
  3

 62
   256
 51
90.0
 52
90.0
 71
     2
 49
0.5
 62
   256
  6
BYLAYER
 49
-0.5
 62
   256
  6
BYLAYER
  0
ACDBPLACEHOLDER
  5
F
102
{ACAD_REACTORS
330
E
102
}
330
E
  0
SCALE
  5
149
102
{ACAD_REACTORS
330
148
102
}
330
148
100
AcDbScale
 70
     0
300
1:1
140
1.0
141
1.0
290
     1
  0
SCALE
  5
14A
102
{ACAD_REACTORS
330
148
102
}
330
148
100
AcDbScale
 70
     0
300
1:2
140
1.0
141
2.0
290
     0
  0
SCALE
  5
14B
102
{ACAD_REACTORS
330
148
102
}
330
148
100
AcDbScale
 70
     0
300
1:4
140
1.0
141
4.0
290
     0
  0
SCALE
  5
14C
102
{ACAD_REACTORS
330
148
102
}
330
148
100
AcDbScale
 70
     0
300
1:5
140
1.0
141
5.0
290
     0
  0
SCALE
  5
14D
102
{ACAD_REACTORS
330
148
102
}
330
148
100
AcDbScale
 70
     0
300
1:8
140
1.0
141
8.0
290
     0
  0
SCALE
  5
14E
102
{ACAD_REACTORS
330
148
102
}
330
148
100
AcDbScale
 70
     0
300
1:10
140
1.0
141
10.0
290
     0
  0
SCALE
  5
14F
102
{ACAD_REACTORS
330
148
102
}
330
148
100
AcDbScale
 70
     0
300
1:16
140
1.0
141
16.0
290
     0
  0
SCALE
  5
150
102
{ACAD_REACTORS
330
148
102
}
330
148
100
AcDbScale
 70
     0
300
1:20
140
1.0
141
20.0
290
     0
  0
SCALE
  5
151
102
{ACAD_REACTORS
330
148
102
}
330
148
100
AcDbScale
 70
     0
300
1:30
140
1.0
141
30.0
290
     0
  0
SCALE
  5
152
102
{ACAD_REACTORS
330
148
102
}
330
148
100
AcDbScale
 70
     0
300
1:40
140
1.0
141
40.0
290
     0
  0
SCALE
  5
153
102
{ACAD_REACTORS
330
148
102
}
330
148
100
AcDbScale
 70
     0
300
1:50
140
1.0
141
50.0
290
     0
  0
SCALE
  5
154
102
{ACAD_REACTORS
330
148
102
}
330
148
100
AcDbScale
 70
     0
300
1:100
140
1.0
141
100.0
290
     0
  0
SCALE
  5
155
102
{ACAD_REACTORS
330
148
102
}
330
148
100
AcDbScale
 70
     0
300
2:1
140
2.0
141
1.0
290
     0
  0
SCALE
  5
156
102
{ACAD_REACTORS
330
148
102
}
330
148
100
AcDbScale
 70
     0
300
4:1
140
4.0
141
1.0
290
     0
  0
SCALE
  5
157
102
{ACAD_REACTORS
330
148
102
}
330
148
100
AcDbScale
 70
     0
300
8:1
140
8.0
141
1.0
290
     0
  0
SCALE
  5
158
102
{ACAD_REACTORS
330
148
102
}
330
148
100
AcDbScale
 70
     0
300
10:1
140
10.0
141
1.0
290
     0
  0
SCALE
  5
159
102
{ACAD_REACTORS
330
148
102
}
330
148
100
AcDbScale
 70
     0
300
100:1
140
100.0
141
1.0
290
     0
  0
SCALE
  5
15A
102
{ACAD_REACTORS
330
148
102
}
330
148
100
AcDbScale
 70
     0
300
1/128" = 1'-0"
140
0.0078125
141
12.0
290
     0
  0
SCALE
  5
15B
102
{ACAD_REACTORS
330
148
102
}
330
148
100
AcDbScale
 70
     0
300
1/64" = 1'-0"
140
0.015625
141
12.0
290
     0
  0
SCALE
  5
15C
102
{ACAD_REACTORS
330
148
102
}
330
148
100
AcDbScale
 70
     0
300
1/32" = 1'-0"
140
0.03125
141
12.0
290
     0
  0
SCALE
  5
15D
102
{ACAD_REACTORS
330
148
102
}
330
148
100
AcDbScale
 70
     0
300
1/16" = 1'-0"
140
0.0625
141
12.0
290
     0
  0
SCALE
  5
15E
102
{ACAD_REACTORS
330
148
102
}
330
148
100
AcDbScale
 70
     0
300
3/32" = 1'-0"
140
0.09375
141
12.0
290
     0
  0
SCALE
  5
15F
102
{ACAD_REACTORS
330
148
102
}
330
148
100
AcDbScale
 70
     0
300
1/8" = 1'-0"
140
0.125
141
12.0
290
     0
  0
SCALE
  5
160
102
{ACAD_REACTORS
330
148
102
}
330
148
100
AcDbScale
 70
     0
300
3/16" = 1'-0"
140
0.1875
141
12.0
290
     0
  0
SCALE
  5
161
102
{ACAD_REACTORS
330
148
102
}
330
148
100
AcDbScale
 70
     0
300
1/4" = 1'-0"
140
0.25
141
12.0
290
     0
  0
SCALE
  5
162
102
{ACAD_REACTORS
330
148
102
}
330
148
100
AcDbScale
 70
     0
300
3/8" = 1'-0"
140
0.375
141
12.0
290
     0
  0
SCALE
  5
163
102
{ACAD_REACTORS
330
148
102
}
330
148
100
AcDbScale
 70
     0
300
1/2" = 1'-0"
140
0.5
141
12.0
290
     0
  0
SCALE
  5
164
102
{ACAD_REACTORS
330
148
102
}
330
148
100
AcDbScale
 70
     0
300
3/4" = 1'-0"
140
0.75
141
12.0
290
     0
  0
SCALE
  5
165
102
{ACAD_REACTORS
330
148
102
}
330
148
100
AcDbScale
 70
     0
300
1" = 1'-0"
140
1.0
141
12.0
290
     0
  0
SCALE
  5
166
102
{ACAD_REACTORS
330
148
102
}
330
148
100
AcDbScale
 70
     0
300
1-1/2" = 1'-0"
140
1.5
141
12.0
290
     0
  0
SCALE
  5
167
102
{ACAD_REACTORS
330
148
102
}
330
148
100
AcDbScale
 70
     0
300
3" = 1'-0"
140
3.0
141
12.0
290
     0
  0
SCALE
  5
168
102
{ACAD_REACTORS
330
148
102
}
330
148
100
AcDbScale
 70
     0
300
6" = 1'-0"
140
6.0
141
12.0
290
     0
  0
SCALE
  5
169
102
{ACAD_REACTORS
330
148
102
}
330
148
100
AcDbScale
 70
     0
300
1'-0" = 1'-0"
140
12.0
141
12.0
290
     0
  0
ACDBSECTIONVIEWSTYLE
  5
230
102
{ACAD_XDICTIONARY
360
2AB
102
}
102
{ACAD_REACTORS
330
22F
102
}
330
22F
100
AcDbModelDocViewStyle
 70
     0
  3
Imperial24
290
     0
100
AcDbSectionViewStyle
 70
     0
 71
     0
 90
       78
 71
     1
340
11
 62
   256
 40
0.24
340
0
340
0
 62
   256
 40
0.24
300
I, O, Q, S, X, Z
 40
0.48
 90
        3
 40
0.18
 90
        1
 71
     2
340
16
 90
       25
 62
   256
340
16
 90
       50
 62
   256
 40
0.24
 40
0.0
 40
0.24
 71
     3
340
11
 62
   256
 40
0.24
 90
        1
 40
0.75
 90
        1
300
%<\AcVar ViewType \f "%tc1">% %<\AcVar ViewSectionStartId>%-%<\AcVar ViewSectionEndId>%\PSCALE %<\AcVar ViewScale \f "%sn">%
 71
     4
 62
   256
 62
   257
300
ANSI31
 40
1.0
 90
        0
290
     0
290
     0
 90
        6
 40
0.0
 40
1.570796326794896
 40
0.2617993877991494
 40
1.308996938995747
 40
-0.2617993877991494
 40
1.832595714594046
  0
TABLESTYLE
  5
22D
102
{ACAD_XDICTIONARY
360
448
102
}
102
{ACAD_REACTORS
330
21E
102
}
330
21E
100
AcDbTableStyle
280
     0
  3
Standard
 70
     0
 71
     0
 40
0.06
 41
0.06
280
     0
281
     0
  7
Standard
140
0.18
170
     2
 62
     0
 63
     7
283
     0
 90
      512
 91
        0
  1

274
    -2
284
     1
 64
     0
275
    -2
285
     1
 65
     0
276
    -2
286
     1
 66
     0
277
    -2
287
     1
 67
     0
278
    -2
288
     1
 68
     0
279
    -2
289
     1
 69
     0
  7
Standard
140
0.25
170
     5
 62
     0
 63
     7
283
     0
 90
      512
 91
        0
  1

274
    -2
284
     1
 64
     0
275
    -2
285
     1
 65
     0
276
    -2
286
     1
 66
     0
277
    -2
287
     1
 67
     0
278
    -2
288
     1
 68
     0
279
    -2
289
     1
 69
     0
  7
Standard
140
0.18
170
     5
 62
     0
 63
     7
283
     0
 90
      512
 91
        0
  1

274
    -2
284
     1
 64
     0
275
    -2
285
     1
 65
     0
276
    -2
286
     1
 66
     0
277
    -2
287
     1
 67
     0
278
    -2
288
     1
 68
     0
279
    -2
289
     1
 69
     0
  0
VISUALSTYLE
  5
2F
102
{ACAD_XDICTIONARY
360
45B
102
}
102
{ACAD_REACTORS
330
2A
102
}
330
2A
100
AcDbVisualStyle
  2
2dWireframe
 70
     4
177
     2
291
     0
 71
     0
176
     1
 72
     2
176
     1
 73
     0
176
     1
 90
        0
176
     1
 40
0.6
176
     1
 41
30.0
176
     1
 63
     7
421
 16777215
176
     1
 74
     1
176
     1
 91
        4
176
     1
 64
     7
176
     1
 65
   257
176
     1
 75
     1
176
     1
175
     1
176
     1
 42
1.0
176
     1
 92
        0
176
     1
 66
   257
176
     1
 43
1.0
176
     1
 76
     1
176
     1
 77
     6
176
     1
 78
     2
176
     1
 67
     7
176
     1
 79
     5
176
     1
170
     0
176
     1
171
     0
176
     1
290
     0
176
     1
 93
        1
176
     1
 44
0.0
176
     1
173
     0
176
     1
1001
ACAD
1000
AcDbSavedByObjectVersion
1070
     0
  0
VISUALSTYLE
  5
31
102
{ACAD_XDICTIONARY
360
45F
102
}
102
{ACAD_REACTORS
330
2A
102
}
330
2A
100
AcDbVisualStyle
  2
3D Hidden
 70
     6
177
     2
291
     0
 71
     1
176
     1
 72
     2
176
     1
 73
     2
176
     1
 90
        0
176
     1
 40
0.6
176
     1
 41
30.0
176
     1
 63
     7
421
 16777215
176
     1
 74
     2
176
     1
 91
        2
176
     1
 64
     7
176
     1
 65
   257
176
     1
 75
     2
176
     1
175
     1
176
     1
 42
40.0
176
     1
 92
        0
176
     1
 66
   257
176
     1
 43
1.0
176
     1
 76
     1
176
     1
 77
     6
176
     1
 78
     2
176
     1
 67
     7
176
     1
 79
     3
176
     1
170
     0
176
     1
171
     0
176
     1
290
     0
176
     1
 93
        1
176
     1
 44
0.0
176
     1
173
     0
176
     1
1001
ACAD
1000
AcDbSavedByObjectVersion
1070
     0
  0
VISUALSTYLE
  5
30
102
{ACAD_XDICTIONARY
360
45D
102
}
102
{ACAD_REACTORS
330
2A
102
}
330
2A
100
AcDbVisualStyle
  2
3dWireframe
 70
     5
177
     2
291
     0
 71
     0
176
     1
 72
     2
176
     1
 73
     0
176
     1
 90
        0
176
     1
 40
0.6
176
     1
 41
30.0
176
     1
 63
     7
421
 16777215
176
     1
 74
     1
176
     1
 91
        4
176
     1
 64
     7
176
     1
 65
   257
176
     1
 75
     1
176
     1
175
     1
176
     1
 42
1.0
176
     1
 92
        0
176
     1
 66
   257
176
     1
 43
1.0
176
     1
 76
     1
176
     1
 77
     6
176
     1
 78
     2
176
     1
 67
     7
176
     1
 79
     5
176
     1
170
     0
176
     1
171
     0
176
     1
290
     0
176
     1
 93
        1
176
     1
 44
0.0
176
     1
173
     0
176
     1
1001
ACAD
1000
AcDbSavedByObjectVersion
1070
     0
  0
VISUALSTYLE
  5
32
102
{ACAD_XDICTIONARY
360
461
102
}
102
{ACAD_REACTORS
330
2A
102
}
330
2A
100
AcDbVisualStyle
  2
Basic
 70
     7
177
     2
291
     1
 71
     1
176
     1
 72
     0
176
     1
 73
     1
176
     1
 90
        0
176
     1
 40
0.6
176
     1
 41
30.0
176
     1
 63
     7
421
 16777215
176
     1
 74
     0
176
     1
 91
        4
176
     1
 64
     7
176
     1
 65
   257
176
     1
 75
     1
176
     1
175
     1
176
     1
 42
1.0
176
     1
 92
        8
176
     1
 66
     7
176
     1
 43
1.0
176
     1
 76
     1
176
     1
 77
     6
176
     1
 78
     2
176
     1
 67
     7
176
     1
 79
     5
176
     1
170
     0
176
     1
171
     0
176
     1
290
     0
176
     1
 93
        1
176
     1
 44
0.0
176
     1
173
     0
176
     1
1001
ACAD
1000
AcDbSavedByObjectVersion
1070
     0
  0
VISUALSTYLE
  5
36
102
{ACAD_XDICTIONARY
360
469
102
}
102
{ACAD_REACTORS
330
2A
102
}
330
2A
100
AcDbVisualStyle
  2
Brighten
 70
    12
177
     2
291
     1
 71
     2
176
     1
 72
     2
176
     1
 73
     0
176
     1
 90
        0
176
     1
 40
0.6
176
     1
 41
30.0
176
     1
 63
     7
421
 16777215
176
     1
 74
     1
176
     1
 91
        4
176
     1
 64
     7
176
     1
 65
   257
176
     1
 75
     1
176
     1
175
     1
176
     1
 42
1.0
176
     1
 92
        8
176
     1
 66
     7
176
     1
 43
1.0
176
     1
 76
     1
176
     1
 77
     6
176
     1
 78
     2
176
     1
 67
     7
176
     1
 79
     5
176
     1
170
     0
176
     1
171
     0
176
     1
290
     0
176
     1
 93
        1
176
     1
 44
50.0
176
     1
173
     0
176
     1
1001
ACAD
1000
AcDbSavedByObjectVersion
1070
     0
  0
VISUALSTYLE
  5
3A
102
{ACAD_XDICTIONARY
360
471
102
}
102
{ACAD_REACTORS
330
2A
102
}
330
2A
100
AcDbVisualStyle
  2
ColorChange
 70
    16
177
     2
291
     1
 71
     2
176
     1
 72
     2
176
     1
 73
     3
176
     1
 90
        0
176
     1
 40
0.6
176
     1
 41
30.0
176
     1
 63
     8
421
  8421504
176
     1
 74
     1
176
     1
 91
        4
176
     1
 64
     7
176
     1
 65
   257
176
     1
 75
     1
176
     1
175
     1
176
     1
 42
1.0
176
     1
 92
        8
176
     1
 66
     8
424
  8421504
176
     1
 43
1.0
176
     1
 76
     1
176
     1
 77
     6
176
     1
 78
     2
176
     1
 67
     7
176
     1
 79
     5
176
     1
170
     0
176
     1
171
     0
176
     1
290
     0
176
     1
 93
        1
176
     1
 44
0.0
176
     1
173
     0
176
     1
1001
ACAD
1000
AcDbSavedByObjectVersion
1070
     0
  0
VISUALSTYLE
  5
34
102
{ACAD_XDICTIONARY
360
465
102
}
102
{ACAD_REACTORS
330
2A
102
}
330
2A
100
AcDbVisualStyle
  2
Conceptual
 70
     9
177
     2
291
     0
 71
     3
176
     1
 72
     2
176
     1
 73
     0
176
     1
 90
        0
176
     1
 40
0.6
176
     1
 41
30.0
176
     1
 63
     7
421
 16777215
176
     1
 74
     2
176
     1
 91
        2
176
     1
 64
     7
176
     1
 65
   257
176
     1
 75
     1
176
     1
175
     1
176
     1
 42
40.0
176
     1
 92
        8
176
     1
 66
     7
176
     1
 43
1.0
176
     1
 76
     1
176
     1
 77
     6
176
     1
 78
     2
176
     1
 67
     7
176
     1
 79
     3
176
     1
170
     0
176
     1
171
     0
176
     1
290
     0
176
     1
 93
        1
176
     1
 44
0.0
176
     1
173
     0
176
     1
1001
ACAD
1000
AcDbSavedByObjectVersion
1070
     0
  0
VISUALSTYLE
  5
35
102
{ACAD_XDICTIONARY
360
467
102
}
102
{ACAD_REACTORS
330
2A
102
}
330
2A
100
AcDbVisualStyle
  2
Dim
 70
    11
177
     2
291
     1
 71
     2
176
     1
 72
     2
176
     1
 73
     0
176
     1
 90
        0
176
     1
 40
0.6
176
     1
 41
30.0
176
     1
 63
     7
421
 16777215
176
     1
 74
     1
176
     1
 91
        4
176
     1
 64
     7
176
     1
 65
   257
176
     1
 75
     1
176
     1
175
     1
176
     1
 42
1.0
176
     1
 92
        8
176
     1
 66
     7
176
     1
 43
1.0
176
     1
 76
     1
176
     1
 77
     6
176
     1
 78
     2
176
     1
 67
     7
176
     1
 79
     5
176
     1
170
     0
176
     1
171
     0
176
     1
290
     0
176
     1
 93
        1
176
     1
 44
-50.0
176
     1
173
     0
176
     1
1001
ACAD
1000
AcDbSavedByObjectVersion
1070
     0
  0
VISUALSTYLE
  5
22B
102
{ACAD_XDICTIONARY
360
485
102
}
102
{ACAD_REACTORS
330
2A
102
}
330
2A
100
AcDbVisualStyle
  2
EdgeColorOff
 70
    22
177
     2
291
     1
 71
     2
176
     0
 72
     2
176
     0
 73
     0
176
     0
 90
        0
176
     0
 40
0.6
176
     0
 41
30.0
176
     0
 63
     7
421
 16777215
176
     0
 74
     1
176
     0
 91
        4
176
     0
 64
     7
176
     0
 65
   257
176
     0
 75
     1
176
     0
175
     1
176
     0
 42
1.0
176
     0
 92
        8
176
     2
 66
     7
176
     0
 43
1.0
176
     0
 76
     1
176
     0
 77
     6
176
     0
 78
     2
176
     0
 67
     7
176
     0
 79
     5
176
     0
170
     0
176
     0
171
     0
176
     0
290
     0
176
     0
 93
        1
176
     0
 44
0.0
176
     0
173
     0
176
     0
1001
ACAD
1000
AcDbSavedByObjectVersion
1070
     0
  0
VISUALSTYLE
  5
39
102
{ACAD_XDICTIONARY
360
46F
102
}
102
{ACAD_REACTORS
330
2A
102
}
330
2A
100
AcDbVisualStyle
  2
Facepattern
 70
    15
177
     2
291
     1
 71
     2
176
     1
 72
     2
176
     1
 73
     0
176
     1
 90
        0
176
     1
 40
0.6
176
     1
 41
30.0
176
     1
 63
     7
421
 16777215
176
     1
 74
     1
176
     1
 91
        4
176
     1
 64
     7
176
     1
 65
   257
176
     1
 75
     1
176
     1
175
     1
176
     1
 42
1.0
176
     1
 92
        8
176
     1
 66
     7
176
     1
 43
1.0
176
     1
 76
     1
176
     1
 77
     6
176
     1
 78
     2
176
     1
 67
     7
176
     1
 79
     5
176
     1
170
     0
176
     1
171
     0
176
     1
290
     0
176
     1
 93
        1
176
     1
 44
0.0
176
     1
173
     0
176
     1
1001
ACAD
1000
AcDbSavedByObjectVersion
1070
     0
  0
VISUALSTYLE
  5
2B
102
{ACAD_XDICTIONARY
360
453
102
}
102
{ACAD_REACTORS
330
2A
102
}
330
2A
100
AcDbVisualStyle
  2
Flat
 70
     0
177
     2
291
     1
 71
     2
176
     1
 72
     1
176
     1
 73
     1
176
     1
 90
        2
176
     1
 40
0.6
176
     1
 41
30.0
176
     1
 63
     7
421
 16777215
176
     1
 74
     0
176
     1
 91
        4
176
     1
 64
     7
176
     1
 65
   257
176
     1
 75
     1
176
     1
175
     1
176
     1
 42
1.0
176
     1
 92
        8
176
     1
 66
     7
176
     1
 43
1.0
176
     1
 76
     1
176
     1
 77
     6
176
     1
 78
     2
176
     1
 67
     7
176
     1
 79
     5
176
     1
170
     0
176
     1
171
     0
176
     1
290
     0
176
     1
 93
       13
176
     1
 44
0.0
176
     1
173
     0
176
     1
1001
ACAD
1000
AcDbSavedByObjectVersion
1070
     0
  0
VISUALSTYLE
  5
2C
102
{ACAD_XDICTIONARY
360
455
102
}
102
{ACAD_REACTORS
330
2A
102
}
330
2A
100
AcDbVisualStyle
  2
FlatWithEdges
 70
     1
177
     2
291
     1
 71
     2
176
     1
 72
     1
176
     1
 73
     1
176
     1
 90
        2
176
     1
 40
0.6
176
     1
 41
30.0
176
     1
 63
     7
421
 16777215
176
     1
 74
     1
176
     1
 91
        4
176
     1
 64
     7
176
     1
 65
   257
176
     1
 75
     1
176
     1
175
     1
176
     1
 42
1.0
176
     1
 92
        0
176
     1
 66
   257
176
     1
 43
1.0
176
     1
 76
     1
176
     1
 77
     6
176
     1
 78
     2
176
     1
 67
     7
176
     1
 79
     5
176
     1
170
     0
176
     1
171
     0
176
     1
290
     0
176
     1
 93
       13
176
     1
 44
0.0
176
     1
173
     0
176
     1
1001
ACAD
1000
AcDbSavedByObjectVersion
1070
     0
  0
VISUALSTYLE
  5
2D
102
{ACAD_XDICTIONARY
360
457
102
}
102
{ACAD_REACTORS
330
2A
102
}
330
2A
100
AcDbVisualStyle
  2
Gouraud
 70
     2
177
     2
291
     1
 71
     2
176
     1
 72
     2
176
     1
 73
     1
176
     1
 90
        2
176
     1
 40
0.6
176
     1
 41
30.0
176
     1
 63
     7
421
 16777215
176
     1
 74
     0
176
     1
 91
        4
176
     1
 64
     7
176
     1
 65
   257
176
     1
 75
     1
176
     1
175
     1
176
     1
 42
1.0
176
     1
 92
        0
176
     1
 66
     7
176
     1
 43
1.0
176
     1
 76
     1
176
     1
 77
     6
176
     1
 78
     2
176
     1
 67
     7
176
     1
 79
     5
176
     1
170
     0
176
     1
171
     0
176
     1
290
     0
176
     1
 93
       13
176
     1
 44
0.0
176
     1
173
     0
176
     1
1001
ACAD
1000
AcDbSavedByObjectVersion
1070
     0
  0
VISUALSTYLE
  5
2E
102
{ACAD_XDICTIONARY
360
459
102
}
102
{ACAD_REACTORS
330
2A
102
}
330
2A
100
AcDbVisualStyle
  2
GouraudWithEdges
 70
     3
177
     2
291
     1
 71
     2
176
     1
 72
     2
176
     1
 73
     1
176
     1
 90
        2
176
     1
 40
0.6
176
     1
 41
30.0
176
     1
 63
     7
421
 16777215
176
     1
 74
     1
176
     1
 91
        4
176
     1
 64
     7
176
     1
 65
   257
176
     1
 75
     1
176
     1
175
     1
176
     1
 42
1.0
176
     1
 92
        0
176
     1
 66
   257
176
     1
 43
1.0
176
     1
 76
     1
176
     1
 77
     6
176
     1
 78
     2
176
     1
 67
     7
176
     1
 79
     5
176
     1
170
     0
176
     1
171
     0
176
     1
290
     0
176
     1
 93
       13
176
     1
 44
0.0
176
     1
173
     0
176
     1
1001
ACAD
1000
AcDbSavedByObjectVersion
1070
     0
  0
VISUALSTYLE
  5
223
102
{ACAD_XDICTIONARY
360
475
102
}
102
{ACAD_REACTORS
330
2A
102
}
330
2A
100
AcDbVisualStyle
  2
Hidden
 70
     6
177
     2
291
     0
 71
     1
176
     1
 72
     2
176
     1
 73
     2
176
     1
 90
        0
176
     1
 40
0.6
176
     1
 41
30.0
176
     1
 63
     7
421
 16777215
176
     1
 74
     2
176
     1
 91
        2
176
     1
 64
     7
176
     1
 65
   257
176
     1
 75
     2
176
     1
175
     1
176
     1
 42
40.0
176
     1
 92
        0
176
     1
 66
   257
176
     1
 43
1.0
176
     1
 76
     1
176
     1
 77
     6
176
     1
 78
     2
176
     1
 67
     7
176
     1
 79
     3
176
     1
170
     0
176
     1
171
     0
176
     1
290
     0
176
     1
 93
        1
176
     1
 44
0.0
176
     1
173
     0
176
     1
1001
ACAD
1000
AcDbSavedByObjectVersion
1070
     0
  0
VISUALSTYLE
  5
229
102
{ACAD_XDICTIONARY
360
481
102
}
102
{ACAD_REACTORS
330
2A
102
}
330
2A
100
AcDbVisualStyle
  2
JitterOff
 70
    20
177
     2
291
     1
 71
     2
176
     0
 72
     2
176
     0
 73
     0
176
     0
 90
        0
176
     0
 40
0.6
176
     0
 41
30.0
176
     0
 63
     7
421
 16777215
176
     0
 74
     1
176
     0
 91
        4
176
     0
 64
     7
176
     0
 65
   257
176
     0
 75
     1
176
     0
175
     1
176
     0
 42
1.0
176
     0
 92
       10
176
     2
 66
     7
176
     0
 43
1.0
176
     0
 76
     1
176
     0
 77
     6
176
     0
 78
     2
176
     0
 67
     7
176
     0
 79
     5
176
     0
170
     0
176
     0
171
     0
176
     0
290
     0
176
     0
 93
        1
176
     0
 44
0.0
176
     0
173
     0
176
     0
1001
ACAD
1000
AcDbSavedByObjectVersion
1070
     0
  0
VISUALSTYLE
  5
38
102
{ACAD_XDICTIONARY
360
46D
102
}
102
{ACAD_REACTORS
330
2A
102
}
330
2A
100
AcDbVisualStyle
  2
Linepattern
 70
    14
177
     2
291
     1
 71
     2
176
     1
 72
     2
176
     1
 73
     0
176
     1
 90
        0
176
     1
 40
0.6
176
     1
 41
30.0
176
     1
 63
     7
421
 16777215
176
     1
 74
     1
176
     1
 91
        4
176
     1
 64
     7
176
     1
 65
   257
176
     1
 75
     7
176
     1
175
     7
176
     1
 42
1.0
176
     1
 92
        8
176
     1
 66
     7
176
     1
 43
1.0
176
     1
 76
     1
176
     1
 77
     6
176
     1
 78
     2
176
     1
 67
     7
176
     1
 79
     5
176
     1
170
     0
176
     1
171
     0
176
     1
290
     0
176
     1
 93
        1
176
     1
 44
0.0
176
     1
173
     0
176
     1
1001
ACAD
1000
AcDbSavedByObjectVersion
1070
     0
  0
VISUALSTYLE
  5
22A
102
{ACAD_XDICTIONARY
360
483
102
}
102
{ACAD_REACTORS
330
2A
102
}
330
2A
100
AcDbVisualStyle
  2
OverhangOff
 70
    21
177
     2
291
     1
 71
     2
176
     0
 72
     2
176
     0
 73
     0
176
     0
 90
        0
176
     0
 40
0.6
176
     0
 41
30.0
176
     0
 63
     7
421
 16777215
176
     0
 74
     1
176
     0
 91
        4
176
     0
 64
     7
176
     0
 65
   257
176
     0
 75
     1
176
     0
175
     1
176
     0
 42
1.0
176
     0
 92
        9
176
     2
 66
     7
176
     0
 43
1.0
176
     0
 76
     1
176
     0
 77
     6
176
     0
 78
     2
176
     0
 67
     7
176
     0
 79
     5
176
     0
170
     0
176
     0
171
     0
176
     0
290
     0
176
     0
 93
        1
176
     0
 44
0.0
176
     0
173
     0
176
     0
1001
ACAD
1000
AcDbSavedByObjectVersion
1070
     0
  0
VISUALSTYLE
  5
33
102
{ACAD_XDICTIONARY
360
463
102
}
102
{ACAD_REACTORS
330
2A
102
}
330
2A
100
AcDbVisualStyle
  2
Realistic
 70
     8
177
     2
291
     0
 71
     2
176
     1
 72
     2
176
     1
 73
     0
176
     1
 90
        0
176
     1
 40
0.6
176
     1
 41
30.0
176
     1
 63
     7
421
 16777215
176
     1
 74
     1
176
     1
 91
        0
176
     1
 64
     7
176
     1
 65
   257
176
     1
 75
     1
176
     1
175
     1
176
     1
 42
1.0
176
     1
 92
        8
176
     1
 66
     8
424
  7895160
176
     1
 43
1.0
176
     1
 76
     1
176
     1
 77
     6
176
     1
 78
     2
176
     1
 67
     7
176
     1
 79
     5
176
     1
170
     0
176
     1
171
     0
176
     1
290
     0
176
     1
 93
       13
176
     1
 44
0.0
176
     1
173
     0
176
     1
1001
ACAD
1000
AcDbSavedByObjectVersion
1070
     0
  0
VISUALSTYLE
  5
228
102
{ACAD_XDICTIONARY
360
47F
102
}
102
{ACAD_REACTORS
330
2A
102
}
330
2A
100
AcDbVisualStyle
  2
Shaded
 70
    27
177
     2
291
     0
 71
     2
176
     1
 72
     2
176
     1
 73
     1
176
     1
 90
        2
176
     1
 40
0.6
176
     1
 41
30.0
176
     1
 63
     7
421
 16777215
176
     1
 74
     0
176
     1
 91
        4
176
     1
 64
     7
176
     1
 65
   257
176
     1
 75
     1
176
     1
175
     1
176
     1
 42
1.0
176
     1
 92
        8
176
     1
 66
   257
176
     1
 43
1.0
176
     1
 76
     1
176
     1
 77
     6
176
     1
 78
     2
176
     1
 67
     8
425
  7895160
176
     1
 79
     3
176
     1
170
     0
176
     1
171
     0
176
     1
290
     0
176
     1
 93
        5
176
     1
 44
0.0
176
     1
173
     0
176
     1
1001
ACAD
1000
AcDbSavedByObjectVersion
1070
     0
  0
VISUALSTYLE
  5
227
102
{ACAD_XDICTIONARY
360
47D
102
}
102
{ACAD_REACTORS
330
2A
102
}
330
2A
100
AcDbVisualStyle
  2
Shaded with edges
 70
    26
177
     2
291
     0
 71
     2
176
     1
 72
     2
176
     1
 73
     1
176
     1
 90
        2
176
     1
 40
0.6
176
     1
 41
30.0
176
     1
 63
     7
421
 16777215
176
     1
 74
     1
176
     1
 91
       10
176
     1
 64
     7
176
     1
 65
   257
176
     1
 75
     2
176
     1
175
     1
176
     1
 42
1.0
176
     1
 92
        8
176
     1
 66
   257
176
     1
 43
1.0
176
     1
 76
     1
176
     1
 77
     6
176
     1
 78
     2
176
     1
 67
     7
176
     1
 79
     3
176
     1
170
     0
176
     1
171
     0
176
     1
290
     0
176
     1
 93
        5
176
     1
 44
0.0
176
     1
173
     0
176
     1
1001
ACAD
1000
AcDbSavedByObjectVersion
1070
     0
  0
VISUALSTYLE
  5
224
102
{ACAD_XDICTIONARY
360
477
102
}
102
{ACAD_REACTORS
330
2A
102
}
330
2A
100
AcDbVisualStyle
  2
Shades of Gray
 70
    23
177
     2
291
     0
 71
     2
176
     1
 72
     2
176
     1
 73
     3
176
     1
 90
        0
176
     1
 40
0.6
176
     1
 41
30.0
176
     1
 63
     7
421
 16777215
176
     1
 74
     2
176
     1
 91
        2
176
     1
 64
     7
176
     1
 65
     7
176
     1
 75
     1
176
     1
175
     1
176
     1
 42
40.0
176
     1
 92
        8
176
     1
 66
     7
176
     1
 43
1.0
176
     1
 76
     1
176
     1
 77
     6
176
     1
 78
     2
176
     1
 67
     7
176
     1
 79
     3
176
     1
170
     0
176
     1
171
     0
176
     1
290
     0
176
     1
 93
        1
176
     1
 44
0.0
176
     1
173
     0
176
     1
1001
ACAD
1000
AcDbSavedByObjectVersion
1070
     0
  0
VISUALSTYLE
  5
225
102
{ACAD_XDICTIONARY
360
479
102
}
102
{ACAD_REACTORS
330
2A
102
}
330
2A
100
AcDbVisualStyle
  2
Sketchy
 70
    24
177
     2
291
     0
 71
     1
176
     1
 72
     2
176
     1
 73
     2
176
     1
 90
        0
176
     1
 40
0.6
176
     1
 41
30.0
176
     1
 63
     7
421
 16777215
176
     1
 74
     2
176
     1
 91
        2
176
     1
 64
     7
176
     1
 65
     7
176
     1
 75
     1
176
     1
175
     1
176
     1
 42
40.0
176
     1
 92
       11
176
     1
 66
     7
176
     1
 43
1.0
176
     1
 76
     1
176
     1
 77
     6
176
     1
 78
     2
176
     1
 67
     7
176
     1
 79
     6
176
     1
170
     0
176
     1
171
     0
176
     1
290
     0
176
     1
 93
        1
176
     1
 44
0.0
176
     1
173
     0
176
     1
1001
ACAD
1000
AcDbSavedByObjectVersion
1070
     0
  0
VISUALSTYLE
  5
37
102
{ACAD_XDICTIONARY
360
46B
102
}
102
{ACAD_REACTORS
330
2A
102
}
330
2A
100
AcDbVisualStyle
  2
Thicken
 70
    13
177
     2
291
     1
 71
     2
176
     1
 72
     2
176
     1
 73
     0
176
     1
 90
        0
176
     1
 40
0.6
176
     1
 41
30.0
176
     1
 63
     7
421
 16777215
176
     1
 74
     1
176
     1
 91
        4
176
     1
 64
     7
176
     1
 65
   257
176
     1
 75
     1
176
     1
175
     1
176
     1
 42
1.0
176
     1
 92
       12
176
     1
 66
     7
176
     1
 43
1.0
176
     1
 76
     1
176
     1
 77
     6
176
     1
 78
     2
176
     1
 67
     7
176
     1
 79
     5
176
     1
170
     0
176
     1
171
     0
176
     1
290
     0
176
     1
 93
        1
176
     1
 44
0.0
176
     1
173
     0
176
     1
1001
ACAD
1000
AcDbSavedByObjectVersion
1070
     0
  0
VISUALSTYLE
  5
222
102
{ACAD_XDICTIONARY
360
473
102
}
102
{ACAD_REACTORS
330
2A
102
}
330
2A
100
AcDbVisualStyle
  2
Wireframe
 70
     5
177
     2
291
     0
 71
     0
176
     1
 72
     2
176
     1
 73
     0
176
     1
 90
        0
176
     1
 40
0.6
176
     1
 41
30.0
176
     1
 63
     7
421
 16777215
176
     1
 74
     1
176
     1
 91
        4
176
     1
 64
     7
176
     1
 65
   257
176
     1
 75
     1
176
     1
175
     1
176
     1
 42
1.0
176
     1
 92
        0
176
     1
 66
   257
176
     1
 43
1.0
176
     1
 76
     1
176
     1
 77
     6
176
     1
 78
     2
176
     1
 67
     7
176
     1
 79
     3
176
     1
170
     0
176
     1
171
     0
176
     1
290
     0
176
     1
 93
        1
176
     1
 44
0.0
176
     1
173
     0
176
     1
1001
ACAD
1000
AcDbSavedByObjectVersion
1070
     0
  0
VISUALSTYLE
  5
226
102
{ACAD_XDICTIONARY
360
47B
102
}
102
{ACAD_REACTORS
330
2A
102
}
330
2A
100
AcDbVisualStyle
  2
X-Ray
 70
    25
177
     2
291
     0
 71
     2
176
     1
 72
     2
176
     1
 73
     1
176
     1
 90
        1
176
     1
 40
0.5
176
     1
 41
30.0
176
     1
 63
     7
421
 16777215
176
     1
 74
     1
176
     1
 91
        0
176
     1
 64
     7
176
     1
 65
   257
176
     1
 75
     1
176
     1
175
     1
176
     1
 42
1.0
176
     1
 92
        8
176
     1
 66
     7
176
     1
 43
1.0
176
     1
 76
     1
176
     1
 77
     6
176
     1
 78
     2
176
     1
 67
     7
176
     1
 79
     3
176
     1
170
     0
176
     1
171
     0
176
     1
290
     0
176
     1
 93
       13
176
     1
 44
0.0
176
     1
173
     0
176
     1
1001
ACAD
1000
AcDbSavedByObjectVersion
1070
     0
  0
DICTIONARYVAR
  5
1FD
102
{ACAD_REACTORS
330
1FC
102
}
330
1FC
100
DictionaryVariables
280
     0
  1
1:1
  0
DICTIONARYVAR
  5
2B1
102
{ACAD_REACTORS
330
1FC
102
}
330
1FC
100
DictionaryVariables
280
     0
  1
STANDARD
  0
DICTIONARYVAR
  5
2B0
102
{ACAD_REACTORS
330
1FC
102
}
330
1FC
100
DictionaryVariables
280
     0
  1
STANDARD
  0
DICTIONARYVAR
  5
2B2
102
{ACAD_REACTORS
330
1FC
102
}
330
1FC
100
DictionaryVariables
280
     0
  1
Imperial24
  0
DICTIONARYVAR
  5
2B3
102
{ACAD_REACTORS
330
1FC
102
}
330
1FC
100
DictionaryVariables
280
     0
  1
Imperial24
  0
DICTIONARYVAR
  5
28B
102
{ACAD_REACTORS
330
1FC
102
}
330
1FC
100
DictionaryVariables
280
     0
  1
RGB:95,95,95
  0
DICTIONARYVAR
  5
2B4
102
{ACAD_REACTORS
330
1FC
102
}
330
1FC
100
DictionaryVariables
280
     0
  1
1
  0
DICTIONARYVAR
  5
2B5
102
{ACAD_REACTORS
330
1FC
102
}
330
1FC
100
DictionaryVariables
280
     0
  1
15
  0
DICTIONARY
  5
452
102
{ACAD_REACTORS
330
450
102
}
330
450
100
AcDbDictionary
281
     1
  0
DICTIONARY
  5
451
102
{ACAD_REACTORS
330
450
102
}
330
450
100
AcDbDictionary
281
     1
  3
2127614168
350
44B
  3
2127614176
350
44C
  3
2127614184
350
44D
  3
2127614192
350
44E
  3
2127614200
350
44F
  0
XRECORD
  5
1FB
102
{ACAD_REACTORS
330
1FA
102
}
330
1FA
100
AcDbXrecord
280
     1
1000
This DWG file was created in ArchiCAD(TM)®
  0
DICTIONARY
  5
2AD
330
232
100
AcDbDictionary
280
     1
281
     1
  3
ACAD_XREC_ROUNDTRIP
360
48A
  0
DICTIONARY
  5
487
330
22E
100
AcDbDictionary
280
     1
281
     1
  3
ACAD_XREC_ROUNDTRIP
360
488
  0
DICTIONARY
  5
2AB
330
230
100
AcDbDictionary
280
     1
281
     1
  3
ACAD_XREC_ROUNDTRIP
360
489
  0
DICTIONARY
  5
448
330
22D
100
AcDbDictionary
280
     1
281
     1
  3
ACAD_ROUNDTRIP_2008_TABLESTYLE_CELLSTYLEMAP
360
449
  0
DICTIONARY
  5
45B
330
2F
100
AcDbDictionary
280
     1
281
     1
  3
ACAD_XREC_ROUNDTRIP
360
45C
  0
DICTIONARY
  5
45F
330
31
100
AcDbDictionary
280
     1
281
     1
  3
ACAD_XREC_ROUNDTRIP
360
460
  0
DICTIONARY
  5
45D
330
30
100
AcDbDictionary
280
     1
281
     1
  3
ACAD_XREC_ROUNDTRIP
360
45E
  0
DICTIONARY
  5
461
330
32
100
AcDbDictionary
280
     1
281
     1
  3
ACAD_XREC_ROUNDTRIP
360
462
  0
DICTIONARY
  5
469
330
36
100
AcDbDictionary
280
     1
281
     1
  3
ACAD_XREC_ROUNDTRIP
360
46A
  0
DICTIONARY
  5
471
330
3A
100
AcDbDictionary
280
     1
281
     1
  3
ACAD_XREC_ROUNDTRIP
360
472
  0
DICTIONARY
  5
465
330
34
100
AcDbDictionary
280
     1
281
     1
  3
ACAD_XREC_ROUNDTRIP
360
466
  0
DICTIONARY
  5
467
330
35
100
AcDbDictionary
280
     1
281
     1
  3
ACAD_XREC_ROUNDTRIP
360
468
  0
DICTIONARY
  5
485
330
22B
100
AcDbDictionary
280
     1
281
     1
  3
ACAD_XREC_ROUNDTRIP
360
486
  0
DICTIONARY
  5
46F
330
39
100
AcDbDictionary
280
     1
281
     1
  3
ACAD_XREC_ROUNDTRIP
360
470
  0
DICTIONARY
  5
453
330
2B
100
AcDbDictionary
280
     1
281
     1
  3
ACAD_XREC_ROUNDTRIP
360
454
  0
DICTIONARY
  5
455
330
2C
100
AcDbDictionary
280
     1
281
     1
  3
ACAD_XREC_ROUNDTRIP
360
456
  0
DICTIONARY
  5
457
330
2D
100
AcDbDictionary
280
     1
281
     1
  3
ACAD_XREC_ROUNDTRIP
360
458
  0
DICTIONARY
  5
459
330
2E
100
AcDbDictionary
280
     1
281
     1
  3
ACAD_XREC_ROUNDTRIP
360
45A
  0
DICTIONARY
  5
475
330
223
100
AcDbDictionary
280
     1
281
     1
  3
ACAD_XREC_ROUNDTRIP
360
476
  0
DICTIONARY
  5
481
330
229
100
AcDbDictionary
280
     1
281
     1
  3
ACAD_XREC_ROUNDTRIP
360
482
  0
DICTIONARY
  5
46D
330
38
100
AcDbDictionary
280
     1
281
     1
  3
ACAD_XREC_ROUNDTRIP
360
46E
  0
DICTIONARY
  5
483
330
22A
100
AcDbDictionary
280
     1
281
     1
  3
ACAD_XREC_ROUNDTRIP
360
484
  0
DICTIONARY
  5
463
330
33
100
AcDbDictionary
280
     1
281
     1
  3
ACAD_XREC_ROUNDTRIP
360
464
  0
DICTIONARY
  5
47F
330
228
100
AcDbDictionary
280
     1
281
     1
  3
ACAD_XREC_ROUNDTRIP
360
480
  0
DICTIONARY
  5
47D
330
227
100
AcDbDictionary
280
     1
281
     1
  3
ACAD_XREC_ROUNDTRIP
360
47E
  0
DICTIONARY
  5
477
330
224
100
AcDbDictionary
280
     1
281
     1
  3
ACAD_XREC_ROUNDTRIP
360
478
  0
DICTIONARY
  5
479
330
225
100
AcDbDictionary
280
     1
281
     1
  3
ACAD_XREC_ROUNDTRIP
360
47A
  0
DICTIONARY
  5
46B
330
37
100
AcDbDictionary
280
     1
281
     1
  3
ACAD_XREC_ROUNDTRIP
360
46C
  0
DICTIONARY
  5
473
330
222
100
AcDbDictionary
280
     1
281
     1
  3
ACAD_XREC_ROUNDTRIP
360
474
  0
DICTIONARY
  5
47B
330
226
100
AcDbDictionary
280
     1
281
     1
  3
ACAD_XREC_ROUNDTRIP
360
47C
  0
XRECORD
  5
44B
102
{ACAD_REACTORS
330
451
102
}
330
451
100
AcDbXrecord
280
     1
  1
AcDb_Thumbnail_Schema
102
{ATTRRECORD
341
44C
  2
AcDbDs::TreatedAsObjectData
280
     1
291
     1
102
ATTRRECORD}
102
{ATTRRECORD
341
44D
  2
AcDbDs::Legacy
280
     1
291
     1
102
ATTRRECORD}
  2
AcDbDs::ID
280
    10
 91
        8
102
{ATTRRECORD
341
44E
  2
AcDs:Indexable
280
     1
291
     1
102
ATTRRECORD}
102
{ATTRRECORD
341
44F
  2
AcDbDs::HandleAttribute
280
     7
282
     1
102
ATTRRECORD}
  2
Thumbnail_Data
280
    15
 91
        0
  0
XRECORD
  5
44C
102
{ACAD_REACTORS
330
451
102
}
330
451
100
AcDbXrecord
280
     1
  1
AcDbDs::TreatedAsObjectDataSchema
  2
AcDbDs::TreatedAsObjectData
280
     1
 91
        0
  0
XRECORD
  5
44D
102
{ACAD_REACTORS
330
451
102
}
330
451
100
AcDbXrecord
280
     1
  1
AcDbDs::LegacySchema
  2
AcDbDs::Legacy
280
     1
 91
        0
  0
XRECORD
  5
44E
102
{ACAD_REACTORS
330
451
102
}
330
451
100
AcDbXrecord
280
     1
  1
AcDbDs::IndexedPropertySchema
  2
AcDs:Indexable
280
     1
 91
        0
  0
XRECORD
  5
44F
102
{ACAD_REACTORS
330
451
102
}
330
451
100
AcDbXrecord
280
     1
  1
AcDbDs::HandleAttributeSchema
  2
AcDbDs::HandleAttribute
280
     7
 91
        1
284
     1
  0
XRECORD
  5
48A
102
{ACAD_REACTORS
330
2AD
102
}
330
2AD
100
AcDbXrecord
280
     1
102
DISPLAYNAME
  1
Imperial24
102
FLAGS
 90
        0
  0
XRECORD
  5
488
102
{ACAD_REACTORS
330
487
102
}
330
487
100
AcDbXrecord
280
     1
102
ACAD_ROUNDTRIP_2012_MLEADER_STYLE
298
     1
  0
XRECORD
  5
489
102
{ACAD_REACTORS
330
2AB
102
}
330
2AB
100
AcDbXrecord
280
     1
102
DISPLAYNAME
  1
Imperial24
102
FLAGS
 90
        0
  0
CELLSTYLEMAP
  5
449
102
{ACAD_REACTORS
330
448
102
}
330
448
100
AcDbCellStyleMap
 90
        3
300
CELLSTYLE
  1
TABLEFORMAT_BEGIN
 90
        5
170
     1
 91
        0
 92
    32768
 62
   257
 93
        1
300
CONTENTFORMAT
  1
CONTENTFORMAT_BEGIN
 90
        0
 91
        0
 92
      512
 93
        0
300

 40
0.0
140
1.0
 94
        5
 62
     0
340
11
144
0.25
309
CONTENTFORMAT_END
171
     0
 94
        0
309
TABLEFORMAT_END
  1
CELLSTYLE_BEGIN
 90
        1
 91
        1
300
_TITLE
309
CELLSTYLE_END
300
CELLSTYLE
  1
TABLEFORMAT_BEGIN
 90
        5
170
     1
 91
        0
 92
        0
 62
   257
 93
        1
300
CONTENTFORMAT
  1
CONTENTFORMAT_BEGIN
 90
        0
 91
        0
 92
      512
 93
        0
300

 40
0.0
140
1.0
 94
        5
 62
     0
340
11
144
0.18
309
CONTENTFORMAT_END
171
     0
 94
        0
309
TABLEFORMAT_END
  1
CELLSTYLE_BEGIN
 90
        2
 91
        1
300
_HEADER
309
CELLSTYLE_END
300
CELLSTYLE
  1
TABLEFORMAT_BEGIN
 90
        5
170
     1
 91
        0
 92
        0
 62
   257
 93
        1
300
CONTENTFORMAT
  1
CONTENTFORMAT_BEGIN
 90
        0
 91
        0
 92
      512
 93
        0
300

 40
0.0
140
1.0
 94
        2
 62
     0
340
11
144
0.18
309
CONTENTFORMAT_END
171
     0
 94
        0
309
TABLEFORMAT_END
  1
CELLSTYLE_BEGIN
 90
        3
 91
        2
300
_DATA
309
CELLSTYLE_END
  0
XRECORD
  5
45C
102
{ACAD_REACTORS
330
45B
102
}
330
45B
100
AcDbXrecord
280
     1
102
RTVSPost2010Prop28
280
     1
102
RTVSPost2010PropOp28
 70
     1
102
RTVSPost2010Prop29
280
     1
102
RTVSPost2010PropOp29
 70
     1
102
RTVSPost2010Prop30
280
     0
102
RTVSPost2010PropOp30
 70
     1
102
RTVSPost2010Prop31
280
     0
102
RTVSPost2010PropOp31
 70
     1
102
RTVSPost2010Prop32
280
     0
102
RTVSPost2010PropOp32
 70
     1
102
RTVSPost2010Prop33
280
     0
102
RTVSPost2010PropOp33
 70
     1
102
RTVSPost2010Prop34
280
     0
102
RTVSPost2010PropOp34
 70
     1
102
RTVSPost2010Prop35
280
     0
102
RTVSPost2010PropOp35
 70
     1
102
RTVSPost2010Prop36
280
     0
102
RTVSPost2010PropOp36
 70
     1
102
RTVSPost2010Prop37
 90
       50
102
RTVSPost2010PropOp37
 70
     1
102
RTVSPost2010Prop38
140
0.0
102
RTVSPost2010PropOp38
 70
     1
102
RTVSPost2010Prop39
140
1.0
102
RTVSPost2010PropOp39
 70
     1
102
RTVSPost2010Prop40
 90
        0
102
RTVSPost2010PropOp40
 70
     1
102
RTVSPost2010Prop41ColorIndex
 90
       18
102
RTVSPost2010Prop41ColorRGB
 90
        0
102
RTVSPost2010PropOp41
 70
     1
102
RTVSPost2010Prop42
 90
       50
102
RTVSPost2010PropOp42
 70
     1
102
RTVSPost2010Prop43
 90
        3
102
RTVSPost2010PropOp43
 70
     1
102
RTVSPost2010Prop44ColorIndex
 90
        5
102
RTVSPost2010Prop44ColorRGB
 90
      255
102
RTVSPost2010PropOp44
 70
     1
102
RTVSPost2010Prop45
280
     0
102
RTVSPost2010PropOp45
 70
     1
102
RTVSPost2010Prop46
 90
       50
102
RTVSPost2010PropOp46
 70
     1
102
RTVSPost2010Prop47
 90
       50
102
RTVSPost2010PropOp47
 70
     1
102
RTVSPost2010Prop48
 90
       50
102
RTVSPost2010PropOp48
 70
     1
102
RTVSPost2010Prop49
280
     0
102
RTVSPost2010PropOp49
 70
     1
102
RTVSPost2010Prop50
 90
       50
102
RTVSPost2010PropOp50
 70
     1
102
RTVSPost2010Prop51ColorIndex
 90
      256
102
RTVSPost2010Prop51ColorRGB
 90
-16777216
102
RTVSPost2010PropOp51
 70
     0
102
RTVSPost2010Prop52
140
1.0
102
RTVSPost2010PropOp52
 70
     0
102
RTVSPost2010Prop53
 90
        2
102
RTVSPost2010PropOp53
 70
     1
102
RTVSPost2010Prop54
  1
strokes_ogs.tif
102
RTVSPost2010PropOp54
 70
     1
102
RTVSPost2010Prop55
280
     0
102
RTVSPost2010PropOp55
 70
     1
102
RTVSPost2010Prop56
140
1.0
102
RTVSPost2010PropOp56
 70
     1
102
RTVSPost2010Prop57
140
1.0
102
RTVSPost2010PropOp57
 70
     1
  0
XRECORD
  5
460
102
{ACAD_REACTORS
330
45F
102
}
330
45F
100
AcDbXrecord
280
     1
102
RTVSPost2010Prop28
280
     0
102
RTVSPost2010PropOp28
 70
     1
102
RTVSPost2010Prop29
280
     1
102
RTVSPost2010PropOp29
 70
     1
102
RTVSPost2010Prop30
280
     1
102
RTVSPost2010PropOp30
 70
     1
102
RTVSPost2010Prop31
280
     0
102
RTVSPost2010PropOp31
 70
     1
102
RTVSPost2010Prop32
280
     0
102
RTVSPost2010PropOp32
 70
     1
102
RTVSPost2010Prop33
280
     0
102
RTVSPost2010PropOp33
 70
     1
102
RTVSPost2010Prop34
280
     0
102
RTVSPost2010PropOp34
 70
     1
102
RTVSPost2010Prop35
280
     0
102
RTVSPost2010PropOp35
 70
     1
102
RTVSPost2010Prop36
280
     0
102
RTVSPost2010PropOp36
 70
     1
102
RTVSPost2010Prop37
 90
       50
102
RTVSPost2010PropOp37
 70
     1
102
RTVSPost2010Prop38
140
0.0
102
RTVSPost2010PropOp38
 70
     1
102
RTVSPost2010Prop39
140
1.0
102
RTVSPost2010PropOp39
 70
     1
102
RTVSPost2010Prop40
 90
        0
102
RTVSPost2010PropOp40
 70
     1
102
RTVSPost2010Prop41ColorIndex
 90
       18
102
RTVSPost2010Prop41ColorRGB
 90
        0
102
RTVSPost2010PropOp41
 70
     1
102
RTVSPost2010Prop42
 90
       50
102
RTVSPost2010PropOp42
 70
     1
102
RTVSPost2010Prop43
 90
        3
102
RTVSPost2010PropOp43
 70
     1
102
RTVSPost2010Prop44ColorIndex
 90
        5
102
RTVSPost2010Prop44ColorRGB
 90
      255
102
RTVSPost2010PropOp44
 70
     1
102
RTVSPost2010Prop45
280
     0
102
RTVSPost2010PropOp45
 70
     1
102
RTVSPost2010Prop46
 90
       50
102
RTVSPost2010PropOp46
 70
     1
102
RTVSPost2010Prop47
 90
       50
102
RTVSPost2010PropOp47
 70
     1
102
RTVSPost2010Prop48
 90
       50
102
RTVSPost2010PropOp48
 70
     1
102
RTVSPost2010Prop49
280
     0
102
RTVSPost2010PropOp49
 70
     1
102
RTVSPost2010Prop50
 90
       50
102
RTVSPost2010PropOp50
 70
     1
102
RTVSPost2010Prop51ColorIndex
 90
      256
102
RTVSPost2010Prop51ColorRGB
 90
-16777216
102
RTVSPost2010PropOp51
 70
     0
102
RTVSPost2010Prop52
140
1.0
102
RTVSPost2010PropOp52
 70
     0
102
RTVSPost2010Prop53
 90
        2
102
RTVSPost2010PropOp53
 70
     1
102
RTVSPost2010Prop54
  1
strokes_ogs.tif
102
RTVSPost2010PropOp54
 70
     1
102
RTVSPost2010Prop55
280
     0
102
RTVSPost2010PropOp55
 70
     1
102
RTVSPost2010Prop56
140
1.0
102
RTVSPost2010PropOp56
 70
     1
102
RTVSPost2010Prop57
140
1.0
102
RTVSPost2010PropOp57
 70
     1
  0
XRECORD
  5
45E
102
{ACAD_REACTORS
330
45D
102
}
330
45D
100
AcDbXrecord
280
     1
102
RTVSPost2010Prop28
280
     0
102
RTVSPost2010PropOp28
 70
     1
102
RTVSPost2010Prop29
280
     1
102
RTVSPost2010PropOp29
 70
     1
102
RTVSPost2010Prop30
280
     1
102
RTVSPost2010PropOp30
 70
     1
102
RTVSPost2010Prop31
280
     0
102
RTVSPost2010PropOp31
 70
     1
102
RTVSPost2010Prop32
280
     0
102
RTVSPost2010PropOp32
 70
     1
102
RTVSPost2010Prop33
280
     0
102
RTVSPost2010PropOp33
 70
     1
102
RTVSPost2010Prop34
280
     0
102
RTVSPost2010PropOp34
 70
     1
102
RTVSPost2010Prop35
280
     0
102
RTVSPost2010PropOp35
 70
     1
102
RTVSPost2010Prop36
280
     0
102
RTVSPost2010PropOp36
 70
     1
102
RTVSPost2010Prop37
 90
       50
102
RTVSPost2010PropOp37
 70
     1
102
RTVSPost2010Prop38
140
0.0
102
RTVSPost2010PropOp38
 70
     1
102
RTVSPost2010Prop39
140
1.0
102
RTVSPost2010PropOp39
 70
     1
102
RTVSPost2010Prop40
 90
        0
102
RTVSPost2010PropOp40
 70
     1
102
RTVSPost2010Prop41ColorIndex
 90
       18
102
RTVSPost2010Prop41ColorRGB
 90
        0
102
RTVSPost2010PropOp41
 70
     1
102
RTVSPost2010Prop42
 90
       50
102
RTVSPost2010PropOp42
 70
     1
102
RTVSPost2010Prop43
 90
        3
102
RTVSPost2010PropOp43
 70
     1
102
RTVSPost2010Prop44ColorIndex
 90
        5
102
RTVSPost2010Prop44ColorRGB
 90
      255
102
RTVSPost2010PropOp44
 70
     1
102
RTVSPost2010Prop45
280
     0
102
RTVSPost2010PropOp45
 70
     1
102
RTVSPost2010Prop46
 90
       50
102
RTVSPost2010PropOp46
 70
     1
102
RTVSPost2010Prop47
 90
       50
102
RTVSPost2010PropOp47
 70
     1
102
RTVSPost2010Prop48
 90
       50
102
RTVSPost2010PropOp48
 70
     1
102
RTVSPost2010Prop49
280
     0
102
RTVSPost2010PropOp49
 70
     1
102
RTVSPost2010Prop50
 90
       50
102
RTVSPost2010PropOp50
 70
     1
102
RTVSPost2010Prop51ColorIndex
 90
      256
102
RTVSPost2010Prop51ColorRGB
 90
-16777216
102
RTVSPost2010PropOp51
 70
     0
102
RTVSPost2010Prop52
140
1.0
102
RTVSPost2010PropOp52
 70
     0
102
RTVSPost2010Prop53
 90
        2
102
RTVSPost2010PropOp53
 70
     1
102
RTVSPost2010Prop54
  1
strokes_ogs.tif
102
RTVSPost2010PropOp54
 70
     1
102
RTVSPost2010Prop55
280
     0
102
RTVSPost2010PropOp55
 70
     1
102
RTVSPost2010Prop56
140
1.0
102
RTVSPost2010PropOp56
 70
     1
102
RTVSPost2010Prop57
140
1.0
102
RTVSPost2010PropOp57
 70
     1
  0
XRECORD
  5
462
102
{ACAD_REACTORS
330
461
102
}
330
461
100
AcDbXrecord
280
     1
102
RTVSPost2010Prop28
280
     0
102
RTVSPost2010PropOp28
 70
     1
102
RTVSPost2010Prop29
280
     1
102
RTVSPost2010PropOp29
 70
     1
102
RTVSPost2010Prop30
280
     1
102
RTVSPost2010PropOp30
 70
     1
102
RTVSPost2010Prop31
280
     0
102
RTVSPost2010PropOp31
 70
     1
102
RTVSPost2010Prop32
280
     0
102
RTVSPost2010PropOp32
 70
     1
102
RTVSPost2010Prop33
280
     0
102
RTVSPost2010PropOp33
 70
     1
102
RTVSPost2010Prop34
280
     0
102
RTVSPost2010PropOp34
 70
     1
102
RTVSPost2010Prop35
280
     0
102
RTVSPost2010PropOp35
 70
     1
102
RTVSPost2010Prop36
280
     0
102
RTVSPost2010PropOp36
 70
     1
102
RTVSPost2010Prop37
 90
       50
102
RTVSPost2010PropOp37
 70
     1
102
RTVSPost2010Prop38
140
0.0
102
RTVSPost2010PropOp38
 70
     1
102
RTVSPost2010Prop39
140
1.0
102
RTVSPost2010PropOp39
 70
     1
102
RTVSPost2010Prop40
 90
        0
102
RTVSPost2010PropOp40
 70
     1
102
RTVSPost2010Prop41ColorIndex
 90
       18
102
RTVSPost2010Prop41ColorRGB
 90
        0
102
RTVSPost2010PropOp41
 70
     1
102
RTVSPost2010Prop42
 90
       50
102
RTVSPost2010PropOp42
 70
     1
102
RTVSPost2010Prop43
 90
        3
102
RTVSPost2010PropOp43
 70
     1
102
RTVSPost2010Prop44ColorIndex
 90
        5
102
RTVSPost2010Prop44ColorRGB
 90
      255
102
RTVSPost2010PropOp44
 70
     1
102
RTVSPost2010Prop45
280
     0
102
RTVSPost2010PropOp45
 70
     1
102
RTVSPost2010Prop46
 90
       50
102
RTVSPost2010PropOp46
 70
     1
102
RTVSPost2010Prop47
 90
       50
102
RTVSPost2010PropOp47
 70
     1
102
RTVSPost2010Prop48
 90
       50
102
RTVSPost2010PropOp48
 70
     1
102
RTVSPost2010Prop49
280
     0
102
RTVSPost2010PropOp49
 70
     1
102
RTVSPost2010Prop50
 90
       50
102
RTVSPost2010PropOp50
 70
     1
102
RTVSPost2010Prop51ColorIndex
 90
      256
102
RTVSPost2010Prop51ColorRGB
 90
-16777216
102
RTVSPost2010PropOp51
 70
     0
102
RTVSPost2010Prop52
140
1.0
102
RTVSPost2010PropOp52
 70
     0
102
RTVSPost2010Prop53
 90
        2
102
RTVSPost2010PropOp53
 70
     1
102
RTVSPost2010Prop54
  1
strokes_ogs.tif
102
RTVSPost2010PropOp54
 70
     1
102
RTVSPost2010Prop55
280
     0
102
RTVSPost2010PropOp55
 70
     1
102
RTVSPost2010Prop56
140
1.0
102
RTVSPost2010PropOp56
 70
     1
102
RTVSPost2010Prop57
140
1.0
102
RTVSPost2010PropOp57
 70
     1
  0
XRECORD
  5
46A
102
{ACAD_REACTORS
330
469
102
}
330
469
100
AcDbXrecord
280
     1
102
RTVSPost2010Prop28
280
     0
102
RTVSPost2010PropOp28
 70
     1
102
RTVSPost2010Prop29
280
     1
102
RTVSPost2010PropOp29
 70
     1
102
RTVSPost2010Prop30
280
     1
102
RTVSPost2010PropOp30
 70
     1
102
RTVSPost2010Prop31
280
     0
102
RTVSPost2010PropOp31
 70
     1
102
RTVSPost2010Prop32
280
     0
102
RTVSPost2010PropOp32
 70
     1
102
RTVSPost2010Prop33
280
     0
102
RTVSPost2010PropOp33
 70
     1
102
RTVSPost2010Prop34
280
     0
102
RTVSPost2010PropOp34
 70
     1
102
RTVSPost2010Prop35
280
     0
102
RTVSPost2010PropOp35
 70
     1
102
RTVSPost2010Prop36
280
     0
102
RTVSPost2010PropOp36
 70
     1
102
RTVSPost2010Prop37
 90
       50
102
RTVSPost2010PropOp37
 70
     1
102
RTVSPost2010Prop38
140
0.0
102
RTVSPost2010PropOp38
 70
     1
102
RTVSPost2010Prop39
140
1.0
102
RTVSPost2010PropOp39
 70
     1
102
RTVSPost2010Prop40
 90
        0
102
RTVSPost2010PropOp40
 70
     1
102
RTVSPost2010Prop41ColorIndex
 90
       18
102
RTVSPost2010Prop41ColorRGB
 90
        0
102
RTVSPost2010PropOp41
 70
     1
102
RTVSPost2010Prop42
 90
       50
102
RTVSPost2010PropOp42
 70
     1
102
RTVSPost2010Prop43
 90
        3
102
RTVSPost2010PropOp43
 70
     1
102
RTVSPost2010Prop44ColorIndex
 90
        5
102
RTVSPost2010Prop44ColorRGB
 90
      255
102
RTVSPost2010PropOp44
 70
     1
102
RTVSPost2010Prop45
280
     0
102
RTVSPost2010PropOp45
 70
     1
102
RTVSPost2010Prop46
 90
       50
102
RTVSPost2010PropOp46
 70
     1
102
RTVSPost2010Prop47
 90
       50
102
RTVSPost2010PropOp47
 70
     1
102
RTVSPost2010Prop48
 90
       50
102
RTVSPost2010PropOp48
 70
     1
102
RTVSPost2010Prop49
280
     0
102
RTVSPost2010PropOp49
 70
     1
102
RTVSPost2010Prop50
 90
       50
102
RTVSPost2010PropOp50
 70
     1
102
RTVSPost2010Prop51ColorIndex
 90
      256
102
RTVSPost2010Prop51ColorRGB
 90
-16777216
102
RTVSPost2010PropOp51
 70
     0
102
RTVSPost2010Prop52
140
1.0
102
RTVSPost2010PropOp52
 70
     0
102
RTVSPost2010Prop53
 90
        2
102
RTVSPost2010PropOp53
 70
     1
102
RTVSPost2010Prop54
  1
strokes_ogs.tif
102
RTVSPost2010PropOp54
 70
     1
102
RTVSPost2010Prop55
280
     0
102
RTVSPost2010PropOp55
 70
     1
102
RTVSPost2010Prop56
140
1.0
102
RTVSPost2010PropOp56
 70
     1
102
RTVSPost2010Prop57
140
1.0
102
RTVSPost2010PropOp57
 70
     1
  0
XRECORD
  5
472
102
{ACAD_REACTORS
330
471
102
}
330
471
100
AcDbXrecord
280
     1
102
RTVSPost2010Prop28
280
     0
102
RTVSPost2010PropOp28
 70
     1
102
RTVSPost2010Prop29
280
     1
102
RTVSPost2010PropOp29
 70
     1
102
RTVSPost2010Prop30
280
     1
102
RTVSPost2010PropOp30
 70
     1
102
RTVSPost2010Prop31
280
     0
102
RTVSPost2010PropOp31
 70
     1
102
RTVSPost2010Prop32
280
     0
102
RTVSPost2010PropOp32
 70
     1
102
RTVSPost2010Prop33
280
     0
102
RTVSPost2010PropOp33
 70
     1
102
RTVSPost2010Prop34
280
     0
102
RTVSPost2010PropOp34
 70
     1
102
RTVSPost2010Prop35
280
     0
102
RTVSPost2010PropOp35
 70
     1
102
RTVSPost2010Prop36
280
     0
102
RTVSPost2010PropOp36
 70
     1
102
RTVSPost2010Prop37
 90
       50
102
RTVSPost2010PropOp37
 70
     1
102
RTVSPost2010Prop38
140
0.0
102
RTVSPost2010PropOp38
 70
     1
102
RTVSPost2010Prop39
140
1.0
102
RTVSPost2010PropOp39
 70
     1
102
RTVSPost2010Prop40
 90
        0
102
RTVSPost2010PropOp40
 70
     1
102
RTVSPost2010Prop41ColorIndex
 90
       18
102
RTVSPost2010Prop41ColorRGB
 90
        0
102
RTVSPost2010PropOp41
 70
     1
102
RTVSPost2010Prop42
 90
       50
102
RTVSPost2010PropOp42
 70
     1
102
RTVSPost2010Prop43
 90
        3
102
RTVSPost2010PropOp43
 70
     1
102
RTVSPost2010Prop44ColorIndex
 90
        5
102
RTVSPost2010Prop44ColorRGB
 90
      255
102
RTVSPost2010PropOp44
 70
     1
102
RTVSPost2010Prop45
280
     0
102
RTVSPost2010PropOp45
 70
     1
102
RTVSPost2010Prop46
 90
       50
102
RTVSPost2010PropOp46
 70
     1
102
RTVSPost2010Prop47
 90
       50
102
RTVSPost2010PropOp47
 70
     1
102
RTVSPost2010Prop48
 90
       50
102
RTVSPost2010PropOp48
 70
     1
102
RTVSPost2010Prop49
280
     0
102
RTVSPost2010PropOp49
 70
     1
102
RTVSPost2010Prop50
 90
       50
102
RTVSPost2010PropOp50
 70
     1
102
RTVSPost2010Prop51ColorIndex
 90
      256
102
RTVSPost2010Prop51ColorRGB
 90
-16777216
102
RTVSPost2010PropOp51
 70
     0
102
RTVSPost2010Prop52
140
1.0
102
RTVSPost2010PropOp52
 70
     0
102
RTVSPost2010Prop53
 90
        2
102
RTVSPost2010PropOp53
 70
     1
102
RTVSPost2010Prop54
  1
strokes_ogs.tif
102
RTVSPost2010PropOp54
 70
     1
102
RTVSPost2010Prop55
280
     0
102
RTVSPost2010PropOp55
 70
     1
102
RTVSPost2010Prop56
140
1.0
102
RTVSPost2010PropOp56
 70
     1
102
RTVSPost2010Prop57
140
1.0
102
RTVSPost2010PropOp57
 70
     1
  0
XRECORD
  5
466
102
{ACAD_REACTORS
330
465
102
}
330
465
100
AcDbXrecord
280
     1
102
RTVSPost2010Prop28
280
     0
102
RTVSPost2010PropOp28
 70
     1
102
RTVSPost2010Prop29
280
     1
102
RTVSPost2010PropOp29
 70
     1
102
RTVSPost2010Prop30
280
     1
102
RTVSPost2010PropOp30
 70
     1
102
RTVSPost2010Prop31
280
     0
102
RTVSPost2010PropOp31
 70
     1
102
RTVSPost2010Prop32
280
     0
102
RTVSPost2010PropOp32
 70
     1
102
RTVSPost2010Prop33
280
     0
102
RTVSPost2010PropOp33
 70
     1
102
RTVSPost2010Prop34
280
     0
102
RTVSPost2010PropOp34
 70
     1
102
RTVSPost2010Prop35
280
     0
102
RTVSPost2010PropOp35
 70
     1
102
RTVSPost2010Prop36
280
     0
102
RTVSPost2010PropOp36
 70
     1
102
RTVSPost2010Prop37
 90
       50
102
RTVSPost2010PropOp37
 70
     1
102
RTVSPost2010Prop38
140
0.0
102
RTVSPost2010PropOp38
 70
     1
102
RTVSPost2010Prop39
140
1.0
102
RTVSPost2010PropOp39
 70
     1
102
RTVSPost2010Prop40
 90
        0
102
RTVSPost2010PropOp40
 70
     1
102
RTVSPost2010Prop41ColorIndex
 90
       18
102
RTVSPost2010Prop41ColorRGB
 90
        0
102
RTVSPost2010PropOp41
 70
     1
102
RTVSPost2010Prop42
 90
       50
102
RTVSPost2010PropOp42
 70
     1
102
RTVSPost2010Prop43
 90
        3
102
RTVSPost2010PropOp43
 70
     1
102
RTVSPost2010Prop44ColorIndex
 90
        5
102
RTVSPost2010Prop44ColorRGB
 90
      255
102
RTVSPost2010PropOp44
 70
     1
102
RTVSPost2010Prop45
280
     0
102
RTVSPost2010PropOp45
 70
     1
102
RTVSPost2010Prop46
 90
       50
102
RTVSPost2010PropOp46
 70
     1
102
RTVSPost2010Prop47
 90
       50
102
RTVSPost2010PropOp47
 70
     1
102
RTVSPost2010Prop48
 90
       50
102
RTVSPost2010PropOp48
 70
     1
102
RTVSPost2010Prop49
280
     0
102
RTVSPost2010PropOp49
 70
     1
102
RTVSPost2010Prop50
 90
       50
102
RTVSPost2010PropOp50
 70
     1
102
RTVSPost2010Prop51ColorIndex
 90
      256
102
RTVSPost2010Prop51ColorRGB
 90
-16777216
102
RTVSPost2010PropOp51
 70
     0
102
RTVSPost2010Prop52
140
1.0
102
RTVSPost2010PropOp52
 70
     0
102
RTVSPost2010Prop53
 90
        2
102
RTVSPost2010PropOp53
 70
     1
102
RTVSPost2010Prop54
  1
strokes_ogs.tif
102
RTVSPost2010PropOp54
 70
     1
102
RTVSPost2010Prop55
280
     0
102
RTVSPost2010PropOp55
 70
     1
102
RTVSPost2010Prop56
140
1.0
102
RTVSPost2010PropOp56
 70
     1
102
RTVSPost2010Prop57
140
1.0
102
RTVSPost2010PropOp57
 70
     1
  0
XRECORD
  5
468
102
{ACAD_REACTORS
330
467
102
}
330
467
100
AcDbXrecord
280
     1
102
RTVSPost2010Prop28
280
     0
102
RTVSPost2010PropOp28
 70
     1
102
RTVSPost2010Prop29
280
     1
102
RTVSPost2010PropOp29
 70
     1
102
RTVSPost2010Prop30
280
     1
102
RTVSPost2010PropOp30
 70
     1
102
RTVSPost2010Prop31
280
     0
102
RTVSPost2010PropOp31
 70
     1
102
RTVSPost2010Prop32
280
     0
102
RTVSPost2010PropOp32
 70
     1
102
RTVSPost2010Prop33
280
     0
102
RTVSPost2010PropOp33
 70
     1
102
RTVSPost2010Prop34
280
     0
102
RTVSPost2010PropOp34
 70
     1
102
RTVSPost2010Prop35
280
     0
102
RTVSPost2010PropOp35
 70
     1
102
RTVSPost2010Prop36
280
     0
102
RTVSPost2010PropOp36
 70
     1
102
RTVSPost2010Prop37
 90
       50
102
RTVSPost2010PropOp37
 70
     1
102
RTVSPost2010Prop38
140
0.0
102
RTVSPost2010PropOp38
 70
     1
102
RTVSPost2010Prop39
140
1.0
102
RTVSPost2010PropOp39
 70
     1
102
RTVSPost2010Prop40
 90
        0
102
RTVSPost2010PropOp40
 70
     1
102
RTVSPost2010Prop41ColorIndex
 90
       18
102
RTVSPost2010Prop41ColorRGB
 90
        0
102
RTVSPost2010PropOp41
 70
     1
102
RTVSPost2010Prop42
 90
       50
102
RTVSPost2010PropOp42
 70
     1
102
RTVSPost2010Prop43
 90
        3
102
RTVSPost2010PropOp43
 70
     1
102
RTVSPost2010Prop44ColorIndex
 90
        5
102
RTVSPost2010Prop44ColorRGB
 90
      255
102
RTVSPost2010PropOp44
 70
     1
102
RTVSPost2010Prop45
280
     0
102
RTVSPost2010PropOp45
 70
     1
102
RTVSPost2010Prop46
 90
       50
102
RTVSPost2010PropOp46
 70
     1
102
RTVSPost2010Prop47
 90
       50
102
RTVSPost2010PropOp47
 70
     1
102
RTVSPost2010Prop48
 90
       50
102
RTVSPost2010PropOp48
 70
     1
102
RTVSPost2010Prop49
280
     0
102
RTVSPost2010PropOp49
 70
     1
102
RTVSPost2010Prop50
 90
       50
102
RTVSPost2010PropOp50
 70
     1
102
RTVSPost2010Prop51ColorIndex
 90
      256
102
RTVSPost2010Prop51ColorRGB
 90
-16777216
102
RTVSPost2010PropOp51
 70
     0
102
RTVSPost2010Prop52
140
1.0
102
RTVSPost2010PropOp52
 70
     0
102
RTVSPost2010Prop53
 90
        2
102
RTVSPost2010PropOp53
 70
     1
102
RTVSPost2010Prop54
  1
strokes_ogs.tif
102
RTVSPost2010PropOp54
 70
     1
102
RTVSPost2010Prop55
280
     0
102
RTVSPost2010PropOp55
 70
     1
102
RTVSPost2010Prop56
140
1.0
102
RTVSPost2010PropOp56
 70
     1
102
RTVSPost2010Prop57
140
1.0
102
RTVSPost2010PropOp57
 70
     1
  0
XRECORD
  5
486
102
{ACAD_REACTORS
330
485
102
}
330
485
100
AcDbXrecord
280
     1
102
RTVSPost2010Prop28
280
     0
102
RTVSPost2010PropOp28
 70
     0
102
RTVSPost2010Prop29
280
     1
102
RTVSPost2010PropOp29
 70
     0
102
RTVSPost2010Prop30
280
     1
102
RTVSPost2010PropOp30
 70
     0
102
RTVSPost2010Prop31
280
     0
102
RTVSPost2010PropOp31
 70
     0
102
RTVSPost2010Prop32
280
     0
102
RTVSPost2010PropOp32
 70
     0
102
RTVSPost2010Prop33
280
     0
102
RTVSPost2010PropOp33
 70
     0
102
RTVSPost2010Prop34
280
     0
102
RTVSPost2010PropOp34
 70
     0
102
RTVSPost2010Prop35
280
     0
102
RTVSPost2010PropOp35
 70
     0
102
RTVSPost2010Prop36
280
     0
102
RTVSPost2010PropOp36
 70
     0
102
RTVSPost2010Prop37
 90
       50
102
RTVSPost2010PropOp37
 70
     0
102
RTVSPost2010Prop38
140
0.0
102
RTVSPost2010PropOp38
 70
     0
102
RTVSPost2010Prop39
140
1.0
102
RTVSPost2010PropOp39
 70
     0
102
RTVSPost2010Prop40
 90
        0
102
RTVSPost2010PropOp40
 70
     0
102
RTVSPost2010Prop41ColorIndex
 90
       18
102
RTVSPost2010Prop41ColorRGB
 90
        0
102
RTVSPost2010PropOp41
 70
     0
102
RTVSPost2010Prop42
 90
       50
102
RTVSPost2010PropOp42
 70
     0
102
RTVSPost2010Prop43
 90
        3
102
RTVSPost2010PropOp43
 70
     0
102
RTVSPost2010Prop44ColorIndex
 90
        5
102
RTVSPost2010Prop44ColorRGB
 90
      255
102
RTVSPost2010PropOp44
 70
     0
102
RTVSPost2010Prop45
280
     0
102
RTVSPost2010PropOp45
 70
     0
102
RTVSPost2010Prop46
 90
       50
102
RTVSPost2010PropOp46
 70
     0
102
RTVSPost2010Prop47
 90
       50
102
RTVSPost2010PropOp47
 70
     0
102
RTVSPost2010Prop48
 90
       50
102
RTVSPost2010PropOp48
 70
     0
102
RTVSPost2010Prop49
280
     0
102
RTVSPost2010PropOp49
 70
     0
102
RTVSPost2010Prop50
 90
       50
102
RTVSPost2010PropOp50
 70
     0
102
RTVSPost2010Prop51ColorIndex
 90
      256
102
RTVSPost2010Prop51ColorRGB
 90
-16777216
102
RTVSPost2010PropOp51
 70
     0
102
RTVSPost2010Prop52
140
1.0
102
RTVSPost2010PropOp52
 70
     0
102
RTVSPost2010Prop53
 90
        2
102
RTVSPost2010PropOp53
 70
     0
102
RTVSPost2010Prop54
  1
strokes_ogs.tif
102
RTVSPost2010PropOp54
 70
     0
102
RTVSPost2010Prop55
280
     0
102
RTVSPost2010PropOp55
 70
     0
102
RTVSPost2010Prop56
140
1.0
102
RTVSPost2010PropOp56
 70
     0
102
RTVSPost2010Prop57
140
1.0
102
RTVSPost2010PropOp57
 70
     0
  0
XRECORD
  5
470
102
{ACAD_REACTORS
330
46F
102
}
330
46F
100
AcDbXrecord
280
     1
102
RTVSPost2010Prop28
280
     0
102
RTVSPost2010PropOp28
 70
     1
102
RTVSPost2010Prop29
280
     1
102
RTVSPost2010PropOp29
 70
     1
102
RTVSPost2010Prop30
280
     1
102
RTVSPost2010PropOp30
 70
     1
102
RTVSPost2010Prop31
280
     0
102
RTVSPost2010PropOp31
 70
     1
102
RTVSPost2010Prop32
280
     0
102
RTVSPost2010PropOp32
 70
     1
102
RTVSPost2010Prop33
280
     0
102
RTVSPost2010PropOp33
 70
     1
102
RTVSPost2010Prop34
280
     0
102
RTVSPost2010PropOp34
 70
     1
102
RTVSPost2010Prop35
280
     0
102
RTVSPost2010PropOp35
 70
     1
102
RTVSPost2010Prop36
280
     0
102
RTVSPost2010PropOp36
 70
     1
102
RTVSPost2010Prop37
 90
       50
102
RTVSPost2010PropOp37
 70
     1
102
RTVSPost2010Prop38
140
0.0
102
RTVSPost2010PropOp38
 70
     1
102
RTVSPost2010Prop39
140
1.0
102
RTVSPost2010PropOp39
 70
     1
102
RTVSPost2010Prop40
 90
        0
102
RTVSPost2010PropOp40
 70
     1
102
RTVSPost2010Prop41ColorIndex
 90
       18
102
RTVSPost2010Prop41ColorRGB
 90
        0
102
RTVSPost2010PropOp41
 70
     1
102
RTVSPost2010Prop42
 90
       50
102
RTVSPost2010PropOp42
 70
     1
102
RTVSPost2010Prop43
 90
        3
102
RTVSPost2010PropOp43
 70
     1
102
RTVSPost2010Prop44ColorIndex
 90
        5
102
RTVSPost2010Prop44ColorRGB
 90
      255
102
RTVSPost2010PropOp44
 70
     1
102
RTVSPost2010Prop45
280
     0
102
RTVSPost2010PropOp45
 70
     1
102
RTVSPost2010Prop46
 90
       50
102
RTVSPost2010PropOp46
 70
     1
102
RTVSPost2010Prop47
 90
       50
102
RTVSPost2010PropOp47
 70
     1
102
RTVSPost2010Prop48
 90
       50
102
RTVSPost2010PropOp48
 70
     1
102
RTVSPost2010Prop49
280
     0
102
RTVSPost2010PropOp49
 70
     1
102
RTVSPost2010Prop50
 90
       50
102
RTVSPost2010PropOp50
 70
     1
102
RTVSPost2010Prop51ColorIndex
 90
      256
102
RTVSPost2010Prop51ColorRGB
 90
-16777216
102
RTVSPost2010PropOp51
 70
     0
102
RTVSPost2010Prop52
140
1.0
102
RTVSPost2010PropOp52
 70
     0
102
RTVSPost2010Prop53
 90
        2
102
RTVSPost2010PropOp53
 70
     1
102
RTVSPost2010Prop54
  1
strokes_ogs.tif
102
RTVSPost2010PropOp54
 70
     1
102
RTVSPost2010Prop55
280
     0
102
RTVSPost2010PropOp55
 70
     1
102
RTVSPost2010Prop56
140
1.0
102
RTVSPost2010PropOp56
 70
     1
102
RTVSPost2010Prop57
140
1.0
102
RTVSPost2010PropOp57
 70
     1
  0
XRECORD
  5
454
102
{ACAD_REACTORS
330
453
102
}
330
453
100
AcDbXrecord
280
     1
102
RTVSPost2010Prop28
280
     0
102
RTVSPost2010PropOp28
 70
     1
102
RTVSPost2010Prop29
280
     1
102
RTVSPost2010PropOp29
 70
     1
102
RTVSPost2010Prop30
280
     1
102
RTVSPost2010PropOp30
 70
     1
102
RTVSPost2010Prop31
280
     0
102
RTVSPost2010PropOp31
 70
     1
102
RTVSPost2010Prop32
280
     0
102
RTVSPost2010PropOp32
 70
     1
102
RTVSPost2010Prop33
280
     0
102
RTVSPost2010PropOp33
 70
     1
102
RTVSPost2010Prop34
280
     0
102
RTVSPost2010PropOp34
 70
     1
102
RTVSPost2010Prop35
280
     0
102
RTVSPost2010PropOp35
 70
     1
102
RTVSPost2010Prop36
280
     0
102
RTVSPost2010PropOp36
 70
     1
102
RTVSPost2010Prop37
 90
       50
102
RTVSPost2010PropOp37
 70
     1
102
RTVSPost2010Prop38
140
0.0
102
RTVSPost2010PropOp38
 70
     1
102
RTVSPost2010Prop39
140
1.0
102
RTVSPost2010PropOp39
 70
     1
102
RTVSPost2010Prop40
 90
        0
102
RTVSPost2010PropOp40
 70
     1
102
RTVSPost2010Prop41ColorIndex
 90
       18
102
RTVSPost2010Prop41ColorRGB
 90
        0
102
RTVSPost2010PropOp41
 70
     1
102
RTVSPost2010Prop42
 90
       50
102
RTVSPost2010PropOp42
 70
     1
102
RTVSPost2010Prop43
 90
        3
102
RTVSPost2010PropOp43
 70
     1
102
RTVSPost2010Prop44ColorIndex
 90
        5
102
RTVSPost2010Prop44ColorRGB
 90
      255
102
RTVSPost2010PropOp44
 70
     1
102
RTVSPost2010Prop45
280
     0
102
RTVSPost2010PropOp45
 70
     1
102
RTVSPost2010Prop46
 90
       50
102
RTVSPost2010PropOp46
 70
     1
102
RTVSPost2010Prop47
 90
       50
102
RTVSPost2010PropOp47
 70
     1
102
RTVSPost2010Prop48
 90
       50
102
RTVSPost2010PropOp48
 70
     1
102
RTVSPost2010Prop49
280
     0
102
RTVSPost2010PropOp49
 70
     1
102
RTVSPost2010Prop50
 90
       50
102
RTVSPost2010PropOp50
 70
     1
102
RTVSPost2010Prop51ColorIndex
 90
      256
102
RTVSPost2010Prop51ColorRGB
 90
-16777216
102
RTVSPost2010PropOp51
 70
     0
102
RTVSPost2010Prop52
140
1.0
102
RTVSPost2010PropOp52
 70
     0
102
RTVSPost2010Prop53
 90
        2
102
RTVSPost2010PropOp53
 70
     1
102
RTVSPost2010Prop54
  1
strokes_ogs.tif
102
RTVSPost2010PropOp54
 70
     1
102
RTVSPost2010Prop55
280
     0
102
RTVSPost2010PropOp55
 70
     1
102
RTVSPost2010Prop56
140
1.0
102
RTVSPost2010PropOp56
 70
     1
102
RTVSPost2010Prop57
140
1.0
102
RTVSPost2010PropOp57
 70
     1
  0
XRECORD
  5
456
102
{ACAD_REACTORS
330
455
102
}
330
455
100
AcDbXrecord
280
     1
102
RTVSPost2010Prop28
280
     0
102
RTVSPost2010PropOp28
 70
     1
102
RTVSPost2010Prop29
280
     1
102
RTVSPost2010PropOp29
 70
     1
102
RTVSPost2010Prop30
280
     1
102
RTVSPost2010PropOp30
 70
     1
102
RTVSPost2010Prop31
280
     0
102
RTVSPost2010PropOp31
 70
     1
102
RTVSPost2010Prop32
280
     0
102
RTVSPost2010PropOp32
 70
     1
102
RTVSPost2010Prop33
280
     0
102
RTVSPost2010PropOp33
 70
     1
102
RTVSPost2010Prop34
280
     0
102
RTVSPost2010PropOp34
 70
     1
102
RTVSPost2010Prop35
280
     0
102
RTVSPost2010PropOp35
 70
     1
102
RTVSPost2010Prop36
280
     0
102
RTVSPost2010PropOp36
 70
     1
102
RTVSPost2010Prop37
 90
       50
102
RTVSPost2010PropOp37
 70
     1
102
RTVSPost2010Prop38
140
0.0
102
RTVSPost2010PropOp38
 70
     1
102
RTVSPost2010Prop39
140
1.0
102
RTVSPost2010PropOp39
 70
     1
102
RTVSPost2010Prop40
 90
        0
102
RTVSPost2010PropOp40
 70
     1
102
RTVSPost2010Prop41ColorIndex
 90
       18
102
RTVSPost2010Prop41ColorRGB
 90
        0
102
RTVSPost2010PropOp41
 70
     1
102
RTVSPost2010Prop42
 90
       50
102
RTVSPost2010PropOp42
 70
     1
102
RTVSPost2010Prop43
 90
        3
102
RTVSPost2010PropOp43
 70
     1
102
RTVSPost2010Prop44ColorIndex
 90
        5
102
RTVSPost2010Prop44ColorRGB
 90
      255
102
RTVSPost2010PropOp44
 70
     1
102
RTVSPost2010Prop45
280
     0
102
RTVSPost2010PropOp45
 70
     1
102
RTVSPost2010Prop46
 90
       50
102
RTVSPost2010PropOp46
 70
     1
102
RTVSPost2010Prop47
 90
       50
102
RTVSPost2010PropOp47
 70
     1
102
RTVSPost2010Prop48
 90
       50
102
RTVSPost2010PropOp48
 70
     1
102
RTVSPost2010Prop49
280
     0
102
RTVSPost2010PropOp49
 70
     1
102
RTVSPost2010Prop50
 90
       50
102
RTVSPost2010PropOp50
 70
     1
102
RTVSPost2010Prop51ColorIndex
 90
      256
102
RTVSPost2010Prop51ColorRGB
 90
-16777216
102
RTVSPost2010PropOp51
 70
     0
102
RTVSPost2010Prop52
140
1.0
102
RTVSPost2010PropOp52
 70
     0
102
RTVSPost2010Prop53
 90
        2
102
RTVSPost2010PropOp53
 70
     1
102
RTVSPost2010Prop54
  1
strokes_ogs.tif
102
RTVSPost2010PropOp54
 70
     1
102
RTVSPost2010Prop55
280
     0
102
RTVSPost2010PropOp55
 70
     1
102
RTVSPost2010Prop56
140
1.0
102
RTVSPost2010PropOp56
 70
     1
102
RTVSPost2010Prop57
140
1.0
102
RTVSPost2010PropOp57
 70
     1
  0
XRECORD
  5
458
102
{ACAD_REACTORS
330
457
102
}
330
457
100
AcDbXrecord
280
     1
102
RTVSPost2010Prop28
280
     0
102
RTVSPost2010PropOp28
 70
     1
102
RTVSPost2010Prop29
280
     1
102
RTVSPost2010PropOp29
 70
     1
102
RTVSPost2010Prop30
280
     1
102
RTVSPost2010PropOp30
 70
     1
102
RTVSPost2010Prop31
280
     0
102
RTVSPost2010PropOp31
 70
     1
102
RTVSPost2010Prop32
280
     0
102
RTVSPost2010PropOp32
 70
     1
102
RTVSPost2010Prop33
280
     0
102
RTVSPost2010PropOp33
 70
     1
102
RTVSPost2010Prop34
280
     0
102
RTVSPost2010PropOp34
 70
     1
102
RTVSPost2010Prop35
280
     0
102
RTVSPost2010PropOp35
 70
     1
102
RTVSPost2010Prop36
280
     0
102
RTVSPost2010PropOp36
 70
     1
102
RTVSPost2010Prop37
 90
       50
102
RTVSPost2010PropOp37
 70
     1
102
RTVSPost2010Prop38
140
0.0
102
RTVSPost2010PropOp38
 70
     1
102
RTVSPost2010Prop39
140
1.0
102
RTVSPost2010PropOp39
 70
     1
102
RTVSPost2010Prop40
 90
        0
102
RTVSPost2010PropOp40
 70
     1
102
RTVSPost2010Prop41ColorIndex
 90
       18
102
RTVSPost2010Prop41ColorRGB
 90
        0
102
RTVSPost2010PropOp41
 70
     1
102
RTVSPost2010Prop42
 90
       50
102
RTVSPost2010PropOp42
 70
     1
102
RTVSPost2010Prop43
 90
        3
102
RTVSPost2010PropOp43
 70
     1
102
RTVSPost2010Prop44ColorIndex
 90
        5
102
RTVSPost2010Prop44ColorRGB
 90
      255
102
RTVSPost2010PropOp44
 70
     1
102
RTVSPost2010Prop45
280
     0
102
RTVSPost2010PropOp45
 70
     1
102
RTVSPost2010Prop46
 90
       50
102
RTVSPost2010PropOp46
 70
     1
102
RTVSPost2010Prop47
 90
       50
102
RTVSPost2010PropOp47
 70
     1
102
RTVSPost2010Prop48
 90
       50
102
RTVSPost2010PropOp48
 70
     1
102
RTVSPost2010Prop49
280
     0
102
RTVSPost2010PropOp49
 70
     1
102
RTVSPost2010Prop50
 90
       50
102
RTVSPost2010PropOp50
 70
     1
102
RTVSPost2010Prop51ColorIndex
 90
      256
102
RTVSPost2010Prop51ColorRGB
 90
-16777216
102
RTVSPost2010PropOp51
 70
     0
102
RTVSPost2010Prop52
140
1.0
102
RTVSPost2010PropOp52
 70
     0
102
RTVSPost2010Prop53
 90
        2
102
RTVSPost2010PropOp53
 70
     1
102
RTVSPost2010Prop54
  1
strokes_ogs.tif
102
RTVSPost2010PropOp54
 70
     1
102
RTVSPost2010Prop55
280
     0
102
RTVSPost2010PropOp55
 70
     1
102
RTVSPost2010Prop56
140
1.0
102
RTVSPost2010PropOp56
 70
     1
102
RTVSPost2010Prop57
140
1.0
102
RTVSPost2010PropOp57
 70
     1
  0
XRECORD
  5
45A
102
{ACAD_REACTORS
330
459
102
}
330
459
100
AcDbXrecord
280
     1
102
RTVSPost2010Prop28
280
     0
102
RTVSPost2010PropOp28
 70
     1
102
RTVSPost2010Prop29
280
     1
102
RTVSPost2010PropOp29
 70
     1
102
RTVSPost2010Prop30
280
     1
102
RTVSPost2010PropOp30
 70
     1
102
RTVSPost2010Prop31
280
     0
102
RTVSPost2010PropOp31
 70
     1
102
RTVSPost2010Prop32
280
     0
102
RTVSPost2010PropOp32
 70
     1
102
RTVSPost2010Prop33
280
     0
102
RTVSPost2010PropOp33
 70
     1
102
RTVSPost2010Prop34
280
     0
102
RTVSPost2010PropOp34
 70
     1
102
RTVSPost2010Prop35
280
     0
102
RTVSPost2010PropOp35
 70
     1
102
RTVSPost2010Prop36
280
     0
102
RTVSPost2010PropOp36
 70
     1
102
RTVSPost2010Prop37
 90
       50
102
RTVSPost2010PropOp37
 70
     1
102
RTVSPost2010Prop38
140
0.0
102
RTVSPost2010PropOp38
 70
     1
102
RTVSPost2010Prop39
140
1.0
102
RTVSPost2010PropOp39
 70
     1
102
RTVSPost2010Prop40
 90
        0
102
RTVSPost2010PropOp40
 70
     1
102
RTVSPost2010Prop41ColorIndex
 90
       18
102
RTVSPost2010Prop41ColorRGB
 90
        0
102
RTVSPost2010PropOp41
 70
     1
102
RTVSPost2010Prop42
 90
       50
102
RTVSPost2010PropOp42
 70
     1
102
RTVSPost2010Prop43
 90
        3
102
RTVSPost2010PropOp43
 70
     1
102
RTVSPost2010Prop44ColorIndex
 90
        5
102
RTVSPost2010Prop44ColorRGB
 90
      255
102
RTVSPost2010PropOp44
 70
     1
102
RTVSPost2010Prop45
280
     0
102
RTVSPost2010PropOp45
 70
     1
102
RTVSPost2010Prop46
 90
       50
102
RTVSPost2010PropOp46
 70
     1
102
RTVSPost2010Prop47
 90
       50
102
RTVSPost2010PropOp47
 70
     1
102
RTVSPost2010Prop48
 90
       50
102
RTVSPost2010PropOp48
 70
     1
102
RTVSPost2010Prop49
280
     0
102
RTVSPost2010PropOp49
 70
     1
102
RTVSPost2010Prop50
 90
       50
102
RTVSPost2010PropOp50
 70
     1
102
RTVSPost2010Prop51ColorIndex
 90
      256
102
RTVSPost2010Prop51ColorRGB
 90
-16777216
102
RTVSPost2010PropOp51
 70
     0
102
RTVSPost2010Prop52
140
1.0
102
RTVSPost2010PropOp52
 70
     0
102
RTVSPost2010Prop53
 90
        2
102
RTVSPost2010PropOp53
 70
     1
102
RTVSPost2010Prop54
  1
strokes_ogs.tif
102
RTVSPost2010PropOp54
 70
     1
102
RTVSPost2010Prop55
280
     0
102
RTVSPost2010PropOp55
 70
     1
102
RTVSPost2010Prop56
140
1.0
102
RTVSPost2010PropOp56
 70
     1
102
RTVSPost2010Prop57
140
1.0
102
RTVSPost2010PropOp57
 70
     1
  0
XRECORD
  5
476
102
{ACAD_REACTORS
330
475
102
}
330
475
100
AcDbXrecord
280
     1
102
RTVSPost2010Prop28
280
     0
102
RTVSPost2010PropOp28
 70
     1
102
RTVSPost2010Prop29
280
     1
102
RTVSPost2010PropOp29
 70
     1
102
RTVSPost2010Prop30
280
     1
102
RTVSPost2010PropOp30
 70
     1
102
RTVSPost2010Prop31
280
     0
102
RTVSPost2010PropOp31
 70
     1
102
RTVSPost2010Prop32
280
     0
102
RTVSPost2010PropOp32
 70
     1
102
RTVSPost2010Prop33
280
     0
102
RTVSPost2010PropOp33
 70
     1
102
RTVSPost2010Prop34
280
     0
102
RTVSPost2010PropOp34
 70
     1
102
RTVSPost2010Prop35
280
     0
102
RTVSPost2010PropOp35
 70
     1
102
RTVSPost2010Prop36
280
     0
102
RTVSPost2010PropOp36
 70
     1
102
RTVSPost2010Prop37
 90
       50
102
RTVSPost2010PropOp37
 70
     1
102
RTVSPost2010Prop38
140
0.0
102
RTVSPost2010PropOp38
 70
     1
102
RTVSPost2010Prop39
140
1.0
102
RTVSPost2010PropOp39
 70
     1
102
RTVSPost2010Prop40
 90
        0
102
RTVSPost2010PropOp40
 70
     1
102
RTVSPost2010Prop41ColorIndex
 90
       18
102
RTVSPost2010Prop41ColorRGB
 90
        0
102
RTVSPost2010PropOp41
 70
     1
102
RTVSPost2010Prop42
 90
       50
102
RTVSPost2010PropOp42
 70
     1
102
RTVSPost2010Prop43
 90
        3
102
RTVSPost2010PropOp43
 70
     1
102
RTVSPost2010Prop44ColorIndex
 90
        5
102
RTVSPost2010Prop44ColorRGB
 90
      255
102
RTVSPost2010PropOp44
 70
     1
102
RTVSPost2010Prop45
280
     0
102
RTVSPost2010PropOp45
 70
     1
102
RTVSPost2010Prop46
 90
       50
102
RTVSPost2010PropOp46
 70
     1
102
RTVSPost2010Prop47
 90
       50
102
RTVSPost2010PropOp47
 70
     1
102
RTVSPost2010Prop48
 90
       50
102
RTVSPost2010PropOp48
 70
     1
102
RTVSPost2010Prop49
280
     0
102
RTVSPost2010PropOp49
 70
     1
102
RTVSPost2010Prop50
 90
       50
102
RTVSPost2010PropOp50
 70
     1
102
RTVSPost2010Prop51ColorIndex
 90
      256
102
RTVSPost2010Prop51ColorRGB
 90
-16777216
102
RTVSPost2010PropOp51
 70
     0
102
RTVSPost2010Prop52
140
1.0
102
RTVSPost2010PropOp52
 70
     0
102
RTVSPost2010Prop53
 90
        2
102
RTVSPost2010PropOp53
 70
     1
102
RTVSPost2010Prop54
  1
strokes_ogs.tif
102
RTVSPost2010PropOp54
 70
     1
102
RTVSPost2010Prop55
280
     0
102
RTVSPost2010PropOp55
 70
     1
102
RTVSPost2010Prop56
140
1.0
102
RTVSPost2010PropOp56
 70
     1
102
RTVSPost2010Prop57
140
1.0
102
RTVSPost2010PropOp57
 70
     1
  0
XRECORD
  5
482
102
{ACAD_REACTORS
330
481
102
}
330
481
100
AcDbXrecord
280
     1
102
RTVSPost2010Prop28
280
     0
102
RTVSPost2010PropOp28
 70
     0
102
RTVSPost2010Prop29
280
     1
102
RTVSPost2010PropOp29
 70
     0
102
RTVSPost2010Prop30
280
     1
102
RTVSPost2010PropOp30
 70
     0
102
RTVSPost2010Prop31
280
     0
102
RTVSPost2010PropOp31
 70
     0
102
RTVSPost2010Prop32
280
     0
102
RTVSPost2010PropOp32
 70
     0
102
RTVSPost2010Prop33
280
     0
102
RTVSPost2010PropOp33
 70
     0
102
RTVSPost2010Prop34
280
     0
102
RTVSPost2010PropOp34
 70
     0
102
RTVSPost2010Prop35
280
     0
102
RTVSPost2010PropOp35
 70
     0
102
RTVSPost2010Prop36
280
     0
102
RTVSPost2010PropOp36
 70
     0
102
RTVSPost2010Prop37
 90
       50
102
RTVSPost2010PropOp37
 70
     0
102
RTVSPost2010Prop38
140
0.0
102
RTVSPost2010PropOp38
 70
     0
102
RTVSPost2010Prop39
140
1.0
102
RTVSPost2010PropOp39
 70
     0
102
RTVSPost2010Prop40
 90
        0
102
RTVSPost2010PropOp40
 70
     0
102
RTVSPost2010Prop41ColorIndex
 90
       18
102
RTVSPost2010Prop41ColorRGB
 90
        0
102
RTVSPost2010PropOp41
 70
     0
102
RTVSPost2010Prop42
 90
       50
102
RTVSPost2010PropOp42
 70
     0
102
RTVSPost2010Prop43
 90
        3
102
RTVSPost2010PropOp43
 70
     0
102
RTVSPost2010Prop44ColorIndex
 90
        5
102
RTVSPost2010Prop44ColorRGB
 90
      255
102
RTVSPost2010PropOp44
 70
     0
102
RTVSPost2010Prop45
280
     0
102
RTVSPost2010PropOp45
 70
     0
102
RTVSPost2010Prop46
 90
       50
102
RTVSPost2010PropOp46
 70
     0
102
RTVSPost2010Prop47
 90
       50
102
RTVSPost2010PropOp47
 70
     0
102
RTVSPost2010Prop48
 90
       50
102
RTVSPost2010PropOp48
 70
     0
102
RTVSPost2010Prop49
280
     0
102
RTVSPost2010PropOp49
 70
     0
102
RTVSPost2010Prop50
 90
       50
102
RTVSPost2010PropOp50
 70
     0
102
RTVSPost2010Prop51ColorIndex
 90
      256
102
RTVSPost2010Prop51ColorRGB
 90
-16777216
102
RTVSPost2010PropOp51
 70
     0
102
RTVSPost2010Prop52
140
1.0
102
RTVSPost2010PropOp52
 70
     0
102
RTVSPost2010Prop53
 90
        2
102
RTVSPost2010PropOp53
 70
     0
102
RTVSPost2010Prop54
  1
strokes_ogs.tif
102
RTVSPost2010PropOp54
 70
     0
102
RTVSPost2010Prop55
280
     0
102
RTVSPost2010PropOp55
 70
     0
102
RTVSPost2010Prop56
140
1.0
102
RTVSPost2010PropOp56
 70
     0
102
RTVSPost2010Prop57
140
1.0
102
RTVSPost2010PropOp57
 70
     0
  0
XRECORD
  5
46E
102
{ACAD_REACTORS
330
46D
102
}
330
46D
100
AcDbXrecord
280
     1
102
RTVSPost2010Prop28
280
     0
102
RTVSPost2010PropOp28
 70
     1
102
RTVSPost2010Prop29
280
     1
102
RTVSPost2010PropOp29
 70
     1
102
RTVSPost2010Prop30
280
     1
102
RTVSPost2010PropOp30
 70
     1
102
RTVSPost2010Prop31
280
     0
102
RTVSPost2010PropOp31
 70
     1
102
RTVSPost2010Prop32
280
     0
102
RTVSPost2010PropOp32
 70
     1
102
RTVSPost2010Prop33
280
     0
102
RTVSPost2010PropOp33
 70
     1
102
RTVSPost2010Prop34
280
     0
102
RTVSPost2010PropOp34
 70
     1
102
RTVSPost2010Prop35
280
     0
102
RTVSPost2010PropOp35
 70
     1
102
RTVSPost2010Prop36
280
     0
102
RTVSPost2010PropOp36
 70
     1
102
RTVSPost2010Prop37
 90
       50
102
RTVSPost2010PropOp37
 70
     1
102
RTVSPost2010Prop38
140
0.0
102
RTVSPost2010PropOp38
 70
     1
102
RTVSPost2010Prop39
140
1.0
102
RTVSPost2010PropOp39
 70
     1
102
RTVSPost2010Prop40
 90
        0
102
RTVSPost2010PropOp40
 70
     1
102
RTVSPost2010Prop41ColorIndex
 90
       18
102
RTVSPost2010Prop41ColorRGB
 90
        0
102
RTVSPost2010PropOp41
 70
     1
102
RTVSPost2010Prop42
 90
       50
102
RTVSPost2010PropOp42
 70
     1
102
RTVSPost2010Prop43
 90
        3
102
RTVSPost2010PropOp43
 70
     1
102
RTVSPost2010Prop44ColorIndex
 90
        5
102
RTVSPost2010Prop44ColorRGB
 90
      255
102
RTVSPost2010PropOp44
 70
     1
102
RTVSPost2010Prop45
280
     0
102
RTVSPost2010PropOp45
 70
     1
102
RTVSPost2010Prop46
 90
       50
102
RTVSPost2010PropOp46
 70
     1
102
RTVSPost2010Prop47
 90
       50
102
RTVSPost2010PropOp47
 70
     1
102
RTVSPost2010Prop48
 90
       50
102
RTVSPost2010PropOp48
 70
     1
102
RTVSPost2010Prop49
280
     0
102
RTVSPost2010PropOp49
 70
     1
102
RTVSPost2010Prop50
 90
       50
102
RTVSPost2010PropOp50
 70
     1
102
RTVSPost2010Prop51ColorIndex
 90
      256
102
RTVSPost2010Prop51ColorRGB
 90
-16777216
102
RTVSPost2010PropOp51
 70
     0
102
RTVSPost2010Prop52
140
1.0
102
RTVSPost2010PropOp52
 70
     0
102
RTVSPost2010Prop53
 90
        2
102
RTVSPost2010PropOp53
 70
     1
102
RTVSPost2010Prop54
  1
strokes_ogs.tif
102
RTVSPost2010PropOp54
 70
     1
102
RTVSPost2010Prop55
280
     0
102
RTVSPost2010PropOp55
 70
     1
102
RTVSPost2010Prop56
140
1.0
102
RTVSPost2010PropOp56
 70
     1
102
RTVSPost2010Prop57
140
1.0
102
RTVSPost2010PropOp57
 70
     1
  0
XRECORD
  5
484
102
{ACAD_REACTORS
330
483
102
}
330
483
100
AcDbXrecord
280
     1
102
RTVSPost2010Prop28
280
     0
102
RTVSPost2010PropOp28
 70
     0
102
RTVSPost2010Prop29
280
     1
102
RTVSPost2010PropOp29
 70
     0
102
RTVSPost2010Prop30
280
     1
102
RTVSPost2010PropOp30
 70
     0
102
RTVSPost2010Prop31
280
     0
102
RTVSPost2010PropOp31
 70
     0
102
RTVSPost2010Prop32
280
     0
102
RTVSPost2010PropOp32
 70
     0
102
RTVSPost2010Prop33
280
     0
102
RTVSPost2010PropOp33
 70
     0
102
RTVSPost2010Prop34
280
     0
102
RTVSPost2010PropOp34
 70
     0
102
RTVSPost2010Prop35
280
     0
102
RTVSPost2010PropOp35
 70
     0
102
RTVSPost2010Prop36
280
     0
102
RTVSPost2010PropOp36
 70
     0
102
RTVSPost2010Prop37
 90
       50
102
RTVSPost2010PropOp37
 70
     0
102
RTVSPost2010Prop38
140
0.0
102
RTVSPost2010PropOp38
 70
     0
102
RTVSPost2010Prop39
140
1.0
102
RTVSPost2010PropOp39
 70
     0
102
RTVSPost2010Prop40
 90
        0
102
RTVSPost2010PropOp40
 70
     0
102
RTVSPost2010Prop41ColorIndex
 90
       18
102
RTVSPost2010Prop41ColorRGB
 90
        0
102
RTVSPost2010PropOp41
 70
     0
102
RTVSPost2010Prop42
 90
       50
102
RTVSPost2010PropOp42
 70
     0
102
RTVSPost2010Prop43
 90
        3
102
RTVSPost2010PropOp43
 70
     0
102
RTVSPost2010Prop44ColorIndex
 90
        5
102
RTVSPost2010Prop44ColorRGB
 90
      255
102
RTVSPost2010PropOp44
 70
     0
102
RTVSPost2010Prop45
280
     0
102
RTVSPost2010PropOp45
 70
     0
102
RTVSPost2010Prop46
 90
       50
102
RTVSPost2010PropOp46
 70
     0
102
RTVSPost2010Prop47
 90
       50
102
RTVSPost2010PropOp47
 70
     0
102
RTVSPost2010Prop48
 90
       50
102
RTVSPost2010PropOp48
 70
     0
102
RTVSPost2010Prop49
280
     0
102
RTVSPost2010PropOp49
 70
     0
102
RTVSPost2010Prop50
 90
       50
102
RTVSPost2010PropOp50
 70
     0
102
RTVSPost2010Prop51ColorIndex
 90
      256
102
RTVSPost2010Prop51ColorRGB
 90
-16777216
102
RTVSPost2010PropOp51
 70
     0
102
RTVSPost2010Prop52
140
1.0
102
RTVSPost2010PropOp52
 70
     0
102
RTVSPost2010Prop53
 90
        2
102
RTVSPost2010PropOp53
 70
     0
102
RTVSPost2010Prop54
  1
strokes_ogs.tif
102
RTVSPost2010PropOp54
 70
     0
102
RTVSPost2010Prop55
280
     0
102
RTVSPost2010PropOp55
 70
     0
102
RTVSPost2010Prop56
140
1.0
102
RTVSPost2010PropOp56
 70
     0
102
RTVSPost2010Prop57
140
1.0
102
RTVSPost2010PropOp57
 70
     0
  0
XRECORD
  5
464
102
{ACAD_REACTORS
330
463
102
}
330
463
100
AcDbXrecord
280
     1
102
RTVSPost2010Prop28
280
     0
102
RTVSPost2010PropOp28
 70
     1
102
RTVSPost2010Prop29
280
     1
102
RTVSPost2010PropOp29
 70
     1
102
RTVSPost2010Prop30
280
     1
102
RTVSPost2010PropOp30
 70
     1
102
RTVSPost2010Prop31
280
     0
102
RTVSPost2010PropOp31
 70
     1
102
RTVSPost2010Prop32
280
     0
102
RTVSPost2010PropOp32
 70
     1
102
RTVSPost2010Prop33
280
     0
102
RTVSPost2010PropOp33
 70
     1
102
RTVSPost2010Prop34
280
     0
102
RTVSPost2010PropOp34
 70
     1
102
RTVSPost2010Prop35
280
     0
102
RTVSPost2010PropOp35
 70
     1
102
RTVSPost2010Prop36
280
     0
102
RTVSPost2010PropOp36
 70
     1
102
RTVSPost2010Prop37
 90
       50
102
RTVSPost2010PropOp37
 70
     1
102
RTVSPost2010Prop38
140
0.0
102
RTVSPost2010PropOp38
 70
     1
102
RTVSPost2010Prop39
140
1.0
102
RTVSPost2010PropOp39
 70
     1
102
RTVSPost2010Prop40
 90
        0
102
RTVSPost2010PropOp40
 70
     1
102
RTVSPost2010Prop41ColorIndex
 90
       18
102
RTVSPost2010Prop41ColorRGB
 90
        0
102
RTVSPost2010PropOp41
 70
     1
102
RTVSPost2010Prop42
 90
       50
102
RTVSPost2010PropOp42
 70
     1
102
RTVSPost2010Prop43
 90
        3
102
RTVSPost2010PropOp43
 70
     1
102
RTVSPost2010Prop44ColorIndex
 90
        5
102
RTVSPost2010Prop44ColorRGB
 90
      255
102
RTVSPost2010PropOp44
 70
     1
102
RTVSPost2010Prop45
280
     0
102
RTVSPost2010PropOp45
 70
     1
102
RTVSPost2010Prop46
 90
       50
102
RTVSPost2010PropOp46
 70
     1
102
RTVSPost2010Prop47
 90
       50
102
RTVSPost2010PropOp47
 70
     1
102
RTVSPost2010Prop48
 90
       50
102
RTVSPost2010PropOp48
 70
     1
102
RTVSPost2010Prop49
280
     0
102
RTVSPost2010PropOp49
 70
     1
102
RTVSPost2010Prop50
 90
       50
102
RTVSPost2010PropOp50
 70
     1
102
RTVSPost2010Prop51ColorIndex
 90
      256
102
RTVSPost2010Prop51ColorRGB
 90
-16777216
102
RTVSPost2010PropOp51
 70
     0
102
RTVSPost2010Prop52
140
1.0
102
RTVSPost2010PropOp52
 70
     0
102
RTVSPost2010Prop53
 90
        2
102
RTVSPost2010PropOp53
 70
     1
102
RTVSPost2010Prop54
  1
strokes_ogs.tif
102
RTVSPost2010PropOp54
 70
     1
102
RTVSPost2010Prop55
280
     0
102
RTVSPost2010PropOp55
 70
     1
102
RTVSPost2010Prop56
140
1.0
102
RTVSPost2010PropOp56
 70
     1
102
RTVSPost2010Prop57
140
1.0
102
RTVSPost2010PropOp57
 70
     1
  0
XRECORD
  5
480
102
{ACAD_REACTORS
330
47F
102
}
330
47F
100
AcDbXrecord
280
     1
102
RTVSPost2010Prop28
280
     0
102
RTVSPost2010PropOp28
 70
     1
102
RTVSPost2010Prop29
280
     1
102
RTVSPost2010PropOp29
 70
     1
102
RTVSPost2010Prop30
280
     1
102
RTVSPost2010PropOp30
 70
     1
102
RTVSPost2010Prop31
280
     0
102
RTVSPost2010PropOp31
 70
     1
102
RTVSPost2010Prop32
280
     0
102
RTVSPost2010PropOp32
 70
     1
102
RTVSPost2010Prop33
280
     0
102
RTVSPost2010PropOp33
 70
     1
102
RTVSPost2010Prop34
280
     0
102
RTVSPost2010PropOp34
 70
     1
102
RTVSPost2010Prop35
280
     0
102
RTVSPost2010PropOp35
 70
     1
102
RTVSPost2010Prop36
280
     0
102
RTVSPost2010PropOp36
 70
     1
102
RTVSPost2010Prop37
 90
       50
102
RTVSPost2010PropOp37
 70
     1
102
RTVSPost2010Prop38
140
0.0
102
RTVSPost2010PropOp38
 70
     1
102
RTVSPost2010Prop39
140
1.0
102
RTVSPost2010PropOp39
 70
     1
102
RTVSPost2010Prop40
 90
        0
102
RTVSPost2010PropOp40
 70
     1
102
RTVSPost2010Prop41ColorIndex
 90
       18
102
RTVSPost2010Prop41ColorRGB
 90
        0
102
RTVSPost2010PropOp41
 70
     1
102
RTVSPost2010Prop42
 90
       50
102
RTVSPost2010PropOp42
 70
     1
102
RTVSPost2010Prop43
 90
        3
102
RTVSPost2010PropOp43
 70
     1
102
RTVSPost2010Prop44ColorIndex
 90
        5
102
RTVSPost2010Prop44ColorRGB
 90
      255
102
RTVSPost2010PropOp44
 70
     1
102
RTVSPost2010Prop45
280
     0
102
RTVSPost2010PropOp45
 70
     1
102
RTVSPost2010Prop46
 90
       50
102
RTVSPost2010PropOp46
 70
     1
102
RTVSPost2010Prop47
 90
       50
102
RTVSPost2010PropOp47
 70
     1
102
RTVSPost2010Prop48
 90
       50
102
RTVSPost2010PropOp48
 70
     1
102
RTVSPost2010Prop49
280
     0
102
RTVSPost2010PropOp49
 70
     1
102
RTVSPost2010Prop50
 90
       50
102
RTVSPost2010PropOp50
 70
     1
102
RTVSPost2010Prop51ColorIndex
 90
      256
102
RTVSPost2010Prop51ColorRGB
 90
-16777216
102
RTVSPost2010PropOp51
 70
     0
102
RTVSPost2010Prop52
140
1.0
102
RTVSPost2010PropOp52
 70
     0
102
RTVSPost2010Prop53
 90
        2
102
RTVSPost2010PropOp53
 70
     1
102
RTVSPost2010Prop54
  1
strokes_ogs.tif
102
RTVSPost2010PropOp54
 70
     1
102
RTVSPost2010Prop55
280
     0
102
RTVSPost2010PropOp55
 70
     1
102
RTVSPost2010Prop56
140
1.0
102
RTVSPost2010PropOp56
 70
     1
102
RTVSPost2010Prop57
140
1.0
102
RTVSPost2010PropOp57
 70
     1
  0
XRECORD
  5
47E
102
{ACAD_REACTORS
330
47D
102
}
330
47D
100
AcDbXrecord
280
     1
102
RTVSPost2010Prop28
280
     0
102
RTVSPost2010PropOp28
 70
     1
102
RTVSPost2010Prop29
280
     1
102
RTVSPost2010PropOp29
 70
     1
102
RTVSPost2010Prop30
280
     1
102
RTVSPost2010PropOp30
 70
     1
102
RTVSPost2010Prop31
280
     0
102
RTVSPost2010PropOp31
 70
     1
102
RTVSPost2010Prop32
280
     0
102
RTVSPost2010PropOp32
 70
     1
102
RTVSPost2010Prop33
280
     0
102
RTVSPost2010PropOp33
 70
     1
102
RTVSPost2010Prop34
280
     0
102
RTVSPost2010PropOp34
 70
     1
102
RTVSPost2010Prop35
280
     0
102
RTVSPost2010PropOp35
 70
     1
102
RTVSPost2010Prop36
280
     0
102
RTVSPost2010PropOp36
 70
     1
102
RTVSPost2010Prop37
 90
       50
102
RTVSPost2010PropOp37
 70
     1
102
RTVSPost2010Prop38
140
0.0
102
RTVSPost2010PropOp38
 70
     1
102
RTVSPost2010Prop39
140
1.0
102
RTVSPost2010PropOp39
 70
     1
102
RTVSPost2010Prop40
 90
        0
102
RTVSPost2010PropOp40
 70
     1
102
RTVSPost2010Prop41ColorIndex
 90
       18
102
RTVSPost2010Prop41ColorRGB
 90
        0
102
RTVSPost2010PropOp41
 70
     1
102
RTVSPost2010Prop42
 90
       50
102
RTVSPost2010PropOp42
 70
     1
102
RTVSPost2010Prop43
 90
        3
102
RTVSPost2010PropOp43
 70
     1
102
RTVSPost2010Prop44ColorIndex
 90
        5
102
RTVSPost2010Prop44ColorRGB
 90
      255
102
RTVSPost2010PropOp44
 70
     1
102
RTVSPost2010Prop45
280
     0
102
RTVSPost2010PropOp45
 70
     1
102
RTVSPost2010Prop46
 90
       50
102
RTVSPost2010PropOp46
 70
     1
102
RTVSPost2010Prop47
 90
       50
102
RTVSPost2010PropOp47
 70
     1
102
RTVSPost2010Prop48
 90
       50
102
RTVSPost2010PropOp48
 70
     1
102
RTVSPost2010Prop49
280
     0
102
RTVSPost2010PropOp49
 70
     1
102
RTVSPost2010Prop50
 90
       50
102
RTVSPost2010PropOp50
 70
     1
102
RTVSPost2010Prop51ColorIndex
 90
      256
102
RTVSPost2010Prop51ColorRGB
 90
-16777216
102
RTVSPost2010PropOp51
 70
     0
102
RTVSPost2010Prop52
140
1.0
102
RTVSPost2010PropOp52
 70
     0
102
RTVSPost2010Prop53
 90
        2
102
RTVSPost2010PropOp53
 70
     1
102
RTVSPost2010Prop54
  1
strokes_ogs.tif
102
RTVSPost2010PropOp54
 70
     1
102
RTVSPost2010Prop55
280
     0
102
RTVSPost2010PropOp55
 70
     1
102
RTVSPost2010Prop56
140
1.0
102
RTVSPost2010PropOp56
 70
     1
102
RTVSPost2010Prop57
140
1.0
102
RTVSPost2010PropOp57
 70
     1
  0
XRECORD
  5
478
102
{ACAD_REACTORS
330
477
102
}
330
477
100
AcDbXrecord
280
     1
102
RTVSPost2010Prop28
280
     0
102
RTVSPost2010PropOp28
 70
     1
102
RTVSPost2010Prop29
280
     1
102
RTVSPost2010PropOp29
 70
     1
102
RTVSPost2010Prop30
280
     1
102
RTVSPost2010PropOp30
 70
     1
102
RTVSPost2010Prop31
280
     0
102
RTVSPost2010PropOp31
 70
     1
102
RTVSPost2010Prop32
280
     0
102
RTVSPost2010PropOp32
 70
     1
102
RTVSPost2010Prop33
280
     0
102
RTVSPost2010PropOp33
 70
     1
102
RTVSPost2010Prop34
280
     0
102
RTVSPost2010PropOp34
 70
     1
102
RTVSPost2010Prop35
280
     0
102
RTVSPost2010PropOp35
 70
     1
102
RTVSPost2010Prop36
280
     0
102
RTVSPost2010PropOp36
 70
     1
102
RTVSPost2010Prop37
 90
       50
102
RTVSPost2010PropOp37
 70
     1
102
RTVSPost2010Prop38
140
0.0
102
RTVSPost2010PropOp38
 70
     1
102
RTVSPost2010Prop39
140
1.0
102
RTVSPost2010PropOp39
 70
     1
102
RTVSPost2010Prop40
 90
        0
102
RTVSPost2010PropOp40
 70
     1
102
RTVSPost2010Prop41ColorIndex
 90
       18
102
RTVSPost2010Prop41ColorRGB
 90
        0
102
RTVSPost2010PropOp41
 70
     1
102
RTVSPost2010Prop42
 90
       50
102
RTVSPost2010PropOp42
 70
     1
102
RTVSPost2010Prop43
 90
        3
102
RTVSPost2010PropOp43
 70
     1
102
RTVSPost2010Prop44ColorIndex
 90
        5
102
RTVSPost2010Prop44ColorRGB
 90
      255
102
RTVSPost2010PropOp44
 70
     1
102
RTVSPost2010Prop45
280
     0
102
RTVSPost2010PropOp45
 70
     1
102
RTVSPost2010Prop46
 90
       50
102
RTVSPost2010PropOp46
 70
     1
102
RTVSPost2010Prop47
 90
       50
102
RTVSPost2010PropOp47
 70
     1
102
RTVSPost2010Prop48
 90
       50
102
RTVSPost2010PropOp48
 70
     1
102
RTVSPost2010Prop49
280
     0
102
RTVSPost2010PropOp49
 70
     1
102
RTVSPost2010Prop50
 90
       50
102
RTVSPost2010PropOp50
 70
     1
102
RTVSPost2010Prop51ColorIndex
 90
      256
102
RTVSPost2010Prop51ColorRGB
 90
-16777216
102
RTVSPost2010PropOp51
 70
     0
102
RTVSPost2010Prop52
140
1.0
102
RTVSPost2010PropOp52
 70
     0
102
RTVSPost2010Prop53
 90
        2
102
RTVSPost2010PropOp53
 70
     1
102
RTVSPost2010Prop54
  1
strokes_ogs.tif
102
RTVSPost2010PropOp54
 70
     1
102
RTVSPost2010Prop55
280
     0
102
RTVSPost2010PropOp55
 70
     1
102
RTVSPost2010Prop56
140
1.0
102
RTVSPost2010PropOp56
 70
     1
102
RTVSPost2010Prop57
140
1.0
102
RTVSPost2010PropOp57
 70
     1
  0
XRECORD
  5
47A
102
{ACAD_REACTORS
330
479
102
}
330
479
100
AcDbXrecord
280
     1
102
RTVSPost2010Prop28
280
     0
102
RTVSPost2010PropOp28
 70
     1
102
RTVSPost2010Prop29
280
     1
102
RTVSPost2010PropOp29
 70
     1
102
RTVSPost2010Prop30
280
     1
102
RTVSPost2010PropOp30
 70
     1
102
RTVSPost2010Prop31
280
     0
102
RTVSPost2010PropOp31
 70
     1
102
RTVSPost2010Prop32
280
     0
102
RTVSPost2010PropOp32
 70
     1
102
RTVSPost2010Prop33
280
     0
102
RTVSPost2010PropOp33
 70
     1
102
RTVSPost2010Prop34
280
     0
102
RTVSPost2010PropOp34
 70
     1
102
RTVSPost2010Prop35
280
     0
102
RTVSPost2010PropOp35
 70
     1
102
RTVSPost2010Prop36
280
     0
102
RTVSPost2010PropOp36
 70
     1
102
RTVSPost2010Prop37
 90
       50
102
RTVSPost2010PropOp37
 70
     1
102
RTVSPost2010Prop38
140
0.0
102
RTVSPost2010PropOp38
 70
     1
102
RTVSPost2010Prop39
140
1.0
102
RTVSPost2010PropOp39
 70
     1
102
RTVSPost2010Prop40
 90
        0
102
RTVSPost2010PropOp40
 70
     1
102
RTVSPost2010Prop41ColorIndex
 90
       18
102
RTVSPost2010Prop41ColorRGB
 90
        0
102
RTVSPost2010PropOp41
 70
     1
102
RTVSPost2010Prop42
 90
       50
102
RTVSPost2010PropOp42
 70
     1
102
RTVSPost2010Prop43
 90
        3
102
RTVSPost2010PropOp43
 70
     1
102
RTVSPost2010Prop44ColorIndex
 90
        5
102
RTVSPost2010Prop44ColorRGB
 90
      255
102
RTVSPost2010PropOp44
 70
     1
102
RTVSPost2010Prop45
280
     0
102
RTVSPost2010PropOp45
 70
     1
102
RTVSPost2010Prop46
 90
       50
102
RTVSPost2010PropOp46
 70
     1
102
RTVSPost2010Prop47
 90
       50
102
RTVSPost2010PropOp47
 70
     1
102
RTVSPost2010Prop48
 90
       50
102
RTVSPost2010PropOp48
 70
     1
102
RTVSPost2010Prop49
280
     0
102
RTVSPost2010PropOp49
 70
     1
102
RTVSPost2010Prop50
 90
       50
102
RTVSPost2010PropOp50
 70
     1
102
RTVSPost2010Prop51ColorIndex
 90
      256
102
RTVSPost2010Prop51ColorRGB
 90
-16777216
102
RTVSPost2010PropOp51
 70
     0
102
RTVSPost2010Prop52
140
1.0
102
RTVSPost2010PropOp52
 70
     0
102
RTVSPost2010Prop53
 90
        2
102
RTVSPost2010PropOp53
 70
     1
102
RTVSPost2010Prop54
  1
strokes_ogs.tif
102
RTVSPost2010PropOp54
 70
     1
102
RTVSPost2010Prop55
280
     0
102
RTVSPost2010PropOp55
 70
     1
102
RTVSPost2010Prop56
140
1.0
102
RTVSPost2010PropOp56
 70
     1
102
RTVSPost2010Prop57
140
1.0
102
RTVSPost2010PropOp57
 70
     1
  0
XRECORD
  5
46C
102
{ACAD_REACTORS
330
46B
102
}
330
46B
100
AcDbXrecord
280
     1
102
RTVSPost2010Prop28
280
     0
102
RTVSPost2010PropOp28
 70
     1
102
RTVSPost2010Prop29
280
     1
102
RTVSPost2010PropOp29
 70
     1
102
RTVSPost2010Prop30
280
     1
102
RTVSPost2010PropOp30
 70
     1
102
RTVSPost2010Prop31
280
     0
102
RTVSPost2010PropOp31
 70
     1
102
RTVSPost2010Prop32
280
     0
102
RTVSPost2010PropOp32
 70
     1
102
RTVSPost2010Prop33
280
     0
102
RTVSPost2010PropOp33
 70
     1
102
RTVSPost2010Prop34
280
     0
102
RTVSPost2010PropOp34
 70
     1
102
RTVSPost2010Prop35
280
     0
102
RTVSPost2010PropOp35
 70
     1
102
RTVSPost2010Prop36
280
     0
102
RTVSPost2010PropOp36
 70
     1
102
RTVSPost2010Prop37
 90
       50
102
RTVSPost2010PropOp37
 70
     1
102
RTVSPost2010Prop38
140
0.0
102
RTVSPost2010PropOp38
 70
     1
102
RTVSPost2010Prop39
140
1.0
102
RTVSPost2010PropOp39
 70
     1
102
RTVSPost2010Prop40
 90
        0
102
RTVSPost2010PropOp40
 70
     1
102
RTVSPost2010Prop41ColorIndex
 90
       18
102
RTVSPost2010Prop41ColorRGB
 90
        0
102
RTVSPost2010PropOp41
 70
     1
102
RTVSPost2010Prop42
 90
       50
102
RTVSPost2010PropOp42
 70
     1
102
RTVSPost2010Prop43
 90
        3
102
RTVSPost2010PropOp43
 70
     1
102
RTVSPost2010Prop44ColorIndex
 90
        5
102
RTVSPost2010Prop44ColorRGB
 90
      255
102
RTVSPost2010PropOp44
 70
     1
102
RTVSPost2010Prop45
280
     0
102
RTVSPost2010PropOp45
 70
     1
102
RTVSPost2010Prop46
 90
       50
102
RTVSPost2010PropOp46
 70
     1
102
RTVSPost2010Prop47
 90
       50
102
RTVSPost2010PropOp47
 70
     1
102
RTVSPost2010Prop48
 90
       50
102
RTVSPost2010PropOp48
 70
     1
102
RTVSPost2010Prop49
280
     0
102
RTVSPost2010PropOp49
 70
     1
102
RTVSPost2010Prop50
 90
       50
102
RTVSPost2010PropOp50
 70
     1
102
RTVSPost2010Prop51ColorIndex
 90
      256
102
RTVSPost2010Prop51ColorRGB
 90
-16777216
102
RTVSPost2010PropOp51
 70
     0
102
RTVSPost2010Prop52
140
1.0
102
RTVSPost2010PropOp52
 70
     0
102
RTVSPost2010Prop53
 90
        2
102
RTVSPost2010PropOp53
 70
     1
102
RTVSPost2010Prop54
  1
strokes_ogs.tif
102
RTVSPost2010PropOp54
 70
     1
102
RTVSPost2010Prop55
280
     0
102
RTVSPost2010PropOp55
 70
     1
102
RTVSPost2010Prop56
140
1.0
102
RTVSPost2010PropOp56
 70
     1
102
RTVSPost2010Prop57
140
1.0
102
RTVSPost2010PropOp57
 70
     1
  0
XRECORD
  5
474
102
{ACAD_REACTORS
330
473
102
}
330
473
100
AcDbXrecord
280
     1
102
RTVSPost2010Prop28
280
     0
102
RTVSPost2010PropOp28
 70
     1
102
RTVSPost2010Prop29
280
     1
102
RTVSPost2010PropOp29
 70
     1
102
RTVSPost2010Prop30
280
     1
102
RTVSPost2010PropOp30
 70
     1
102
RTVSPost2010Prop31
280
     0
102
RTVSPost2010PropOp31
 70
     1
102
RTVSPost2010Prop32
280
     0
102
RTVSPost2010PropOp32
 70
     1
102
RTVSPost2010Prop33
280
     0
102
RTVSPost2010PropOp33
 70
     1
102
RTVSPost2010Prop34
280
     0
102
RTVSPost2010PropOp34
 70
     1
102
RTVSPost2010Prop35
280
     0
102
RTVSPost2010PropOp35
 70
     1
102
RTVSPost2010Prop36
280
     0
102
RTVSPost2010PropOp36
 70
     1
102
RTVSPost2010Prop37
 90
       50
102
RTVSPost2010PropOp37
 70
     1
102
RTVSPost2010Prop38
140
0.0
102
RTVSPost2010PropOp38
 70
     1
102
RTVSPost2010Prop39
140
1.0
102
RTVSPost2010PropOp39
 70
     1
102
RTVSPost2010Prop40
 90
        0
102
RTVSPost2010PropOp40
 70
     1
102
RTVSPost2010Prop41ColorIndex
 90
       18
102
RTVSPost2010Prop41ColorRGB
 90
        0
102
RTVSPost2010PropOp41
 70
     1
102
RTVSPost2010Prop42
 90
       50
102
RTVSPost2010PropOp42
 70
     1
102
RTVSPost2010Prop43
 90
        3
102
RTVSPost2010PropOp43
 70
     1
102
RTVSPost2010Prop44ColorIndex
 90
        5
102
RTVSPost2010Prop44ColorRGB
 90
      255
102
RTVSPost2010PropOp44
 70
     1
102
RTVSPost2010Prop45
280
     0
102
RTVSPost2010PropOp45
 70
     1
102
RTVSPost2010Prop46
 90
       50
102
RTVSPost2010PropOp46
 70
     1
102
RTVSPost2010Prop47
 90
       50
102
RTVSPost2010PropOp47
 70
     1
102
RTVSPost2010Prop48
 90
       50
102
RTVSPost2010PropOp48
 70
     1
102
RTVSPost2010Prop49
280
     0
102
RTVSPost2010PropOp49
 70
     1
102
RTVSPost2010Prop50
 90
       50
102
RTVSPost2010PropOp50
 70
     1
102
RTVSPost2010Prop51ColorIndex
 90
      256
102
RTVSPost2010Prop51ColorRGB
 90
-16777216
102
RTVSPost2010PropOp51
 70
     0
102
RTVSPost2010Prop52
140
1.0
102
RTVSPost2010PropOp52
 70
     0
102
RTVSPost2010Prop53
 90
        2
102
RTVSPost2010PropOp53
 70
     1
102
RTVSPost2010Prop54
  1
strokes_ogs.tif
102
RTVSPost2010PropOp54
 70
     1
102
RTVSPost2010Prop55
280
     0
102
RTVSPost2010PropOp55
 70
     1
102
RTVSPost2010Prop56
140
1.0
102
RTVSPost2010PropOp56
 70
     1
102
RTVSPost2010Prop57
140
1.0
102
RTVSPost2010PropOp57
 70
     1
  0
XRECORD
  5
47C
102
{ACAD_REACTORS
330
47B
102
}
330
47B
100
AcDbXrecord
280
     1
102
RTVSPost2010Prop28
280
     0
102
RTVSPost2010PropOp28
 70
     1
102
RTVSPost2010Prop29
280
     1
102
RTVSPost2010PropOp29
 70
     1
102
RTVSPost2010Prop30
280
     1
102
RTVSPost2010PropOp30
 70
     1
102
RTVSPost2010Prop31
280
     0
102
RTVSPost2010PropOp31
 70
     1
102
RTVSPost2010Prop32
280
     0
102
RTVSPost2010PropOp32
 70
     1
102
RTVSPost2010Prop33
280
     0
102
RTVSPost2010PropOp33
 70
     1
102
RTVSPost2010Prop34
280
     0
102
RTVSPost2010PropOp34
 70
     1
102
RTVSPost2010Prop35
280
     0
102
RTVSPost2010PropOp35
 70
     1
102
RTVSPost2010Prop36
280
     0
102
RTVSPost2010PropOp36
 70
     1
102
RTVSPost2010Prop37
 90
       50
102
RTVSPost2010PropOp37
 70
     1
102
RTVSPost2010Prop38
140
0.0
102
RTVSPost2010PropOp38
 70
     1
102
RTVSPost2010Prop39
140
1.0
102
RTVSPost2010PropOp39
 70
     1
102
RTVSPost2010Prop40
 90
        0
102
RTVSPost2010PropOp40
 70
     1
102
RTVSPost2010Prop41ColorIndex
 90
       18
102
RTVSPost2010Prop41ColorRGB
 90
        0
102
RTVSPost2010PropOp41
 70
     1
102
RTVSPost2010Prop42
 90
       50
102
RTVSPost2010PropOp42
 70
     1
102
RTVSPost2010Prop43
 90
        3
102
RTVSPost2010PropOp43
 70
     1
102
RTVSPost2010Prop44ColorIndex
 90
        5
102
RTVSPost2010Prop44ColorRGB
 90
      255
102
RTVSPost2010PropOp44
 70
     1
102
RTVSPost2010Prop45
280
     0
102
RTVSPost2010PropOp45
 70
     1
102
RTVSPost2010Prop46
 90
       50
102
RTVSPost2010PropOp46
 70
     1
102
RTVSPost2010Prop47
 90
       50
102
RTVSPost2010PropOp47
 70
     1
102
RTVSPost2010Prop48
 90
       50
102
RTVSPost2010PropOp48
 70
     1
102
RTVSPost2010Prop49
280
     0
102
RTVSPost2010PropOp49
 70
     1
102
RTVSPost2010Prop50
 90
       50
102
RTVSPost2010PropOp50
 70
     1
102
RTVSPost2010Prop51ColorIndex
 90
      256
102
RTVSPost2010Prop51ColorRGB
 90
-16777216
102
RTVSPost2010PropOp51
 70
     0
102
RTVSPost2010Prop52
140
1.0
102
RTVSPost2010PropOp52
 70
     0
102
RTVSPost2010Prop53
 90
        2
102
RTVSPost2010PropOp53
 70
     1
102
RTVSPost2010Prop54
  1
strokes_ogs.tif
102
RTVSPost2010PropOp54
 70
     1
102
RTVSPost2010Prop55
280
     0
102
RTVSPost2010PropOp55
 70
     1
102
RTVSPost2010Prop56
140
1.0
102
RTVSPost2010PropOp56
 70
     1
102
RTVSPost2010Prop57
140
1.0
102
RTVSPost2010PropOp57
 70
     1
  0
ENDSEC
  0
EOF
