  0
SECTION
  2
HEADER
  9
$ACADVER
  1
AC1024
  9
$ACADMAINTVER
 70
   155
  9
$DWGCODEPAGE
  3
ANSI_1252
  9
$LASTSAVEDBY
  1
Jason
  9
$INSBASE
 10
0.0
 20
0.0
 30
0.0
  9
$EXTMIN
 10
17.87166592325621
 20
12.61883149135281
 30
0.0
  9
$EXTMAX
 10
393.8935197832153
 20
552.668447130149
 30
0.0
  9
$LIMMIN
 10
0.0
 20
0.0
  9
$LIMMAX
 10
12.0
 20
9.0
  9
$ORTHOMODE
 70
     0
  9
$REGENMODE
 70
     1
  9
$FILLMODE
 70
     1
  9
$QTEXTMODE
 70
     0
  9
$MIRRTEXT
 70
     1
  9
$LTSCALE
 40
5.0
  9
$ATTMODE
 70
     1
  9
$TEXTSIZE
 40
0.2
  9
$TRACEWID
 40
0.05
  9
$TEXTSTYLE
  7
Standard
  9
$CLAYER
  8
0
  9
$CELTYPE
  6
PLASTER
  9
$CECOLOR
 62
   256
  9
$CELTSCALE
 40
3.0
  9
$DISPSILH
 70
     0
  9
$DIMSCALE
 40
1.0
  9
$DIMASZ
 40
0.18
  9
$DIMEXO
 40
0.0625
  9
$DIMDLI
 40
0.38
  9
$DIMRND
 40
0.0
  9
$DIMDLE
 40
0.0
  9
$DIMEXE
 40
0.18
  9
$DIMTP
 40
0.0
  9
$DIMTM
 40
0.0
  9
$DIMTXT
 40
0.18
  9
$DIMCEN
 40
0.09
  9
$DIMTSZ
 40
0.0
  9
$DIMTOL
 70
     0
  9
$DIMLIM
 70
     0
  9
$DIMTIH
 70
     1
  9
$DIMTOH
 70
     1
  9
$DIMSE1
 70
     0
  9
$DIMSE2
 70
     0
  9
$DIMTAD
 70
     0
  9
$DIMZIN
 70
     0
  9
$DIMBLK
  1

  9
$DIMASO
 70
     1
  9
$DIMSHO
 70
     1
  9
$DIMPOST
  1

  9
$DIMAPOST
  1

  9
$DIMALT
 70
     0
  9
$DIMALTD
 70
     2
  9
$DIMALTF
 40
25.4
  9
$DIMLFAC
 40
1.0
  9
$DIMTOFL
 70
     0
  9
$DIMTVP
 40
0.0
  9
$DIMTIX
 70
     0
  9
$DIMSOXD
 70
     0
  9
$DIMSAH
 70
     0
  9
$DIMBLK1
  1

  9
$DIMBLK2
  1

  9
$DIMSTYLE
  2
Standard
  9
$DIMCLRD
 70
     0
  9
$DIMCLRE
 70
     0
  9
$DIMCLRT
 70
     0
  9
$DIMTFAC
 40
1.0
  9
$DIMGAP
 40
0.09
  9
$DIMJUST
 70
     0
  9
$DIMSD1
 70
     0
  9
$DIMSD2
 70
     0
  9
$DIMTOLJ
 70
     1
  9
$DIMTZIN
 70
     0
  9
$DIMALTZ
 70
     0
  9
$DIMALTTZ
 70
     0
  9
$DIMUPT
 70
     0
  9
$DIMDEC
 70
     4
  9
$DIMTDEC
 70
     4
  9
$DIMALTU
 70
     2
  9
$DIMALTTD
 70
     2
  9
$DIMTXSTY
  7
Standard
  9
$DIMAUNIT
 70
     0
  9
$DIMADEC
 70
     0
  9
$DIMALTRND
 40
0.0
  9
$DIMAZIN
 70
     0
  9
$DIMDSEP
 70
    46
  9
$DIMATFIT
 70
     3
  9
$DIMFRAC
 70
     0
  9
$DIMLDRBLK
  1

  9
$DIMLUNIT
 70
     2
  9
$DIMLWD
 70
    -2
  9
$DIMLWE
 70
    -2
  9
$DIMTMOVE
 70
     0
  9
$DIMFXL
 40
1.0
  9
$DIMFXLON
 70
     0
  9
$DIMJOGANG
 40
0.7853981633974483
  9
$DIMTFILL
 70
     0
  9
$DIMTFILLCLR
 70
     0
  9
$DIMARCSYM
 70
     0
  9
$DIMLTYPE
  6

  9
$DIMLTEX1
  6

  9
$DIMLTEX2
  6

  9
$DIMTXTDIRECTION
 70
     0
  9
$LUNITS
 70
     2
  9
$LUPREC
 70
     4
  9
$SKETCHINC
 40
0.1
  9
$FILLETRAD
 40
0.5
  9
$AUNITS
 70
     0
  9
$AUPREC
 70
     0
  9
$MENU
  1
.
  9
$ELEVATION
 40
0.0
  9
$PELEVATION
 40
0.0
  9
$THICKNESS
 40
0.0
  9
$LIMCHECK
 70
     0
  9
$CHAMFERA
 40
0.5
  9
$CHAMFERB
 40
0.5
  9
$CHAMFERC
 40
1.0
  9
$CHAMFERD
 40
0.0
  9
$SKPOLY
 70
     0
  9
$TDCREATE
 40
2456216.552485116
  9
$TDUCREATE
 40
2456216.010818449
  9
$TDUPDATE
 40
2456636.579796146
  9
$TDUUPDATE
 40
2456636.038129480
  9
$TDINDWG
 40
0.0105354745
  9
$TDUSRTIMER
 40
0.0105354745
  9
$USRTIMER
 70
     1
  9
$ANGBASE
 50
0.0
  9
$ANGDIR
 70
     0
  9
$PDMODE
 70
     0
  9
$PDSIZE
 40
0.0
  9
$PLINEWID
 40
0.0
  9
$SPLFRAME
 70
     0
  9
$SPLINETYPE
 70
     6
  9
$SPLINESEGS
 70
     8
  9
$HANDSEED
  5
6E3
  9
$SURFTAB1
 70
     6
  9
$SURFTAB2
 70
     6
  9
$SURFTYPE
 70
     6
  9
$SURFU
 70
     6
  9
$SURFV
 70
     6
  9
$UCSBASE
  2

  9
$UCSNAME
  2

  9
$UCSORG
 10
0.0
 20
0.0
 30
0.0
  9
$UCSXDIR
 10
1.0
 20
0.0
 30
0.0
  9
$UCSYDIR
 10
0.0
 20
1.0
 30
0.0
  9
$UCSORTHOREF
  2

  9
$UCSORTHOVIEW
 70
     0
  9
$UCSORGTOP
 10
0.0
 20
0.0
 30
0.0
  9
$UCSORGBOTTOM
 10
0.0
 20
0.0
 30
0.0
  9
$UCSORGLEFT
 10
0.0
 20
0.0
 30
0.0
  9
$UCSORGRIGHT
 10
0.0
 20
0.0
 30
0.0
  9
$UCSORGFRONT
 10
0.0
 20
0.0
 30
0.0
  9
$UCSORGBACK
 10
0.0
 20
0.0
 30
0.0
  9
$PUCSBASE
  2

  9
$PUCSNAME
  2

  9
$PUCSORG
 10
0.0
 20
0.0
 30
0.0
  9
$PUCSXDIR
 10
1.0
 20
0.0
 30
0.0
  9
$PUCSYDIR
 10
0.0
 20
1.0
 30
0.0
  9
$PUCSORTHOREF
  2

  9
$PUCSORTHOVIEW
 70
     0
  9
$PUCSORGTOP
 10
0.0
 20
0.0
 30
0.0
  9
$PUCSORGBOTTOM
 10
0.0
 20
0.0
 30
0.0
  9
$PUCSORGLEFT
 10
0.0
 20
0.0
 30
0.0
  9
$PUCSORGRIGHT
 10
0.0
 20
0.0
 30
0.0
  9
$PUCSORGFRONT
 10
0.0
 20
0.0
 30
0.0
  9
$PUCSORGBACK
 10
0.0
 20
0.0
 30
0.0
  9
$USERI1
 70
     0
  9
$USERI2
 70
     0
  9
$USERI3
 70
     0
  9
$USERI4
 70
     0
  9
$USERI5
 70
     0
  9
$USERR1
 40
0.0
  9
$USERR2
 40
0.0
  9
$USERR3
 40
0.0
  9
$USERR4
 40
0.0
  9
$USERR5
 40
0.0
  9
$WORLDVIEW
 70
     1
  9
$SHADEDGE
 70
     3
  9
$SHADEDIF
 70
    70
  9
$TILEMODE
 70
     1
  9
$MAXACTVP
 70
    64
  9
$PINSBASE
 10
0.0
 20
0.0
 30
0.0
  9
$PLIMCHECK
 70
     0
  9
$PEXTMIN
 10
1.000000000000000E+20
 20
1.000000000000000E+20
 30
1.000000000000000E+20
  9
$PEXTMAX
 10
-1.000000000000000E+20
 20
-1.000000000000000E+20
 30
-1.000000000000000E+20
  9
$PLIMMIN
 10
0.0
 20
0.0
  9
$PLIMMAX
 10
12.0
 20
9.0
  9
$UNITMODE
 70
     0
  9
$VISRETAIN
 70
     1
  9
$PLINEGEN
 70
     0
  9
$PSLTSCALE
 70
     1
  9
$TREEDEPTH
 70
  3020
  9
$CMLSTYLE
  2
Standard
  9
$CMLJUST
 70
     0
  9
$CMLSCALE
 40
1.0
  9
$PROXYGRAPHICS
 70
     1
  9
$MEASUREMENT
 70
     0
  9
$CELWEIGHT
370
    -1
  9
$ENDCAPS
280
     0
  9
$JOINSTYLE
280
     0
  9
$LWDISPLAY
290
     1
  9
$INSUNITS
 70
     0
  9
$HYPERLINKBASE
  1

  9
$STYLESHEET
  1

  9
$XEDIT
290
     1
  9
$CEPSNTYPE
380
     0
  9
$PSTYLEMODE
290
     1
  9
$FINGERPRINTGUID
  2
{2965BB32-F8A1-48CC-991B-E446FB686EA2}
  9
$VERSIONGUID
  2
{33993A09-886E-4AF1-A9F8-B7AEB6B59598}
  9
$EXTNAMES
290
     1
  9
$PSVPSCALE
 40
0.0
  9
$OLESTARTUP
290
     0
  9
$SORTENTS
280
   127
  9
$INDEXCTL
280
     0
  9
$HIDETEXT
280
     1
  9
$XCLIPFRAME
280
     0
  9
$HALOGAP
280
     0
  9
$OBSCOLOR
 70
   257
  9
$OBSLTYPE
280
     0
  9
$INTERSECTIONDISPLAY
280
     0
  9
$INTERSECTIONCOLOR
 70
   257
  9
$DIMASSOC
280
     2
  9
$PROJECTNAME
  1

  9
$CAMERADISPLAY
290
     0
  9
$LENSLENGTH
 40
50.0
  9
$CAMERAHEIGHT
 40
0.0
  9
$STEPSPERSEC
 40
2.0
  9
$STEPSIZE
 40
6.0
  9
$3DDWFPREC
 40
2.0
  9
$PSOLWIDTH
 40
0.25
  9
$PSOLHEIGHT
 40
4.0
  9
$LOFTANG1
 40
1.570796326794896
  9
$LOFTANG2
 40
1.570796326794896
  9
$LOFTMAG1
 40
0.0
  9
$LOFTMAG2
 40
0.0
  9
$LOFTPARAM
 70
     7
  9
$LOFTNORMALS
280
     1
  9
$LATITUDE
 40
37.795
  9
$LONGITUDE
 40
-122.394
  9
$NORTHDIRECTION
 40
0.0
  9
$TIMEZONE
 70
 -8000
  9
$LIGHTGLYPHDISPLAY
280
     1
  9
$TILEMODELIGHTSYNCH
280
     1
  9
$CMATERIAL
347
3C
  9
$SOLIDHIST
280
     1
  9
$SHOWHIST
280
     1
  9
$DWFFRAME
280
     2
  9
$DGNFRAME
280
     2
  9
$REALWORLDSCALE
290
     1
  9
$INTERFERECOLOR
 62
   256
  9
$INTERFEREOBJVS
345
33
  9
$INTERFEREVPVS
346
31B
  9
$CSHADOW
280
     0
  9
$SHADOWPLANELOCATION
 40
0.0
  0
ENDSEC
  0
SECTION
  2
CLASSES
  0
CLASS
  1
ACDBDICTIONARYWDFLT
  2
AcDbDictionaryWithDefault
  3
ObjectDBX Classes
 90
        0
 91
        1
280
     0
281
     0
  0
CLASS
  1
VISUALSTYLE
  2
AcDbVisualStyle
  3
ObjectDBX Classes
 90
     4095
 91
       26
280
     0
281
     0
  0
CLASS
  1
MATERIAL
  2
AcDbMaterial
  3
ObjectDBX Classes
 90
     1153
 91
        3
280
     0
281
     0
  0
CLASS
  1
SCALE
  2
AcDbScale
  3
ObjectDBX Classes
 90
     1153
 91
       33
280
     0
281
     0
  0
CLASS
  1
WIPEOUT
  2
AcDbWipeout
  3
WipeOut|Product Desc: Object Enabler for WipeOut entity | Company: Autodesk, Inc. | WEB Address: www.autodesk.com
 90
     2175
 91
        1
280
     0
281
     1
  0
CLASS
  1
DICTIONARYVAR
  2
AcDbDictionaryVar
  3
ObjectDBX Classes
 90
        0
 91
       17
280
     0
281
     0
  0
CLASS
  1
TABLESTYLE
  2
AcDbTableStyle
  3
ObjectDBX Classes
 90
     4095
 91
        1
280
     0
281
     0
  0
CLASS
  1
MLEADERSTYLE
  2
AcDbMLeaderStyle
  3
ACDB_MLEADERSTYLE_CLASS
 90
     4095
 91
        1
280
     0
281
     0
  0
CLASS
  1
ACDBSECTIONVIEWSTYLE
  2
AcDbSectionViewStyle
  3
ObjectDBX Classes
 90
     1025
 91
        1
280
     0
281
     0
  0
CLASS
  1
ACDBDETAILVIEWSTYLE
  2
AcDbDetailViewStyle
  3
ObjectDBX Classes
 90
     1025
 91
        1
280
     0
281
     0
  0
CLASS
  1
WIPEOUTVARIABLES
  2
AcDbWipeoutVariables
  3
"WipeOut|Product Desc:     WipeOut Dbx Application|Company:          Autodesk, Inc.|WEB Address:      www.autodesk.com"
 90
        0
 91
        1
280
     0
281
     0
  0
CLASS
  1
EXACXREFPANELOBJECT
  2
ExAcXREFPanelObject
  3
EXAC_ESW
 90
     1025
 91
        1
280
     0
281
     0
  0
CLASS
  1
NPOCOLLECTION
  2
AcDbImpNonPersistentObjectsCollection
  3
ObjectDBX Classes
 90
     1153
 91
        1
280
     0
281
     0
  0
CLASS
  1
IMAGE
  2
AcDbRasterImage
  3
ISM
 90
     2175
 91
        6
280
     0
281
     1
  0
CLASS
  1
IMAGEDEF_REACTOR
  2
AcDbRasterImageDefReactor
  3
ISM
 90
        1
 91
        6
280
     0
281
     0
  0
CLASS
  1
SORTENTSTABLE
  2
AcDbSortentsTable
  3
ObjectDBX Classes
 90
        0
 91
        3
280
     0
281
     0
  0
CLASS
  1
IMAGEDEF
  2
AcDbRasterImageDef
  3
ISM
 90
        0
 91
        2
280
     0
281
     0
  0
CLASS
  1
RASTERVARIABLES
  2
AcDbRasterVariables
  3
ISM
 90
        0
 91
        1
280
     0
281
     0
  0
CLASS
  1
ACAD_EVALUATION_GRAPH
  2
AcDbEvalGraph
  3
ObjectDBX Classes
 90
     1153
 91
        0
280
     0
281
     0
  0
CLASS
  1
ACAECUSTOBJ
  2
AcAeEditorObj
  3
AcAeEditorObj
 90
     1024
 91
        0
280
     0
281
     0
  0
CLASS
  1
ACDB_DYNAMICBLOCKPURGEPREVENTER_VERSION
  2
AcDbDynamicBlockPurgePreventer
  3
ObjectDBX Classes
 90
     1153
 91
        0
280
     0
281
     0
  0
CLASS
  1
CELLSTYLEMAP
  2
AcDbCellStyleMap
  3
ObjectDBX Classes
 90
     1152
 91
        2
280
     0
281
     0
  0
ENDSEC
  0
SECTION
  2
TABLES
  0
TABLE
  2
VPORT
  5
8
330
0
100
AcDbSymbolTable
 70
     1
  0
VPORT
  5
29
330
8
100
AcDbSymbolTableRecord
100
AcDbViewportTableRecord
  2
*Active
 70
     0
 10
0.0
 20
0.0
 11
1.0
 21
1.0
 12
454.3820421807297
 22
143.3197039496617
 13
0.0
 23
0.0
 14
0.5
 24
0.5
 15
0.5
 25
0.5
 16
0.0
 26
0.0
 36
1.0
 17
0.0
 27
0.0
 37
0.0
 40
1287.740408520142
 41
1.816348195329086
 42
50.0
 43
0.0
 44
0.0
 50
0.0
 51
0.0
 71
     0
 72
   100
 73
     1
 74
     3
 75
     0
 76
     0
 77
     0
 78
     0
281
     0
 65
     1
110
0.0
120
0.0
130
0.0
111
1.0
121
0.0
131
0.0
112
0.0
122
1.0
132
0.0
 79
     0
146
0.0
348
2F
 60
     3
 61
     5
292
     1
282
     1
141
0.0
142
0.0
 63
   250
1001
ACAD_NAV_VCDISPLAY
1070
     3
  0
ENDTAB
  0
TABLE
  2
LTYPE
  5
5
330
0
100
AcDbSymbolTable
 70
     8
  0
LTYPE
  5
14
330
5
100
AcDbSymbolTableRecord
100
AcDbLinetypeTableRecord
  2
ByBlock
 70
     0
  3

 72
    65
 73
     0
 40
0.0
  0
LTYPE
  5
15
330
5
100
AcDbSymbolTableRecord
100
AcDbLinetypeTableRecord
  2
ByLayer
 70
     0
  3

 72
    65
 73
     0
 40
0.0
  0
LTYPE
  5
16
330
5
100
AcDbSymbolTableRecord
100
AcDbLinetypeTableRecord
  2
Continuous
 70
     0
  3
Solid line
 72
    65
 73
     0
 40
0.0
  0
LTYPE
  5
28C
330
5
100
AcDbSymbolTableRecord
100
AcDbLinetypeTableRecord
  2
Hidden
 70
     0
  3
- - - - - 
 72
    65
 73
     2
 40
4.938889980316162
 49
2.822222709655761
 74
     0
 49
-2.1166672706604
 74
     0
  0
LTYPE
  5
2A5
330
5
100
AcDbSymbolTableRecord
100
AcDbLinetypeTableRecord
  2
Above
 70
     0
  3
- - - - - 
 72
    65
 73
     2
 40
9.599999999999999
 49
6.0
 74
     0
 49
-3.6
 74
     0
  0
LTYPE
  5
2AE
330
5
100
AcDbSymbolTableRecord
100
AcDbLinetypeTableRecord
  2
Sketch
 70
     0
  3
??????????
 72
    65
 73
     3
 40
40.0
 49
0.0
 74
     4
 75
     1
340
2AF
 46
0.3174603174603174
 50
0.0
 44
0.0
 45
0.0
 49
-40.0
 74
     0
 49
0.0
 74
     0
  0
LTYPE
  5
2E7
330
5
100
AcDbSymbolTableRecord
100
AcDbLinetypeTableRecord
  2
Wipeout_Contour
 70
     0
  3
- - - - - 
 72
    65
 73
     2
 40
1000.0
 49
0.0
 74
     0
 49
-1000.0
 74
     0
  0
LTYPE
  5
384
330
5
100
AcDbSymbolTableRecord
100
AcDbLinetypeTableRecord
  2
ZIGZAG
 70
     0
  3
Zig zag /\/\/\/\/\/\/\/\/\/\/\/\/\/\/\/\/\/\/\/
 72
    65
 73
     4
 40
0.8001000000000001
 49
0.0001
 74
     0
 49
-0.2
 74
     4
 75
   131
340
383
 46
0.2
 50
0.0
 44
-0.2
 45
0.0
 49
-0.4
 74
     4
 75
   131
340
383
 46
0.2
 50
180.0
 44
0.2
 45
0.0
 49
-0.2
 74
     0
  0
LTYPE
  5
3ED
330
5
100
AcDbSymbolTableRecord
100
AcDbLinetypeTableRecord
  2
DASHEDX2
 70
     0
  3
Dashed (2x) ____  ____  ____  ____  ____  ___
 72
    65
 73
     2
 40
1.5
 49
1.0
 74
     0
 49
-0.5
 74
     0
  0
LTYPE
  5
44A
330
5
100
AcDbSymbolTableRecord
100
AcDbLinetypeTableRecord
  2
PLASTER
 70
     0
  3
PLASTER
 72
    65
 73
     2
 40
2.379214999999999
 49
0.000024
 74
     4
 75
     1
340
44B
 46
0.2
 50
0.0
 44
0.0
 45
0.0
 49
-2.379191
 74
     0
  0
ENDTAB
  0
TABLE
  2
LAYER
  5
2
102
{ACAD_XDICTIONARY
360
33F
102
}
330
0
100
AcDbSymbolTable
 70
     5
  0
LAYER
  5
10
102
{ACAD_XDICTIONARY
360
367
102
}
330
2
100
AcDbSymbolTableRecord
100
AcDbLayerTableRecord
  2
0
 70
     0
 62
     7
  6
Continuous
370
    -3
390
F
347
3E
  0
LAYER
  5
40
102
{ACAD_XDICTIONARY
360
369
102
}
330
2
100
AcDbSymbolTableRecord
100
AcDbLayerTableRecord
  2
Specialized_Fills
 70
     0
 62
     7
  6
Continuous
370
    -3
390
F
347
3E
  0
LAYER
  5
25F
102
{ACAD_XDICTIONARY
360
36B
102
}
330
2
100
AcDbSymbolTableRecord
100
AcDbLayerTableRecord
  2
Specialized_Lines
 70
     0
 62
     7
  6
Continuous
370
    -3
390
F
347
3E
  0
LAYER
  5
2B6
102
{ACAD_XDICTIONARY
360
36D
102
}
330
2
100
AcDbSymbolTableRecord
100
AcDbLayerTableRecord
  2
Specialized_Text
 70
     0
 62
     7
  6
Continuous
370
    -3
390
F
347
3E
  0
LAYER
  5
336
102
{ACAD_XDICTIONARY
360
337
102
}
330
2
100
AcDbSymbolTableRecord
100
AcDbLayerTableRecord
  2
Viewport
 70
     0
 62
     7
  6
Continuous
370
    -3
390
F
347
3E
1001
AcAecLayerStandard
1000

1000

1001
AcCmTransparency
1071
        0
  0
ENDTAB
  0
TABLE
  2
STYLE
  5
3
330
0
100
AcDbSymbolTable
 70
     6
  0
STYLE
  5
11
330
3
100
AcDbSymbolTableRecord
100
AcDbTextStyleTableRecord
  2
Standard
 70
     0
 40
0.0
 41
1.0
 50
0.0
 71
     0
 42
0.2
  3
txt
  4
BIGFONT.SHX
  0
STYLE
  5
2AF
330
3
100
AcDbSymbolTableRecord
100
AcDbTextStyleTableRecord
  2

 70
     1
 40
0.2
 41
1.0
 50
0.0
 71
     0
 42
0.2
  3
06D Wall _ Floor_ CONCRETE SLAB (High Back U-Channel)1.Shx
  4

  0
STYLE
  5
2BD
330
3
100
AcDbSymbolTableRecord
100
AcDbTextStyleTableRecord
  2
GENERATED_STYLE_1
 70
     0
 40
0.0
 41
1.0
 50
0.0
 71
     0
 42
0.2
  3
ARIALUNI.TTF
  4

1001
ACAD
1000
Arial Unicode MS
1071
       34
  0
STYLE
  5
338
330
3
100
AcDbSymbolTableRecord
100
AcDbTextStyleTableRecord
  2
GENERATED_STYLE_2
 70
     0
 40
0.0
 41
1.0
 50
0.0
 71
     0
 42
0.2
  3
ARIALUNI.TTF
  4

1001
ACAD
1000
Arial Unicode MS
1071
       34
  0
STYLE
  5
383
330
3
100
AcDbSymbolTableRecord
100
AcDbTextStyleTableRecord
  2

 70
     1
 40
0.0
 41
1.0
 50
0.0
 71
     0
 42
0.2
  3
ltypeshp.shx
  4

  0
STYLE
  5
44B
330
3
100
AcDbSymbolTableRecord
100
AcDbTextStyleTableRecord
  2

 70
     1
 40
0.0
 41
1.0
 50
0.0
 71
     0
 42
0.2
  3
P:\VERT-X CONSULTING LTD\2013\10 OCT\1310-015- SPECIALIZED CONSTRUCTION PRODUCTS - CONTRACT DRAUGHTING\DRAWINGS\PLASTER.SHX
  4

  0
ENDTAB
  0
TABLE
  2
VIEW
  5
6
330
0
100
AcDbSymbolTable
 70
     0
  0
ENDTAB
  0
TABLE
  2
UCS
  5
7
330
0
100
AcDbSymbolTable
 70
     0
  0
ENDTAB
  0
TABLE
  2
APPID
  5
9
330
0
100
AcDbSymbolTable
 70
    11
  0
APPID
  5
12
330
9
100
AcDbSymbolTableRecord
100
AcDbRegAppTableRecord
  2
ACAD
 70
     0
  0
APPID
  5
339
330
9
100
AcDbSymbolTableRecord
100
AcDbRegAppTableRecord
  2
ACAD_PSEXT
 70
     0
  0
APPID
  5
33A
330
9
100
AcDbSymbolTableRecord
100
AcDbRegAppTableRecord
  2
ACAD_NAV_VCDISPLAY
 70
     0
  0
APPID
  5
33B
330
9
100
AcDbSymbolTableRecord
100
AcDbRegAppTableRecord
  2
AcAecLayerStandard
 70
     0
  0
APPID
  5
33C
330
9
100
AcDbSymbolTableRecord
100
AcDbRegAppTableRecord
  2
AcCmTransparency
 70
     0
  0
APPID
  5
33D
330
9
100
AcDbSymbolTableRecord
100
AcDbRegAppTableRecord
  2
GradientColor1ACI
 70
     0
  0
APPID
  5
33E
330
9
100
AcDbSymbolTableRecord
100
AcDbRegAppTableRecord
  2
GradientColor2ACI
 70
     0
  0
APPID
  5
365
330
9
100
AcDbSymbolTableRecord
100
AcDbRegAppTableRecord
  2
ACAD_EXEMPT_FROM_CAD_STANDARDS
 70
     0
  0
APPID
  5
392
330
9
100
AcDbSymbolTableRecord
100
AcDbRegAppTableRecord
  2
ACAUTHENVIRON
 70
     0
  0
APPID
  5
3A6
330
9
100
AcDbSymbolTableRecord
100
AcDbRegAppTableRecord
  2
AcDbDynamicBlockTrueName
 70
     0
  0
APPID
  5
3A7
330
9
100
AcDbSymbolTableRecord
100
AcDbRegAppTableRecord
  2
AcDbDynamicBlockGUID
 70
     0
  0
ENDTAB
  0
TABLE
  2
DIMSTYLE
  5
A
330
0
100
AcDbSymbolTable
 70
     5
100
AcDbDimStyleTable
 71
     1
340
27
  0
DIMSTYLE
105
27
330
A
100
AcDbSymbolTableRecord
100
AcDbDimStyleTableRecord
  2
Standard
 70
     0
340
11
  0
DIMSTYLE
105
2BF
330
A
100
AcDbSymbolTableRecord
100
AcDbDimStyleTableRecord
  2
GENERATED_STYLE__1
 70
     0
 41
3.799999999999999
 42
-29.46445077259106
 73
     0
 74
     0
 77
     1
140
6.0
172
     1
176
     7
177
     7
178
     7
179
     2
271
     0
340
2BD
342
2C0
343
2C0
344
2C0
  0
DIMSTYLE
105
2D0
102
{ACAD_REACTORS
330
2CF
102
}
330
A
100
AcDbSymbolTableRecord
100
AcDbDimStyleTableRecord
  2
GENERATED_STYLE__2
 70
     0
 41
3.799999999999999
 42
0.0
 73
     0
 74
     0
 77
     1
140
6.0
172
     1
176
     7
177
     7
178
     7
179
     2
271
     0
340
2BD
342
2C0
343
2C0
344
2C0
  0
DIMSTYLE
105
2D3
330
A
100
AcDbSymbolTableRecord
100
AcDbDimStyleTableRecord
  2
GENERATED_STYLE__3
 70
     0
 41
7.295999999999999
172
     1
341
2D4
  0
DIMSTYLE
105
44C
330
A
100
AcDbSymbolTableRecord
100
AcDbDimStyleTableRecord
  2
GENERATED_STYLE__4
 70
     0
 41
7.295999999999999
172
     1
340
11
341
2D4
  0
ENDTAB
  0
TABLE
  2
BLOCK_RECORD
  5
1
330
0
100
AcDbSymbolTable
 70
    12
  0
BLOCK_RECORD
  5
1F
102
{ACAD_XDICTIONARY
360
56D
102
}
330
1
100
AcDbSymbolTableRecord
100
AcDbBlockTableRecord
  2
*Model_Space
340
22
 70
     0
280
     1
281
     0
  0
BLOCK_RECORD
  5
1B
330
1
100
AcDbSymbolTableRecord
100
AcDbBlockTableRecord
  2
*Paper_Space
340
1E
 70
     0
280
     1
281
     0
  0
BLOCK_RECORD
  5
23
330
1
100
AcDbSymbolTableRecord
100
AcDbBlockTableRecord
  2
*Paper_Space0
340
26
 70
     0
280
     1
281
     0
  0
BLOCK_RECORD
  5
44
330
1
100
AcDbSymbolTableRecord
100
AcDbBlockTableRecord
  2
Fill_1
340
0
 70
     0
280
     1
281
     0
  0
BLOCK_RECORD
  5
47
330
1
100
AcDbSymbolTableRecord
100
AcDbBlockTableRecord
  2
*X2
340
0
102
{BLKREFS
331
BC
102
}
 70
     0
280
     1
281
     0
  0
BLOCK_RECORD
  5
E1
102
{ACAD_XDICTIONARY
360
393
102
}
330
1
100
AcDbSymbolTableRecord
100
AcDbBlockTableRecord
  2
Fill_2
340
0
102
{BLKREFS
331
25B
102
}
 70
     0
280
     1
281
     0
1001
AcDbDynamicBlockGUID
1000
{0CCF05E7-7F25-49F2-9581-C8E8F8182FB0}
  0
BLOCK_RECORD
  5
2C0
330
1
100
AcDbSymbolTableRecord
100
AcDbBlockTableRecord
  2
ARROWHEAD_6
340
0
 70
     0
280
     1
281
     0
  0
BLOCK_RECORD
  5
2C5
330
1
100
AcDbSymbolTableRecord
100
AcDbBlockTableRecord
  2
*D5
340
0
 70
     0
280
     1
281
     0
  0
BLOCK_RECORD
  5
2D4
330
1
100
AcDbSymbolTableRecord
100
AcDbBlockTableRecord
  2
ARROWHEAD_5
340
0
 70
     0
280
     1
281
     0
  0
BLOCK_RECORD
  5
2F0
330
1
100
AcDbSymbolTableRecord
100
AcDbBlockTableRecord
  2
06D Wall _ Floor_ CONCRETE SLAB_STORY_MARKER
340
0
 70
     0
280
     1
281
     0
  0
BLOCK_RECORD
  5
429
330
1
100
AcDbSymbolTableRecord
100
AcDbBlockTableRecord
  2
*D8
340
0
 70
     0
280
     1
281
     0
  0
BLOCK_RECORD
  5
434
330
1
100
AcDbSymbolTableRecord
100
AcDbBlockTableRecord
  2
*D9
340
0
 70
     0
280
     1
281
     0
  0
BLOCK_RECORD
  5
43F
330
1
100
AcDbSymbolTableRecord
100
AcDbBlockTableRecord
  2
*D10
340
0
 70
     0
280
     1
281
     0
  0
BLOCK_RECORD
  5
44D
102
{ACAD_XDICTIONARY
360
4DC
102
}
330
1
100
AcDbSymbolTableRecord
100
AcDbBlockTableRecord
  2
A$C0CAC3C21
340
0
 70
     0
280
     1
281
     0
  0
ENDTAB
  0
ENDSEC
  0
SECTION
  2
BLOCKS
  0
BLOCK
  5
20
330
1F
100
AcDbEntity
  8
0
100
AcDbBlockBegin
  2
*Model_Space
 70
     0
 10
0.0
 20
0.0
 30
0.0
  3
*Model_Space
  1

  0
ENDBLK
  5
21
330
1F
100
AcDbEntity
  8
0
100
AcDbBlockEnd
  0
BLOCK
  5
1C
330
1B
100
AcDbEntity
 67
     1
  8
0
100
AcDbBlockBegin
  2
*Paper_Space
 70
     0
 10
0.0
 20
0.0
 30
0.0
  3
*Paper_Space
  1

  0
ENDBLK
  5
1D
330
1B
100
AcDbEntity
 67
     1
  8
0
100
AcDbBlockEnd
  0
BLOCK
  5
24
330
23
100
AcDbEntity
 67
     1
  8
0
100
AcDbBlockBegin
  2
*Paper_Space0
 70
     0
 10
0.0
 20
0.0
 30
0.0
  3
*Paper_Space0
  1

  0
ENDBLK
  5
25
330
23
100
AcDbEntity
 67
     1
  8
0
100
AcDbBlockEnd
  0
BLOCK
  5
45
330
44
100
AcDbEntity
  8
0
100
AcDbBlockBegin
  2
Fill_1
 70
     0
 10
0.0
 20
0.0
 30
0.0
  3
Fill_1
  1

  0
INSERT
  5
BC
330
44
100
AcDbEntity
  8
Specialized_Fills
  6
Continuous
100
AcDbBlockReference
  2
*X2
 10
0.0
 20
0.0
 30
0.0
  0
ENDBLK
  5
46
330
44
100
AcDbEntity
  8
0
100
AcDbBlockEnd
  0
BLOCK
  5
48
330
47
100
AcDbEntity
  8
0
100
AcDbBlockBegin
  2
*X2
 70
     1
 10
0.0
 20
0.0
 30
0.0
  3
*X2
  1

  0
LINE
  5
4A
330
47
100
AcDbEntity
  8
Specialized_Fills
  6
Continuous
100
AcDbLine
 10
162.4116100207035
 20
100.0651267386519
 30
0.0
 11
164.6796554832254
 21
102.7680780667794
 31
0.0
  0
LINE
  5
4B
330
47
100
AcDbEntity
  8
Specialized_Fills
  6
Continuous
100
AcDbLine
 10
161.0061242938669
 20
225.2226923840841
 30
0.0
 11
164.6796554832254
 21
229.6006363765091
 31
0.0
  0
LINE
  5
4C
330
47
100
AcDbEntity
  8
Specialized_Fills
  6
Continuous
100
AcDbLine
 10
171.5791507203652
 20
167.9056388133136
 30
0.0
 11
175.2526819097238
 21
172.2835828057386
 31
0.0
  0
LINE
  5
4D
330
47
100
AcDbEntity
  8
Specialized_Fills
  6
Continuous
100
AcDbLine
 10
215.6615249926681
 20
220.4409667224132
 30
0.0
 11
219.3350561820267
 21
224.8189107148381
 31
0.0
  0
LINE
  5
4E
330
47
100
AcDbEntity
  8
Specialized_Fills
  6
Continuous
100
AcDbLine
 10
161.0061281449694
 20
225.2226446695311
 30
0.0
 11
165.5607303046449
 21
224.8241686136887
 31
0.0
  0
LINE
  5
4F
330
47
100
AcDbEntity
  8
Specialized_Fills
  6
Continuous
100
AcDbLine
 10
215.661354061075
 20
220.4409319994236
 30
0.0
 11
220.2159562207504
 21
220.0424559435813
 31
0.0
  0
LINE
  5
50
330
47
100
AcDbEntity
  8
Specialized_Fills
  6
Continuous
100
AcDbLine
 10
171.5789759376695
 20
167.905651804877
 30
0.0
 11
176.133578097345
 21
167.5071757490348
 31
0.0
  0
LINE
  5
51
330
47
100
AcDbEntity
  8
Specialized_Fills
  6
Continuous
100
AcDbLine
 10
176.1335015350033
 20
167.5068041920777
 30
0.0
 11
175.252468117199
 21
172.283228494494
 31
0.0
  0
LINE
  5
52
330
47
100
AcDbEntity
  8
Specialized_Fills
  6
Continuous
100
AcDbLine
 10
164.9041913027254
 20
101.5526974926106
 30
0.0
 11
164.6800671035475
 21
102.7677618137587
 31
0.0
  0
LINE
  5
53
330
47
100
AcDbEntity
  8
Specialized_Fills
  6
Continuous
100
AcDbLine
 10
165.5611005213518
 20
224.8238958210722
 30
0.0
 11
164.6800671035475
 21
229.6003201234884
 31
0.0
  0
LINE
  5
54
330
47
100
AcDbEntity
  8
Specialized_Fills
  6
Continuous
100
AcDbLine
 10
220.2162520347911
 20
220.0418105381653
 30
0.0
 11
219.3352186169868
 21
224.8182348405816
 31
0.0
  0
LINE
  5
55
330
47
100
AcDbEntity
  8
Specialized_Fills
  6
Continuous
100
AcDbLine
 10
198.247462289203
 20
175.3146660951665
 30
0.0
 11
204.1825656410611
 21
181.5003192096535
 31
0.0
  0
LINE
  5
56
330
47
100
AcDbEntity
  8
Specialized_Fills
  6
Continuous
100
AcDbLine
 10
204.9919517856982
 20
174.5429426373411
 30
0.0
 11
204.1825735659471
 21
181.5003296991065
 31
0.0
  0
LINE
  5
57
330
47
100
AcDbEntity
  8
Specialized_Fills
  6
Continuous
100
AcDbLine
 10
198.2474739046813
 20
175.3145317327933
 30
0.0
 11
204.8031178407666
 21
174.2977897965529
 31
0.0
  0
LINE
  5
58
330
47
100
AcDbEntity
  8
Specialized_Fills
  6
Continuous
100
AcDbLine
 10
143.0842317201271
 20
112.5413357001003
 30
0.0
 11
148.4196438575586
 21
114.5894085317517
 31
0.0
  0
LINE
  5
59
330
47
100
AcDbEntity
  8
Specialized_Fills
  6
Continuous
100
AcDbLine
 10
143.0842317201271
 20
239.37389400983
 30
0.0
 11
148.4196438575586
 21
241.4219668414814
 31
0.0
  0
LINE
  5
5A
330
47
100
AcDbEntity
  8
Specialized_Fills
  6
Continuous
100
AcDbLine
 10
188.5686956707421
 20
208.6942384548013
 30
0.0
 11
193.9041078081736
 21
210.7423112864527
 31
0.0
  0
LINE
  5
5B
330
47
100
AcDbEntity
  8
Specialized_Fills
  6
Continuous
100
AcDbLine
 10
221.9626856717483
 20
257.6042970190873
 30
0.0
 11
222.3200232963066
 21
257.7414660815202
 31
0.0
  0
LINE
  5
5C
330
47
100
AcDbEntity
  8
Specialized_Fills
  6
Continuous
100
AcDbLine
 10
170.028213972179
 20
153.4377089199558
 30
0.0
 11
175.3636261096105
 21
155.4857817516072
 31
0.0
  0
LINE
  5
5D
330
47
100
AcDbEntity
  8
Specialized_Fills
  6
Continuous
100
AcDbLine
 10
170.028213972179
 20
280.2702672296855
 30
0.0
 11
171.2424338983228
 21
280.7363625899555
 31
0.0
  0
LINE
  5
5E
330
47
100
AcDbEntity
  8
Specialized_Fills
  6
Continuous
100
AcDbLine
 10
143.0843585258581
 20
112.5411960019507
 30
0.0
 11
146.8747183075797
 21
109.9845660472824
 31
0.0
  0
LINE
  5
5F
330
47
100
AcDbEntity
  8
Specialized_Fills
  6
Continuous
100
AcDbLine
 10
143.0843585258581
 20
239.3737543116804
 30
0.0
 11
146.8747183075797
 21
236.8171243570121
 31
0.0
  0
LINE
  5
60
330
47
100
AcDbEntity
  8
Specialized_Fills
  6
Continuous
100
AcDbLine
 10
188.5686759065179
 20
208.6941948556613
 30
0.0
 11
192.3590356882396
 21
206.1375649009931
 31
0.0
  0
LINE
  5
61
330
47
100
AcDbEntity
  8
Specialized_Fills
  6
Continuous
100
AcDbLine
 10
170.0280674022238
 20
153.4378050189655
 30
0.0
 11
173.8184271839454
 21
150.8811750642973
 31
0.0
  0
LINE
  5
62
330
47
100
AcDbEntity
  8
Specialized_Fills
  6
Continuous
100
AcDbLine
 10
170.0280674022238
 20
280.2703633286953
 30
0.0
 11
173.8184271839454
 21
277.713733374027
 31
0.0
  0
LINE
  5
63
330
47
100
AcDbEntity
  8
Specialized_Fills
  6
Continuous
100
AcDbLine
 10
221.9626856717483
 20
256.6771925733828
 30
0.0
 11
222.3198365869013
 21
257.7416028178742
 31
0.0
  0
LINE
  5
64
330
47
100
AcDbEntity
  8
Specialized_Fills
  6
Continuous
100
AcDbLine
 10
146.8747614076042
 20
109.9845652199895
 30
0.0
 11
148.4198165231076
 21
114.5892643078841
 31
0.0
  0
LINE
  5
65
330
47
100
AcDbEntity
  8
Specialized_Fills
  6
Continuous
100
AcDbLine
 10
146.8747614076042
 20
236.8171235297192
 30
0.0
 11
148.4198165231076
 21
241.4218226176138
 31
0.0
  0
LINE
  5
66
330
47
100
AcDbEntity
  8
Specialized_Fills
  6
Continuous
100
AcDbLine
 10
173.8183858665611
 20
150.8812027350672
 30
0.0
 11
175.3634409820645
 21
155.4859018229618
 31
0.0
  0
LINE
  5
67
330
47
100
AcDbEntity
  8
Specialized_Fills
  6
Continuous
100
AcDbLine
 10
173.8183858665611
 20
277.7137610447969
 30
0.0
 11
174.8325859022926
 21
280.7363625899555
 31
0.0
  0
LINE
  5
68
330
47
100
AcDbEntity
  8
Specialized_Fills
  6
Continuous
100
AcDbLine
 10
192.3590472526014
 20
206.1375917898018
 30
0.0
 11
193.9041023681047
 21
210.7422908776964
 31
0.0
  0
POINT
  5
69
330
47
100
AcDbEntity
  8
Specialized_Fills
  6
Continuous
100
AcDbPoint
 10
230.6848357829708
 20
248.7868994608224
 30
0.0
  0
POINT
  5
6A
330
47
100
AcDbEntity
  8
Specialized_Fills
  6
Continuous
100
AcDbPoint
 10
229.7582548077933
 20
223.4203877988765
 30
0.0
  0
POINT
  5
6B
330
47
100
AcDbEntity
  8
Specialized_Fills
  6
Continuous
100
AcDbPoint
 10
158.1926099656044
 20
126.8325583097297
 30
0.0
  0
POINT
  5
6C
330
47
100
AcDbEntity
  8
Specialized_Fills
  6
Continuous
100
AcDbPoint
 10
158.1926099656044
 20
253.6651166194594
 30
0.0
  0
POINT
  5
6D
330
47
100
AcDbEntity
  8
Specialized_Fills
  6
Continuous
100
AcDbPoint
 10
157.2660289904268
 20
101.4660466477837
 30
0.0
  0
POINT
  5
6E
330
47
100
AcDbEntity
  8
Specialized_Fills
  6
Continuous
100
AcDbPoint
 10
157.2660289904268
 20
228.2986049575134
 30
0.0
  0
POINT
  5
6F
330
47
100
AcDbEntity
  8
Specialized_Fills
  6
Continuous
100
AcDbPoint
 10
156.3394480152493
 20
202.9320932955675
 30
0.0
  0
POINT
  5
70
330
47
100
AcDbEntity
  8
Specialized_Fills
  6
Continuous
100
AcDbPoint
 10
196.843309450478
 20
234.0117992921787
 30
0.0
  0
POINT
  5
71
330
47
100
AcDbEntity
  8
Specialized_Fills
  6
Continuous
100
AcDbPoint
 10
226.9785118822607
 20
274.1534111227684
 30
0.0
  0
POINT
  5
72
330
47
100
AcDbEntity
  8
Specialized_Fills
  6
Continuous
100
AcDbPoint
 10
155.4128670400717
 20
177.5655816336215
 30
0.0
  0
POINT
  5
73
330
47
100
AcDbEntity
  8
Specialized_Fills
  6
Continuous
100
AcDbPoint
 10
195.9167284753004
 20
208.6452876302328
 30
0.0
  0
POINT
  5
74
330
47
100
AcDbEntity
  8
Specialized_Fills
  6
Continuous
100
AcDbPoint
 10
154.4862860648942
 20
152.1990699716756
 30
0.0
  0
POINT
  5
75
330
47
100
AcDbEntity
  8
Specialized_Fills
  6
Continuous
100
AcDbPoint
 10
154.4862860648942
 20
279.0316282814053
 30
0.0
  0
POINT
  5
76
330
47
100
AcDbEntity
  8
Specialized_Fills
  6
Continuous
100
AcDbPoint
 10
194.9901475001229
 20
183.2787759682868
 30
0.0
  0
POINT
  5
77
330
47
100
AcDbEntity
  8
Specialized_Fills
  6
Continuous
100
AcDbPoint
 10
153.5597050897166
 20
126.8325583097297
 30
0.0
  0
POINT
  5
78
330
47
100
AcDbEntity
  8
Specialized_Fills
  6
Continuous
100
AcDbPoint
 10
153.5597050897166
 20
253.6651166194594
 30
0.0
  0
POINT
  5
79
330
47
100
AcDbEntity
  8
Specialized_Fills
  6
Continuous
100
AcDbPoint
 10
194.0635665249454
 20
157.9122643063409
 30
0.0
  0
POINT
  5
7A
330
47
100
AcDbEntity
  8
Specialized_Fills
  6
Continuous
100
AcDbPoint
 10
193.1369855497678
 20
259.3783109541246
 30
0.0
  0
POINT
  5
7B
330
47
100
AcDbEntity
  8
Specialized_Fills
  6
Continuous
100
AcDbPoint
 10
137.9396526724846
 20
103.4517618547167
 30
0.0
  0
POINT
  5
7C
330
47
100
AcDbEntity
  8
Specialized_Fills
  6
Continuous
100
AcDbPoint
 10
137.9396526724846
 20
230.2843201644464
 30
0.0
  0
POINT
  5
7D
330
47
100
AcDbEntity
  8
Specialized_Fills
  6
Continuous
100
AcDbPoint
 10
157.0155475277474
 20
105.9631510561266
 30
0.0
  0
POINT
  5
7E
330
47
100
AcDbEntity
  8
Specialized_Fills
  6
Continuous
100
AcDbPoint
 10
157.0155475277474
 20
232.7957093658563
 30
0.0
  0
POINT
  5
7F
330
47
100
AcDbEntity
  8
Specialized_Fills
  6
Continuous
100
AcDbPoint
 10
185.8749211305608
 20
236.5951179794745
 30
0.0
  0
POINT
  5
80
330
47
100
AcDbEntity
  8
Specialized_Fills
  6
Continuous
100
AcDbPoint
 10
136.9696487746557
 20
202.7415369204204
 30
0.0
  0
POINT
  5
81
330
47
100
AcDbEntity
  8
Specialized_Fills
  6
Continuous
100
AcDbPoint
 10
165.8290223774691
 20
206.5409455340386
 30
0.0
  0
POINT
  5
82
330
47
100
AcDbEntity
  8
Specialized_Fills
  6
Continuous
100
AcDbPoint
 10
213.9531610816371
 20
212.8766085886846
 30
0.0
  0
POINT
  5
83
330
47
100
AcDbEntity
  8
Specialized_Fills
  6
Continuous
100
AcDbPoint
 10
145.7831236243774
 20
176.4867730886027
 30
0.0
  0
POINT
  5
84
330
47
100
AcDbEntity
  8
Specialized_Fills
  6
Continuous
100
AcDbPoint
 10
193.9072623285454
 20
182.8224361432487
 30
0.0
  0
POINT
  5
85
330
47
100
AcDbEntity
  8
Specialized_Fills
  6
Continuous
100
AcDbPoint
 10
212.9831571838082
 20
185.3338253446586
 30
0.0
  0
POINT
  5
86
330
47
100
AcDbEntity
  8
Specialized_Fills
  6
Continuous
100
AcDbPoint
 10
236.7185677071599
 20
273.2651589528966
 30
0.0
  0
POINT
  5
87
330
47
100
AcDbEntity
  8
Specialized_Fills
  6
Continuous
100
AcDbPoint
 10
173.8613635754536
 20
152.7682636978128
 30
0.0
  0
POINT
  5
88
330
47
100
AcDbEntity
  8
Specialized_Fills
  6
Continuous
100
AcDbPoint
 10
173.8613635754536
 20
279.6008220075425
 30
0.0
  0
POINT
  5
89
330
47
100
AcDbEntity
  8
Specialized_Fills
  6
Continuous
100
AcDbPoint
 10
192.9372584307165
 20
155.2796528992228
 30
0.0
  0
POINT
  5
8A
330
47
100
AcDbEntity
  8
Specialized_Fills
  6
Continuous
100
AcDbPoint
 10
201.7507332804381
 20
255.8574473771347
 30
0.0
  0
POINT
  5
8B
330
47
100
AcDbEntity
  8
Specialized_Fills
  6
Continuous
100
AcDbPoint
 10
211.2840471489376
 20
246.9213305603702
 30
0.0
  0
POINT
  5
8C
330
47
100
AcDbEntity
  8
Specialized_Fills
  6
Continuous
100
AcDbPoint
 10
170.6068685988761
 20
121.8073954484426
 30
0.0
  0
POINT
  5
8D
330
47
100
AcDbEntity
  8
Specialized_Fills
  6
Continuous
100
AcDbPoint
 10
170.6068685988761
 20
248.6399537581723
 30
0.0
  0
POINT
  5
8E
330
47
100
AcDbEntity
  8
Specialized_Fills
  6
Continuous
100
AcDbPoint
 10
186.6734756416116
 20
238.4043962191653
 30
0.0
  0
POINT
  5
8F
330
47
100
AcDbEntity
  8
Specialized_Fills
  6
Continuous
100
AcDbPoint
 10
240.9110328846889
 20
250.3585769559743
 30
0.0
  0
POINT
  5
90
330
47
100
AcDbEntity
  8
Specialized_Fills
  6
Continuous
100
AcDbPoint
 10
145.9962970915502
 20
113.2904611072376
 30
0.0
  0
POINT
  5
91
330
47
100
AcDbEntity
  8
Specialized_Fills
  6
Continuous
100
AcDbPoint
 10
145.9962970915502
 20
240.1230194169673
 30
0.0
  0
POINT
  5
92
330
47
100
AcDbEntity
  8
Specialized_Fills
  6
Continuous
100
AcDbPoint
 10
196.1241110648848
 20
208.1880798952655
 30
0.0
  0
POINT
  5
93
330
47
100
AcDbEntity
  8
Specialized_Fills
  6
Continuous
100
AcDbPoint
 10
155.4469325148234
 20
209.9067030930675
 30
0.0
  0
POINT
  5
94
330
47
100
AcDbEntity
  8
Specialized_Fills
  6
Continuous
100
AcDbPoint
 10
225.7510968006362
 20
211.6253262908695
 30
0.0
  0
POINT
  5
95
330
47
100
AcDbEntity
  8
Specialized_Fills
  6
Continuous
100
AcDbPoint
 10
181.2855071216868
 20
169.2501180793805
 30
0.0
  0
POINT
  5
96
330
47
100
AcDbEntity
  8
Specialized_Fills
  6
Continuous
100
AcDbPoint
 10
197.3521141644223
 20
159.0145605403735
 30
0.0
  0
POINT
  5
97
330
47
100
AcDbEntity
  8
Specialized_Fills
  6
Continuous
100
AcDbPoint
 10
140.6083285716254
 20
170.9687412771826
 30
0.0
  0
POINT
  5
98
330
47
100
AcDbEntity
  8
Specialized_Fills
  6
Continuous
100
AcDbPoint
 10
156.6749356143609
 20
160.7331837381755
 30
0.0
  0
POINT
  5
99
330
47
100
AcDbEntity
  8
Specialized_Fills
  6
Continuous
100
AcDbPoint
 10
206.8027495876956
 20
255.6308025262034
 30
0.0
  0
POINT
  5
9A
330
47
100
AcDbEntity
  8
Specialized_Fills
  6
Continuous
100
AcDbPoint
 10
166.1255710376341
 20
130.5168674142757
 30
0.0
  0
POINT
  5
9B
330
47
100
AcDbEntity
  8
Specialized_Fills
  6
Continuous
100
AcDbPoint
 10
166.1255710376341
 20
257.3494257240054
 30
0.0
  0
POINT
  5
9C
330
47
100
AcDbEntity
  8
Specialized_Fills
  6
Continuous
100
AcDbPoint
 10
236.4297353234469
 20
259.0680489218075
 30
0.0
  0
POINT
  5
9D
330
47
100
AcDbEntity
  8
Specialized_Fills
  6
Continuous
100
AcDbPoint
 10
184.3347214662556
 20
233.4089871629146
 30
0.0
  0
POINT
  5
9E
330
47
100
AcDbEntity
  8
Specialized_Fills
  6
Continuous
100
AcDbPoint
 10
139.8959670504502
 20
98.94848154318502
 30
0.0
  0
POINT
  5
9F
330
47
100
AcDbEntity
  8
Specialized_Fills
  6
Continuous
100
AcDbPoint
 10
139.8959670504502
 20
225.7810398529147
 30
0.0
  0
POINT
  5
A0
330
47
100
AcDbEntity
  8
Specialized_Fills
  6
Continuous
100
AcDbPoint
 10
181.1886588531748
 20
187.9432590949844
 30
0.0
  0
POINT
  5
A1
330
47
100
AcDbEntity
  8
Specialized_Fills
  6
Continuous
100
AcDbPoint
 10
199.4473320992775
 20
171.2122676033825
 30
0.0
  0
POINT
  5
A2
330
47
100
AcDbEntity
  8
Specialized_Fills
  6
Continuous
100
AcDbPoint
 10
136.7499044373694
 20
180.3153117849845
 30
0.0
  0
POINT
  5
A3
330
47
100
AcDbEntity
  8
Specialized_Fills
  6
Continuous
100
AcDbPoint
 10
155.0085776834721
 20
163.5843202933827
 30
0.0
  0
POINT
  5
A4
330
47
100
AcDbEntity
  8
Specialized_Fills
  6
Continuous
100
AcDbPoint
 10
184.1100938111066
 20
136.9176938544603
 30
0.0
  0
POINT
  5
A5
330
47
100
AcDbEntity
  8
Specialized_Fills
  6
Continuous
100
AcDbPoint
 10
184.1100938111066
 20
263.75025216419
 30
0.0
  0
POINT
  5
A6
330
47
100
AcDbEntity
  8
Specialized_Fills
  6
Continuous
100
AcDbPoint
 10
139.6713393953012
 20
129.2897465444604
 30
0.0
  0
POINT
  5
A7
330
47
100
AcDbEntity
  8
Specialized_Fills
  6
Continuous
100
AcDbPoint
 10
139.6713393953012
 20
256.1223048541901
 30
0.0
  0
POINT
  5
A8
330
47
100
AcDbEntity
  8
Specialized_Fills
  6
Continuous
100
AcDbPoint
 10
250.6526822311754
 20
256.1223048541901
 30
0.0
  0
LINE
  5
A9
330
47
100
AcDbEntity
  8
Specialized_Fills
  6
Continuous
100
AcDbLine
 10
136.572701415671
 20
155.7438299087744
 30
0.0
 11
142.0762598178871
 21
155.1233741058385
 31
0.0
  0
LINE
  5
AA
330
47
100
AcDbEntity
  8
Specialized_Fills
  6
Continuous
100
AcDbLine
 10
136.572701415671
 20
155.4413527131876
 30
0.0
 11
138.5835575323852
 21
151.7482436969397
 31
0.0
  0
LINE
  5
AB
330
47
100
AcDbEntity
  8
Specialized_Fills
  6
Continuous
100
AcDbLine
 10
137.4098791587496
 20
280.7363625899555
 30
0.0
 11
138.5835575323852
 21
278.5808020066693
 31
0.0
  0
LINE
  5
AC
330
47
100
AcDbEntity
  8
Specialized_Fills
  6
Continuous
100
AcDbLine
 10
248.3912219946237
 20
280.7363625899555
 30
0.0
 11
249.5649003682594
 21
278.5808020066693
 31
0.0
  0
LINE
  5
AD
330
47
100
AcDbEntity
  8
Specialized_Fills
  6
Continuous
100
AcDbLine
 10
138.5835572180122
 20
151.7482460802505
 30
0.0
 11
142.0762838118654
 21
155.1233475514052
 31
0.0
  0
LINE
  5
AE
330
47
100
AcDbEntity
  8
Specialized_Fills
  6
Continuous
100
AcDbLine
 10
138.5835572180122
 20
278.5808043899802
 30
0.0
 11
140.8142384327836
 21
280.7363625899555
 31
0.0
  0
LINE
  5
AF
330
47
100
AcDbEntity
  8
Specialized_Fills
  6
Continuous
100
AcDbLine
 10
249.5649000538863
 20
278.5808043899802
 30
0.0
 11
251.7955812686577
 21
280.7363625899555
 31
0.0
  0
LINE
  5
B0
330
47
100
AcDbEntity
  8
Specialized_Fills
  6
Continuous
100
AcDbLine
 10
158.0315901386347
 20
190.4056609040639
 30
0.0
 11
159.9955766023831
 21
195.7725950540431
 31
0.0
  0
LINE
  5
B1
330
47
100
AcDbEntity
  8
Specialized_Fills
  6
Continuous
100
AcDbLine
 10
158.0314412331683
 20
190.4055700720342
 30
0.0
 11
162.449706383119
 21
191.5812048217464
 31
0.0
  0
LINE
  5
B2
330
47
100
AcDbEntity
  8
Specialized_Fills
  6
Continuous
100
AcDbLine
 10
162.4502042190603
 20
191.5806986464082
 30
0.0
 11
159.9959593949248
 21
195.7720148290893
 31
0.0
  0
LINE
  5
B3
330
47
100
AcDbEntity
  8
Specialized_Fills
  6
Continuous
100
AcDbLine
 10
196.5838914619031
 20
242.691066865958
 30
0.0
 11
201.9193035993346
 21
244.7391396976093
 31
0.0
  0
LINE
  5
B4
330
47
100
AcDbEntity
  8
Specialized_Fills
  6
Continuous
100
AcDbLine
 10
196.5838716976789
 20
242.691023266818
 30
0.0
 11
200.3742314794005
 21
240.1343933121497
 31
0.0
  0
LINE
  5
B5
330
47
100
AcDbEntity
  8
Specialized_Fills
  6
Continuous
100
AcDbLine
 10
200.3742430437623
 20
240.1344202009584
 30
0.0
 11
201.9192981592657
 21
244.739119288853
 31
0.0
  0
LINE
  5
B6
330
47
100
AcDbEntity
  8
Specialized_Fills
  6
Continuous
100
AcDbLine
 10
197.2832563046317
 20
270.4430960822764
 30
0.0
 11
202.6186684420633
 21
272.4911689139278
 31
0.0
  0
LINE
  5
B7
330
47
100
AcDbEntity
  8
Specialized_Fills
  6
Continuous
100
AcDbLine
 10
197.2832365404076
 20
270.4430524831364
 30
0.0
 11
201.0735963221292
 21
267.8864225284682
 31
0.0
  0
LINE
  5
B8
330
47
100
AcDbEntity
  8
Specialized_Fills
  6
Continuous
100
AcDbLine
 10
201.073607886491
 20
267.8864494172769
 30
0.0
 11
202.6186630019944
 21
272.4911485051714
 31
0.0
  0
LINE
  5
B9
330
47
100
AcDbEntity
  8
Specialized_Fills
  6
Continuous
100
AcDbLine
 10
137.9913383847728
 20
184.7185531699454
 30
0.0
 11
143.3267505222043
 21
186.7666260015968
 31
0.0
  0
LINE
  5
BA
330
47
100
AcDbEntity
  8
Specialized_Fills
  6
Continuous
100
AcDbLine
 10
137.9913383847728
 20
184.7185531699454
 30
0.0
 11
141.7816981664944
 21
182.1619232152772
 31
0.0
  0
LINE
  5
BB
330
47
100
AcDbEntity
  8
Specialized_Fills
  6
Continuous
100
AcDbLine
 10
141.7816883847728
 20
182.1619231699455
 30
0.0
 11
143.3267435002761
 21
186.76662225784
 31
0.0
  0
ENDBLK
  5
49
330
47
100
AcDbEntity
  8
0
100
AcDbBlockEnd
  0
BLOCK
  5
E2
330
E1
100
AcDbEntity
  8
0
100
AcDbBlockBegin
  2
Fill_2
 70
     0
 10
0.0
 20
0.0
 30
0.0
  3
Fill_2
  1

  0
LINE
  5
389
102
{ACAD_REACTORS
330
3A5
102
}
330
E1
100
AcDbEntity
  8
Specialized_Fills
  6
Continuous
100
AcDbLine
 10
63.48440166374792
 20
472.1186566973311
 30
0.0
 11
114.0662995001711
 21
472.1186566973346
 31
0.0
  0
LINE
  5
38A
102
{ACAD_REACTORS
330
3A5
102
}
330
E1
100
AcDbEntity
  8
Specialized_Fills
  6
Continuous
100
AcDbLine
 10
114.0662995001711
 20
472.1186566973346
 30
0.0
 11
114.0662995001711
 21
249.8768667588251
 31
0.0
  0
LINE
  5
38B
102
{ACAD_REACTORS
330
3A5
102
}
330
E1
100
AcDbEntity
  8
Specialized_Fills
  6
Continuous
100
AcDbLine
 10
114.0662995001711
 20
249.8768667588251
 30
0.0
 11
113.8358735263245
 21
249.8768667588251
 31
0.0
  0
ARC
  5
38C
102
{ACAD_REACTORS
330
3A5
102
}
330
E1
100
AcDbEntity
  8
Specialized_Fills
  6
Continuous
100
AcDbCircle
 10
113.8358735263245
 20
249.2768667588265
 30
0.0
 40
0.5999999999986017
100
AcDbArc
 50
90.0
 51
270.0
  0
LINE
  5
38D
102
{ACAD_REACTORS
330
3A5
102
}
330
E1
100
AcDbEntity
  8
Specialized_Fills
  6
Continuous
100
AcDbLine
 10
113.8358735263245
 20
248.6768667588279
 30
0.0
 11
113.8358735263245
 21
231.3440325139027
 31
0.0
  0
LINE
  5
38E
102
{ACAD_REACTORS
330
3A5
102
}
330
E1
100
AcDbEntity
  8
Specialized_Fills
  6
Continuous
100
AcDbLine
 10
113.8358735263245
 20
231.3440325139027
 30
0.0
 11
63.48440166374792
 21
231.3440325139027
 31
0.0
  0
LINE
  5
38F
102
{ACAD_REACTORS
330
3A5
102
}
330
E1
100
AcDbEntity
  8
Specialized_Fills
  6
Continuous
100
AcDbLine
 10
63.48440166374792
 20
231.3440325139027
 30
0.0
 11
63.48440166374792
 21
248.7228777060721
 31
0.0
  0
ARC
  5
390
102
{ACAD_REACTORS
330
3A5
102
}
330
E1
100
AcDbEntity
  8
Specialized_Fills
  6
Continuous
100
AcDbCircle
 10
63.25397568990254
 20
249.2768667588301
 30
0.0
 40
0.5999999999985246
100
AcDbArc
 50
292.5843593561497
 51
67.41564064385025
  0
LINE
  5
391
102
{ACAD_REACTORS
330
3A5
102
}
330
E1
100
AcDbEntity
  8
Specialized_Fills
  6
Continuous
100
AcDbLine
 10
63.48440166374792
 20
249.830855811588
 30
0.0
 11
63.48440166374792
 21
472.1186566973311
 31
0.0
  0
HATCH
  5
3A5
330
E1
100
AcDbEntity
  8
0
 62
   251
420
  6250335
100
AcDbHatch
 10
0.0
 20
0.0
 30
0.0
210
0.0
220
0.0
230
1.0
  2
HPCRC1E0
 70
     0
 71
     1
 91
        1
 92
        7
 72
     1
 73
     1
 93
        9
 10
114.0662995001711
 20
472.1186566973346
 42
0.0
 10
63.48440166374793
 20
472.1186566973311
 42
0.0
 10
63.48440166374792
 20
249.830855811588
 42
-0.6671143126624806
 10
63.48440166374792
 20
248.7228777060721
 42
0.0
 10
63.48440166374793
 20
231.3440325139027
 42
0.0
 10
113.8358735263245
 20
231.3440325139027
 42
0.0
 10
113.8358735263245
 20
248.6768667588279
 42
-1.0
 10
113.8358735263245
 20
249.8768667588251
 42
0.0
 10
114.0662995001711
 20
249.8768667588251
 42
0.0
 97
        9
330
389
330
391
330
390
330
38F
330
38E
330
38D
330
38C
330
38B
330
38A
 75
     1
 76
     2
 52
0.0
 41
0.12
 77
     0
 78
    78
 53
82.8749847
 43
0.0
 44
4.2
 45
-0.0000004961129005
 46
8.399999852931037
 79
     2
 49
0.9674709324
 49
-66.75549316799998
 53
75.96376039999999
 43
0.12
 44
5.16
 45
-0.000000348785556
 46
8.399999709154096
 79
     2
 49
0.4947726600000001
 49
-34.139315184
 53
63.43495179999999
 43
0.24
 44
5.639999999999999
 45
-0.0000000286036308
 46
8.400000041591663
 79
     2
 49
1.073312639999999
 49
-17.70965881199999
 53
45.0
 43
0.72
 44
6.599999999999999
 45
0.0000000000000009
 46
8.400000002875099
 79
     2
 49
1.527350688
 49
-10.352043456
 53
33.6900673
 43
1.799999999999999
 44
7.679999999999999
 45
0.0000001596020127
 46
8.399999824188462
 79
     2
 49
0.4326661440000001
 49
-29.85396423600001
 53
33.6900673
 43
10.2
 44
7.679999999999999
 45
0.0000001596020127
 46
8.399999824188462
 79
     2
 49
0.4326661440000001
 49
-29.85396423600001
 53
33.6900673
 43
18.6
 44
7.679999999999999
 45
0.0000001596020127
 46
8.399999824188462
 79
     2
 49
0.4326661440000001
 49
-29.85396423600001
 53
26.5650501
 43
2.16
 44
7.919999999999999
 45
-0.0000000460215162
 46
8.400000143556356
 79
     2
 49
0.26832816
 49
-18.514643556
 53
26.5650501
 43
10.56
 44
7.919999999999999
 45
-0.0000000460215162
 46
8.400000143556356
 79
     2
 49
0.26832816
 49
-18.514643556
 53
18.434948
 43
2.399999999999999
 44
8.039999999999999
 45
0.0000002686412607
 46
8.399999851558131
 79
     2
 49
0.3794733239999999
 49
-26.183659056
 53
18.434948
 43
10.8
 44
8.039999999999999
 45
0.0000002686412607
 46
8.399999851558131
 79
     2
 49
0.3794733239999999
 49
-26.183659056
 53
18.434948
 43
19.2
 44
8.039999999999999
 45
0.0000002686412607
 46
8.399999851558131
 79
     2
 49
0.3794733239999999
 49
-26.183659056
 53
26.5650501
 43
2.759999999999999
 44
8.16
 45
-0.0000000460215162
 46
8.400000143556356
 79
     2
 49
0.26832816
 49
-18.514643556
 53
26.5650501
 43
11.16
 44
8.16
 45
-0.0000000460215162
 46
8.400000143556356
 79
     2
 49
0.26832816
 49
-18.514643556
 53
11.3099327
 43
3.0
 44
8.279999999999999
 45
-0.0000000543109101
 46
8.400000069389928
 79
     2
 49
0.6118823435999998
 49
-42.21988036799999
 53
11.3099327
 43
11.4
 44
8.279999999999999
 45
-0.0000000543109101
 46
8.400000069389928
 79
     2
 49
0.6118823435999998
 49
-42.21988036799999
 53
11.3099327
 43
19.8
 44
8.279999999999999
 45
-0.0000000543109101
 46
8.400000069389928
 79
     2
 49
0.6118823435999998
 49
-42.21988036799999
 53
11.3099327
 43
28.2
 44
8.279999999999999
 45
-0.0000000543109101
 46
8.400000069389928
 79
     2
 49
0.6118823435999998
 49
-42.21988036799999
 53
11.3099327
 43
36.6
 44
8.279999999999999
 45
-0.0000000543109101
 46
8.400000069389928
 79
     2
 49
0.6118823435999998
 49
-42.21988036799999
 53
0.0
 43
3.599999999999999
 44
8.4
 45
0.0
 46
8.4
 79
     2
 49
1.199999999999999
 49
-7.199999999999999
 53
348.6900673
 43
4.799999999999999
 44
8.4
 45
0.0000000543109101
 46
8.400000069389928
 79
     2
 49
0.6118823435999998
 49
-42.21988036799999
 53
348.6900673
 43
13.2
 44
8.4
 45
0.0000000543109101
 46
8.400000069389928
 79
     2
 49
0.6118823435999998
 49
-42.21988036799999
 53
348.6900673
 43
21.6
 44
8.4
 45
0.0000000543109101
 46
8.400000069389928
 79
     2
 49
0.6118823435999998
 49
-42.21988036799999
 53
348.6900673
 43
30.0
 44
8.4
 45
0.0000000543109101
 46
8.400000069389928
 79
     2
 49
0.6118823435999998
 49
-42.21988036799999
 53
348.6900673
 43
38.4
 44
8.4
 45
0.0000000543109101
 46
8.400000069389928
 79
     2
 49
0.6118823435999998
 49
-42.21988036799999
 53
333.4349499
 43
5.399999999999999
 44
8.279999999999999
 45
0.0000000460215162
 46
8.400000143556356
 79
     2
 49
0.2683281599999999
 49
-18.514643556
 53
333.4349499
 43
13.8
 44
8.279999999999999
 45
0.0000000460215162
 46
8.400000143556356
 79
     2
 49
0.2683281599999999
 49
-18.514643556
 53
341.565052
 43
5.639999999999999
 44
8.16
 45
-0.0000002686412607
 46
8.399999851558131
 79
     2
 49
0.379473324
 49
-26.183659056
 53
341.565052
 43
14.04
 44
8.16
 45
-0.0000002686412607
 46
8.399999851558131
 79
     2
 49
0.379473324
 49
-26.183659056
 53
341.565052
 43
22.44
 44
8.16
 45
-0.0000002686412607
 46
8.399999851558131
 79
     2
 49
0.379473324
 49
-26.183659056
 53
333.4349499
 43
6.0
 44
8.039999999999999
 45
0.0000000460215162
 46
8.400000143556356
 79
     2
 49
0.2683281599999999
 49
-18.514643556
 53
333.4349499
 43
14.4
 44
8.039999999999999
 45
0.0000000460215162
 46
8.400000143556356
 79
     2
 49
0.2683281599999999
 49
-18.514643556
 53
326.3099327
 43
6.24
 44
7.919999999999999
 45
-0.0000001596020127
 46
8.399999824188462
 79
     2
 49
0.4326661440000001
 49
-29.85396423600001
 53
326.3099327
 43
14.64
 44
7.919999999999999
 45
-0.0000001596020127
 46
8.399999824188462
 79
     2
 49
0.4326661440000001
 49
-29.85396423600001
 53
326.3099327
 43
23.04
 44
7.919999999999999
 45
-0.0000001596020127
 46
8.399999824188462
 79
     2
 49
0.4326661440000001
 49
-29.85396423600001
 53
315.0
 43
6.599999999999999
 44
7.679999999999999
 45
-0.0000000000000009
 46
8.400000002875099
 79
     2
 49
1.527350688
 49
-10.352043456
 53
296.5650482
 43
7.679999999999999
 44
6.599999999999999
 45
0.0000000286036308
 46
8.400000041591663
 79
     2
 49
1.073312639999999
 49
-17.70965881199999
 53
284.0362396
 43
8.16
 44
5.639999999999999
 45
0.000000348785556
 46
8.399999709154096
 79
     2
 49
0.4947726600000001
 49
-34.139315184
 53
277.1250153
 43
8.279999999999999
 44
5.16
 45
0.0000004961129005
 46
8.399999852931037
 79
     2
 49
0.9674709324
 49
-66.75549316799998
 53
277.1250153
 43
0.0
 44
4.2
 45
0.0000004961129005
 46
8.399999852931037
 79
     2
 49
0.9674709324
 49
-66.75549316799998
 53
284.0362396
 43
0.12
 44
3.239999999999999
 45
0.000000348785556
 46
8.399999709154096
 79
     2
 49
0.4947726600000001
 49
-34.139315184
 53
296.5650482
 43
0.24
 44
2.759999999999999
 45
0.0000000286036308
 46
8.400000041591663
 79
     2
 49
1.073312639999999
 49
-17.70965881199999
 53
315.0
 43
0.72
 44
1.799999999999999
 45
-0.0000000000000009
 46
8.400000002875099
 79
     2
 49
1.527350688
 49
-10.352043456
 53
326.3099327
 43
1.799999999999999
 44
0.72
 45
-0.0000001596020127
 46
8.399999824188462
 79
     2
 49
0.4326661440000001
 49
-29.85396423600001
 53
326.3099327
 43
10.2
 44
0.72
 45
-0.0000001596020127
 46
8.399999824188462
 79
     2
 49
0.4326661440000001
 49
-29.85396423600001
 53
326.3099327
 43
18.6
 44
0.72
 45
-0.0000001596020127
 46
8.399999824188462
 79
     2
 49
0.4326661440000001
 49
-29.85396423600001
 53
333.4349499
 43
2.16
 44
0.48
 45
0.0000000460215162
 46
8.400000143556356
 79
     2
 49
0.2683281599999999
 49
-18.514643556
 53
333.4349499
 43
10.56
 44
0.48
 45
0.0000000460215162
 46
8.400000143556356
 79
     2
 49
0.2683281599999999
 49
-18.514643556
 53
341.565052
 43
2.399999999999999
 44
0.36
 45
-0.0000002686412607
 46
8.399999851558131
 79
     2
 49
0.379473324
 49
-26.183659056
 53
341.565052
 43
10.8
 44
0.36
 45
-0.0000002686412607
 46
8.399999851558131
 79
     2
 49
0.379473324
 49
-26.183659056
 53
341.565052
 43
19.2
 44
0.36
 45
-0.0000002686412607
 46
8.399999851558131
 79
     2
 49
0.379473324
 49
-26.183659056
 53
333.4349499
 43
2.759999999999999
 44
0.24
 45
0.0000000460215162
 46
8.400000143556356
 79
     2
 49
0.2683281599999999
 49
-18.514643556
 53
333.4349499
 43
11.16
 44
0.24
 45
0.0000000460215162
 46
8.400000143556356
 79
     2
 49
0.2683281599999999
 49
-18.514643556
 53
348.6900673
 43
3.0
 44
0.12
 45
0.0000000543109101
 46
8.400000069389928
 79
     2
 49
0.6118823435999998
 49
-42.21988036799999
 53
348.6900673
 43
11.4
 44
0.12
 45
0.0000000543109101
 46
8.400000069389928
 79
     2
 49
0.6118823435999998
 49
-42.21988036799999
 53
348.6900673
 43
19.8
 44
0.12
 45
0.0000000543109101
 46
8.400000069389928
 79
     2
 49
0.6118823435999998
 49
-42.21988036799999
 53
348.6900673
 43
28.2
 44
0.12
 45
0.0000000543109101
 46
8.400000069389928
 79
     2
 49
0.6118823435999998
 49
-42.21988036799999
 53
348.6900673
 43
36.6
 44
0.12
 45
0.0000000543109101
 46
8.400000069389928
 79
     2
 49
0.6118823435999998
 49
-42.21988036799999
 53
0.0
 43
3.599999999999999
 44
0.0
 45
0.0
 46
8.4
 79
     2
 49
1.199999999999999
 49
-7.199999999999999
 53
11.3099327
 43
4.799999999999999
 44
0.0
 45
-0.0000000543109101
 46
8.400000069389928
 79
     2
 49
0.6118823435999998
 49
-42.21988036799999
 53
11.3099327
 43
13.2
 44
0.0
 45
-0.0000000543109101
 46
8.400000069389928
 79
     2
 49
0.6118823435999998
 49
-42.21988036799999
 53
11.3099327
 43
21.6
 44
0.0
 45
-0.0000000543109101
 46
8.400000069389928
 79
     2
 49
0.6118823435999998
 49
-42.21988036799999
 53
11.3099327
 43
30.0
 44
0.0
 45
-0.0000000543109101
 46
8.400000069389928
 79
     2
 49
0.6118823435999998
 49
-42.21988036799999
 53
11.3099327
 43
38.4
 44
0.0
 45
-0.0000000543109101
 46
8.400000069389928
 79
     2
 49
0.6118823435999998
 49
-42.21988036799999
 53
26.5650501
 43
5.399999999999999
 44
0.12
 45
-0.0000000460215162
 46
8.400000143556356
 79
     2
 49
0.26832816
 49
-18.514643556
 53
26.5650501
 43
13.8
 44
0.12
 45
-0.0000000460215162
 46
8.400000143556356
 79
     2
 49
0.26832816
 49
-18.514643556
 53
18.434948
 43
5.639999999999999
 44
0.24
 45
0.0000002686412607
 46
8.399999851558131
 79
     2
 49
0.3794733239999999
 49
-26.183659056
 53
18.434948
 43
14.04
 44
0.24
 45
0.0000002686412607
 46
8.399999851558131
 79
     2
 49
0.3794733239999999
 49
-26.183659056
 53
18.434948
 43
22.44
 44
0.24
 45
0.0000002686412607
 46
8.399999851558131
 79
     2
 49
0.3794733239999999
 49
-26.183659056
 53
26.5650501
 43
6.0
 44
0.36
 45
-0.0000000460215162
 46
8.400000143556356
 79
     2
 49
0.26832816
 49
-18.514643556
 53
26.5650501
 43
14.4
 44
0.36
 45
-0.0000000460215162
 46
8.400000143556356
 79
     2
 49
0.26832816
 49
-18.514643556
 53
33.6900673
 43
6.24
 44
0.48
 45
0.0000001596020127
 46
8.399999824188462
 79
     2
 49
0.4326661440000001
 49
-29.85396423600001
 53
33.6900673
 43
14.64
 44
0.48
 45
0.0000001596020127
 46
8.399999824188462
 79
     2
 49
0.4326661440000001
 49
-29.85396423600001
 53
33.6900673
 43
23.04
 44
0.48
 45
0.0000001596020127
 46
8.399999824188462
 79
     2
 49
0.4326661440000001
 49
-29.85396423600001
 53
45.0
 43
6.599999999999999
 44
0.72
 45
0.0000000000000009
 46
8.400000002875099
 79
     2
 49
1.527350688
 49
-10.352043456
 53
63.43495179999999
 43
7.679999999999999
 44
1.799999999999999
 45
-0.0000000286036308
 46
8.400000041591663
 79
     2
 49
1.073312639999999
 49
-17.70965881199999
 53
75.96376039999999
 43
8.16
 44
2.759999999999999
 45
-0.000000348785556
 46
8.399999709154096
 79
     2
 49
0.4947726600000001
 49
-34.139315184
 53
82.8749847
 43
8.279999999999999
 44
3.239999999999999
 45
-0.0000004961129005
 46
8.399999852931037
 79
     2
 49
0.9674709324
 49
-66.75549316799998
 47
0.359767798567355
 98
        1
 10
104.7119307056644
 20
407.6945233094475
1001
GradientColor1ACI
1070
     5
1001
GradientColor2ACI
1070
     2
1001
ACAD
1010
0.0
1020
0.0
1030
0.0
  0
ENDBLK
  5
E3
330
E1
100
AcDbEntity
  8
0
100
AcDbBlockEnd
  0
BLOCK
  5
2C1
330
2C0
100
AcDbEntity
  8
0
100
AcDbBlockBegin
  2
ARROWHEAD_6
 70
     0
 10
0.0
 20
0.0
 30
0.0
  3
ARROWHEAD_6
  1

  0
LINE
  5
2C3
330
2C0
100
AcDbEntity
  8
0
  6
Continuous
 62
     0
370
     0
100
AcDbLine
 10
-0.5
 20
-0.5
 30
0.0
 11
0.5
 21
0.5
 31
0.0
  0
LINE
  5
2C4
330
2C0
100
AcDbEntity
  8
0
  6
Continuous
 62
     0
370
     0
100
AcDbLine
 10
0.0
 20
0.0
 30
0.0
 11
-1.0
 21
0.0
 31
0.0
  0
ENDBLK
  5
2C2
330
2C0
100
AcDbEntity
  8
0
100
AcDbBlockEnd
  0
BLOCK
  5
2C6
330
2C5
100
AcDbEntity
  8
0
100
AcDbBlockBegin
  2
*D5
 70
     1
 10
0.0
 20
0.0
 30
0.0
  3
*D5
  1

  0
LINE
  5
2C8
330
2C5
100
AcDbEntity
  8
Specialized_Text
  6
Continuous
440
 16777216
100
AcDbLine
 10
146.4130194433896
 20
227.1440325139037
 30
0.0
 11
146.4130194433896
 21
230.1440325139037
 31
0.0
  0
LINE
  5
2C9
330
2C5
100
AcDbEntity
  8
Specialized_Text
  6
Continuous
440
 16777216
100
AcDbLine
 10
146.4130194433896
 20
230.1440325139037
 30
0.0
 11
146.4130194433896
 21
280.7363625899555
 31
0.0
  0
LINE
  5
2CA
330
2C5
100
AcDbEntity
  8
Specialized_Text
  6
Continuous
 62
    30
420
 16742400
440
 16777216
370
    20
100
AcDbLine
 10
144.4130194433896
 20
232.1440325139037
 30
0.0
 11
148.4130194433896
 21
228.1440325139037
 31
0.0
  0
LINE
  5
2CB
330
2C5
100
AcDbEntity
  8
Specialized_Text
  6
Continuous
 62
    30
420
 16742400
440
 16777216
370
    20
100
AcDbLine
 10
148.4130194433896
 20
278.7363625899555
 30
0.0
 11
144.4130194433896
 21
282.7363625899555
 31
0.0
  0
LINE
  5
2CC
330
2C5
100
AcDbEntity
  8
Specialized_Text
  6
Continuous
440
 16777216
100
AcDbLine
 10
146.4130194433896
 20
280.7363625899555
 30
0.0
 11
146.4130194433896
 21
283.7363625899555
 31
0.0
  0
LINE
  5
2CD
330
2C5
100
AcDbEntity
  8
Specialized_Text
  6
Continuous
440
 16777216
100
AcDbLine
 10
150.1630194433895
 20
230.1440325139037
 30
0.0
 11
121.1520019771764
 21
230.1440325139037
 31
0.0
  0
LINE
  5
2CE
330
2C5
100
AcDbEntity
  8
Specialized_Text
  6
Continuous
440
 16777216
100
AcDbLine
 10
150.1630194433895
 20
280.7363625899555
 30
0.0
 11
142.6630194433895
 21
280.7363625899555
 31
0.0
  0
ENDBLK
  5
2C7
330
2C5
100
AcDbEntity
  8
0
100
AcDbBlockEnd
  0
BLOCK
  5
2D5
330
2D4
100
AcDbEntity
  8
0
100
AcDbBlockBegin
  2
ARROWHEAD_5
 70
     0
 10
0.0
 20
0.0
 30
0.0
  3
ARROWHEAD_5
  1

  0
SOLID
  5
2D7
330
2D4
100
AcDbEntity
  8
0
  6
Continuous
 62
     0
370
     0
100
AcDbTrace
 10
-1.0
 20
0.2679
 30
0.0
 11
0.0
 21
0.0
 31
0.0
 12
-1.0
 22
-0.2679
 32
0.0
 13
-1.0
 23
0.2679
 33
0.0
  0
LINE
  5
2D8
330
2D4
100
AcDbEntity
  8
0
  6
Continuous
 62
     0
370
     0
100
AcDbLine
 10
0.0
 20
0.0
 30
0.0
 11
-1.0
 21
0.0
 31
0.0
  0
ENDBLK
  5
2D6
330
2D4
100
AcDbEntity
  8
0
100
AcDbBlockEnd
  0
BLOCK
  5
2F1
330
2F0
100
AcDbEntity
  8
0
100
AcDbBlockBegin
  2
06D Wall _ Floor_ CONCRETE SLAB_STORY_MARKER
 70
     0
 10
0.0
 20
0.0
 30
0.0
  3
06D Wall _ Floor_ CONCRETE SLAB_STORY_MARKER
  1

  0
ENDBLK
  5
2F2
330
2F0
100
AcDbEntity
  8
0
100
AcDbBlockEnd
  0
BLOCK
  5
42A
330
429
100
AcDbEntity
  8
0
100
AcDbBlockBegin
  2
*D8
 70
     1
 10
0.0
 20
0.0
 30
0.0
  3
*D8
  1

  0
LINE
  5
42B
330
429
100
AcDbEntity
  8
Specialized_Lines
  6
Continuous
440
 16777216
100
AcDbLine
 10
6949.895305616433
 20
3894.964036407241
 30
0.0
 11
6949.895305616433
 21
3897.964036407242
 31
0.0
  0
LINE
  5
42C
330
429
100
AcDbEntity
  8
Specialized_Lines
  6
Continuous
440
 16777216
100
AcDbLine
 10
6949.895305616433
 20
3897.964036407242
 30
0.0
 11
6949.895305616433
 21
3907.625198946352
 31
0.0
  0
LINE
  5
42D
330
429
100
AcDbEntity
  8
Specialized_Lines
  6
Continuous
 62
    30
420
 16742400
440
 16777216
370
    20
100
AcDbLine
 10
6947.895305616433
 20
3899.964036407242
 30
0.0
 11
6951.895305616432
 21
3895.964036407242
 31
0.0
  0
LINE
  5
42E
330
429
100
AcDbEntity
  8
Specialized_Lines
  6
Continuous
 62
    30
420
 16742400
440
 16777216
370
    20
100
AcDbLine
 10
6951.895305616432
 20
3905.625198946353
 30
0.0
 11
6947.895305616433
 21
3909.625198946352
 31
0.0
  0
LINE
  5
42F
330
429
100
AcDbEntity
  8
Specialized_Lines
  6
Continuous
440
 16777216
100
AcDbLine
 10
6949.895305616433
 20
3907.625198946352
 30
0.0
 11
6949.895305616433
 21
3910.625198946352
 31
0.0
  0
LINE
  5
430
330
429
100
AcDbEntity
  8
Specialized_Lines
  6
Continuous
440
 16777216
100
AcDbLine
 10
7004.65971640761
 20
3897.964036407242
 30
0.0
 11
6946.145305616432
 21
3897.964036407242
 31
0.0
  0
LINE
  5
431
330
429
100
AcDbEntity
  8
Specialized_Lines
  6
Continuous
440
 16777216
100
AcDbLine
 10
7007.488709726473
 20
3907.625198946352
 30
0.0
 11
6946.145305616432
 21
3907.625198946352
 31
0.0
  0
MTEXT
  5
432
330
429
100
AcDbEntity
  8
Specialized_Lines
440
 16777216
100
AcDbMText
 10
6948.895305638784
 20
3888.852886593262
 30
0.0
 40
5.0
 41
0.0
 46
0.0
 71
     7
 72
     1
  1
{10}
  7
GENERATED_STYLE_1
 11
0.0000000000000001
 21
1.0
 31
0.0
 73
     1
 44
1.0
  0
ENDBLK
  5
433
330
429
100
AcDbEntity
  8
0
100
AcDbBlockEnd
  0
BLOCK
  5
435
330
434
100
AcDbEntity
  8
0
100
AcDbBlockBegin
  2
*D9
 70
     1
 10
0.0
 20
0.0
 30
0.0
  3
*D9
  1

  0
LINE
  5
436
330
434
100
AcDbEntity
  8
Specialized_Lines
  6
Continuous
440
 16777216
100
AcDbLine
 10
7016.190341722865
 20
3927.527054174333
 30
0.0
 11
7017.690341722865
 21
3924.92897796298
 31
0.0
  0
LINE
  5
437
330
434
100
AcDbEntity
  8
Specialized_Lines
  6
Continuous
440
 16777216
100
AcDbLine
 10
7017.690341722865
 20
3924.92897796298
 30
0.0
 11
7020.1055282322
 21
3920.745752219057
 31
0.0
  0
LINE
  5
438
330
434
100
AcDbEntity
  8
Specialized_Lines
  6
Continuous
 62
    30
420
 16742400
440
 16777216
370
    20
100
AcDbLine
 10
7020.422392530434
 20
3924.196927155411
 30
0.0
 11
7014.958290915295
 21
3925.661028770548
 31
0.0
  0
LINE
  5
439
330
434
100
AcDbEntity
  8
Specialized_Lines
  6
Continuous
 62
    30
420
 16742400
440
 16777216
370
    20
100
AcDbLine
 10
7017.373477424631
 20
3921.477803026626
 30
0.0
 11
7022.837579039769
 21
3920.013701411489
 31
0.0
  0
LINE
  5
43A
330
434
100
AcDbEntity
  8
Specialized_Lines
  6
Continuous
440
 16777216
100
AcDbLine
 10
7020.1055282322
 20
3920.745752219057
 30
0.0
 11
7021.6055282322
 21
3918.147676007705
 31
0.0
  0
LINE
  5
43B
330
434
100
AcDbEntity
  8
Specialized_Lines
  6
Continuous
440
 16777216
100
AcDbLine
 10
7014.442746458674
 20
3923.053977962979
 30
0.0
 11
7020.937936987057
 21
3926.80397796298
 31
0.0
  0
LINE
  5
43C
330
434
100
AcDbEntity
  8
Specialized_Lines
  6
Continuous
440
 16777216
100
AcDbLine
 10
7016.857932968008
 20
3918.870752219057
 30
0.0
 11
7023.353123496391
 21
3922.620752219058
 31
0.0
  0
MTEXT
  5
43D
330
434
100
AcDbEntity
  8
Specialized_Lines
440
 16777216
100
AcDbMText
 10
7021.677959987619
 20
3923.918622559714
 30
0.0
 40
5.0
 41
0.0
 46
0.0
 71
     7
 72
     1
  1
{5}
  7
GENERATED_STYLE_1
 11
0.9987933797490914
 21
-0.0491099233290734
 31
0.0
 73
     1
 44
1.0
  0
ENDBLK
  5
43E
330
434
100
AcDbEntity
  8
0
100
AcDbBlockEnd
  0
BLOCK
  5
440
330
43F
100
AcDbEntity
  8
0
100
AcDbBlockBegin
  2
*D10
 70
     1
 10
0.0
 20
0.0
 30
0.0
  3
*D10
  1

  0
LINE
  5
441
330
43F
100
AcDbEntity
  8
Specialized_Lines
  6
Continuous
440
 16777216
100
AcDbLine
 10
6998.236601524957
 20
3879.731560126341
 30
0.0
 11
6998.236601524957
 21
3882.731560126341
 31
0.0
  0
LINE
  5
442
330
43F
100
AcDbEntity
  8
Specialized_Lines
  6
Continuous
440
 16777216
100
AcDbLine
 10
6998.236601524957
 20
3882.731560126341
 30
0.0
 11
6998.236601524957
 21
3889.874836125852
 31
0.0
  0
LINE
  5
443
330
43F
100
AcDbEntity
  8
Specialized_Lines
  6
Continuous
 62
    30
420
 16742400
440
 16777216
370
    20
100
AcDbLine
 10
6996.236601524957
 20
3884.731560126341
 30
0.0
 11
7000.236601524957
 21
3880.731560126342
 31
0.0
  0
LINE
  5
444
330
43F
100
AcDbEntity
  8
Specialized_Lines
  6
Continuous
 62
    30
420
 16742400
440
 16777216
370
    20
100
AcDbLine
 10
7000.236601524957
 20
3887.874836125853
 30
0.0
 11
6996.236601524957
 21
3891.874836125852
 31
0.0
  0
LINE
  5
445
330
43F
100
AcDbEntity
  8
Specialized_Lines
  6
Continuous
440
 16777216
100
AcDbLine
 10
6998.236601524957
 20
3889.874836125852
 30
0.0
 11
6998.236601524957
 21
3892.874836125852
 31
0.0
  0
LINE
  5
446
330
43F
100
AcDbEntity
  8
Specialized_Lines
  6
Continuous
440
 16777216
100
AcDbLine
 10
7059.082888913223
 20
3882.731560126341
 30
0.0
 11
6994.486601524958
 21
3882.731560126341
 31
0.0
  0
LINE
  5
447
330
43F
100
AcDbEntity
  8
Specialized_Lines
  6
Continuous
440
 16777216
100
AcDbLine
 10
7033.015877033513
 20
3889.874836125852
 30
0.0
 11
6994.486601524958
 21
3889.874836125852
 31
0.0
  0
MTEXT
  5
448
330
43F
100
AcDbEntity
  8
Specialized_Lines
440
 16777216
100
AcDbMText
 10
6972.912419778585
 20
3883.872258245473
 30
0.0
 40
5.0
 41
0.0
 46
0.0
 71
     7
 72
     1
  1
{7.5mm }
  7
GENERATED_STYLE_1
 73
     1
 44
1.0
  0
ENDBLK
  5
449
330
43F
100
AcDbEntity
  8
0
100
AcDbBlockEnd
  0
BLOCK
  5
4DE
330
44D
100
AcDbEntity
  8
0
100
AcDbBlockBegin
  2
A$C0CAC3C21
 70
     0
 10
0.0
 20
0.0
 30
0.0
  3
A$C0CAC3C21
  1

  0
HATCH
  5
44E
330
44D
100
AcDbEntity
  8
Specialized_Fills
  6
Continuous
 62
   254
420
 14671839
370
    13
100
AcDbHatch
 10
0.0
 20
0.0
 30
0.0
210
0.0
220
0.0
230
1.0
  2
SOLID
 70
     1
 71
     1
 91
        1
 92
        1
 93
        4
 72
     1
 10
858.6978584136023
 20
452.9390815155515
 11
868.6978584136495
 21
452.9390815155515
 72
     1
 10
868.6978584136495
 20
452.9390815155515
 11
868.6978584136495
 21
206.1710788762662
 72
     1
 10
868.6978584136495
 20
206.1710788762662
 11
858.6978584136023
 21
206.1710788762662
 72
     1
 10
858.6978584136023
 20
206.1710788762662
 11
858.6978584136023
 21
452.9390815155515
 97
        1
330
450
 75
     0
 76
     1
 98
        0
450
        0
451
        0
460
0.0
461
0.0
452
        1
462
0.0
453
        0
470

  0
HATCH
  5
44F
330
44D
100
AcDbEntity
  8
Specialized_Fills
  6
Continuous
 62
   254
420
 14671839
370
    13
100
AcDbHatch
 10
0.0
 20
0.0
 30
0.0
210
0.0
220
0.0
230
1.0
  2
SOLID
 70
     1
 71
     0
 91
        1
 92
        2
 72
     0
 73
     1
 93
        4
 10
767.6978584135922
 20
357.5507995685334
 10
857.6444934807687
 20
357.5507995685334
 10
857.6444934807687
 20
217.7168238039244
 10
767.6978584135922
 20
217.7168238039244
 97
        0
 75
     0
 76
     1
 98
        0
450
        0
451
        0
460
0.0
461
0.0
452
        1
462
0.0
453
        0
470

  0
LWPOLYLINE
  5
450
102
{ACAD_REACTORS
330
44E
102
}
330
44D
100
AcDbEntity
  8
Specialized_Fills
  6
Continuous
100
AcDbPolyline
 90
        4
 70
   129
 43
0.0
 10
858.6978584136023
 20
452.9390815155515
 10
868.6978584136495
 20
452.9390815155515
 10
868.6978584136495
 20
206.1710788762662
 10
858.6978584136023
 20
206.1710788762662
  0
HATCH
  5
451
330
44D
100
AcDbEntity
  8
Specialized_Fills
  6
Continuous
 62
    30
420
 16742400
370
    20
100
AcDbHatch
 10
0.0
 20
0.0
 30
0.0
210
0.0
220
0.0
230
1.0
  2
SOLID
 70
     1
 71
     1
 91
        1
 92
        2
 72
     0
 73
     1
 93
        6
 10
740.2688650947712
 20
228.63999984976
 10
740.2688650947712
 20
225.6399998497609
 10
739.0688650947713
 20
225.6399998497609
 10
739.0688650947723
 20
228.1429435749137
 10
732.3492691454831
 20
234.8625395242034
 10
733.1977972829063
 20
235.7110676616258
 97
        1
330
452
 75
     0
 76
     1
 98
        0
450
        0
451
        0
460
0.0
461
0.0
452
        1
462
0.0
453
        0
470

  0
LWPOLYLINE
  5
452
102
{ACAD_REACTORS
330
451
102
}
330
44D
100
AcDbEntity
  8
Specialized_Fills
  6
Continuous
100
AcDbPolyline
 90
        6
 70
   129
 43
0.0
 10
740.2688650947712
 20
228.63999984976
 10
740.2688650947712
 20
225.6399998497609
 10
739.0688650947713
 20
225.6399998497609
 10
739.0688650947723
 20
228.1429435749137
 10
732.3492691454831
 20
234.8625395242034
 10
733.1977972829063
 20
235.7110676616258
  0
HATCH
  5
453
330
44D
100
AcDbEntity
  8
Specialized_Fills
  6
Continuous
100
AcDbHatch
 10
0.0
 20
0.0
 30
0.0
210
0.0
220
0.0
230
1.0
  2
LINES___ANGLED
 70
     0
 71
     1
 91
        1
 92
        2
 72
     0
 73
     1
 93
        4
 10
748.3804146945685
 20
309.4943843391211
 10
748.3804146945685
 20
259.4943843391238
 10
763.8407355060162
 20
259.4943843391238
 10
763.8407355060162
 20
309.4943843391257
 97
        1
330
454
 75
     0
 76
     2
 52
0.0
 41
1.0
 77
     0
 78
     1
 53
45.0
 43
-6268.696094978686
 44
-3672.324036557481
 45
-1.838477563650065
 46
1.838477563650065
 79
     0
 98
        0
  0
LWPOLYLINE
  5
454
102
{ACAD_REACTORS
330
453
102
}
330
44D
100
AcDbEntity
  8
Specialized_Fills
  6
Continuous
100
AcDbPolyline
 90
        4
 70
   129
 43
0.0
 10
748.3804146945685
 20
309.4943843391211
 10
748.3804146945685
 20
259.4943843391238
 10
763.8407355060162
 20
259.4943843391238
 10
763.8407355060162
 20
309.4943843391257
  0
HATCH
  5
455
330
44D
100
AcDbEntity
  8
Specialized_Fills
  6
Continuous
100
AcDbHatch
 10
0.0
 20
0.0
 30
0.0
210
0.0
220
0.0
230
1.0
  2
WOODFACE
 70
     0
 71
     1
 91
        1
 92
        2
 72
     0
 73
     1
 93
        8
 10
797.1978584136349
 20
191.4075235688551
 10
874.3527772346443
 20
191.4075235688551
 10
874.3527772346443
 20
210.4075235688606
 10
869.1978584136377
 20
210.4075235688606
 10
869.1978584136377
 20
205.1710788762898
 10
858.1978584136141
 20
205.1710788762898
 10
858.1978584136141
 20
210.4075235688606
 10
797.1978584136349
 20
210.4075235688606
 97
        1
330
456
 75
     0
 76
     2
 52
0.0
 41
1.0
 77
     0
 78
    38
 53
0.0
 43
-6268.696094978686
 44
-3672.324036557481
 45
100.0
 46
100.0
 79
     2
 49
5.0
 49
-95.00000000000001
 53
90.0
 43
-6228.696094978687
 44
-3637.324036557481
 45
-100.0
 46
100.0
 79
     2
 49
10.0
 49
-90.00000000000001
 53
45.0
 43
-6248.696094978686
 44
-3647.324036557481
 45
0.0
 46
100.0000000019025
 79
     6
 49
7.070000000000001
 49
-21.21
 49
7.070000000000001
 49
-14.14
 49
49.5
 49
-42.43135622999999
 53
45.0
 43
-6273.696094978686
 44
-3677.324036557481
 45
0.0
 46
100.0000000019025
 79
     4
 49
7.071
 49
-14.142
 49
7.071
 49
-113.1373562
 53
45.0
 43
-6238.696094978686
 44
-3667.324036557481
 45
0.0
 46
100.0000000019025
 79
     2
 49
7.071
 49
-134.3503562
 53
45.0
 43
-6228.696094978687
 44
-3672.324036557481
 45
0.0
 46
100.0000000019025
 79
     2
 49
7.071
 49
-134.3503562
 53
45.0
 43
-6243.696094978687
 44
-3662.324036557481
 45
0.0
 46
100.0000000019025
 79
     2
 49
7.071
 49
-134.3503562
 53
45.0
 43
-6248.696094978686
 44
-3657.324036557481
 45
0.0
 46
100.0000000019025
 79
     2
 49
14.142
 49
-127.2793562
 53
45.0
 43
-6223.696094978686
 44
-3582.32403655748
 45
0.0
 46
100.0000000019025
 79
     2
 49
14.142
 49
-127.2793562
 53
45.0
 43
-6258.696094978686
 44
-3652.324036557481
 45
0.0
 46
100.0000000019025
 79
     2
 49
28.284
 49
-113.1373562
 53
45.0
 43
-6263.696094978686
 44
-3647.324036557481
 45
0.0
 46
100.0000000019025
 79
     2
 49
28.284
 49
-113.1373562
 53
45.0
 43
-6198.696094978686
 44
-3617.324036557481
 45
0.0
 46
100.0000000019025
 79
     2
 49
28.284
 49
-113.1373562
 53
45.0
 43
-6268.696094978686
 44
-3637.324036557481
 45
0.0
 46
100.0000000019025
 79
     2
 49
21.2132
 49
-120.2081562
 53
45.0
 43
-6288.696094978686
 44
-3622.324036557481
 45
0.0
 46
100.0000000019025
 79
     2
 49
21.2132
 49
-120.2081562
 53
45.0
 43
-6278.696094978687
 44
-3632.324036557481
 45
0.0
 46
100.0000000019025
 79
     2
 49
21.2132
 49
-120.2081562
 53
45.0
 43
-6213.696094978686
 44
-3602.324036557481
 45
0.0
 46
100.0000000019025
 79
     2
 49
35.35534
 49
-106.0660162
 53
45.0
 43
-6223.696094978686
 44
-3597.324036557481
 45
0.0
 46
100.0000000019025
 79
     2
 49
35.35534
 49
-106.0660162
 53
45.0
 43
-6213.696094978686
 44
-3622.324036557481
 45
0.0
 46
100.0000000019025
 79
     2
 49
49.49747460000001
 49
-91.92388150000001
 53
26.56505119999999
 43
-6258.696094978686
 44
-3662.324036557481
 45
100.0000000000093
 46
0.000000040006455
 79
     2
 49
11.180339
 49
-212.426458
 53
26.56505119999999
 43
-6238.696094978686
 44
-3632.324036557481
 45
100.0000000000093
 46
0.000000040006455
 79
     2
 49
11.180339
 49
-212.426458
 53
26.56505119999999
 43
-6243.696094978687
 44
-3642.324036557481
 45
100.0000000000093
 46
0.000000040006455
 79
     2
 49
11.180339
 49
-212.426458
 53
26.56505119999999
 43
-6263.696094978686
 44
-3672.324036557481
 45
100.0000000000093
 46
0.000000040006455
 79
     2
 49
22.36067999999999
 49
-201.2461177
 53
26.56505119999999
 43
-6243.696094978687
 44
-3627.324036557481
 45
100.0000000000093
 46
0.000000040006455
 79
     2
 49
33.5410196
 49
-190.0657781
 53
26.56505119999999
 43
-6253.696094978686
 44
-3622.324036557481
 45
100.0000000000093
 46
0.000000040006455
 79
     2
 49
44.72135950000001
 49
-178.8854382
 53
26.56505119999999
 43
-6263.696094978686
 44
-3617.324036557481
 45
100.0000000000093
 46
0.000000040006455
 79
     2
 49
44.72135950000001
 49
-178.8854382
 53
26.56505119999999
 43
-6278.696094978687
 44
-3587.324036557481
 45
100.0000000000093
 46
0.000000040006455
 79
     2
 49
44.72135950000001
 49
-178.8854382
 53
26.56505119999999
 43
-6278.696094978687
 44
-3597.324036557481
 45
100.0000000000093
 46
0.000000040006455
 79
     2
 49
55.90169999999999
 49
-167.7050977
 53
26.56505119999999
 43
-6273.696094978686
 44
-3607.324036557481
 45
100.0000000000093
 46
0.000000040006455
 79
     2
 49
55.90169999999999
 49
-167.7050977
 53
63.43494882000001
 43
-6238.696094978686
 44
-3647.324036557481
 45
0.0000000050998636
 46
100.0000000000093
 79
     2
 49
11.18033899999999
 49
-212.4264579999998
 53
63.43494882000001
 43
-6253.696094978686
 44
-3657.324036557481
 45
0.0000000050998636
 46
100.0000000000093
 79
     2
 49
11.18033899999999
 49
-212.4264579999998
 53
63.43494882000001
 43
-6268.696094978686
 44
-3672.324036557481
 45
0.0000000050998636
 46
100.0000000000093
 79
     2
 49
22.36067999999997
 49
-201.2461176999998
 53
63.43494882000001
 43
-6238.696094978686
 44
-3657.324036557481
 45
0.0000000050998636
 46
100.0000000000093
 79
     2
 49
22.36067999999997
 49
-201.2461176999998
 53
63.43494882000001
 43
-6278.696094978687
 44
-3677.324036557481
 45
0.0000000050998636
 46
100.0000000000093
 79
     2
 49
33.54101959999996
 49
-190.0657780999998
 53
63.43494882000001
 43
-6288.696094978686
 44
-3677.324036557481
 45
0.0000000050998636
 46
100.0000000000093
 79
     2
 49
44.72135949999996
 49
-178.8854381999998
 53
63.43494882000001
 43
-6198.696094978686
 44
-3672.324036557481
 45
0.0000000050998636
 46
100.0000000000093
 79
     2
 49
44.72135949999996
 49
-178.8854381999998
 53
63.43494882000001
 43
-6233.696094978686
 44
-3662.324036557481
 45
0.0000000050998636
 46
100.0000000000093
 79
     2
 49
44.72135949999996
 49
-178.8854381999998
 53
63.43494882000001
 43
-6213.696094978686
 44
-3672.324036557481
 45
0.0000000050998636
 46
100.0000000000093
 79
     2
 49
55.90169999999995
 49
-167.7050976999998
 53
63.43494882000001
 43
-6223.696094978686
 44
-3667.324036557481
 45
0.0000000050998636
 46
100.0000000000093
 79
     2
 49
55.90169999999995
 49
-167.7050976999998
 98
        0
  0
LWPOLYLINE
  5
456
102
{ACAD_REACTORS
330
455
102
}
330
44D
100
AcDbEntity
  8
Specialized_Fills
  6
Continuous
100
AcDbPolyline
 90
        8
 70
   129
 43
0.0
 10
797.1978584136349
 20
191.4075235688551
 10
874.3527772346443
 20
191.4075235688551
 10
874.3527772346443
 20
210.4075235688606
 10
869.1978584136377
 20
210.4075235688606
 10
869.1978584136377
 20
205.1710788762898
 10
858.1978584136141
 20
205.1710788762898
 10
858.1978584136141
 20
210.4075235688606
 10
797.1978584136349
 20
210.4075235688606
  0
LINE
  5
457
330
44D
100
AcDbEntity
  8
Specialized_Lines
  6
Continuous
100
AcDbLine
 10
767.6978584135922
 20
357.5507995685334
 30
0.0
 11
767.6978584136504
 21
217.5507995683711
 31
0.0
  0
LINE
  5
458
330
44D
100
AcDbEntity
  8
Specialized_Lines
  6
Continuous
100
AcDbLine
 10
767.6978584135922
 20
357.5507995685334
 30
0.0
 11
857.6978584136259
 21
357.5507995685334
 31
0.0
  0
LINE
  5
459
330
44D
100
AcDbEntity
  8
Specialized_Lines
  6
Continuous
100
AcDbLine
 10
767.6978584135922
 20
357.5507995685334
 30
0.0
 11
767.6978584135922
 21
452.9390815155515
 31
0.0
  0
LINE
  5
45A
330
44D
100
AcDbEntity
  8
Specialized_Lines
  6
Hidden
100
AcDbLine
 10
858.2375534228686
 20
216.7328901580136
 30
0.0
 11
858.2375534228686
 21
236.6794843357925
 31
0.0
  0
LINE
  5
45B
330
44D
100
AcDbEntity
  8
Specialized_Lines
  6
Continuous
100
AcDbLine
 10
767.697858413594
 20
217.5507995683711
 30
0.0
 11
812.6978584136104
 21
357.5507995683356
 31
0.0
  0
LINE
  5
45C
330
44D
100
AcDbEntity
  8
Specialized_Lines
  6
Continuous
100
AcDbLine
 10
857.6978584136259
 20
217.5507995683711
 30
0.0
 11
812.6978584136104
 21
357.5507995683356
 31
0.0
  0
LINE
  5
45D
330
44D
100
AcDbEntity
  8
Specialized_Lines
  6
Continuous
100
AcDbLine
 10
812.6978584136095
 20
217.5507995683711
 30
0.0
 11
857.6978584136259
 21
357.5507995683329
 31
0.0
  0
LINE
  5
45E
330
44D
100
AcDbEntity
  8
Specialized_Lines
  6
Continuous
100
AcDbLine
 10
858.6978584136023
 20
452.9390815155515
 30
0.0
 11
858.6978584136023
 21
206.1710788762662
 31
0.0
  0
LINE
  5
45F
330
44D
100
AcDbEntity
  8
Specialized_Lines
  6
Continuous
100
AcDbLine
 10
868.6978584136495
 20
452.9390815155515
 30
0.0
 11
868.6978584136495
 21
206.1710788762662
 31
0.0
  0
LINE
  5
460
330
44D
100
AcDbEntity
  8
Specialized_Lines
  6
Continuous
100
AcDbLine
 10
812.6978584136095
 20
217.5507995683711
 30
0.0
 11
767.6978584135922
 21
357.5507995685334
 31
0.0
  0
LINE
  5
461
330
44D
100
AcDbEntity
  8
Specialized_Lines
  6
Continuous
100
AcDbLine
 10
868.6978584136495
 20
206.1710788762662
 30
0.0
 11
858.6978584136023
 21
206.1710788762662
 31
0.0
  0
LINE
  5
462
330
44D
100
AcDbEntity
  8
Specialized_Lines
  6
Continuous
100
AcDbLine
 10
857.6978584136259
 20
357.5507995683329
 30
0.0
 11
857.6978584136259
 21
217.5507995683711
 31
0.0
  0
LINE
  5
463
330
44D
100
AcDbEntity
  8
Specialized_Lines
  6
Continuous
 62
   251
420
  6250335
370
    13
100
AcDbLine
 10
800.455512854427
 20
190.4863164316943
 30
0.0
 11
800.455512854427
 21
75.62560997247965
 31
0.0
  0
LINE
  5
464
330
44D
100
AcDbEntity
  8
Specialized_Lines
  6
Continuous
 62
   251
420
  6250335
370
    13
100
AcDbLine
 10
874.3527772346443
 20
196.5716539236023
 30
0.0
 11
874.3527772346443
 21
75.62560997247965
 31
0.0
  0
LINE
  5
465
330
44D
100
AcDbEntity
  8
Specialized_Lines
  6
DASHEDX2
100
AcDbLine
 10
766.9341091333035
 20
216.7328901580136
 30
0.0
 11
766.9341091333035
 21
452.9390815155515
 31
0.0
  0
LINE
  5
466
330
44D
100
AcDbEntity
  8
Specialized_Lines
  6
Continuous
100
AcDbLine
 10
821.5932543919661
 20
210.9812922048059
 30
0.0
 11
849.1828688677106
 21
216.3187718083864
 31
0.0
  0
LINE
  5
467
330
44D
100
AcDbEntity
  8
Specialized_Lines
  6
Continuous
100
AcDbLine
 10
849.1828688677106
 20
210.9812922048059
 30
0.0
 11
821.5932543919661
 21
216.3187718083864
 31
0.0
  0
LINE
  5
468
330
44D
100
AcDbEntity
  8
Specialized_Lines
  6
DASHEDX2
100
AcDbLine
 10
766.9341091333035
 20
216.7328901580136
 30
0.0
 11
858.2375534228686
 21
216.7328901580136
 31
0.0
  0
LINE
  5
469
330
44D
100
AcDbEntity
  8
Specialized_Lines
  6
Continuous
 62
   251
420
  6250335
370
    13
100
AcDbLine
 10
691.2531376217785
 20
230.2292961520325
 30
0.0
 11
691.2531376217785
 21
75.62145776219995
 31
0.0
  0
LINE
  5
46A
330
44D
100
AcDbEntity
  8
Specialized_Lines
  6
Continuous
 62
   251
420
  6250335
370
    13
100
AcDbLine
 10
740.6978584136359
 20
212.2643768183534
 30
0.0
 11
740.6978584136359
 21
75.62560997247965
 31
0.0
  0
LINE
  5
46B
330
44D
100
AcDbEntity
  8
Specialized_Lines
  6
Continuous
 62
   251
420
  6250335
370
    13
100
AcDbLine
 10
747.6978584136349
 20
196.1075235688604
 30
0.0
 11
747.6978584136349
 21
75.62560997247965
 31
0.0
  0
LINE
  5
46C
330
44D
100
AcDbEntity
  8
Specialized_Lines
  6
Continuous
 62
   251
420
  6250335
370
    13
100
AcDbLine
 10
779.1978584136359
 20
177.1075235688608
 30
0.0
 11
779.1978584136359
 21
75.62560997247965
 31
0.0
  0
LINE
  5
46D
330
44D
100
AcDbEntity
  8
Specialized_Lines
  6
Continuous
 62
   251
420
  6250335
370
    13
100
AcDbLine
 10
782.697858413635
 20
177.1075235688608
 30
0.0
 11
782.697858413635
 21
75.62560997247965
 31
0.0
  0
LINE
  5
46E
330
44D
100
AcDbEntity
  8
Specialized_Lines
  6
Continuous
 62
   251
420
  6250335
370
    13
100
AcDbLine
 10
796.001936158238
 20
190.9086626456437
 30
0.0
 11
796.001936158238
 21
75.62560997247965
 31
0.0
  0
LINE
  5
46F
330
44D
100
AcDbEntity
  8
Specialized_Lines
  6
Continuous
100
AcDbLine
 10
772.6563267430419
 20
75.62560997247965
 30
0.0
 11
772.6563267430419
 21
189.557523569149
 31
0.0
  0
LINE
  5
470
330
44D
100
AcDbEntity
  8
Specialized_Lines
  6
Continuous
100
AcDbLine
 10
778.6563267430137
 20
75.62560997247965
 30
0.0
 11
778.6563267430137
 21
189.557523569149
 31
0.0
  0
LINE
  5
471
330
44D
100
AcDbEntity
  8
Specialized_Lines
  6
Continuous
 62
     9
370
    20
100
AcDbLine
 10
777.6563267430374
 20
75.62560997247965
 30
0.0
 11
777.6563267430374
 21
189.557523569149
 31
0.0
  0
LINE
  5
472
330
44D
100
AcDbEntity
  8
Specialized_Lines
  6
Continuous
 62
     9
370
    20
100
AcDbLine
 10
776.656326743061
 20
75.62560997247965
 30
0.0
 11
776.656326743061
 21
189.557523569149
 31
0.0
  0
LINE
  5
473
330
44D
100
AcDbEntity
  8
Specialized_Lines
  6
Continuous
 62
     9
370
    20
100
AcDbLine
 10
775.6563267430283
 20
75.62560997247965
 30
0.0
 11
775.6563267430283
 21
189.557523569149
 31
0.0
  0
LINE
  5
474
330
44D
100
AcDbEntity
  8
Specialized_Lines
  6
Continuous
 62
     9
370
    20
100
AcDbLine
 10
774.6563267430519
 20
75.62560997247965
 30
0.0
 11
774.6563267430519
 21
189.557523569149
 31
0.0
  0
LINE
  5
475
330
44D
100
AcDbEntity
  8
Specialized_Lines
  6
Continuous
 62
     9
370
    20
100
AcDbLine
 10
773.6563267430183
 20
75.62560997247965
 30
0.0
 11
773.6563267430183
 21
189.557523569149
 31
0.0
  0
LWPOLYLINE
  5
476
330
44D
100
AcDbEntity
  8
Specialized_Lines
  6
Continuous
100
AcDbPolyline
 90
        4
 70
   129
 43
0.0
 10
849.1828688677106
 20
210.9812922048059
 10
821.5932543919661
 20
210.9812922048059
 10
821.5932543919661
 20
216.3187718083864
 10
849.1828688677106
 20
216.3187718083864
  0
LWPOLYLINE
  5
477
330
44D
100
AcDbEntity
  8
Specialized_Lines
  6
Continuous
100
AcDbPolyline
 90
        3
 70
   128
 43
0.0
 10
767.697858413594
 20
217.5507995683711
 10
812.6978584136095
 20
217.5507995683711
 10
812.6978584136095
 20
357.5507995683356
  0
LWPOLYLINE
  5
478
330
44D
100
AcDbEntity
  8
Specialized_Lines
  6
Continuous
100
AcDbPolyline
 90
        2
 70
   128
 43
0.0
 10
812.6978584136095
 20
217.5507995683711
 10
812.6978584136095
 20
349.3315562687508
  0
LWPOLYLINE
  5
479
330
44D
100
AcDbEntity
  8
Specialized_Lines
  6
Continuous
100
AcDbPolyline
 90
        8
 70
   129
 43
0.0
 10
874.3527772346443
 20
191.4075235688551
 10
797.1978584136349
 20
191.4075235688551
 10
797.1978584136349
 20
210.4075235688606
 10
858.1978584136141
 20
210.4075235688606
 10
858.1978584136141
 20
205.1710788762898
 10
869.1978584136377
 20
205.1710788762898
 10
869.1978584136377
 20
210.4075235688606
 10
874.3527772346443
 20
210.4075235688606
  0
LWPOLYLINE
  5
47A
330
44D
100
AcDbEntity
  8
Specialized_Lines
  6
Continuous
100
AcDbPolyline
 90
        2
 70
   128
 43
0.0
 10
767.697858413594
 20
217.5507995683711
 10
767.697858413594
 20
349.3315562687508
  0
LWPOLYLINE
  5
47B
330
44D
100
AcDbEntity
  8
Specialized_Lines
  6
Continuous
100
AcDbPolyline
 90
        3
 70
   128
 43
0.0
 10
857.6978584136259
 20
349.3315562687508
 10
857.6978584136259
 20
217.5507995683711
 10
812.6978584136095
 20
217.5507995683711
  0
LWPOLYLINE
  5
47C
330
44D
100
AcDbEntity
  8
Specialized_Lines
  6
Continuous
100
AcDbPolyline
 90
       32
 70
   129
 43
0.0
 10
762.2817626294545
 20
196.7055485159435
 42
-0.2727724127359798
 10
762.7458476125257
 20
197.492935395448
 10
762.4282092388621
 20
197.8105737691121
 42
-0.1989123673796701
 10
762.2817626294545
 20
198.1641271597059
 10
762.2817626294545
 20
198.4348378378249
 42
-0.6681786379193188
 10
762.7438946638094
 20
198.6262591940622
 10
764.3231839856916
 20
197.0469698721813
 42
-0.6681786379194078
 10
764.181762629455
 20
196.705548515943
 10
763.1817626294541
 20
196.7055485159435
 10
763.1817626294541
 20
194.9055485159424
 10
765.4416485604151
 20
182.0891002548837
 10
770.9582985005163
 20
177.7009554290184
 10
771.5331422800309
 20
178.3393733309608
 42
-0.6913661932105743
 10
771.8817644062164
 20
178.2033413729386
 10
771.8817644060837
 20
176.1054791565161
 42
-0.6335369672704524
 10
771.5564829002541
 20
175.9473802135289
 10
748.2705053111358
 20
194.4698656681239
 42
-0.2285713999288997
 10
748.0817626294538
 20
194.8611697465508
 10
748.0817626294538
 20
195.205548515943
 42
-0.4142135623731785
 10
748.2817626294545
 20
195.4055485159433
 10
748.5259708699141
 20
195.4055485159433
 42
-0.1695861875687451
 10
748.8372281882321
 20
195.2968525943693
 10
749.9615712729601
 20
194.4025097221201
 10
751.7316976682013
 20
196.1726361173614
 10
750.9217301275311
 20
197.5755410502806
 42
-0.9999999999998532
 10
751.6145504505602
 20
197.9755410502812
 10
752.4442093583793
 20
196.5385296689869
 42
-0.3394542588633155
 10
752.3011825980402
 20
195.4521335659183
 10
750.6800527677924
 20
193.83100373567
 10
764.3786753505346
 20
182.9346273244787
 10
762.2954356553582
 20
194.7492651355401
 42
-0.0436609487024195
 10
762.2817626294545
 20
194.9055485159424
  0
LWPOLYLINE
  5
47D
330
44D
100
AcDbEntity
  8
Specialized_Fills
  6
DASHEDX2
 62
   253
420
 10461087
370
    20
100
AcDbPolyline
 90
       10
 70
   128
 43
0.0
 10
767.6978584135922
 20
357.5507995685334
 42
-0.6180339902741404
 10
803.6978588156907
 20
375.550799670164
 10
821.6978587560861
 20
362.0507995907692
 42
2.000000011029643
 10
821.6978587560861
 20
398.0507995907688
 10
803.6978587775065
 20
384.5507995621306
 42
-2.000000003978641
 10
803.6978587775065
 20
420.5507995621301
 10
821.6978587179019
 20
407.0507994827353
 42
2.000000011029643
 10
821.6978587179019
 20
443.0507994827353
 10
803.6978587393223
 20
429.550799454098
 42
-0.6439562055307875
 10
767.7597047246945
 20
449.2179070190172
  0
LWPOLYLINE
  5
47E
330
44D
100
AcDbEntity
  8
Specialized_Lines
  6
DASHEDX2
100
AcDbPolyline
 90
        2
 70
   128
 43
0.0
 10
694.4042192939105
 20
452.9390815155515
 10
694.4042192939105
 20
227.1068404673547
  0
LWPOLYLINE
  5
47F
330
44D
100
AcDbEntity
  8
Specialized_Lines
  6
DASHEDX2
100
AcDbPolyline
 90
        2
 70
   128
 43
0.0
 10
716.7393162149801
 20
236.4434405753714
 10
694.4042192939105
 20
227.1068404673547
  0
HATCH
  5
480
330
44D
100
AcDbEntity
  8
0
 62
     8
420
  8224125
100
AcDbHatch
 10
0.0
 20
0.0
 30
0.0
210
0.0
220
0.0
230
1.0
  2
HPCRC1E0
 70
     0
 71
     0
 91
        1
 92
        7
 72
     0
 73
     1
 93
        5
 10
747.2987355034184
 20
452.5465644117061
 10
697.2987355033983
 20
452.5465644117061
 10
697.2987355033983
 20
243.357267181812
 10
734.0865651264348
 20
243.5688379622838
 10
747.2987355034184
 20
251.2014365433783
 97
        1
330
481
 75
     1
 76
     2
 52
0.0
 41
0.11
 77
     0
 78
    78
 53
82.8749847
 43
-6268.696094978686
 44
-3668.474036557481
 45
-0.0000004547701588
 46
7.699999865186783
 79
     2
 49
0.8868483547
 49
-61.19253540399999
 53
75.96376039999999
 43
-6268.586094978687
 44
-3667.594036557481
 45
-0.000000319720093
 46
7.699999733391256
 79
     2
 49
0.4535416050000001
 49
-31.294372252
 53
63.43495179999999
 43
-6268.476094978686
 44
-3667.154036557481
 45
-0.0000000262199949
 46
7.700000038125692
 79
     2
 49
0.9838699199999998
 49
-16.233853911
 53
45.0
 43
-6268.036094978686
 44
-3666.274036557481
 45
0.0000000000000008
 46
7.700000002635507
 79
     2
 49
1.400071463999999
 49
-9.489373167999998
 53
33.6900673
 43
-6267.046094978686
 44
-3665.284036557481
 45
0.0000001463018449
 46
7.699999838839423
 79
     2
 49
0.396610632
 49
-27.366133883
 53
33.6900673
 43
-6259.346094978686
 44
-3665.284036557481
 45
0.0000001463018449
 46
7.699999838839423
 79
     2
 49
0.396610632
 49
-27.366133883
 53
33.6900673
 43
-6251.646094978686
 44
-3665.284036557481
 45
0.0000001463018449
 46
7.699999838839423
 79
     2
 49
0.396610632
 49
-27.366133883
 53
26.5650501
 43
-6266.716094978686
 44
-3665.064036557481
 45
-0.0000000421863898
 46
7.700000131593327
 79
     2
 49
0.24596748
 49
-16.971756593
 53
26.5650501
 43
-6259.016094978687
 44
-3665.064036557481
 45
-0.0000000421863898
 46
7.700000131593327
 79
     2
 49
0.24596748
 49
-16.971756593
 53
18.434948
 43
-6266.496094978687
 44
-3664.954036557481
 45
0.000000246254489
 46
7.699999863928288
 79
     2
 49
0.3478505469999999
 49
-24.00168746799999
 53
18.434948
 43
-6258.796094978687
 44
-3664.954036557481
 45
0.000000246254489
 46
7.699999863928288
 79
     2
 49
0.3478505469999999
 49
-24.00168746799999
 53
18.434948
 43
-6251.096094978686
 44
-3664.954036557481
 45
0.000000246254489
 46
7.699999863928288
 79
     2
 49
0.3478505469999999
 49
-24.00168746799999
 53
26.5650501
 43
-6266.166094978686
 44
-3664.844036557481
 45
-0.0000000421863898
 46
7.700000131593327
 79
     2
 49
0.24596748
 49
-16.971756593
 53
26.5650501
 43
-6258.466094978686
 44
-3664.844036557481
 45
-0.0000000421863898
 46
7.700000131593327
 79
     2
 49
0.24596748
 49
-16.971756593
 53
11.3099327
 43
-6265.946094978686
 44
-3664.734036557481
 45
-0.0000000497850009
 46
7.700000063607435
 79
     2
 49
0.5608921482999998
 49
-38.70155700399998
 53
11.3099327
 43
-6258.246094978686
 44
-3664.734036557481
 45
-0.0000000497850009
 46
7.700000063607435
 79
     2
 49
0.5608921482999998
 49
-38.70155700399998
 53
11.3099327
 43
-6250.546094978687
 44
-3664.734036557481
 45
-0.0000000497850009
 46
7.700000063607435
 79
     2
 49
0.5608921482999998
 49
-38.70155700399998
 53
11.3099327
 43
-6242.846094978686
 44
-3664.734036557481
 45
-0.0000000497850009
 46
7.700000063607435
 79
     2
 49
0.5608921482999998
 49
-38.70155700399998
 53
11.3099327
 43
-6235.146094978686
 44
-3664.734036557481
 45
-0.0000000497850009
 46
7.700000063607435
 79
     2
 49
0.5608921482999998
 49
-38.70155700399998
 53
0.0
 43
-6265.396094978687
 44
-3664.624036557481
 45
0.0
 46
7.7
 79
     2
 49
1.1
 49
-6.599999999999999
 53
348.6900673
 43
-6264.296094978687
 44
-3664.624036557481
 45
0.0000000497850009
 46
7.700000063607435
 79
     2
 49
0.5608921482999998
 49
-38.70155700399998
 53
348.6900673
 43
-6256.596094978686
 44
-3664.624036557481
 45
0.0000000497850009
 46
7.700000063607435
 79
     2
 49
0.5608921482999998
 49
-38.70155700399998
 53
348.6900673
 43
-6248.896094978686
 44
-3664.624036557481
 45
0.0000000497850009
 46
7.700000063607435
 79
     2
 49
0.5608921482999998
 49
-38.70155700399998
 53
348.6900673
 43
-6241.196094978686
 44
-3664.624036557481
 45
0.0000000497850009
 46
7.700000063607435
 79
     2
 49
0.5608921482999998
 49
-38.70155700399998
 53
348.6900673
 43
-6233.496094978686
 44
-3664.624036557481
 45
0.0000000497850009
 46
7.700000063607435
 79
     2
 49
0.5608921482999998
 49
-38.70155700399998
 53
333.4349499
 43
-6263.746094978686
 44
-3664.734036557481
 45
0.0000000421863898
 46
7.700000131593327
 79
     2
 49
0.24596748
 49
-16.971756593
 53
333.4349499
 43
-6256.046094978686
 44
-3664.734036557481
 45
0.0000000421863898
 46
7.700000131593327
 79
     2
 49
0.24596748
 49
-16.971756593
 53
341.565052
 43
-6263.526094978686
 44
-3664.844036557481
 45
-0.000000246254489
 46
7.699999863928288
 79
     2
 49
0.347850547
 49
-24.001687468
 53
341.565052
 43
-6255.826094978687
 44
-3664.844036557481
 45
-0.000000246254489
 46
7.699999863928288
 79
     2
 49
0.347850547
 49
-24.001687468
 53
341.565052
 43
-6248.126094978687
 44
-3664.844036557481
 45
-0.000000246254489
 46
7.699999863928288
 79
     2
 49
0.347850547
 49
-24.001687468
 53
333.4349499
 43
-6263.196094978686
 44
-3664.954036557481
 45
0.0000000421863898
 46
7.700000131593327
 79
     2
 49
0.24596748
 49
-16.971756593
 53
333.4349499
 43
-6255.496094978687
 44
-3664.954036557481
 45
0.0000000421863898
 46
7.700000131593327
 79
     2
 49
0.24596748
 49
-16.971756593
 53
326.3099327
 43
-6262.976094978686
 44
-3665.064036557481
 45
-0.0000001463018449
 46
7.699999838839423
 79
     2
 49
0.396610632
 49
-27.366133883
 53
326.3099327
 43
-6255.276094978686
 44
-3665.064036557481
 45
-0.0000001463018449
 46
7.699999838839423
 79
     2
 49
0.396610632
 49
-27.366133883
 53
326.3099327
 43
-6247.576094978686
 44
-3665.064036557481
 45
-0.0000001463018449
 46
7.699999838839423
 79
     2
 49
0.396610632
 49
-27.366133883
 53
315.0
 43
-6262.646094978686
 44
-3665.284036557481
 45
-0.0000000000000008
 46
7.700000002635507
 79
     2
 49
1.400071463999999
 49
-9.489373167999998
 53
296.5650482
 43
-6261.656094978686
 44
-3666.274036557481
 45
0.0000000262199949
 46
7.700000038125692
 79
     2
 49
0.9838699199999998
 49
-16.233853911
 53
284.0362396
 43
-6261.216094978687
 44
-3667.154036557481
 45
0.000000319720093
 46
7.699999733391256
 79
     2
 49
0.4535416050000001
 49
-31.294372252
 53
277.1250153
 43
-6261.106094978686
 44
-3667.594036557481
 45
0.0000004547701588
 46
7.699999865186783
 79
     2
 49
0.8868483547
 49
-61.19253540399999
 53
277.1250153
 43
-6268.696094978686
 44
-3668.474036557481
 45
0.0000004547701588
 46
7.699999865186783
 79
     2
 49
0.8868483547
 49
-61.19253540399999
 53
284.0362396
 43
-6268.586094978687
 44
-3669.354036557481
 45
0.000000319720093
 46
7.699999733391256
 79
     2
 49
0.4535416050000001
 49
-31.294372252
 53
296.5650482
 43
-6268.476094978686
 44
-3669.794036557481
 45
0.0000000262199949
 46
7.700000038125692
 79
     2
 49
0.9838699199999998
 49
-16.233853911
 53
315.0
 43
-6268.036094978686
 44
-3670.674036557481
 45
-0.0000000000000008
 46
7.700000002635507
 79
     2
 49
1.400071463999999
 49
-9.489373167999998
 53
326.3099327
 43
-6267.046094978686
 44
-3671.664036557481
 45
-0.0000001463018449
 46
7.699999838839423
 79
     2
 49
0.396610632
 49
-27.366133883
 53
326.3099327
 43
-6259.346094978686
 44
-3671.664036557481
 45
-0.0000001463018449
 46
7.699999838839423
 79
     2
 49
0.396610632
 49
-27.366133883
 53
326.3099327
 43
-6251.646094978686
 44
-3671.664036557481
 45
-0.0000001463018449
 46
7.699999838839423
 79
     2
 49
0.396610632
 49
-27.366133883
 53
333.4349499
 43
-6266.716094978686
 44
-3671.884036557481
 45
0.0000000421863898
 46
7.700000131593327
 79
     2
 49
0.24596748
 49
-16.971756593
 53
333.4349499
 43
-6259.016094978687
 44
-3671.884036557481
 45
0.0000000421863898
 46
7.700000131593327
 79
     2
 49
0.24596748
 49
-16.971756593
 53
341.565052
 43
-6266.496094978687
 44
-3671.994036557481
 45
-0.000000246254489
 46
7.699999863928288
 79
     2
 49
0.347850547
 49
-24.001687468
 53
341.565052
 43
-6258.796094978687
 44
-3671.994036557481
 45
-0.000000246254489
 46
7.699999863928288
 79
     2
 49
0.347850547
 49
-24.001687468
 53
341.565052
 43
-6251.096094978686
 44
-3671.994036557481
 45
-0.000000246254489
 46
7.699999863928288
 79
     2
 49
0.347850547
 49
-24.001687468
 53
333.4349499
 43
-6266.166094978686
 44
-3672.104036557481
 45
0.0000000421863898
 46
7.700000131593327
 79
     2
 49
0.24596748
 49
-16.971756593
 53
333.4349499
 43
-6258.466094978686
 44
-3672.104036557481
 45
0.0000000421863898
 46
7.700000131593327
 79
     2
 49
0.24596748
 49
-16.971756593
 53
348.6900673
 43
-6265.946094978686
 44
-3672.214036557481
 45
0.0000000497850009
 46
7.700000063607435
 79
     2
 49
0.5608921482999998
 49
-38.70155700399998
 53
348.6900673
 43
-6258.246094978686
 44
-3672.214036557481
 45
0.0000000497850009
 46
7.700000063607435
 79
     2
 49
0.5608921482999998
 49
-38.70155700399998
 53
348.6900673
 43
-6250.546094978687
 44
-3672.214036557481
 45
0.0000000497850009
 46
7.700000063607435
 79
     2
 49
0.5608921482999998
 49
-38.70155700399998
 53
348.6900673
 43
-6242.846094978686
 44
-3672.214036557481
 45
0.0000000497850009
 46
7.700000063607435
 79
     2
 49
0.5608921482999998
 49
-38.70155700399998
 53
348.6900673
 43
-6235.146094978686
 44
-3672.214036557481
 45
0.0000000497850009
 46
7.700000063607435
 79
     2
 49
0.5608921482999998
 49
-38.70155700399998
 53
0.0
 43
-6265.396094978687
 44
-3672.324036557481
 45
0.0
 46
7.7
 79
     2
 49
1.1
 49
-6.599999999999999
 53
11.3099327
 43
-6264.296094978687
 44
-3672.324036557481
 45
-0.0000000497850009
 46
7.700000063607435
 79
     2
 49
0.5608921482999998
 49
-38.70155700399998
 53
11.3099327
 43
-6256.596094978686
 44
-3672.324036557481
 45
-0.0000000497850009
 46
7.700000063607435
 79
     2
 49
0.5608921482999998
 49
-38.70155700399998
 53
11.3099327
 43
-6248.896094978686
 44
-3672.324036557481
 45
-0.0000000497850009
 46
7.700000063607435
 79
     2
 49
0.5608921482999998
 49
-38.70155700399998
 53
11.3099327
 43
-6241.196094978686
 44
-3672.324036557481
 45
-0.0000000497850009
 46
7.700000063607435
 79
     2
 49
0.5608921482999998
 49
-38.70155700399998
 53
11.3099327
 43
-6233.496094978686
 44
-3672.324036557481
 45
-0.0000000497850009
 46
7.700000063607435
 79
     2
 49
0.5608921482999998
 49
-38.70155700399998
 53
26.5650501
 43
-6263.746094978686
 44
-3672.214036557481
 45
-0.0000000421863898
 46
7.700000131593327
 79
     2
 49
0.24596748
 49
-16.971756593
 53
26.5650501
 43
-6256.046094978686
 44
-3672.214036557481
 45
-0.0000000421863898
 46
7.700000131593327
 79
     2
 49
0.24596748
 49
-16.971756593
 53
18.434948
 43
-6263.526094978686
 44
-3672.104036557481
 45
0.000000246254489
 46
7.699999863928288
 79
     2
 49
0.3478505469999999
 49
-24.00168746799999
 53
18.434948
 43
-6255.826094978687
 44
-3672.104036557481
 45
0.000000246254489
 46
7.699999863928288
 79
     2
 49
0.3478505469999999
 49
-24.00168746799999
 53
18.434948
 43
-6248.126094978687
 44
-3672.104036557481
 45
0.000000246254489
 46
7.699999863928288
 79
     2
 49
0.3478505469999999
 49
-24.00168746799999
 53
26.5650501
 43
-6263.196094978686
 44
-3671.994036557481
 45
-0.0000000421863898
 46
7.700000131593327
 79
     2
 49
0.24596748
 49
-16.971756593
 53
26.5650501
 43
-6255.496094978687
 44
-3671.994036557481
 45
-0.0000000421863898
 46
7.700000131593327
 79
     2
 49
0.24596748
 49
-16.971756593
 53
33.6900673
 43
-6262.976094978686
 44
-3671.884036557481
 45
0.0000001463018449
 46
7.699999838839423
 79
     2
 49
0.396610632
 49
-27.366133883
 53
33.6900673
 43
-6255.276094978686
 44
-3671.884036557481
 45
0.0000001463018449
 46
7.699999838839423
 79
     2
 49
0.396610632
 49
-27.366133883
 53
33.6900673
 43
-6247.576094978686
 44
-3671.884036557481
 45
0.0000001463018449
 46
7.699999838839423
 79
     2
 49
0.396610632
 49
-27.366133883
 53
45.0
 43
-6262.646094978686
 44
-3671.664036557481
 45
0.0000000000000008
 46
7.700000002635507
 79
     2
 49
1.400071463999999
 49
-9.489373167999998
 53
63.43495179999999
 43
-6261.656094978686
 44
-3670.674036557481
 45
-0.0000000262199949
 46
7.700000038125692
 79
     2
 49
0.9838699199999998
 49
-16.233853911
 53
75.96376039999999
 43
-6261.216094978687
 44
-3669.794036557481
 45
-0.000000319720093
 46
7.699999733391256
 79
     2
 49
0.4535416050000001
 49
-31.294372252
 53
82.8749847
 43
-6261.106094978686
 44
-3669.354036557481
 45
-0.0000004547701588
 46
7.699999865186783
 79
     2
 49
0.8868483547
 49
-61.19253540399999
 47
0.0
 98
        1
 10
-6268.696094978686
 20
-3672.324036557481
1001
ACAD
1010
0.0
1020
0.0
1030
0.0
  0
LWPOLYLINE
  5
481
330
44D
100
AcDbEntity
  8
Specialized_Lines
  6
Continuous
100
AcDbPolyline
 90
        5
 70
   129
 43
0.0
 10
747.2987355034184
 20
251.2014365433783
 10
747.2987355034184
 20
452.9390815155515
 10
697.2987355033983
 20
452.9390815155515
 10
697.2987355033983
 20
243.357267181812
 10
734.0865651264348
 20
243.5688379622838
  0
LWPOLYLINE
  5
482
330
44D
100
AcDbEntity
  8
Specialized_Lines
  6
Continuous
100
AcDbPolyline
 90
       91
 70
   129
 43
0.0
 10
750.1978584136359
 20
229.9011623888709
 42
-0.4142135623730951
 10
749.5978584136365
 20
229.301162388871
 42
-0.4142135623731021
 10
748.9978584136361
 20
229.9011623888709
 10
748.9978584136361
 20
234.1011623888712
 10
741.8978584136357
 20
234.1011623888712
 10
741.8978584136357
 20
212.2643768183534
 42
0.1989123673796598
 10
742.7179594263125
 20
210.2844778310305
 10
747.3748136758058
 20
205.6276235815385
 42
-0.1494188041786777
 10
748.8021947332654
 20
202.9435181247686
 10
765.1882966413587
 20
200.6936484949342
 42
-0.3747899436168836
 10
766.3978584136348
 20
199.3066613711939
 10
766.3978584136348
 20
197.00752356886
 10
795.9978584136352
 20
197.00752356886
 10
795.9978584136352
 20
210.4075235688606
 10
793.5978584136364
 20
210.4075235688606
 42
-0.4142135623730951
 10
792.997858413636
 20
211.0075235688605
 42
-0.4142135623730951
 10
793.5978584136364
 20
211.6075235688609
 10
801.1150154136357
 20
211.6075235688609
 42
-0.1994953901194283
 10
801.256753633328
 20
211.5486273500937
 10
801.5978584136355
 20
211.2075235688603
 10
804.7978584136354
 20
211.2075235688603
 10
805.1392797698726
 20
211.5489449250977
 42
-0.1989123673797102
 10
805.280701126111
 20
211.6075235688609
 10
806.5978584136365
 20
211.6075235688609
 42
-0.9999999999999998
 10
806.5978584136365
 20
210.4075235688606
 10
797.1978584136349
 20
210.4075235688606
 10
797.1978584136349
 20
200.9074867673831
 10
796.7978584136362
 20
200.5074867673829
 10
797.1978584136349
 20
200.1074867673824
 10
797.1978584136349
 20
197.00752356886
 42
-0.3718832980523272
 10
796.1732138145062
 20
195.8204050055374
 42
0.6059274979908935
 10
796.0567750646069
 20
195.4855051687968
 42
-0.1910043624983056
 10
797.1978174136365
 20
192.6075235688604
 10
797.1978174136365
 20
191.0080005688605
 10
800.4975371649216
 20
191.0080005688582
 42
-0.4145886432917875
 10
800.6977932521548
 20
190.8080007328099
 42
-0.4142134464432531
 10
799.6977932521549
 20
189.8080005688603
 10
797.1978174136365
 20
189.8080005688603
 42
-0.4142135623730951
 10
795.9978174136359
 20
191.0080005688605
 10
795.9978174136359
 20
192.6075235688604
 42
0.4142135623730992
 10
792.9978174136358
 20
195.6075235688608
 10
785.697858413635
 20
195.6075235688608
 42
0.4142135623730978
 10
782.697858413635
 20
192.6075235688604
 10
782.697858413635
 20
177.1075235688608
 42
-0.4142135623730951
 10
782.1978584136359
 20
176.6075235688604
 10
779.697858413635
 20
176.6075235688604
 42
-0.4142135623730951
 10
779.1978584136359
 20
177.1075235688608
 10
779.1978584136359
 20
178.25752356886
 42
-0.4142135623730951
 10
779.6478584136357
 20
178.7075235688603
 42
-0.4142135623730766
 10
780.0978584136364
 20
178.25752356886
 10
780.0978584136364
 20
177.6075235688604
 10
781.5978584136364
 20
177.6075235688604
 10
781.5978584136364
 20
183.00752356886
 10
780.0978584136364
 20
183.00752356886
 10
780.0978584136364
 20
182.3575235688604
 42
-0.4142135623730951
 10
779.6478584136357
 20
181.9075235688606
 42
-0.4142135623730766
 10
779.1978584136359
 20
182.3575235688604
 10
779.1978584136359
 20
183.5075235688605
 42
-0.4142135623730951
 10
779.697858413635
 20
184.00752356886
 10
781.4978584136351
 20
184.00752356886
 10
781.4978584136351
 20
191.7075645829609
 42
-0.500912579025221
 10
781.49902736493
 20
192.5084386334183
 42
-0.1404257888372542
 10
782.0835748982635
 20
194.7469054119424
 42
-0.1928075209396724
 10
781.4978582557824
 20
195.6075235688608
 10
764.5363347571956
 20
195.6075235688608
 42
-0.1989123673796423
 10
763.4756745854156
 20
196.0468633970804
 10
763.0564357698722
 20
196.4661022126229
 42
-0.6681786379194047
 10
763.1978571261097
 20
196.8075235688607
 10
764.9978584136361
 20
196.8075235688607
 10
764.9978584136361
 20
199.3075235688607
 10
748.8978584136348
 20
201.50748056886
 10
748.8978584136348
 20
196.8075235688607
 10
750.1978584136359
 20
196.8075235688607
 10
750.1978584136359
 20
196.9075235688606
 42
-0.4142135623730951
 10
750.3978584136348
 20
197.1075235688608
 10
750.6978147011604
 20
197.1075235688608
 42
-0.1989123673796841
 10
750.839236057398
 20
197.0489449250981
 10
751.4392365573985
 20
196.448944425098
 42
-0.4142135623730508
 10
751.4392365573985
 20
196.166101712623
 10
750.9392370573977
 20
195.6661022126236
 42
-0.1989123673796372
 10
750.7978157011603
 20
195.6075235688608
 10
748.1978584136359
 20
195.6075235688608
 42
-0.4142135623730951
 10
747.6978584136349
 20
196.1075235688604
 10
747.6978584136349
 20
201.9506683193685
 42
0.1989123673796624
 10
746.5262855383817
 20
204.7790954441143
 10
741.8694312888892
 20
209.4359496936072
 42
-0.1989123673796631
 10
740.6978584136359
 20
212.2643768183534
 10
740.6978584136359
 20
234.1011623888712
 42
-0.414213562373088
 10
741.8978584136357
 20
235.301162388871
 10
748.9978584136361
 20
235.301162388871
 42
-0.4142135623730953
 10
750.1978584136359
 20
234.1011623888712
  0
LWPOLYLINE
  5
483
330
44D
100
AcDbEntity
  8
0
  6
Continuous
100
AcDbPolyline
 90
        6
 70
   128
 43
0.0
 10
885.9643033399233
 20
452.9390815155515
 10
817.2015695959363
 20
452.9390815155515
 10
815.2015695959352
 20
458.4340363544611
 10
811.2015695959353
 20
447.4441266766429
 10
809.2015695959354
 20
452.9390815155515
 10
676.0844128688122
 20
452.9390815155515
  0
LWPOLYLINE
  5
484
330
44D
100
AcDbEntity
  8
0
  6
Continuous
100
AcDbPolyline
 90
        6
 70
   128
 43
0.0
 10
885.9643033399233
 20
75.50085974427338
 10
817.2015695959363
 20
75.50085974427338
 10
815.2015695959352
 20
80.99581458318244
 10
811.2015695959353
 20
70.00590490536478
 10
809.2015695959354
 20
75.50085974427338
 10
676.0844128688122
 20
75.50085974427338
  0
LWPOLYLINE
  5
485
330
44D
100
AcDbEntity
  8
0
  6
Continuous
100
AcDbPolyline
 90
        4
 70
   128
 43
0.0
 10
766.008533602354
 20
357.5770730981048
 10
766.0596077988384
 20
290.4696265828511
 10
764.4354604020236
 20
285.4036670335213
 10
764.4354604020236
 20
256.4322467068227
  0
ELLIPSE
  5
486
330
44D
100
AcDbEntity
  8
Specialized_Lines
  6
Continuous
100
AcDbEllipse
 10
853.8894732734934
 20
213.6020617072418
 30
0.0
 11
3.479568238652319
 21
-1.811071092807025
 31
0.0
210
0.0
220
0.0
230
1.0
 40
0.6607036763668314
 41
0.0
 42
6.283185307179586
  0
SPLINE
  5
487
330
44D
100
AcDbEntity
  8
Specialized_Lines
  6
Continuous
100
AcDbSpline
210
0.0
220
0.0
230
1.0
 70
     8
 71
     3
 72
    11
 73
     7
 74
     0
 42
0.00001
 43
0.0000000001
 40
0.0
 40
0.0
 40
0.0
 40
0.0
 40
1.0
 40
1.0
 40
1.0
 40
2.0
 40
2.0
 40
2.0
 40
2.0
 10
732.7905275827979
 20
236.1572671818121
 30
0.0
 10
732.7905275827979
 20
236.1572671818121
 30
0.0
 10
732.9793124740672
 20
235.9514820505737
 30
0.0
 10
732.9793124740672
 20
235.9514820505737
 30
0.0
 10
732.9793124740672
 20
235.9514820505737
 30
0.0
 10
733.1977972829063
 20
235.7110676616262
 30
0.0
 10
733.1977972829063
 20
235.7110676616262
 30
0.0
  0
SPLINE
  5
488
330
44D
100
AcDbEntity
  8
Specialized_Lines
  6
Continuous
100
AcDbSpline
210
0.0
220
0.0
230
1.0
 70
     8
 71
     3
 72
    11
 73
     7
 74
     0
 42
0.00001
 43
0.0000000001
 40
0.0
 40
0.0
 40
0.0
 40
0.0
 40
1.0
 40
1.0
 40
1.0
 40
2.0
 40
2.0
 40
2.0
 40
2.0
 10
729.2324050446905
 20
236.1572671818121
 30
0.0
 10
729.2324050446905
 20
236.1572671818121
 30
0.0
 10
731.5232510623754
 20
235.3580480450669
 30
0.0
 10
731.5232510623754
 20
235.3580480450669
 30
0.0
 10
731.5232510623754
 20
235.3580480450669
 30
0.0
 10
732.3492691454821
 20
234.8625395242025
 30
0.0
 10
732.3492691454821
 20
234.8625395242025
 30
0.0
  0
DIMENSION
  5
489
330
44D
100
AcDbEntity
  8
Specialized_Lines
  6
Continuous
100
AcDbDimension
280
     0
  2
*D8
 10
681.1992106377456
 20
225.6399998497609
 30
0.0
 11
677.6992106600974
 21
220.323150035781
 31
0.0
 12
-6268.696094978686
 22
-3672.324036557481
 32
0.0
  1
<>
 71
     5
 42
-1.0
 73
     0
 74
     0
 75
     0
  3
GENERATED_STYLE__1
100
AcDbAlignedDimension
 13
739.0688650947713
 23
225.6399998497609
 33
0.0
 14
741.8978584136357
 24
235.301162388871
 34
0.0
 50
90.0
100
AcDbRotatedDimension
  0
DIMENSION
  5
48A
330
44D
100
AcDbEntity
  8
Specialized_Lines
  6
Continuous
100
AcDbDimension
280
     0
  2
*D9
 10
748.9942467441787
 20
252.6049414054992
 30
0.0
 11
754.999495683679
 21
253.9984008061119
 31
0.0
 12
-6268.696094978686
 22
-3672.324036557481
 32
0.0
  1
<>
 71
     5
 42
-1.0
 73
     0
 74
     0
 75
     0
  3
GENERATED_STYLE__2
100
AcDbAlignedDimension
 13
747.6231389079957
 23
251.8133319271906
 33
0.0
 14
750.0383254173303
 24
247.6301061832682
 34
0.0
 50
299.9999999999973
100
AcDbRotatedDimension
  0
DIMENSION
  5
48B
330
44D
100
AcDbEntity
  8
Specialized_Lines
  6
Continuous
100
AcDbDimension
280
     0
  2
*D10
 10
729.5405065462709
 20
210.4075235688606
 30
0.0
 11
715.6448997998986
 21
214.0482216879923
 31
0.0
 12
-6268.696094978686
 22
-3672.324036557481
 32
0.0
  1
7.5mm 
 71
     5
 42
-1.0
 73
     0
 74
     0
 75
     0
  3
GENERATED_STYLE__3
100
AcDbAlignedDimension
 13
858.1978584136141
 23
210.4075235688606
 33
0.0
 14
812.6978584136095
 24
217.5507995683711
 34
0.0
 50
90.0
100
AcDbRotatedDimension
  0
MTEXT
  5
48C
102
{ACAD_REACTORS
330
48D
102
}
330
44D
100
AcDbEntity
  8
Specialized_Text
  6
Continuous
100
AcDbMText
 10
901.2556778871557
 20
407.5367637714384
 30
0.0
 40
5.5
 41
136.705971199035
 46
0.0
 71
     4
 72
     1
  1
{cavity insulation minimum R=0.9}
  7
GENERATED_STYLE_2
 73
     1
 44
1.0
  0
LEADER
  5
48D
330
44D
100
AcDbEntity
  8
Specialized_Text
  6
Continuous
 62
   251
420
  6250335
370
    13
100
AcDbLeader
  3
GENERATED_STYLE__4
 73
     0
 40
7.139495225102319
 41
109.756139154161
 76
     2
 10
816.2651667062327
 20
408.3340831710857
 30
0.0
 10
901.1656778871556
 20
407.5367637714384
 30
0.0
340
48C
  0
MTEXT
  5
48E
102
{ACAD_REACTORS
330
48F
102
}
330
44D
100
AcDbEntity
  8
Specialized_Text
  6
Continuous
100
AcDbMText
 10
901.2556778871557
 20
389.3143847105243
 30
0.0
 40
5.5
 41
136.705971199035
 46
0.0
 71
     4
 72
     1
  1
50mm EPS OR {\C30;75mm Neopor® EPS}
  7
GENERATED_STYLE_2
 73
     1
 44
1.0
  0
LEADER
  5
48F
330
44D
100
AcDbEntity
  8
Specialized_Text
  6
Continuous
 62
   251
420
  6250335
370
    13
100
AcDbLeader
  3
GENERATED_STYLE__4
 73
     0
 40
7.124488403819918
 41
125.7834242837653
 76
     2
 10
720.0817334949206
 20
390.0565570500016
 30
0.0
 10
901.1656778871556
 20
389.3143847105243
 30
0.0
340
48E
  0
MTEXT
  5
490
102
{ACAD_REACTORS
330
491
102
}
330
44D
100
AcDbEntity
  8
Specialized_Text
  6
Continuous
100
AcDbMText
 10
901.2556778871557
 20
370.5998171930923
 30
0.0
 40
5.5
 41
136.705971199035
 46
0.0
 71
     4
 72
     1
  1
{selected plaster finish}
  7
GENERATED_STYLE_2
 73
     1
 44
1.0
  0
LEADER
  5
491
330
44D
100
AcDbEntity
  8
Specialized_Text
  6
Continuous
 62
   251
420
  6250335
370
    13
100
AcDbLeader
  3
GENERATED_STYLE__4
 73
     0
 40
7.124488403819918
 41
73.14324693042292
 76
     2
 10
693.5727255348228
 20
371.193127791711
 30
0.0
 10
901.1656778871556
 20
370.5998171930923
 30
0.0
340
490
  0
MTEXT
  5
492
102
{ACAD_REACTORS
330
493
102
}
330
44D
100
AcDbEntity
  8
Specialized_Text
  6
Continuous
100
AcDbMText
 10
901.2556778871557
 20
337.8186488787496
 30
0.0
 40
5.5
 41
136.705971199035
 46
0.0
 71
     4
 72
     1
  1
{building wrap to be continued under lintel and taped with Protecto Sill System (or similar) at corners by builder}
  7
GENERATED_STYLE_2
 73
     1
 44
1.127302725799687
  0
LEADER
  5
493
330
44D
100
AcDbEntity
  8
Specialized_Text
  6
Continuous
 62
   251
420
  6250335
370
    13
100
AcDbLeader
  3
GENERATED_STYLE__4
 73
     0
 40
27.97997525139181
 41
135.5341064120054
 76
     2
 10
766.9341091333035
 20
338.067176793335
 30
0.0
 10
901.1656778871556
 20
337.8186488787496
 30
0.0
340
492
  0
MTEXT
  5
494
102
{ACAD_REACTORS
330
495
102
}
330
44D
100
AcDbEntity
  8
Specialized_Text
  6
Continuous
100
AcDbMText
 10
901.2556778871557
 20
286.7572028255677
 30
0.0
 40
5.5
 41
136.705971199035
 46
0.0
 71
     4
 72
     1
  1
{discontinuous horizontal 45mm x 20mm EPS battens on 15° slope and no more than 100mm in length as required for fixing}
  7
GENERATED_STYLE_2
 73
     1
 44
1.123977532571228
  0
LEADER
  5
495
330
44D
100
AcDbEntity
  8
Specialized_Text
  6
Continuous
 62
   251
420
  6250335
370
    13
100
AcDbLeader
  3
GENERATED_STYLE__4
 73
     0
 40
38.35676751846532
 41
134.6074351978172
 76
     2
 10
753.8937076336587
 20
287.5296278225383
 30
0.0
 10
901.1656778871556
 20
286.7572028255677
 30
0.0
340
494
  0
MTEXT
  5
496
102
{ACAD_REACTORS
330
497
102
}
330
44D
100
AcDbEntity
  8
Specialized_Text
  6
Continuous
100
AcDbMText
 10
901.2556778871557
 20
241.0630984081981
 30
0.0
 40
5.5
 41
136.705971199035
 46
0.0
 71
     4
 72
     1
  1
{CAVITECLAD proprietary head flashing}
  7
GENERATED_STYLE_2
 73
     1
 44
1.0
  0
LEADER
  5
497
330
44D
100
AcDbEntity
  8
Specialized_Text
  6
Continuous
 62
   251
420
  6250335
370
    13
100
AcDbLeader
  3
GENERATED_STYLE__4
 73
     0
 40
7.207025920873125
 41
134.0634379263301
 76
     2
 10
750.4509805823199
 20
241.8356016404628
 30
0.0
 10
901.1656778871556
 20
241.0630984081981
 30
0.0
340
496
  0
MTEXT
  5
498
102
{ACAD_REACTORS
330
499
102
}
330
44D
100
AcDbEntity
  8
Specialized_Text
  6
Continuous
100
AcDbMText
 10
901.2556778871557
 20
212.8925398250626
 30
0.0
 40
5.5
 41
136.705971199035
 46
0.0
 71
     4
 72
     1
  1
{air seal - to be installed by builder}
  7
GENERATED_STYLE_2
 73
     1
 44
1.0
  0
LEADER
  5
499
330
44D
100
AcDbEntity
  8
Specialized_Text
  6
Continuous
 62
   251
420
  6250335
370
    13
100
AcDbLeader
  3
GENERATED_STYLE__4
 73
     0
 40
7.113233287858117
 41
114.2694406548431
 76
     2
 10
853.8894732734934
 20
213.6995209860497
 30
0.0
 10
901.1656778871556
 20
212.8925398250626
 30
0.0
340
498
  0
LWPOLYLINE
  5
49A
102
{ACAD_REACTORS
330
4A0
102
}
330
44D
100
AcDbEntity
  8
Specialized_Fills
  6
Continuous
100
AcDbPolyline
 90
        3
 70
   129
 43
0.0
 10
735.5294415514008
 20
237.3572671818124
 10
749.2509805823202
 20
245.2794014350093
 10
749.2509805823202
 20
237.3572671818124
  0
MTEXT
  5
49B
102
{ACAD_REACTORS
330
49D
102
}
330
44D
100
AcDbEntity
  8
Specialized_Text
  6
Continuous
100
AcDbMText
 10
901.2556778871557
 20
184.6915044116617
 30
0.0
 40
5.5
 41
136.705971199035
 46
0.0
 71
     4
 72
     1
  1
{selected aluminium joinery}
  7
GENERATED_STYLE_2
 73
     1
 44
1.0
  0
LWPOLYLINE
  5
49C
102
{ACAD_REACTORS
330
4A0
102
}
330
44D
100
AcDbEntity
  8
Specialized_Fills
  6
Continuous
100
AcDbPolyline
 90
        3
 70
   129
 43
0.0
 10
698.6987355033971
 20
242.1072671818106
 10
718.0227776292113
 20
242.1072671818115
 10
698.6987355033971
 20
233.9989132784704
  0
LEADER
  5
49D
330
44D
100
AcDbEntity
  8
Specialized_Text
  6
Continuous
 62
   251
420
  6250335
370
    13
100
AcDbLeader
  3
GENERATED_STYLE__4
 73
     0
 40
7.113233287858117
 41
90.23976807639837
 76
     2
 10
782.1561052686365
 20
185.4984855726488
 30
0.0
 10
901.1656778871556
 20
184.6915044116617
 30
0.0
340
49B
  0
MTEXT
  5
49E
330
44D
100
AcDbEntity
  8
Specialized_Text
  6
Continuous
 62
    30
420
 16742400
370
    20
100
AcDbMText
 10
899.6556778871553
 20
108.8985924513417
 30
0.0
 40
5.5
 41
111.9228601720179
 46
0.0
 71
     7
 72
     1
  1
{note:  punchings in head flashing provide ventilation openings of 1000mm\A1{\H0.7x;\S2 ^  ;}per lineal metre}
  7
GENERATED_STYLE_2
 73
     1
 44
1.12662050634974
  0
LINE
  5
49F
330
44D
100
AcDbEntity
  8
Specialized_Lines
  6
Continuous
100
AcDbLine
 10
772.6563267430419
 20
189.557523569149
 30
0.0
 11
778.6563267430137
 21
189.557523569149
 31
0.0
  0
HATCH
  5
4A0
330
44D
100
AcDbEntity
  8
Specialized_Fills
  6
Continuous
 62
    30
420
 16742400
370
    20
100
AcDbHatch
 10
0.0
 20
0.0
 30
0.0
210
0.0
220
0.0
230
1.0
  2
SOLID
 70
     1
 71
     1
 91
        3
 92
        2
 72
     0
 73
     1
 93
       58
 10
696.0987355033994
 20
258.3572671818124
 10
696.0987355033994
 20
240.4059438743275
 10
697.4987355033972
 20
242.1072671818106
 10
697.4987355033991
 20
237.7703424098595
 10
696.0987355033994
 20
239.4716657173399
 10
696.0987355033994
 20
238.7594471190459
 10
697.0910875358768
 20
237.4716657173394
 10
696.0987355033994
 20
236.1838843156329
 10
696.0987355033994
 20
235.4716657173394
 10
697.4987355034
 20
237.1729890248239
 10
697.4987355034008
 20
232.8511852194174
 10
696.0987355034003
 20
234.5525085269028
 10
696.0987355033994
 20
230.4556344960752
 10
696.9625526292893
 20
230.4556344960752
 10
697.7660746516667
 20
231.8689624320132
 10
699.3375150949596
 20
231.4521670048243
 10
699.9942618207833
 20
231.7277374493078
 10
697.883762126391
 20
232.3604238143925
 10
702.8656180954331
 20
234.4508069252061
 10
701.838489779443
 20
232.501574148168
 10
702.4952365052667
 20
232.7771445926515
 10
703.2987585276441
 20
234.1904725285899
 10
704.8701989709361
 20
233.7736771013993
 10
705.5269456967598
 20
234.0492475458832
 10
703.4164460023694
 20
234.6819339109679
 10
708.3983019714078
 20
236.7723170217805
 10
707.3711736554205
 20
234.8230842447429
 10
708.0279203812461
 20
235.0986546892273
 10
708.8314424036207
 20
236.5119826251653
 10
710.4028828469136
 20
236.0951871979755
 10
711.0596295727391
 20
236.370757642459
 10
708.9491298783459
 20
237.0034440075433
 10
713.930985847388
 20
239.0938271183582
 10
712.9038575313971
 20
237.1445943413182
 10
713.5606042572208
 20
237.4201647858026
 10
714.3641262795954
 20
238.8334927217406
 10
715.9355667228883
 20
238.4166972945509
 10
716.5923134487156
 20
238.6922677390348
 10
714.4818137543234
 20
239.3249541041196
 10
719.4636697233654
 20
241.4153372149344
 10
718.4365414073736
 20
239.4661044378945
 10
719.0631825050131
 20
239.7290425828724
 10
719.8968101555765
 20
241.1550028183174
 10
721.2987355033983
 20
240.7831681256762
 10
721.2987355033992
 20
233.657267181813
 10
722.4987355033981
 20
233.6572671818126
 10
722.4987355033981
 20
236.1572671818126
 10
750.450980582319
 20
236.1572671818126
 10
750.4509805823199
 20
245.9722217580374
 10
766.4509805823199
 20
255.2098260650714
 10
766.4509805823199
 20
285.209826065071
 10
765.2509805823201
 20
285.209826065071
 10
765.2509805823211
 20
255.9025994923418
 10
733.129522777237
 20
237.3572671818124
 10
722.4987355033981
 20
237.3572671818124
 10
722.4987355033981
 20
243.3572671818124
 10
697.2987355033993
 20
243.3572671818124
 10
697.2987355033983
 20
258.3572671818124
 97
        1
330
4A2
 92
        2
 72
     0
 73
     1
 93
        3
 10
735.5294415514008
 20
237.3572671818124
 10
749.2509805823202
 20
245.2794014350093
 10
749.2509805823202
 20
237.3572671818124
 97
        1
330
49A
 92
        2
 72
     0
 73
     1
 93
        3
 10
698.6987355033971
 20
242.1072671818106
 10
718.0227776292113
 20
242.1072671818115
 10
698.6987355033971
 20
233.9989132784704
 97
        1
330
49C
 75
     0
 76
     1
 98
        0
450
        0
451
        0
460
0.0
461
0.0
452
        1
462
0.0
453
        0
470

  0
LINE
  5
4A1
330
44D
100
AcDbEntity
  8
Viewport
 62
     7
420
 16777215
100
AcDbLine
 10
1038.163175892265
 20
540.0496147257122
 30
0.0
 11
1038.163175892265
 21
-0.0000009130840226
 31
0.0
  0
LWPOLYLINE
  5
4A2
102
{ACAD_REACTORS
330
4A0
102
}
330
44D
100
AcDbEntity
  8
Specialized_Fills
  6
Continuous
100
AcDbPolyline
 90
       58
 70
   129
 43
0.0
 10
696.0987355033994
 20
258.3572671818124
 10
696.0987355033994
 20
240.4059438743275
 10
697.4987355033972
 20
242.1072671818106
 10
697.4987355033991
 20
237.7703424098595
 10
696.0987355033994
 20
239.4716657173399
 10
696.0987355033994
 20
238.7594471190459
 10
697.0910875358768
 20
237.4716657173394
 10
696.0987355033994
 20
236.1838843156329
 10
696.0987355033994
 20
235.4716657173394
 10
697.4987355034
 20
237.1729890248239
 10
697.4987355034008
 20
232.8511852194174
 10
696.0987355034003
 20
234.5525085269028
 10
696.0987355033994
 20
230.4556344960752
 10
696.9625526292893
 20
230.4556344960752
 10
697.7660746516667
 20
231.8689624320132
 10
699.3375150949596
 20
231.4521670048243
 10
699.9942618207833
 20
231.7277374493078
 10
697.883762126391
 20
232.3604238143925
 10
702.8656180954331
 20
234.4508069252061
 10
701.838489779443
 20
232.501574148168
 10
702.4952365052667
 20
232.7771445926515
 10
703.2987585276441
 20
234.1904725285899
 10
704.8701989709361
 20
233.7736771013993
 10
705.5269456967598
 20
234.0492475458832
 10
703.4164460023694
 20
234.6819339109679
 10
708.3983019714078
 20
236.7723170217805
 10
707.3711736554205
 20
234.8230842447429
 10
708.0279203812461
 20
235.0986546892273
 10
708.8314424036207
 20
236.5119826251653
 10
710.4028828469136
 20
236.0951871979755
 10
711.0596295727391
 20
236.370757642459
 10
708.9491298783459
 20
237.0034440075433
 10
713.930985847388
 20
239.0938271183582
 10
712.9038575313971
 20
237.1445943413182
 10
713.5606042572208
 20
237.4201647858026
 10
714.3641262795954
 20
238.8334927217406
 10
715.9355667228883
 20
238.4166972945509
 10
716.5923134487156
 20
238.6922677390348
 10
714.4818137543234
 20
239.3249541041196
 10
719.4636697233654
 20
241.4153372149344
 10
718.4365414073736
 20
239.4661044378945
 10
719.0631825050131
 20
239.7290425828724
 10
719.8968101555765
 20
241.1550028183174
 10
721.2987355033983
 20
240.7831681256762
 10
721.2987355033992
 20
233.657267181813
 10
722.4987355033981
 20
233.6572671818126
 10
722.4987355033981
 20
236.1572671818126
 10
750.450980582319
 20
236.1572671818126
 10
750.4509805823199
 20
245.9722217580374
 10
766.4509805823199
 20
255.2098260650714
 10
766.4509805823199
 20
285.209826065071
 10
765.2509805823201
 20
285.209826065071
 10
765.2509805823211
 20
255.9025994923418
 10
733.129522777237
 20
237.3572671818124
 10
722.4987355033981
 20
237.3572671818124
 10
722.4987355033981
 20
243.3572671818124
 10
697.2987355033993
 20
243.3572671818124
 10
697.2987355033983
 20
258.3572671818124
  0
LINE
  5
4A3
330
44D
100
AcDbEntity
  8
Viewport
 62
     7
420
 16777215
100
AcDbLine
 10
1038.163175892265
 20
-0.0000009130840226
 30
0.0
 11
665.0214488062811
 21
-0.0000009130840226
 31
0.0
  0
MTEXT
  5
4A4
330
44D
100
AcDbEntity
  8
Specialized_Lines
 62
    30
420
 16742400
100
AcDbMText
 10
743.3178135967591
 20
41.33286534723857
 30
0.0
 40
7.0
 41
63.23088711380842
 46
0.0
 71
     1
 72
     5
  1
CAVITECLAD
  7
GENERATED_STYLE_2
 73
     1
 44
1.0
1001
ACAD
1000
ACAD_MTEXT_COLUMN_INFO_BEGIN
1070
    75
1070
     2
1070
    79
1070
     0
1070
    76
1070
     1
1070
    78
1070
     0
1070
    48
1040
63.23088711380842
1070
    49
1040
12.5
1070
    50
1070
     1
1040
0.0
1000
ACAD_MTEXT_COLUMN_INFO_END
  0
LINE
  5
4A5
330
44D
100
AcDbEntity
  8
Viewport
 62
     7
420
 16777215
100
AcDbLine
 10
665.0214488062811
 20
-0.0000009130840226
 30
0.0
 11
665.0214488062811
 21
540.0496147257122
 31
0.0
  0
LINE
  5
4A6
330
44D
100
AcDbEntity
  8
Viewport
 62
     7
420
 16777215
100
AcDbLine
 10
1038.163175892265
 20
540.0496147257122
 30
0.0
 11
665.0214488062811
 21
540.0496147257122
 31
0.0
  0
LINE
  5
4A7
330
44D
100
AcDbEntity
  8
0
370
     0
100
AcDbLine
 10
747.2987355034184
 20
452.9390815155515
 30
0.0
 11
697.2987355033983
 21
452.9390815155515
 31
0.0
  0
LINE
  5
4A8
330
44D
100
AcDbEntity
  8
0
370
     0
100
AcDbLine
 10
697.2987355033983
 20
452.5465644117061
 30
0.0
 11
697.2987355033983
 21
243.357267181812
 31
0.0
  0
LINE
  5
4A9
330
44D
100
AcDbEntity
  8
0
370
     0
100
AcDbLine
 10
697.2987355033983
 20
243.357267181812
 30
0.0
 11
734.0865651264348
 21
243.5688379622838
 31
0.0
  0
LINE
  5
4AA
330
44D
100
AcDbEntity
  8
0
370
     0
100
AcDbLine
 10
734.0865651264348
 20
243.5688379622838
 30
0.0
 11
747.2987355034184
 21
251.2014365433783
 31
0.0
  0
LINE
  5
4AB
330
44D
100
AcDbEntity
  8
0
370
     0
100
AcDbLine
 10
747.2987355034184
 20
251.2014365433783
 30
0.0
 11
747.2987355034184
 21
452.5465644117061
 31
0.0
  0
SPLINE
  5
4AC
330
44D
100
AcDbEntity
  8
Specialized_Lines
  6
Continuous
100
AcDbSpline
210
0.0
220
0.0
230
1.0
 70
     8
 71
     3
 72
    11
 73
     7
 74
     0
 42
0.00001
 43
0.0000000001
 40
0.0
 40
0.0
 40
0.0
 40
0.0
 40
1.0
 40
1.0
 40
1.0
 40
2.0
 40
2.0
 40
2.0
 40
2.0
 10
729.2324050446905
 20
236.1572671818121
 30
0.0
 10
729.2324050446905
 20
236.1572671818121
 30
0.0
 10
731.5232510623754
 20
235.3580480450669
 30
0.0
 10
731.5232510623754
 20
235.3580480450669
 30
0.0
 10
731.5232510623754
 20
235.3580480450669
 30
0.0
 10
732.3492691454821
 20
234.8625395242025
 30
0.0
 10
732.3492691454821
 20
234.8625395242025
 30
0.0
  0
SPLINE
  5
4AD
330
44D
100
AcDbEntity
  8
Specialized_Lines
  6
Continuous
100
AcDbSpline
210
0.0
220
0.0
230
1.0
 70
     8
 71
     3
 72
    11
 73
     7
 74
     0
 42
0.00001
 43
0.0000000001
 40
0.0
 40
0.0
 40
0.0
 40
0.0
 40
1.0
 40
1.0
 40
1.0
 40
2.0
 40
2.0
 40
2.0
 40
2.0
 10
732.7905275827979
 20
236.1572671818121
 30
0.0
 10
732.7905275827979
 20
236.1572671818121
 30
0.0
 10
732.9793124740672
 20
235.9514820505737
 30
0.0
 10
732.9793124740672
 20
235.9514820505737
 30
0.0
 10
732.9793124740672
 20
235.9514820505737
 30
0.0
 10
733.1977972829063
 20
235.7110676616262
 30
0.0
 10
733.1977972829063
 20
235.7110676616262
 30
0.0
  0
ELLIPSE
  5
4AE
330
44D
100
AcDbEntity
  8
Specialized_Lines
  6
Continuous
100
AcDbEllipse
 10
853.8894732734934
 20
213.6020617072418
 30
0.0
 11
3.479568238652319
 21
-1.811071092807025
 31
0.0
210
0.0
220
0.0
230
1.0
 40
0.6607036763668314
 41
0.0
 42
6.283185307179586
  0
MTEXT
  5
4AF
330
44D
100
AcDbEntity
  8
Specialized_Lines
100
AcDbMText
 10
741.8508486112095
 20
56.92815232640942
 30
0.0
 40
10.0
 41
112.037735929669
 46
0.0
 71
     1
 72
     5
  1
{\fArial|b1|i0|c0|p34;Window Head:}
 73
     1
 44
1.0
1001
ACAD
1000
ACAD_MTEXT_COLUMN_INFO_BEGIN
1070
    75
1070
     2
1070
    79
1070
     0
1070
    76
1070
     1
1070
    78
1070
     0
1070
    48
1040
112.037735929669
1070
    49
1040
12.5
1070
    50
1070
     1
1040
0.0
1000
ACAD_MTEXT_COLUMN_INFO_END
  0
MTEXT
  5
4B0
330
44D
100
AcDbEntity
  8
Specialized_Lines
 62
    30
420
 16742400
100
AcDbMText
 10
713.0659931298414
 20
37.38518080675431
 30
0.0
 40
4.0
 41
34.37092666967328
 46
0.0
 71
     5
 72
     5
  1
SCALE: 1:2
  7
GENERATED_STYLE_2
 73
     1
 44
1.0
1001
ACAD
1000
ACAD_MTEXT_COLUMN_INFO_BEGIN
1070
    75
1070
     2
1070
    79
1070
     0
1070
    76
1070
     1
1070
    78
1070
     0
1070
    48
1040
34.37092666967328
1070
    49
1040
12.5
1070
    50
1070
     1
1040
0.0
1000
ACAD_MTEXT_COLUMN_INFO_END
  0
HATCH
  5
4B1
330
44D
100
AcDbEntity
  8
0
 62
    30
420
 16742400
370
     5
100
AcDbHatch
 10
0.0
 20
0.0
 30
0.0
210
0.0
220
0.0
230
1.0
  2
SOLID
 70
     1
 71
     0
 91
        1
 92
        1
 93
        4
 72
     1
 10
736.219978511357
 20
42.40814030714545
 11
736.219978511357
 21
62.40814030714545
 72
     1
 10
736.219978511357
 20
62.40814030714545
 11
691.2199785113571
 21
62.40814030714545
 72
     1
 10
691.2199785113571
 20
62.40814030714545
 11
691.2199785113571
 21
42.40814030714545
 72
     1
 10
691.2199785113571
 20
42.40814030714545
 11
736.219978511357
 21
42.40814030714545
 97
        0
 75
     1
 76
     1
 98
        1
 10
721.6351517008861
 20
48.54182081026966
450
        0
451
        0
460
0.0
461
0.0
452
        0
462
1.0
453
        2
463
0.0
 63
     5
421
      255
463
1.0
 63
     2
421
 16776960
470
LINEAR
1001
GradientColor1ACI
1070
     5
1001
GradientColor2ACI
1070
     2
1001
ACAD
1010
0.0
1020
0.0
1030
0.0
  0
LWPOLYLINE
  5
4B2
330
44D
100
AcDbEntity
  8
0
370
     5
100
AcDbPolyline
 90
        5
 70
     0
 43
0.0
 10
691.2199785113571
 20
62.40814030714545
 10
691.2199785113571
 20
42.40814030714545
 10
736.219978511357
 20
42.40814030714545
 10
736.219978511357
 20
62.40814030714545
 10
691.2199785113571
 20
62.40814030714545
  0
MTEXT
  5
4B3
330
44D
100
AcDbEntity
  8
Specialized_Lines
100
AcDbMText
 10
713.9247936002448
 20
52.21329566075701
 30
0.0
 40
10.0
 41
90.34063603881987
 46
0.0
 71
     5
 72
     5
  1
{\fArial|b1|i0|c0|p34;01A}
 73
     1
 44
1.0
1001
ACAD
1000
ACAD_MTEXT_COLUMN_INFO_BEGIN
1070
    75
1070
     2
1070
    79
1070
     0
1070
    76
1070
     1
1070
    78
1070
     0
1070
    48
1040
90.34063603881987
1070
    49
1040
12.5
1070
    50
1070
     1
1040
0.0
1000
ACAD_MTEXT_COLUMN_INFO_END
  0
LWPOLYLINE
  5
4B4
330
44D
100
AcDbEntity
  8
0
370
     5
100
AcDbPolyline
 90
        4
 70
     0
 43
0.0
 10
691.2199785113571
 20
42.40814030714545
 10
691.2199785113571
 20
32.40814030714546
 10
736.219978511357
 20
32.40814030714546
 10
736.219978511357
 20
42.40814030714545
  0
MTEXT
  5
4B5
102
{ACAD_REACTORS
330
4B6
102
}
330
44D
100
AcDbEntity
  8
Specialized_Text
  6
Continuous
100
AcDbMText
 10
901.2556778871557
 20
434.8242663093347
 30
0.0
 40
5.5
 41
136.705971199035
 46
0.0
 71
     4
 72
     1
  1
breather type building wrap taped onto CAVITECLAD head flashing with Protecto Tape (or similar)
  7
GENERATED_STYLE_2
 73
     1
 44
1.0
  0
LEADER
  5
4B6
330
44D
100
AcDbEntity
  8
Specialized_Text
  6
Continuous
 62
   251
420
  6250335
370
    13
100
AcDbLeader
  3
GENERATED_STYLE__4
 73
     0
 40
25.63415188722147
 41
130.3530013642565
 76
     2
 10
766.9341091333035
 20
435.6215857089823
 30
0.0
 10
901.1656778871556
 20
434.8242663093347
 30
0.0
340
4B5
  0
LWPOLYLINE
  5
4B7
330
44D
100
AcDbEntity
  8
0
  6
PLASTER
 48
5.0
100
AcDbPolyline
 90
        5
 70
     0
 43
0.0
 10
721.2974538720354
 20
234.735704173238
 91
      105
 10
695.2415187333554
 20
224.0562354991548
 91
      106
 10
691.3570372489576
 20
225.0835732516776
 91
      111
 10
691.2489093856511
 20
227.5310560262355
 91
      114
 10
691.602131601734
 20
452.9390815155515
 91
      116
  0
HATCH
  5
4B8
330
44D
100
AcDbEntity
  8
0
 62
    30
420
 16742400
100
AcDbHatch
 10
0.0
 20
0.0
 30
0.0
210
0.0
220
0.0
230
1.0
  2
SOLID
 70
     1
 71
     1
 91
        1
 92
        7
 72
     0
 73
     1
 93
        4
 10
691.141055471201
 20
18.58653957928254
 10
691.141055471201
 20
13.58653957928254
 10
696.1410554712046
 20
13.586539579283
 10
696.1410554711974
 20
18.586539579283
 97
        1
330
4B9
 75
     1
 76
     1
 47
0.0321901215665183
 98
        1
 10
692.9305035999022
 20
17.1635589890393
450
        0
451
        0
460
0.0
461
0.0
452
        0
462
1.0
453
        2
463
0.0
 63
     5
421
      255
463
1.0
 63
     2
421
 16776960
470
LINEAR
1001
GradientColor1ACI
1070
     5
1001
GradientColor2ACI
1070
     2
1001
ACAD
1010
0.0
1020
0.0
1030
0.0
  0
LWPOLYLINE
  5
4B9
102
{ACAD_REACTORS
330
4B8
102
}
330
44D
100
AcDbEntity
  8
0
 62
    30
420
 16742400
100
AcDbPolyline
 90
        4
 70
     1
 43
0.0
 10
691.141055471201
 20
18.58653957928254
 10
696.1410554711974
 20
18.586539579283
 10
696.1410554712046
 20
13.586539579283
 10
691.141055471201
 20
13.58653957928254
  0
LINE
  5
4BA
330
44D
100
AcDbEntity
  8
0
 62
    30
420
 16742400
100
AcDbLine
 10
691.141055471201
 20
18.58653957928254
 30
0.0
 11
696.141055471201
 21
18.58653957928254
 31
0.0
  0
LWPOLYLINE
  5
4BB
330
44D
100
AcDbEntity
  8
0
370
     5
100
AcDbPolyline
 90
        2
 70
     0
 43
0.0
 10
696.141055471201
 20
16.08653957928254
 10
1017.295113394881
 20
16.08653957928254
  0
MTEXT
  5
4BC
330
44D
100
AcDbEntity
  8
Specialized_Text
  6
Continuous
100
AcDbMText
 10
699.7047347863354
 20
18.61300661287441
 30
0.0
 40
3.0
 41
163.0041735515597
 46
0.0
 71
     4
 72
     1
  1
© copyright 2013 Specialized Building Products Ltd
  7
GENERATED_STYLE_2
 73
     1
 44
1.0
  0
MTEXT
  5
4BD
330
44D
100
AcDbEntity
  8
Specialized_Text
  6
Continuous
100
AcDbMText
 10
877.6057354600162
 20
18.61300661287441
 30
0.0
 40
3.0
 41
163.0041735515597
 46
0.0
 71
     4
 72
     1
  1
All Dimensions to be site checked before construction & installation
  7
GENERATED_STYLE_2
 73
     1
 44
1.0
  0
MTEXT
  5
4BE
330
44D
100
AcDbEntity
  8
Specialized_Text
  6
Continuous
100
AcDbMText
 10
694.0511171138468
 20
488.9742904483096
 30
0.0
 40
3.0
 41
48.87340123734884
 46
0.0
 71
     4
 72
     1
  1
Appraisal No.510 [2013]
  7
GENERATED_STYLE_2
 73
     1
 44
1.0
  0
IMAGE
  5
4BF
330
44D
100
AcDbEntity
  8
0
 62
     7
420
 16777215
160
               140
310
8C00000001000000840000000600000005000000D0001884C2998540480844E962C47E400000000000000000D0001884C2998540ABC2679C65E080400000000000000000A84926DCF62E8740ABC2679C65E080400000000000000000A84926DCF62E8740480844E962C47E400000000000000000D0001884C2998540480844
310
E962C47E400000000000000000
100
AcDbRasterImage
 90
        0
 10
691.2199785113571
 20
492.2741482408059
 30
0.0
 11
0.0611721721957824
 21
0.0
 31
0.0
 12
0.0
 22
0.0611721721957824
 32
0.0
 13
828.0
 23
781.0
340
4E0
 70
     7
280
     0
281
    50
282
    50
283
     0
290
     0
360
4C0
 71
     1
 91
        2
 14
-0.5
 24
-0.5
 14
827.5
 24
780.5
  0
MTEXT
  5
4C1
330
44D
100
AcDbEntity
  8
Specialized_Text
  6
Continuous
 62
    30
420
 16742400
370
    20
100
AcDbMText
 10
916.1611092492258
 20
5.489102792761059
 30
0.0
 40
5.5
 41
111.9228601720179
 46
0.0
 71
     7
 72
     1
  1
{\fArial Unicode MS|b1|i0|c0|p34;web \fArial Unicode MS|b0|i0|c0|p34;\C256;www.specialized.co.nz}
  7
GENERATED_STYLE_2
 73
     1
 44
1.12662050634974
  0
LINE
  5
4C2
330
44D
100
AcDbEntity
  8
Viewport
100
AcDbLine
 10
373.1417277197188
 20
540.0496147257122
 30
0.0
 11
373.1417277197188
 21
-0.0000009130840226
 31
0.0
  0
LINE
  5
4C3
330
44D
100
AcDbEntity
  8
Viewport
100
AcDbLine
 10
373.1417277197188
 20
-0.0000009130840226
 30
0.0
 11
0.0000006337349987
 21
-0.0000009130840226
 31
0.0
  0
MTEXT
  5
4C4
330
44D
100
AcDbEntity
  8
Specialized_Lines
 62
    30
420
 16742400
100
AcDbMText
 10
78.29636542421304
 20
41.33286534723857
 30
0.0
 40
7.0
 41
63.23088711380842
 46
0.0
 71
     1
 72
     5
  1
CAVITECLAD
  7
GENERATED_STYLE_2
 73
     1
 44
1.0
1001
ACAD
1000
ACAD_MTEXT_COLUMN_INFO_BEGIN
1070
    75
1070
     2
1070
    79
1070
     0
1070
    76
1070
     1
1070
    78
1070
     0
1070
    48
1040
63.23088711380842
1070
    49
1040
12.5
1070
    50
1070
     1
1040
0.0
1000
ACAD_MTEXT_COLUMN_INFO_END
  0
LINE
  5
4C5
330
44D
100
AcDbEntity
  8
Viewport
100
AcDbLine
 10
0.0000006337349987
 20
-0.0000009130840226
 30
0.0
 11
0.0000006337349987
 21
540.0496147257122
 31
0.0
  0
LINE
  5
4C6
330
44D
100
AcDbEntity
  8
Viewport
100
AcDbLine
 10
373.1417277197188
 20
540.0496147257122
 30
0.0
 11
0.0000006337349987
 21
540.0496147257122
 31
0.0
  0
MTEXT
  5
4C7
330
44D
100
AcDbEntity
  8
Specialized_Lines
100
AcDbMText
 10
76.82940043866347
 20
56.92815232640942
 30
0.0
 40
10.0
 41
112.037735929669
 46
0.0
 71
     1
 72
     5
  1
{\fArial|b1|i0|c0|p34;Window Head:}
 73
     1
 44
1.0
1001
ACAD
1000
ACAD_MTEXT_COLUMN_INFO_BEGIN
1070
    75
1070
     2
1070
    79
1070
     0
1070
    76
1070
     1
1070
    78
1070
     0
1070
    48
1040
112.037735929669
1070
    49
1040
12.5
1070
    50
1070
     1
1040
0.0
1000
ACAD_MTEXT_COLUMN_INFO_END
  0
MTEXT
  5
4C8
330
44D
100
AcDbEntity
  8
Specialized_Lines
 62
    30
420
 16742400
100
AcDbMText
 10
48.04454495729533
 20
37.38518080675431
 30
0.0
 40
4.0
 41
34.37092666967328
 46
0.0
 71
     5
 72
     5
  1
SCALE: 1:2
  7
GENERATED_STYLE_2
 73
     1
 44
1.0
1001
ACAD
1000
ACAD_MTEXT_COLUMN_INFO_BEGIN
1070
    75
1070
     2
1070
    79
1070
     0
1070
    76
1070
     1
1070
    78
1070
     0
1070
    48
1040
34.37092666967328
1070
    49
1040
12.5
1070
    50
1070
     1
1040
0.0
1000
ACAD_MTEXT_COLUMN_INFO_END
  0
HATCH
  5
4C9
330
44D
100
AcDbEntity
  8
0
 62
    30
420
 16742400
370
     5
100
AcDbHatch
 10
0.0
 20
0.0
 30
0.0
210
0.0
220
0.0
230
1.0
  2
SOLID
 70
     1
 71
     0
 91
        1
 92
        1
 93
        4
 72
     1
 10
71.19853033881099
 20
42.40814030714545
 11
71.19853033881099
 21
62.40814030714545
 72
     1
 10
71.19853033881099
 20
62.40814030714545
 11
26.198530338811
 21
62.40814030714545
 72
     1
 10
26.198530338811
 20
62.40814030714545
 11
26.198530338811
 21
42.40814030714545
 72
     1
 10
26.198530338811
 20
42.40814030714545
 11
71.19853033881099
 21
42.40814030714545
 97
        0
 75
     1
 76
     1
 98
        1
 10
56.61370352834001
 20
48.54182081026966
450
        0
451
        0
460
0.0
461
0.0
452
        0
462
1.0
453
        2
463
0.0
 63
     5
421
      255
463
1.0
 63
     2
421
 16776960
470
LINEAR
1001
GradientColor1ACI
1070
     5
1001
GradientColor2ACI
1070
     2
1001
ACAD
1010
0.0
1020
0.0
1030
0.0
  0
LWPOLYLINE
  5
4CA
330
44D
100
AcDbEntity
  8
0
370
     5
100
AcDbPolyline
 90
        5
 70
     0
 43
0.0
 10
26.198530338811
 20
62.40814030714545
 10
26.198530338811
 20
42.40814030714545
 10
71.19853033881099
 20
42.40814030714545
 10
71.19853033881099
 20
62.40814030714545
 10
26.198530338811
 20
62.40814030714545
  0
MTEXT
  5
4CB
330
44D
100
AcDbEntity
  8
Specialized_Lines
100
AcDbMText
 10
48.9033454276987
 20
52.21329566075701
 30
0.0
 40
10.0
 41
90.34063603881987
 46
0.0
 71
     5
 72
     5
  1
{\fArial|b1|i0|c0|p34;01A}
 73
     1
 44
1.0
1001
ACAD
1000
ACAD_MTEXT_COLUMN_INFO_BEGIN
1070
    75
1070
     2
1070
    79
1070
     0
1070
    76
1070
     1
1070
    78
1070
     0
1070
    48
1040
90.34063603881987
1070
    49
1040
12.5
1070
    50
1070
     1
1040
0.0
1000
ACAD_MTEXT_COLUMN_INFO_END
  0
LWPOLYLINE
  5
4CC
330
44D
100
AcDbEntity
  8
0
370
     5
100
AcDbPolyline
 90
        4
 70
     0
 43
0.0
 10
26.198530338811
 20
42.40814030714545
 10
26.198530338811
 20
32.40814030714546
 10
71.19853033881099
 20
32.40814030714546
 10
71.19853033881099
 20
42.40814030714545
  0
HATCH
  5
4CD
330
44D
100
AcDbEntity
  8
0
 62
    30
420
 16742400
100
AcDbHatch
 10
0.0
 20
0.0
 30
0.0
210
0.0
220
0.0
230
1.0
  2
SOLID
 70
     1
 71
     1
 91
        1
 92
        7
 72
     0
 73
     1
 93
        4
 10
26.11960729865496
 20
18.58653957928254
 10
26.11960729865496
 20
13.58653957928254
 10
31.1196072986586
 20
13.586539579283
 10
31.11960729865132
 20
18.586539579283
 97
        1
330
4CE
 75
     1
 76
     1
 47
0.0321901215665183
 98
        1
 10
27.90905542735618
 20
17.1635589890393
450
        0
451
        0
460
0.0
461
0.0
452
        0
462
1.0
453
        2
463
0.0
 63
     5
421
      255
463
1.0
 63
     2
421
 16776960
470
LINEAR
1001
GradientColor1ACI
1070
     5
1001
GradientColor2ACI
1070
     2
1001
ACAD
1010
0.0
1020
0.0
1030
0.0
  0
LWPOLYLINE
  5
4CE
102
{ACAD_REACTORS
330
4CD
102
}
330
44D
100
AcDbEntity
  8
0
 62
    30
420
 16742400
100
AcDbPolyline
 90
        4
 70
     1
 43
0.0
 10
26.11960729865496
 20
18.58653957928254
 10
31.11960729865132
 20
18.586539579283
 10
31.1196072986586
 20
13.586539579283
 10
26.11960729865496
 20
13.58653957928254
  0
LINE
  5
4CF
330
44D
100
AcDbEntity
  8
0
 62
    30
420
 16742400
100
AcDbLine
 10
26.11960729865496
 20
18.58653957928254
 30
0.0
 11
31.11960729865496
 21
18.58653957928254
 31
0.0
  0
LWPOLYLINE
  5
4D0
330
44D
100
AcDbEntity
  8
0
370
     5
100
AcDbPolyline
 90
        2
 70
     0
 43
0.0
 10
31.11960729865496
 20
16.08653957928254
 10
352.2736652223348
 20
16.08653957928254
  0
MTEXT
  5
4D1
330
44D
100
AcDbEntity
  8
Specialized_Text
  6
Continuous
100
AcDbMText
 10
34.68328661378928
 20
18.61300661287441
 30
0.0
 40
3.0
 41
163.0041735515597
 46
0.0
 71
     4
 72
     1
  1
© copyright 2013 Specialized Building Products Ltd
  7
GENERATED_STYLE_2
 73
     1
 44
1.0
  0
MTEXT
  5
4D2
330
44D
100
AcDbEntity
  8
Specialized_Text
  6
Continuous
100
AcDbMText
 10
212.58428728747
 20
18.61300661287441
 30
0.0
 40
3.0
 41
163.0041735515597
 46
0.0
 71
     4
 72
     1
  1
All Dimensions to be site checked before construction & installation
  7
GENERATED_STYLE_2
 73
     1
 44
1.0
  0
MTEXT
  5
4D3
330
44D
100
AcDbEntity
  8
Specialized_Text
  6
Continuous
100
AcDbMText
 10
29.02966894130077
 20
488.9742904483096
 30
0.0
 40
3.0
 41
48.87340123734884
 46
0.0
 71
     4
 72
     1
  1
Appraisal No.510 [2013]
  7
GENERATED_STYLE_2
 73
     1
 44
1.0
  0
IMAGE
  5
4D4
330
44D
100
AcDbEntity
  8
0
 62
     7
420
 16777215
160
               140
310
8C00000001000000840000000600000005000000007560E2D2323A40380844E962C47E400000000000000000017560E2D2323A40A3C2679C65E08040000000000000000001640A7957365340A3C2679C65E08040000000000000000000640A7957365340380844E962C47E400000000000000000007560E2D2323A40380844
310
E962C47E400000000000000000
100
AcDbRasterImage
 90
        0
 10
26.198530338811
 20
492.274148240805
 30
0.0
 11
0.0611721721957824
 21
0.0
 31
0.0
 12
0.0
 22
0.0611721721957824
 32
0.0
 13
828.0
 23
781.0
340
4E0
 70
     7
280
     0
281
    50
282
    50
283
     0
290
     0
360
4D5
 71
     1
 91
        2
 14
-0.5
 24
-0.5
 14
827.5
 24
780.5
  0
MTEXT
  5
4D6
330
44D
100
AcDbEntity
  8
Specialized_Text
  6
Continuous
 62
    30
420
 16742400
370
    20
100
AcDbMText
 10
251.1396610766797
 20
5.489102792761059
 30
0.0
 40
5.5
 41
111.9228601720179
 46
0.0
 71
     7
 72
     1
  1
{\fArial Unicode MS|b1|i0|c0|p34;web \fArial Unicode MS|b0|i0|c0|p34;\C256;www.specialized.co.nz}
  7
GENERATED_STYLE_2
 73
     1
 44
1.12662050634974
  0
LWPOLYLINE
  5
4D7
330
44D
100
AcDbEntity
  8
0
  6
PLASTER
 48
5.0
100
AcDbPolyline
 90
        5
 70
     0
 43
0.0
 10
121.2670354547463
 20
217.8701452986952
 91
      105
 10
95.21110031606623
 20
207.190676624612
 91
      106
 10
91.32661883166838
 20
208.2180143771347
 91
      111
 10
91.21849096836195
 20
210.6654971516928
 91
      114
 10
91.57171318444488
 20
436.0735226410083
 91
      116
  0
IMAGE
  5
4D8
330
44D
100
AcDbEntity
  8
0
 62
     7
420
 16777215
160
               140
310
8C00000001000000840000000600000005000000E879280151048D4098308814DA237F400000000000000000E879280151048D4063D4D8235CCB8040000000000000000019C39417A738904063D4D8235CCB8040000000000000000019C39417A738904098308814DA237F400000000000000000E879280151048D40983088
310
14DA237F400000000000000000
100
AcDbRasterImage
 90
        0
 10
928.5395529901698
 20
498.2407422370829
 30
0.0
 11
0.0434841820317712
 21
0.0
 31
0.0
 12
0.0
 22
0.0434841820317712
 32
0.0
 13
2521.0
 23
901.0
340
4E1
 70
     7
280
     0
281
    50
282
    50
283
     0
290
     0
360
4D9
 71
     1
 91
        2
 14
-0.5
 24
-0.5
 14
2520.5
 24
900.5
  0
IMAGE
  5
4DA
330
44D
100
AcDbEntity
  8
0
 62
     7
420
 16777215
160
               140
310
8C0000000100000084000000060000000500000080F946284A78704098308814DA237F40000000000000000080F946284A78704063D4D8235CCB80400000000000000000131249844452774063D4D8235CCB80400000000000000000131249844452774098308814DA237F40000000000000000080F946284A787040983088
310
14DA237F400000000000000000
100
AcDbRasterImage
 90
        0
 10
263.5181048176237
 20
498.2407422370829
 30
0.0
 11
0.0434841820317712
 21
0.0
 31
0.0
 12
0.0
 22
0.0434841820317712
 32
0.0
 13
2521.0
 23
901.0
340
4E1
 70
     7
280
     0
281
    50
282
    50
283
     0
290
     0
360
4DB
 71
     1
 91
        2
 14
-0.5
 24
-0.5
 14
2520.5
 24
900.5
  0
ENDBLK
  5
4DF
330
44D
100
AcDbEntity
  8
0
100
AcDbBlockEnd
  0
ENDSEC
  0
SECTION
  2
ENTITIES
  0
HATCH
  5
3F
330
1F
100
AcDbEntity
  8
Specialized_Fills
  6
Continuous
 62
   254
420
 14671839
370
    13
100
AcDbHatch
 10
0.0
 20
0.0
 30
0.0
210
0.0
220
0.0
230
1.0
  2
SOLID
 70
     1
 71
     1
 91
        1
 92
        2
 72
     0
 73
     1
 93
        4
 10
136.572701415671
 20
282.5778186587868
 10
136.572701415671
 20
327.5778186588027
 10
226.572701415646
 20
327.5778186588027
 10
226.572701415646
 20
282.5778186587868
 97
        1
330
41
 75
     0
 76
     1
 98
        0
450
        0
451
        0
460
0.0
461
0.0
452
        1
462
0.0
453
        0
470

  0
LWPOLYLINE
  5
41
102
{ACAD_REACTORS
330
3F
102
}
330
1F
100
AcDbEntity
  8
Specialized_Fills
  6
Continuous
100
AcDbPolyline
 90
        4
 70
   129
 43
0.0
 10
136.572701415671
 20
282.5778186587868
 10
136.572701415671
 20
327.5778186588027
 10
226.572701415646
 20
327.5778186588027
 10
226.572701415646
 20
282.5778186587868
  0
HATCH
  5
42
330
1F
100
AcDbEntity
  8
Specialized_Fills
  6
Continuous
 62
   254
420
 14671839
370
    13
100
AcDbHatch
 10
0.0
 20
0.0
 30
0.0
210
0.0
220
0.0
230
1.0
  2
SOLID
 70
     1
 71
     1
 91
        1
 92
        2
 72
     0
 73
     1
 93
        4
 10
238.8543294930918
 20
280.7363625899555
 10
238.8543294930918
 20
472.199583012033
 10
226.5727014156673
 20
472.199583012033
 10
226.8543294930914
 20
280.7363625899555
 97
        1
330
43
 75
     0
 76
     1
 98
        0
450
        0
451
        0
460
0.0
461
0.0
452
        1
462
0.0
453
        0
470

  0
LWPOLYLINE
  5
43
102
{ACAD_REACTORS
330
42
102
}
330
1F
100
AcDbEntity
  8
Specialized_Fills
  6
Continuous
100
AcDbPolyline
 90
        4
 70
   129
 43
0.0
 10
238.8543294930918
 20
280.7363625899555
 10
238.8543294930918
 20
472.199583012033
 10
226.5727014156673
 20
472.199583012033
 10
226.8543294930914
 20
280.7363625899555
  0
HATCH
  5
E0
330
1F
100
AcDbEntity
  8
Specialized_Fills
  6
Continuous
100
AcDbHatch
 10
0.0
 20
0.0
 30
0.0
210
0.0
220
0.0
230
1.0
  2
EARTH
 70
     0
 71
     0
 91
        1
 92
        2
 72
     0
 73
     1
 93
        8
 10
50.91057416511325
 20
124.1440325139038
 10
50.91057416511325
 20
108.3788306682027
 10
57.36997592393101
 20
94.08558180276038
 10
81.38039433499733
 20
90.41555600789585
 10
101.3492032022092
 20
94.08558180276038
 10
115.7218083039359
 20
85.83947668808278
 10
136.572701415671
 20
84.70322688307341
 10
136.572701415671
 20
124.1440325139038
 97
        0
 75
     0
 76
     2
 52
0.0
 41
1.0
 77
     0
 78
     4
 53
44.99999999999999
 43
0.0
 44
0.0
 45
-5.515432690950196
 46
5.515432690950197
 79
     0
 53
44.99999999999999
 43
-1.838477563650065
 44
1.838477563650065
 45
-11.03086538190039
 46
11.03086538190039
 79
     0
 53
44.99999999999999
 43
-3.67695512730013
 44
3.676955127300131
 45
-11.03086538190039
 46
11.03086538190039
 79
     0
 53
135.0
 43
-5.515432690950196
 44
5.515432690950197
 45
1.838477563650065
 46
1.838477563650066
 79
     2
 49
7.799999713897703
 49
-7.799999713897703
 98
        0
  0
INSERT
  5
25B
330
1F
100
AcDbEntity
  8
Specialized_Fills
  6
Continuous
 62
    30
420
 16742400
370
    20
100
AcDbBlockReference
  2
Fill_2
 10
0.0
 20
0.0
 30
0.0
  0
HATCH
  5
25C
330
1F
100
AcDbEntity
  8
Specialized_Fills
  6
Continuous
100
AcDbHatch
 10
0.0
 20
0.0
 30
0.0
210
0.0
220
0.0
230
1.0
  2
LINES___ANGLED
 70
     0
 71
     1
 91
        1
 92
        2
 72
     0
 73
     1
 93
        4
 10
114.9188180177978
 20
339.768957472975
 10
133.5771553370342
 20
339.768957472975
 10
133.5771553370342
 20
289.7689574729778
 10
114.9188180177978
 20
289.7689574729778
 97
        1
330
25D
 75
     0
 76
     2
 52
0.0
 41
1.0
 77
     0
 78
     1
 53
44.99999999999999
 43
0.0
 44
0.0
 45
-1.838477563650065
 46
1.838477563650065
 79
     0
 98
        0
  0
LWPOLYLINE
  5
25D
102
{ACAD_REACTORS
330
25C
102
}
330
1F
100
AcDbEntity
  8
Specialized_Fills
  6
Continuous
100
AcDbPolyline
 90
        4
 70
   129
 43
0.0
 10
114.9188180177978
 20
339.768957472975
 10
133.5771553370342
 20
339.768957472975
 10
133.5771553370342
 20
289.7689574729778
 10
114.9188180177978
 20
289.7689574729778
  0
LINE
  5
25E
330
1F
100
AcDbEntity
  8
Specialized_Lines
  6
Continuous
100
AcDbLine
 10
189.4477014156712
 20
338.9298178661271
 30
0.0
 11
189.4476076017119
 21
329.9298178661285
 31
0.0
  0
LINE
  5
260
330
1F
100
AcDbEntity
  8
Specialized_Lines
  6
Continuous
100
AcDbLine
 10
189.4476076017119
 20
329.9298178661285
 30
0.0
 11
173.6974029069649
 21
329.9298178661285
 31
0.0
  0
LINE
  5
261
330
1F
100
AcDbEntity
  8
Specialized_Lines
  6
Continuous
100
AcDbLine
 10
173.6974029069649
 20
329.9298178661285
 30
0.0
 11
173.6977014156742
 21
338.9298178661271
 31
0.0
  0
LINE
  5
262
330
1F
100
AcDbEntity
  8
Specialized_Lines
  6
Continuous
100
AcDbLine
 10
173.6977014156742
 20
338.9298178661271
 30
0.0
 11
189.4477014156712
 21
338.9298178661271
 31
0.0
  0
LINE
  5
263
330
1F
100
AcDbEntity
  8
Specialized_Lines
  6
Continuous
100
AcDbLine
 10
186.8227014156693
 20
331.1298178661274
 30
0.0
 11
186.8227014156693
 21
337.7298178661281
 31
0.0
  0
LINE
  5
264
330
1F
100
AcDbEntity
  8
Specialized_Lines
  6
Continuous
100
AcDbLine
 10
176.322701415676
 20
337.7298178661281
 30
0.0
 11
176.322701415676
 21
331.1298178661274
 31
0.0
  0
LINE
  5
265
330
1F
100
AcDbEntity
  8
Specialized_Lines
  6
Continuous
100
AcDbLine
 10
176.322701415676
 20
337.7298178661281
 30
0.0
 11
176.322701415676
 21
331.1298178661274
 31
0.0
  0
LINE
  5
266
330
1F
100
AcDbEntity
  8
Specialized_Lines
  6
Continuous
100
AcDbLine
 10
171.0727014156723
 20
331.1298178661274
 30
0.0
 11
171.0727014156723
 21
337.7298178661281
 31
0.0
  0
LINE
  5
267
330
1F
100
AcDbEntity
  8
Specialized_Lines
  6
Continuous
100
AcDbLine
 10
186.8227014156693
 20
337.7298178661281
 30
0.0
 11
186.8227014156693
 21
331.1298178661274
 31
0.0
  0
LINE
  5
268
330
1F
100
AcDbEntity
  8
Specialized_Lines
  6
Continuous
100
AcDbLine
 10
192.0727014156731
 20
331.1298178661274
 30
0.0
 11
192.0727014156731
 21
337.7298178661281
 31
0.0
  0
LINE
  5
269
330
1F
100
AcDbEntity
  8
Specialized_Lines
  6
Continuous
100
AcDbLine
 10
169.5727014156722
 20
327.9298178661278
 30
0.0
 11
193.5727014156731
 21
327.9298178661278
 31
0.0
  0
LINE
  5
26A
330
1F
100
AcDbEntity
  8
Specialized_Lines
  6
Continuous
100
AcDbLine
 10
193.5727014156731
 20
327.9298178661278
 30
0.0
 11
193.5727014156731
 21
329.9298178661285
 31
0.0
  0
LINE
  5
26B
330
1F
100
AcDbEntity
  8
Specialized_Lines
  6
Continuous
100
AcDbLine
 10
193.5727014156731
 20
329.9298178661285
 30
0.0
 11
169.5727014156722
 21
329.9298178661285
 31
0.0
  0
LINE
  5
26C
330
1F
100
AcDbEntity
  8
Specialized_Lines
  6
Continuous
100
AcDbLine
 10
169.5727014156722
 20
329.9298178661285
 30
0.0
 11
169.5727014156722
 21
327.9298178661278
 31
0.0
  0
LINE
  5
26D
330
1F
100
AcDbEntity
  8
Specialized_Lines
  6
Continuous
100
AcDbLine
 10
175.5727014156725
 20
237.9298178661279
 30
0.0
 11
175.5727014156725
 21
229.929817866127
 31
0.0
  0
LINE
  5
26E
330
1F
100
AcDbEntity
  8
Specialized_Lines
  6
Continuous
100
AcDbLine
 10
175.5727014156725
 20
229.929817866127
 30
0.0
 11
177.5727014156749
 21
227.9298178661282
 31
0.0
  0
LINE
  5
26F
330
1F
100
AcDbEntity
  8
Specialized_Lines
  6
Continuous
100
AcDbLine
 10
177.5727014156749
 20
227.9298178661282
 30
0.0
 11
185.5727014156705
 21
227.9298178661282
 31
0.0
  0
LINE
  5
270
330
1F
100
AcDbEntity
  8
Specialized_Lines
  6
Continuous
100
AcDbLine
 10
185.5727014156705
 20
227.9298178661282
 30
0.0
 11
187.5727014156729
 21
229.929817866127
 31
0.0
  0
LINE
  5
271
330
1F
100
AcDbEntity
  8
Specialized_Lines
  6
Continuous
100
AcDbLine
 10
187.5727014156729
 20
229.929817866127
 30
0.0
 11
187.5727014156729
 21
237.9298178661279
 31
0.0
  0
LINE
  5
272
330
1F
100
AcDbEntity
  8
Specialized_Lines
  6
Continuous
100
AcDbLine
 10
187.5727014156729
 20
237.9298178661279
 30
0.0
 11
175.5727014156725
 21
237.9298178661279
 31
0.0
  0
LINE
  5
273
330
1F
100
AcDbEntity
  8
Specialized_Lines
  6
Continuous
100
AcDbLine
 10
177.5727014156749
 20
237.9298178661279
 30
0.0
 11
177.5727014156749
 21
227.9298178661282
 31
0.0
  0
LINE
  5
274
330
1F
100
AcDbEntity
  8
Specialized_Lines
  6
Continuous
100
AcDbLine
 10
185.5727014156705
 20
237.9298178661279
 30
0.0
 11
185.5727014156705
 21
227.9298178661282
 31
0.0
  0
LINE
  5
275
330
1F
100
AcDbEntity
  8
Specialized_Lines
  6
Continuous
100
AcDbLine
 10
175.5727014156725
 20
229.929817866127
 30
0.0
 11
187.5727014156729
 21
229.929817866127
 31
0.0
  0
LINE
  5
276
330
1F
100
AcDbEntity
  8
Specialized_Lines
  6
Continuous
100
AcDbLine
 10
175.5727014156725
 20
327.9298178661278
 30
0.0
 11
175.5727014156725
 21
237.9298178661279
 31
0.0
  0
LINE
  5
277
330
1F
100
AcDbEntity
  8
Specialized_Lines
  6
Continuous
100
AcDbLine
 10
175.5727014156725
 20
237.9298178661279
 30
0.0
 11
187.5727014156729
 21
237.9298178661279
 31
0.0
  0
LINE
  5
278
330
1F
100
AcDbEntity
  8
Specialized_Lines
  6
Continuous
100
AcDbLine
 10
187.5727014156729
 20
237.9298178661279
 30
0.0
 11
187.5727014156729
 21
327.9298178661278
 31
0.0
  0
LINE
  5
279
330
1F
100
AcDbEntity
  8
Specialized_Lines
  6
Continuous
100
AcDbLine
 10
187.5727014156729
 20
327.9298178661278
 30
0.0
 11
175.5727014156725
 21
327.9298178661278
 31
0.0
  0
LINE
  5
27A
330
1F
100
AcDbEntity
  8
Specialized_Lines
  6
Continuous
100
AcDbLine
 10
177.5727014156749
 20
270.9298178661274
 30
0.0
 11
185.5727014156705
 21
270.9298178661274
 31
0.0
  0
LINE
  5
27B
330
1F
100
AcDbEntity
  8
Specialized_Lines
  6
Continuous
100
AcDbLine
 10
185.5727014156705
 20
270.9298178661274
 30
0.0
 11
187.5727014156729
 21
272.9298178661281
 31
0.0
  0
LINE
  5
27C
330
1F
100
AcDbEntity
  8
Specialized_Lines
  6
Continuous
100
AcDbLine
 10
187.5727014156729
 20
272.9298178661281
 30
0.0
 11
175.5727014156725
 21
272.9298178661281
 31
0.0
  0
LINE
  5
27D
330
1F
100
AcDbEntity
  8
Specialized_Lines
  6
Continuous
100
AcDbLine
 10
175.5727014156725
 20
272.9298178661281
 30
0.0
 11
177.5727014156749
 21
270.9298178661274
 31
0.0
  0
LINE
  5
27E
330
1F
100
AcDbEntity
  8
Specialized_Lines
  6
Continuous
100
AcDbLine
 10
177.5727014156749
 20
270.9298178661274
 30
0.0
 11
177.5727014156749
 21
237.9298178661279
 31
0.0
  0
LINE
  5
27F
330
1F
100
AcDbEntity
  8
Specialized_Lines
  6
Continuous
100
AcDbLine
 10
185.5727014156705
 20
270.9298178661274
 30
0.0
 11
185.5727014156705
 21
237.9298178661279
 31
0.0
  0
LINE
  5
280
330
1F
100
AcDbEntity
  8
Specialized_Lines
  6
Continuous
100
AcDbLine
 10
181.5727014156727
 20
345.9298178661285
 30
0.0
 11
181.5727014156727
 21
209.9298178661274
 31
0.0
  0
ARC
  5
281
330
1F
100
AcDbEntity
  8
Specialized_Lines
  6
Continuous
100
AcDbCircle
 10
181.5727014156727
 20
326.8454428661353
 30
0.0
 40
12.08437499999348
100
AcDbArc
 50
64.24999688077807
 51
115.7500031192219
  0
ARC
  5
282
330
1F
100
AcDbEntity
  8
Specialized_Lines
  6
Continuous
100
AcDbCircle
 10
181.5727014156727
 20
342.0141928500868
 30
0.0
 40
12.08437498554815
100
AcDbArc
 50
244.2499968477445
 51
295.7500031522554
  0
ARC
  5
283
330
1F
100
AcDbEntity
  8
Specialized_Lines
  6
Continuous
100
AcDbCircle
 10
173.6977014156742
 20
333.4009115790018
 30
0.0
 40
3.471093725707419
100
AcDbArc
 50
220.8656568953144
 51
319.1343431046856
  0
ARC
  5
284
330
1F
100
AcDbEntity
  8
Specialized_Lines
  6
Continuous
100
AcDbCircle
 10
173.6977014156742
 20
335.4587241161262
 30
0.0
 40
3.471093750000875
100
AcDbArc
 50
40.86565735877815
 51
139.1343426412218
  0
ARC
  5
285
330
1F
100
AcDbEntity
  8
Specialized_Lines
  6
Continuous
100
AcDbCircle
 10
189.4477014156712
 20
333.4009116124612
 30
0.0
 40
3.47109374759924
100
AcDbArc
 50
220.8656573129887
 51
319.1343426870113
  0
ARC
  5
286
330
1F
100
AcDbEntity
  8
Specialized_Lines
  6
Continuous
100
AcDbCircle
 10
189.4477014156712
 20
335.4587241161262
 30
0.0
 40
3.471093750000875
100
AcDbArc
 50
40.86565735877815
 51
139.1343426412218
  0
LINE
  5
287
330
1F
100
AcDbEntity
  8
Specialized_Lines
  6
Continuous
100
AcDbLine
 10
152.0836229603026
 20
280.7363625899555
 30
0.0
 11
179.2165535220369
 21
280.7363625899555
 31
0.0
  0
LINE
  5
288
330
1F
100
AcDbEntity
  8
Specialized_Lines
  6
Continuous
100
AcDbLine
 10
226.5727014156673
 20
327.577818558801
 30
0.0
 11
136.572701415671
 21
282.5778185587993
 31
0.0
  0
LINE
  5
289
330
1F
100
AcDbEntity
  8
Specialized_Lines
  6
Continuous
100
AcDbLine
 10
136.572701415671
 20
327.5778186588027
 30
0.0
 11
226.5727014156673
 21
282.577818658801
 31
0.0
  0
LINE
  5
28A
330
1F
100
AcDbEntity
  8
Specialized_Lines
  6
Continuous
100
AcDbLine
 10
226.5727014156673
 20
472.199583012033
 30
0.0
 11
226.5727014156673
 21
282.5778185587993
 31
0.0
  0
LINE
  5
28B
330
1F
100
AcDbEntity
  8
Specialized_Lines
  6
Continuous
100
AcDbLine
 10
136.572701415671
 20
472.199583012033
 30
0.0
 11
136.572701415671
 21
282.5778185587993
 31
0.0
  0
LINE
  5
28D
330
1F
100
AcDbEntity
  8
Specialized_Lines
  6
DASHEDX2
100
AcDbLine
 10
136.6437522216279
 20
281.7065862541063
 30
0.0
 11
226.5727014156673
 21
281.7065862541063
 31
0.0
  0
LINE
  5
28E
330
1F
100
AcDbEntity
  8
Specialized_Lines
  6
Continuous
100
AcDbLine
 10
226.8543294930914
 20
472.199583012033
 30
0.0
 11
226.8543294930914
 21
280.7363625899555
 31
0.0
  0
LINE
  5
28F
330
1F
100
AcDbEntity
  8
Specialized_Lines
  6
Continuous
100
AcDbLine
 10
238.8543294930918
 20
472.199583012033
 30
0.0
 11
238.8543294930918
 21
280.7363625899555
 31
0.0
  0
LINE
  5
290
330
1F
100
AcDbEntity
  8
Specialized_Lines
  6
Continuous
100
AcDbLine
 10
113.8358735263245
 20
231.3440325139027
 30
0.0
 11
63.83587352632736
 21
231.3440325139027
 31
0.0
  0
LINE
  5
291
330
1F
100
AcDbEntity
  8
Specialized_Lines
  6
Continuous
100
AcDbLine
 10
113.8358735263245
 20
231.3440325139027
 30
0.0
 11
113.8358735263245
 21
244.3440325139026
 31
0.0
  0
LINE
  5
292
330
1F
100
AcDbEntity
  8
Specialized_Lines
  6
Continuous
100
AcDbLine
 10
112.8358735263268
 20
244.3440325139026
 30
0.0
 11
113.8358735263245
 21
245.2437237440659
 31
0.0
  0
LINE
  5
293
330
1F
100
AcDbEntity
  8
Specialized_Lines
  6
Continuous
100
AcDbLine
 10
113.8358735263245
 20
244.3440325139026
 30
0.0
 11
112.8358735263268
 21
244.3440325139026
 31
0.0
  0
LINE
  5
294
330
1F
100
AcDbEntity
  8
Specialized_Lines
  6
Continuous
100
AcDbLine
 10
113.8358735263245
 20
245.2437237440659
 30
0.0
 11
113.8358735263245
 21
248.1440325139026
 31
0.0
  0
LINE
  5
295
330
1F
100
AcDbEntity
  8
Specialized_Lines
  6
DASHEDX2
100
AcDbLine
 10
60.97816978896708
 20
227.6043156709199
 30
0.0
 11
60.97816978896708
 21
472.2574702987415
 31
0.0
  0
LINE
  5
296
330
1F
100
AcDbEntity
  8
Specialized_Lines
  6
Continuous
100
AcDbLine
 10
136.572701415671
 20
124.1440325139038
 30
0.0
 11
50.91057416511325
 21
124.1440325139038
 31
0.0
  0
LINE
  5
297
330
1F
100
AcDbEntity
  8
Specialized_Lines
  6
Continuous
100
AcDbLine
 10
123.5500533972717
 20
281.0218472359924
 30
0.0
 11
115.0358735263359
 21
235.5692234841022
 31
0.0
  0
LINE
  5
298
330
1F
100
AcDbEntity
  8
Specialized_Lines
  6
Continuous
100
AcDbLine
 10
135.0662995001719
 20
281.0218472359924
 30
0.0
 11
135.0662995001719
 21
311.0218472359918
 31
0.0
  0
LINE
  5
299
330
1F
100
AcDbEntity
  8
Specialized_Lines
  6
Continuous
100
AcDbLine
 10
135.0662995001719
 20
311.0218472359918
 30
0.0
 11
134.0662995001742
 21
311.0218472359918
 31
0.0
  0
LINE
  5
29A
330
1F
100
AcDbEntity
  8
Specialized_Lines
  6
Continuous
100
AcDbLine
 10
134.0662995001742
 20
311.0218472359918
 30
0.0
 11
134.0662995001742
 21
282.0218472359919
 31
0.0
  0
LINE
  5
29B
330
1F
100
AcDbEntity
  8
Specialized_Lines
  6
Continuous
100
AcDbLine
 10
134.0662995001742
 20
289.0218472359915
 30
0.0
 11
129.4982241639082
 21
282.0218472359919
 31
0.0
  0
LINE
  5
29C
330
1F
100
AcDbEntity
  8
Specialized_Lines
  6
Continuous
100
AcDbLine
 10
135.0662995001719
 20
288.4546661836804
 30
0.0
 11
130.8683564176553
 21
282.0218472359901
 31
0.0
  0
LINE
  5
29D
330
1F
100
AcDbEntity
  8
Specialized_Lines
  6
Continuous
100
AcDbLine
 10
130.8683564176553
 20
282.0218472359919
 30
0.0
 11
135.0662995001719
 21
282.0218472359919
 31
0.0
  0
LINE
  5
29E
330
1F
100
AcDbEntity
  8
Specialized_Lines
  6
Continuous
100
AcDbLine
 10
124.5662995001715
 20
281.0218472359924
 30
0.0
 11
115.0358735263288
 21
230.1440325139037
 31
0.0
  0
LINE
  5
29F
330
1F
100
AcDbEntity
  8
Specialized_Lines
  6
Continuous
100
AcDbLine
 10
124.5662995001715
 20
281.0218472359924
 30
0.0
 11
135.0662995001719
 21
281.0218472359924
 31
0.0
  0
LINE
  5
2A0
330
1F
100
AcDbEntity
  8
Specialized_Lines
  6
Continuous
100
AcDbLine
 10
115.0358735263288
 20
281.0218472359924
 30
0.0
 11
123.5500533972717
 21
281.0218472359924
 31
0.0
  0
LINE
  5
2A1
330
1F
100
AcDbEntity
  8
Specialized_Lines
  6
Continuous
100
AcDbLine
 10
115.0358735263288
 20
282.0218472359919
 30
0.0
 11
129.4982241639082
 21
282.0218472359919
 31
0.0
  0
LWPOLYLINE
  5
2A2
330
1F
100
AcDbEntity
  8
Specialized_Lines
  6
Continuous
100
AcDbPolyline
 90
        4
 70
   129
 43
0.0
 10
226.5727014156673
 20
327.577818558801
 10
136.572701415671
 20
327.577818558801
 10
136.572701415671
 20
282.5778185587993
 10
226.5727014156673
 20
282.5778185587993
  0
LWPOLYLINE
  5
2A3
330
1F
100
AcDbEntity
  8
Specialized_Lines
  6
Continuous
100
AcDbPolyline
 90
        3
 70
   128
 43
0.0
 10
257.7977002393275
 20
280.7363625899555
 10
136.572701415671
 20
280.7363625899555
 10
136.572701415671
 20
85.00608618833236
  0
LWPOLYLINE
  5
2A4
330
1F
100
AcDbEntity
  8
Specialized_Lines
  6
DASHEDX2
100
AcDbPolyline
 90
        4
 70
   128
 43
0.0
 10
135.7712775944057
 20
232.855815413874
 10
135.7712775944128
 20
249.6366619147388
 10
135.7014691109746
 20
256.7623426190301
 10
135.7014691109746
 20
472.199583012033
  0
LWPOLYLINE
  5
2A6
330
1F
100
AcDbEntity
  8
Specialized_Fills
  6
DASHEDX2
 62
   253
420
 10461087
370
    20
100
AcDbPolyline
 90
        4
 70
   128
 43
0.0
 10
136.5727011233715
 20
372.5778186523998
 42
0.6180339902741404
 10
172.572701525469
 20
354.5778185507693
 10
190.5727014658658
 20
368.0778186301641
 42
-2.000000011029643
 10
190.5727014658658
 20
332.0778186301636
  0
LWPOLYLINE
  5
2A7
330
1F
100
AcDbEntity
  8
Specialized_Fills
  6
DASHEDX2
 62
   253
420
 10461087
370
    20
100
AcDbPolyline
 90
        6
 70
   128
 43
0.0
 10
136.5727011233715
 20
372.5778186523998
 42
-0.6180339902741404
 10
172.572701525469
 20
390.5778187540303
 10
190.5727014658658
 20
377.0778186746355
 42
2.000000011029643
 10
190.5727014658658
 20
413.0778186746359
 10
172.5727014872862
 20
399.577818645997
 42
-0.8684172712964468
 10
141.1073153339965
 20
431.1238477017722
  0
LWPOLYLINE
  5
2A8
330
1F
100
AcDbEntity
  8
Specialized_Fills
  6
DASHEDX2
 62
   253
420
 10461087
370
    20
100
AcDbPolyline
 90
        3
 70
   128
 43
0.0
 10
190.5727014658658
 20
332.0778186301636
 10
172.5727014872862
 20
345.5778186588025
 42
0.6180339892997294
 10
136.572701415671
 20
327.5778186588027
  0
LWPOLYLINE
  5
2A9
330
1F
100
AcDbEntity
  8
Specialized_Fills
  6
DASHEDX2
 62
   253
420
 10461087
370
    20
100
AcDbPolyline
 90
        4
 70
   128
 43
0.0
 10
136.5727011233715
 20
463.3573540706636
 42
0.6180339902741404
 10
172.572701525469
 20
445.3573539690331
 10
190.5727014658658
 20
458.8573540484279
 42
-2.000000011029643
 10
190.5727014658658
 20
422.8573540484275
  0
LWPOLYLINE
  5
2AA
330
1F
100
AcDbEntity
  8
Specialized_Fills
  6
DASHEDX2
 62
   253
420
 10461087
370
    20
100
AcDbPolyline
 90
        3
 70
   128
 43
0.0
 10
190.5727014658658
 20
422.8573540484275
 10
172.5727014872862
 20
436.3573540770664
 42
0.6180339892997294
 10
136.572701415671
 20
418.3573540770666
  0
LWPOLYLINE
  5
2AB
330
1F
100
AcDbEntity
  8
Specialized_Fills
  6
DASHEDX2
 62
   253
420
 10461087
370
    20
100
AcDbPolyline
 90
        2
 70
   128
 43
0.0
 10
221.9532858601176
 20
472.199583012033
 42
-0.4116401504521561
 10
190.5727014658658
 20
467.8573540420245
  0
LWPOLYLINE
  5
2AC
330
1F
100
AcDbEntity
  8
Specialized_Fills
  6
DASHEDX2
 62
   253
420
 10461087
370
    20
100
AcDbPolyline
 90
        2
 70
   128
 43
0.0
 10
190.5727014658658
 20
467.8573540420245
 10
184.7830628583597
 20
472.1995830120331
  0
LWPOLYLINE
  5
2AD
330
1F
100
AcDbEntity
  8
Specialized_Fills
  6
DASHEDX2
 62
   253
420
 10461087
370
    20
100
AcDbPolyline
 90
        2
 70
   128
 43
0.0
 10
138.382969966335
 20
472.199583012033
 42
0.1013142124530948
 10
136.572701415671
 20
463.3573540706636
  0
LWPOLYLINE
  5
2B1
330
1F
100
AcDbEntity
  8
0
  6
Continuous
100
AcDbPolyline
 90
        6
 70
   128
 43
0.0
 10
245.3995816757653
 20
472.199583012033
 10
183.7459916722965
 20
472.199583012033
 10
181.7459916723011
 20
477.6945378509419
 10
177.7459916722962
 20
466.7046281731241
 10
175.7459916723009
 20
472.199583012033
 10
52.63227649826274
 20
472.199583012033
  0
DIMENSION
  5
2CF
330
1F
100
AcDbEntity
  8
Specialized_Text
  6
Continuous
100
AcDbDimension
280
     0
  2
*D5
 10
146.4130194433896
 20
230.1440325139037
 30
0.0
 11
142.2130194329588
 21
255.4401975519296
 31
0.0
 70
    32
 71
     5
 42
-1.0
 73
     0
 74
     0
 75
     0
  3
GENERATED_STYLE__2
100
AcDbAlignedDimension
 13
104.61489983599
 23
230.1440325139037
 33
0.0
 14
126.1517277253322
 24
280.7363625899555
 34
0.0
 50
90.0
100
AcDbRotatedDimension
  0
MTEXT
  5
2D1
102
{ACAD_REACTORS
330
2D2
102
}
330
1F
100
AcDbEntity
  8
Specialized_Text
  6
Continuous
100
AcDbMText
 10
286.3160934669878
 20
455.0100328623842
 30
0.0
 40
5.5
 41
104.6443253047722
 46
27.8686888772148
 71
     4
 72
     1
  1
{approved breather type building wrap installed by builder}
  7
GENERATED_STYLE_1
 73
     1
 44
1.133076398103288
  0
LEADER
  5
2D2
330
1F
100
AcDbEntity
  8
Specialized_Text
  6
Continuous
 62
   251
420
  6250335
370
    13
100
AcDbLeader
  3
GENERATED_STYLE__3
 73
     0
 40
26.36685993157529
 41
85.27626193724421
 76
     2
 10
135.7014691109746
 20
455.2673666315714
 30
0.0
 10
286.2260934669879
 20
455.0100328623842
 30
0.0
340
2D1
  0
MTEXT
  5
2D9
102
{ACAD_REACTORS
330
2DA
102
}
330
1F
100
AcDbEntity
  8
Specialized_Text
  6
Continuous
100
AcDbMText
 10
286.3160934669878
 20
348.1300813804935
 30
0.0
 40
5.5
 41
104.2489499485626
 46
14.79484342833843
 71
     4
 72
     1
  1
{cavity insulation minimum R=0.9}
  7
GENERATED_STYLE_1
 73
     1
 44
1.0
  0
LEADER
  5
2DA
330
1F
100
AcDbEntity
  8
Specialized_Text
  6
Continuous
 62
   251
420
  6250335
370
    13
100
AcDbLeader
  3
GENERATED_STYLE__3
 73
     0
 40
14.78672123692587
 41
86.74317871759891
 76
     2
 10
167.1207044917841
 20
348.9233396844344
 30
0.0
 10
286.2260934669879
 20
348.1300813804935
 30
0.0
340
2D9
  0
MTEXT
  5
2DB
102
{ACAD_REACTORS
330
2DC
102
}
330
1F
100
AcDbEntity
  8
Specialized_Text
  6
Continuous
100
AcDbMText
 10
286.3160934669878
 20
231.9747723132549
 30
0.0
 40
5.5
 41
75.76934242235883
 46
0.0
 71
     4
 72
     1
  1
{DPC}
  7
GENERATED_STYLE_1
 73
     1
 44
1.0
  0
LEADER
  5
2DC
330
1F
100
AcDbEntity
  8
Specialized_Text
  6
Continuous
 62
   251
420
  6250335
370
    13
100
AcDbLeader
  3
GENERATED_STYLE__3
 73
     0
 40
5.687585266030014
 41
15.30695770804911
 76
     3
 10
198.8577151206647
 20
281.7065862541063
 30
0.0
 10
198.8577151206647
 20
231.9747723132549
 30
0.0
 10
286.2260934669879
 20
231.9747723132549
 30
0.0
340
2DB
  0
MTEXT
  5
2DD
102
{ACAD_REACTORS
330
2DE
102
}
330
1F
100
AcDbEntity
  8
Specialized_Text
  6
Continuous
100
AcDbMText
 10
285.1372565487452
 20
173.4167158189516
 30
0.0
 40
5.5
 41
104.6722906620086
 46
26.54165065168395
 71
     4
 72
     1
  1
{proprietary CAVITECLAD base bead}
  7
GENERATED_STYLE_1
 73
     1
 44
1.136917277563246
  0
LEADER
  5
2DE
330
1F
100
AcDbEntity
  8
Specialized_Text
  6
Continuous
 62
   251
420
  6250335
370
    13
100
AcDbLeader
  3
GENERATED_STYLE__3
 73
     0
 40
16.12216880899434
 41
86.19918144611187
 76
     3
 10
102.3696620562169
 20
230.1440325139037
 30
0.0
 10
102.3696620562169
 20
173.417845753105
 30
0.0
 10
285.0472565487453
 20
173.4167158189516
 30
0.0
340
2DD
  0
MTEXT
  5
2DF
102
{ACAD_REACTORS
330
2E0
102
}
330
1F
100
AcDbEntity
  8
Specialized_Text
  6
Continuous
100
AcDbMText
 10
286.3160934669878
 20
377.5415219233857
 30
0.0
 40
5.5
 41
103.3081292340806
 46
17.57504929394563
 71
     4
 72
     1
  1
{mesh reinforcing and selected plaster finish}
  7
GENERATED_STYLE_1
 73
     1
 44
1.127211339394292
  0
LEADER
  5
2E0
330
1F
100
AcDbEntity
  8
Specialized_Text
  6
Continuous
 62
   251
420
  6250335
370
    13
100
AcDbLeader
  3
GENERATED_STYLE__3
 73
     0
 40
17.56298313442043
 41
101.4648703956344
 76
     2
 10
55.60302548571406
 20
378.2776570654534
 30
0.0
 10
286.2260934669879
 20
377.5415219233857
 30
0.0
340
2DF
  0
MTEXT
  5
2E1
102
{ACAD_REACTORS
330
2E2
102
}
330
1F
100
AcDbEntity
  8
Specialized_Text
  6
Continuous
100
AcDbMText
 10
286.3160934669878
 20
428.1699147809162
 30
0.0
 40
5.5
 41
75.76934242235883
 46
0.0
 71
     4
 72
     1
  1
{20mm cavity}
  7
GENERATED_STYLE_1
 73
     1
 44
1.0
  0
LEADER
  5
2E2
330
1F
100
AcDbEntity
  8
Specialized_Text
  6
Continuous
 62
   251
420
  6250335
370
    13
100
AcDbLeader
  3
GENERATED_STYLE__3
 73
     0
 40
7.139495225102319
 41
42.82571623465211
 76
     2
 10
121.7491185918482
 20
428.9672341805634
 30
0.0
 10
286.2260934669879
 20
428.1699147809162
 30
0.0
340
2E1
  0
MTEXT
  5
2E3
102
{ACAD_REACTORS
330
2E4
102
}
330
1F
100
AcDbEntity
  8
Specialized_Text
  6
Continuous
100
AcDbMText
 10
286.3160934669878
 20
308.4078188038227
 30
0.0
 40
5.5
 41
104.5721453140266
 46
71.60522883493841
 71
     4
 72
     1
  1
{discontinuous horizontal 45mm x 20mm ventilated EPS battens on 15° slope and no longer than 100mm in length where required for fixing}
  7
GENERATED_STYLE_1
 73
     1
 44
1.0
  0
LEADER
  5
2E4
330
1F
100
AcDbEntity
  8
Specialized_Text
  6
Continuous
 62
   251
420
  6250335
370
    13
100
AcDbLeader
  3
GENERATED_STYLE__3
 73
     0
 40
44.0200090950432
 41
102.8267394270123
 76
     2
 10
124.0886910168206
 20
309.2190258231344
 30
0.0
 10
286.2260934669879
 20
308.4078188038227
 30
0.0
340
2E3
  0
MTEXT
  5
2E5
330
1F
100
AcDbEntity
  8
Specialized_Text
  6
Continuous
 62
    30
420
 16742400
370
    20
100
AcDbMText
 10
284.7160934669879
 20
85.1500508890153
 30
0.0
 40
6.0
 41
78.96934242235881
 46
0.0
 71
     7
 72
     1
  1
{note:  punchings in base bead provide ventilation openings of 1000mm\A1{\H0.7x;\S2^  ;} per lineal metre}
  7
GENERATED_STYLE_1
 73
     1
 44
1.128627269093223
  0
WIPEOUT
  5
2E6
330
1F
100
AcDbEntity
  8
Specialized_Text
  6
Wipeout_Contour
 48
1193.704065840845
160
               140
310
8C00000001000000840000000600000005000000C37091CBA2BC62407848AC96FD5E6D400000000000000000C37091CBA2BC6240F177D15991D170400000000000000000FBCA8795FD166540F177D15991D170400000000000000000FBCA8795FD1665407848AC96FD5E6D400000000000000000C37091CBA2BC62407848AC
310
96FD5E6D400000000000000000
100
AcDbWipeout
 90
        0
 10
149.8948724594721
 20
234.9684556355385
 30
0.0
 11
18.82358263126093
 21
0.0
 31
0.0
 12
0.0
 22
34.12953041243174
 32
0.0
 13
1.0
 23
1.0
340
0
 70
    15
280
     1
281
    50
282
    50
283
     0
290
     0
360
0
 71
     2
 91
        5
 14
-0.5
 24
0.5
 14
-0.5
 24
-0.5
 14
0.5
 24
-0.5
 14
0.5
 24
0.5
 14
-0.5
 24
0.5
  0
MTEXT
  5
2E8
330
1F
100
AcDbEntity
  8
Specialized_Text
  6
Continuous
100
AcDbMText
 10
166.8927768392602
 20
252.0332208417543
 30
0.0
 40
6.0
 41
34.12953041243172
 46
0.0
 71
     8
 72
     1
  1
{50mm minimum }
  7
GENERATED_STYLE_1
 11
0.0000000000000001
 21
1.0
 31
0.0
 73
     1
 44
1.136645366683426
  0
MTEXT
  5
2E9
330
1F
100
AcDbEntity
  8
Specialized_Text
  6
Continuous
100
AcDbMText
 10
38.13328762644911
 20
128.0778505708603
 30
0.0
 40
5.5
 41
95.9469780462779
 46
0.0
 71
     7
 72
     1
  1
{>100mm to paved ground\P>175mm to unpaved ground}
  7
GENERATED_STYLE_1
 11
0.0000000000000001
 21
1.0
 31
0.0
 73
     1
 44
1.135210107484258
  0
HATCH
  5
2EA
330
1F
100
AcDbEntity
  8
Specialized_Fills
  6
Continuous
 62
    30
420
 16742400
370
    20
100
AcDbHatch
 10
0.0
 20
0.0
 30
0.0
210
0.0
220
0.0
230
1.0
  2
SOLID
 70
     1
 71
     1
 91
        3
 92
        2
 72
     0
 73
     1
 93
       21
 10
68.63587352632328
 20
230.1440325139037
 10
115.0358735263288
 20
230.1440325139037
 10
124.5662995001715
 20
281.0218472359924
 10
135.0662995001719
 20
281.0218472359924
 10
135.0662995001719
 20
311.0218472359918
 10
134.0662995001742
 20
311.0218472359918
 10
134.0662995001742
 20
289.0218472359915
 10
129.4982241639082
 20
282.0218472359919
 10
115.0358735263288
 20
282.0218472359919
 10
115.0358735263288
 20
286.8007039381535
 10
113.8358735263245
 20
286.8007039381535
 10
113.8358735263245
 20
231.3440325139027
 10
63.48440166374792
 20
231.3440325139027
 10
63.48440166374792
 20
248.4955043764803
 10
62.63587352632305
 20
249.3440325139016
 10
62.63587352632305
 20
229.2955043764806
 10
63.48440166374792
 20
230.1440325139037
 10
66.93881725147355
 20
230.1440325139037
 10
63.48440166374792
 20
226.6896169261763
 10
62.63587352632305
 20
227.5381450635976
 10
62.63587352632305
 20
224.1440325139035
 97
        1
330
2EB
 92
        2
 72
     0
 73
     1
 93
        3
 10
134.0662995001742
 20
286.9222921563974
 10
134.0662995001742
 20
282.0218472359919
 10
130.8683564176553
 20
282.0218472359901
 97
        1
330
2EC
 92
        2
 72
     0
 73
     1
 93
        3
 10
115.0358735263288
 20
235.5692234840827
 10
115.0358735263288
 20
281.0218472359924
 10
123.5500533972717
 20
281.0218472359942
 97
        1
330
2ED
 75
     0
 76
     1
 98
        0
450
        0
451
        0
460
0.0
461
0.0
452
        1
462
0.0
453
        0
470

  0
LWPOLYLINE
  5
2EB
102
{ACAD_REACTORS
330
2EA
102
}
330
1F
100
AcDbEntity
  8
Specialized_Fills
  6
Continuous
100
AcDbPolyline
 90
       21
 70
   129
 43
0.0
 10
68.63587352632328
 20
230.1440325139037
 10
115.0358735263288
 20
230.1440325139037
 10
124.5662995001715
 20
281.0218472359924
 10
135.0662995001719
 20
281.0218472359924
 10
135.0662995001719
 20
311.0218472359918
 10
134.0662995001742
 20
311.0218472359918
 10
134.0662995001742
 20
289.0218472359915
 10
129.4982241639082
 20
282.0218472359919
 10
115.0358735263288
 20
282.0218472359919
 10
115.0358735263288
 20
286.8007039381535
 10
113.8358735263245
 20
286.8007039381535
 10
113.8358735263245
 20
231.3440325139027
 10
63.48440166374792
 20
231.3440325139027
 10
63.48440166374792
 20
248.4955043764803
 10
62.63587352632305
 20
249.3440325139016
 10
62.63587352632305
 20
229.2955043764806
 10
63.48440166374792
 20
230.1440325139037
 10
66.93881725147355
 20
230.1440325139037
 10
63.48440166374792
 20
226.6896169261763
 10
62.63587352632305
 20
227.5381450635976
 10
62.63587352632305
 20
224.1440325139035
  0
LWPOLYLINE
  5
2EC
102
{ACAD_REACTORS
330
2EA
102
}
330
1F
100
AcDbEntity
  8
Specialized_Fills
  6
Continuous
100
AcDbPolyline
 90
        3
 70
   129
 43
0.0
 10
134.0662995001742
 20
286.9222921563974
 10
134.0662995001742
 20
282.0218472359919
 10
130.8683564176553
 20
282.0218472359901
  0
LWPOLYLINE
  5
2ED
102
{ACAD_REACTORS
330
2EA
102
}
330
1F
100
AcDbEntity
  8
Specialized_Fills
  6
Continuous
100
AcDbPolyline
 90
        3
 70
   129
 43
0.0
 10
115.0358735263288
 20
235.5692234840827
 10
115.0358735263288
 20
281.0218472359924
 10
123.5500533972717
 20
281.0218472359942
  0
MTEXT
  5
2EE
102
{ACAD_REACTORS
330
2EF
102
}
330
1F
100
AcDbEntity
  8
Specialized_Text
  6
Continuous
100
AcDbMText
 10
286.3160934669878
 20
405.9113452852935
 30
0.0
 40
5.5
 41
104.2733892466647
 46
27.91304847924553
 71
     4
 72
     1
  1
50mm EPS or {\C30;\c30975;75mm Neopor® EPS}
  7
GENERATED_STYLE_1
 73
     1
 44
1.127211339394292
  0
LEADER
  5
2EF
330
1F
100
AcDbEntity
  8
Specialized_Text
  6
Continuous
 62
   251
420
  6250335
370
    13
100
AcDbLeader
  3
GENERATED_STYLE__3
 73
     0
 40
16.12607999663053
 41
103.9785129604366
 76
     2
 10
104.1814808021262
 20
406.650831883504
 30
0.0
 10
286.2260934669879
 20
405.9113452852935
 30
0.0
340
2EE
  0
LINE
  5
358
330
1F
100
AcDbEntity
  8
Viewport
 62
     7
420
 16777215
100
AcDbLine
 10
391.9889984967399
 20
552.668447130149
 30
0.0
 11
391.9889984967399
 21
12.61883149135281
 31
0.0
  0
LINE
  5
359
330
1F
100
AcDbEntity
  8
Viewport
 62
     7
420
 16777215
100
AcDbLine
 10
391.9889984967399
 20
12.61883149135281
 30
0.0
 11
18.84727141075609
 21
12.61883149135281
 31
0.0
  0
MTEXT
  5
35C
330
1F
100
AcDbEntity
  8
Specialized_Lines
 62
    30
420
 16742400
100
AcDbMText
 10
97.14363620123414
 20
53.95169683859141
 30
0.0
 40
7.0
 41
63.23088711380842
 46
0.0
 71
     1
 72
     5
  1
CAVITECLAD
  7
GENERATED_STYLE_2
 73
     1
 44
1.0
1001
ACAD
1000
ACAD_MTEXT_COLUMN_INFO_BEGIN
1070
    75
1070
     2
1070
    79
1070
     0
1070
    76
1070
     1
1070
    78
1070
     0
1070
    48
1040
63.23088711380842
1070
    49
1040
12.5
1070
    50
1070
     1
1040
0.0
1000
ACAD_MTEXT_COLUMN_INFO_END
  0
LINE
  5
35D
330
1F
100
AcDbEntity
  8
Viewport
 62
     7
420
 16777215
100
AcDbLine
 10
18.84727141075609
 20
12.61883149135281
 30
0.0
 11
18.84727141075609
 21
552.668447130149
 31
0.0
  0
LINE
  5
35E
330
1F
100
AcDbEntity
  8
Viewport
 62
     7
420
 16777215
100
AcDbLine
 10
391.9889984967399
 20
552.668447130149
 30
0.0
 11
18.84727141075609
 21
552.668447130149
 31
0.0
  0
MTEXT
  5
35F
330
1F
100
AcDbEntity
  8
Specialized_Lines
100
AcDbMText
 10
95.67667121568456
 20
69.54698381776227
 30
0.0
 40
8.3
 41
359.1269192849445
 46
0.0
 71
     1
 72
     5
  1
{\fArial|b1|i0|c0|p34;Wall / Floor: CONCRETE SLAB (High Back U-Channel)}
 73
     1
 44
1.0
1001
ACAD
1000
ACAD_MTEXT_COLUMN_INFO_BEGIN
1070
    75
1070
     2
1070
    79
1070
     0
1070
    76
1070
     1
1070
    78
1070
     0
1070
    48
1040
359.1269192849445
1070
    49
1040
12.5
1070
    50
1070
     1
1040
0.0
1000
ACAD_MTEXT_COLUMN_INFO_END
  0
MTEXT
  5
360
330
1F
100
AcDbEntity
  8
Specialized_Lines
 62
    30
420
 16742400
100
AcDbMText
 10
66.89181573431643
 20
50.00401229810716
 30
0.0
 40
4.0
 41
34.37092666967328
 46
0.0
 71
     5
 72
     5
  1
SCALE: 1:2
  7
GENERATED_STYLE_2
 73
     1
 44
1.0
1001
ACAD
1000
ACAD_MTEXT_COLUMN_INFO_BEGIN
1070
    75
1070
     2
1070
    79
1070
     0
1070
    76
1070
     1
1070
    78
1070
     0
1070
    48
1040
34.37092666967328
1070
    49
1040
12.5
1070
    50
1070
     1
1040
0.0
1000
ACAD_MTEXT_COLUMN_INFO_END
  0
HATCH
  5
361
330
1F
100
AcDbEntity
  8
0
 62
    30
420
 16742400
370
     5
100
AcDbHatch
 10
0.0
 20
0.0
 30
0.0
210
0.0
220
0.0
230
1.0
  2
SOLID
 70
     1
 71
     0
 91
        1
 92
        1
 93
        4
 72
     1
 10
90.04580111583209
 20
55.02697179849831
 11
90.04580111583209
 21
75.02697179849831
 72
     1
 10
90.04580111583209
 20
75.02697179849831
 11
45.04580111583209
 21
75.02697179849831
 72
     1
 10
45.04580111583209
 20
75.02697179849831
 11
45.04580111583209
 21
55.02697179849831
 72
     1
 10
45.04580111583209
 20
55.02697179849831
 11
90.04580111583209
 21
55.02697179849831
 97
        0
 75
     1
 76
     1
 98
        1
 10
75.46097430536111
 20
61.1606523016225
450
        0
451
        0
460
0.0
461
0.0
452
        0
462
1.0
453
        2
463
0.0
 63
     5
421
      255
463
1.0
 63
     2
421
 16776960
470
LINEAR
1001
GradientColor1ACI
1070
     5
1001
GradientColor2ACI
1070
     2
1001
ACAD
1010
0.0
1020
0.0
1030
0.0
  0
LWPOLYLINE
  5
362
330
1F
100
AcDbEntity
  8
0
370
     5
100
AcDbPolyline
 90
        5
 70
     0
 43
0.0
 10
45.04580111583209
 20
75.02697179849831
 10
45.04580111583209
 20
55.02697179849831
 10
90.04580111583209
 20
55.02697179849831
 10
90.04580111583209
 20
75.02697179849831
 10
45.04580111583209
 20
75.02697179849831
  0
MTEXT
  5
363
330
1F
100
AcDbEntity
  8
Specialized_Lines
100
AcDbMText
 10
67.75061620471979
 20
64.83212715210986
 30
0.0
 40
10.0
 41
90.34063603881987
 46
0.0
 71
     5
 72
     5
  1
{\fArial|b1|i0|c0|p34;06D}
 73
     1
 44
1.0
1001
ACAD
1000
ACAD_MTEXT_COLUMN_INFO_BEGIN
1070
    75
1070
     2
1070
    79
1070
     0
1070
    76
1070
     1
1070
    78
1070
     0
1070
    48
1040
90.34063603881987
1070
    49
1040
12.5
1070
    50
1070
     1
1040
0.0
1000
ACAD_MTEXT_COLUMN_INFO_END
  0
LWPOLYLINE
  5
364
330
1F
100
AcDbEntity
  8
0
370
     5
100
AcDbPolyline
 90
        4
 70
     0
 43
0.0
 10
45.04580111583209
 20
55.02697179849831
 10
45.04580111583209
 20
45.02697179849831
 10
90.04580111583209
 20
45.02697179849831
 10
90.04580111583209
 20
55.02697179849831
  0
HATCH
  5
51A
330
1F
100
AcDbEntity
  8
0
 62
    30
420
 16742400
100
AcDbHatch
 10
0.0
 20
0.0
 30
0.0
210
0.0
220
0.0
230
1.0
  2
SOLID
 70
     1
 71
     1
 91
        1
 92
        7
 72
     0
 73
     1
 93
        4
 10
44.96687807567605
 20
31.20537107063535
 10
44.96687807567605
 20
26.20537107063535
 10
49.96687807567969
 20
26.20537107063581
 10
49.96687807567241
 20
31.20537107063581
 97
        1
330
51B
 75
     1
 76
     1
 47
0.0321901215665183
 98
        1
 10
46.75632620437727
 20
29.78239048039211
450
        0
451
        0
460
0.0
461
0.0
452
        0
462
1.0
453
        2
463
0.0
 63
     5
421
      255
463
1.0
 63
     2
421
 16776960
470
LINEAR
1001
GradientColor1ACI
1070
     5
1001
GradientColor2ACI
1070
     2
1001
ACAD
1010
0.0
1020
0.0
1030
0.0
  0
LWPOLYLINE
  5
51B
102
{ACAD_REACTORS
330
51A
102
}
330
1F
100
AcDbEntity
  8
0
 62
    30
420
 16742400
100
AcDbPolyline
 90
        4
 70
     1
 43
0.0
 10
44.96687807567605
 20
31.20537107063535
 10
49.96687807567241
 20
31.20537107063581
 10
49.96687807567969
 20
26.20537107063581
 10
44.96687807567605
 20
26.20537107063535
  0
LINE
  5
51C
330
1F
100
AcDbEntity
  8
0
 62
    30
420
 16742400
100
AcDbLine
 10
44.96687807567605
 20
31.20537107063535
 30
0.0
 11
49.96687807567605
 21
31.20537107063535
 31
0.0
  0
LWPOLYLINE
  5
51D
330
1F
100
AcDbEntity
  8
0
370
     5
100
AcDbPolyline
 90
        2
 70
     0
 43
0.0
 10
49.96687807567605
 20
28.70537107063535
 10
371.120935999356
 20
28.70537107063535
  0
MTEXT
  5
51E
330
1F
100
AcDbEntity
  8
Specialized_Text
  6
Continuous
100
AcDbMText
 10
53.53055739081037
 20
31.23183810422722
 30
0.0
 40
3.0
 41
163.0041735515597
 46
0.0
 71
     4
 72
     1
  1
© copyright 2013 Specialized Building Products Ltd
  7
GENERATED_STYLE_2
 73
     1
 44
1.0
  0
MTEXT
  5
51F
330
1F
100
AcDbEntity
  8
Specialized_Text
  6
Continuous
100
AcDbMText
 10
231.4315580644912
 20
31.23183810422722
 30
0.0
 40
3.0
 41
163.0041735515597
 46
0.0
 71
     4
 72
     1
  1
All Dimensions to be site checked before construction & installation
  7
GENERATED_STYLE_2
 73
     1
 44
1.0
  0
MTEXT
  5
520
330
1F
100
AcDbEntity
  8
Specialized_Text
  6
Continuous
 62
    30
420
 16742400
370
    20
100
AcDbMText
 10
269.9869318537008
 20
18.10793428411386
 30
0.0
 40
5.5
 41
111.9228601720179
 46
0.0
 71
     7
 72
     1
  1
{\fArial Unicode MS|b1|i0|c0|p34;web \fArial Unicode MS|b0|i0|c0|p34;\C256;www.specialized.co.nz}
  7
GENERATED_STYLE_2
 73
     1
 44
1.12662050634974
  0
MTEXT
  5
521
330
1F
100
AcDbEntity
  8
Specialized_Text
  6
Continuous
100
AcDbMText
 10
47.87693971832186
 20
501.5931219396624
 30
0.0
 40
3.0
 41
48.87340123734884
 46
0.0
 71
     4
 72
     1
  1
Appraisal No.510 [2013]
  7
GENERATED_STYLE_2
 73
     1
 44
1.0
  0
IMAGE
  5
522
330
1F
100
AcDbEntity
  8
0
 62
     7
420
 16777215
160
               140
310
8C00000001000000840000000600000005000000404F9BCFDC854640BE991DA5498E7F400000000000000000404F9BCFDC854640668B54FA58458140000000000000000060EE3F2891EC5740668B54FA58458140000000000000000060EE3F2891EC5740BE991DA5498E7F400000000000000000404F9BCFDC854640BE991D
310
A5498E7F400000000000000000
100
AcDbRasterImage
 90
        0
 10
45.04580111583209
 20
504.8929797321578
 30
0.0
 11
0.0611721721957824
 21
0.0
 31
0.0
 12
0.0
 22
0.0611721721957824
 32
0.0
 13
828.0
 23
781.0
340
4E0
 70
     7
280
     0
281
    50
282
    50
283
     0
290
     0
360
523
 71
     1
 91
        2
 14
-0.5
 24
-0.5
 14
827.5
 24
780.5
  0
IMAGE
  5
524
330
1F
100
AcDbEntity
  8
0
 62
     7
420
 16777215
160
               140
310
8C00000001000000840000000600000005000000195C1494D8A571401EC261D0C0ED7F400000000000000000195C1494D8A57140269DC5814F3081400000000000000000AC7416F0D27F7840269DC5814F3081400000000000000000AC7416F0D27F78401EC261D0C0ED7F400000000000000000195C1494D8A571401EC261
310
D0C0ED7F400000000000000000
100
AcDbRasterImage
 90
        0
 10
282.3653755946448
 20
510.8595737284357
 30
0.0
 11
0.0434841820317712
 21
0.0
 31
0.0
 12
0.0
 22
0.0434841820317712
 32
0.0
 13
2521.0
 23
901.0
340
4E1
 70
     7
280
     0
281
    50
282
    50
283
     0
290
     0
360
525
 71
     1
 91
        2
 14
-0.5
 24
-0.5
 14
2520.5
 24
900.5
  0
LWPOLYLINE
  5
526
330
1F
100
AcDbEntity
  8
0
  6
PLASTER
 48
3.0
100
AcDbPolyline
 90
        4
 70
     0
 43
0.0
 10
58.35171690348534
 20
472.1812883352233
 10
58.35171690348534
 20
225.7504675772265
 10
59.54404269107567
 20
223.9905192456963
 10
62.63587352632305
 20
224.1440325139035
  0
LWPOLYLINE
  5
52D
330
1F
100
AcDbEntity
  8
0
 48
3.0
100
AcDbPolyline
 90
        5
 70
     0
 43
0.0
 10
136.572701415671
 20
85.00608618833235
 42
0.245390911804159
 10
187.5139494986906
 20
130.9065231537533
 42
-0.1505808077898675
 10
218.1942066719098
 20
182.2873397472581
 42
0.1398601850736358
 10
249.2183057002453
 20
228.5720467423471
 42
0.0908555000143767
 10
257.7977002393275
 20
280.7363625899555
  0
LINE
  5
566
330
1F
100
AcDbEntity
  8
Specialized_Text
  6
Continuous
100
AcDbLine
 10
29.06300359191882
 20
121.1440325139038
 30
0.0
 11
29.06300359191882
 21
124.1440325139038
 31
0.0
  0
LINE
  5
567
330
1F
100
AcDbEntity
  8
Specialized_Text
  6
Continuous
100
AcDbLine
 10
29.06300359191882
 20
124.1440325139038
 30
0.0
 11
29.06300359191882
 21
223.9400443637418
 31
0.0
  0
LINE
  5
568
330
1F
100
AcDbEntity
  8
Specialized_Text
  6
Continuous
 62
     7
370
    20
100
AcDbLine
 10
27.06300359191882
 20
126.1440325139038
 30
0.0
 11
31.06300359191882
 21
122.1440325139038
 31
0.0
  0
LINE
  5
569
330
1F
100
AcDbEntity
  8
Specialized_Text
  6
Continuous
 62
     7
370
    20
100
AcDbLine
 10
31.06300359191882
 20
221.9400443637418
 30
0.0
 11
27.06300359191882
 21
225.9400443637418
 31
0.0
  0
LINE
  5
56A
330
1F
100
AcDbEntity
  8
Specialized_Text
  6
Continuous
100
AcDbLine
 10
29.06300359191882
 20
223.9400443637418
 30
0.0
 11
29.06300359191882
 21
226.9400443637418
 31
0.0
  0
LINE
  5
56B
330
1F
100
AcDbEntity
  8
Specialized_Text
  6
Continuous
100
AcDbLine
 10
58.52745436450987
 20
124.1440325139038
 30
0.0
 11
25.31300359191883
 21
124.1440325139038
 31
0.0
  0
LINE
  5
56C
330
1F
100
AcDbEntity
  8
Specialized_Text
  6
Continuous
100
AcDbLine
 10
58.52745436450987
 20
223.9400443637418
 30
0.0
 11
25.31300359191883
 21
223.9400443637418
 31
0.0
  0
LINE
  5
5A4
330
1F
100
AcDbEntity
  8
Specialized_Fills
  6
Continuous
100
AcDbLine
 10
162.4116100207035
 20
100.0651267386519
 30
0.0
 11
164.6796554832254
 21
102.7680780667794
 31
0.0
  0
LINE
  5
5A5
330
1F
100
AcDbEntity
  8
Specialized_Fills
  6
Continuous
100
AcDbLine
 10
161.0061242938669
 20
225.2226923840841
 30
0.0
 11
164.6796554832254
 21
229.6006363765091
 31
0.0
  0
LINE
  5
5A6
330
1F
100
AcDbEntity
  8
Specialized_Fills
  6
Continuous
100
AcDbLine
 10
171.5791507203652
 20
167.9056388133136
 30
0.0
 11
175.2526819097238
 21
172.2835828057386
 31
0.0
  0
LINE
  5
5A7
330
1F
100
AcDbEntity
  8
Specialized_Fills
  6
Continuous
100
AcDbLine
 10
215.6615249926681
 20
220.4409667224132
 30
0.0
 11
219.3350561820267
 21
224.8189107148381
 31
0.0
  0
LINE
  5
5A8
330
1F
100
AcDbEntity
  8
Specialized_Fills
  6
Continuous
100
AcDbLine
 10
161.0061281449694
 20
225.2226446695311
 30
0.0
 11
165.5607303046449
 21
224.8241686136887
 31
0.0
  0
LINE
  5
5A9
330
1F
100
AcDbEntity
  8
Specialized_Fills
  6
Continuous
100
AcDbLine
 10
215.661354061075
 20
220.4409319994236
 30
0.0
 11
220.2159562207504
 21
220.0424559435813
 31
0.0
  0
LINE
  5
5AA
330
1F
100
AcDbEntity
  8
Specialized_Fills
  6
Continuous
100
AcDbLine
 10
171.5789759376695
 20
167.905651804877
 30
0.0
 11
176.133578097345
 21
167.5071757490348
 31
0.0
  0
LINE
  5
5AB
330
1F
100
AcDbEntity
  8
Specialized_Fills
  6
Continuous
100
AcDbLine
 10
176.1335015350033
 20
167.5068041920777
 30
0.0
 11
175.252468117199
 21
172.283228494494
 31
0.0
  0
LINE
  5
5AC
330
1F
100
AcDbEntity
  8
Specialized_Fills
  6
Continuous
100
AcDbLine
 10
164.9041913027254
 20
101.5526974926106
 30
0.0
 11
164.6800671035475
 21
102.7677618137587
 31
0.0
  0
LINE
  5
5AD
330
1F
100
AcDbEntity
  8
Specialized_Fills
  6
Continuous
100
AcDbLine
 10
165.5611005213518
 20
224.8238958210722
 30
0.0
 11
164.6800671035475
 21
229.6003201234884
 31
0.0
  0
LINE
  5
5AE
330
1F
100
AcDbEntity
  8
Specialized_Fills
  6
Continuous
100
AcDbLine
 10
220.2162520347911
 20
220.0418105381653
 30
0.0
 11
219.3352186169868
 21
224.8182348405816
 31
0.0
  0
LINE
  5
5AF
330
1F
100
AcDbEntity
  8
Specialized_Fills
  6
Continuous
100
AcDbLine
 10
198.247462289203
 20
175.3146660951665
 30
0.0
 11
204.1825656410611
 21
181.5003192096535
 31
0.0
  0
LINE
  5
5B0
330
1F
100
AcDbEntity
  8
Specialized_Fills
  6
Continuous
100
AcDbLine
 10
204.9919517856982
 20
174.5429426373411
 30
0.0
 11
204.1825735659471
 21
181.5003296991065
 31
0.0
  0
LINE
  5
5B1
330
1F
100
AcDbEntity
  8
Specialized_Fills
  6
Continuous
100
AcDbLine
 10
198.2474739046813
 20
175.3145317327933
 30
0.0
 11
204.8031178407666
 21
174.2977897965529
 31
0.0
  0
LINE
  5
5B2
330
1F
100
AcDbEntity
  8
Specialized_Fills
  6
Continuous
100
AcDbLine
 10
143.0842317201271
 20
112.5413357001003
 30
0.0
 11
148.4196438575586
 21
114.5894085317517
 31
0.0
  0
LINE
  5
5B3
330
1F
100
AcDbEntity
  8
Specialized_Fills
  6
Continuous
100
AcDbLine
 10
143.0842317201271
 20
239.37389400983
 30
0.0
 11
148.4196438575586
 21
241.4219668414814
 31
0.0
  0
LINE
  5
5B4
330
1F
100
AcDbEntity
  8
Specialized_Fills
  6
Continuous
100
AcDbLine
 10
188.5686956707421
 20
208.6942384548013
 30
0.0
 11
193.9041078081736
 21
210.7423112864527
 31
0.0
  0
LINE
  5
5B5
330
1F
100
AcDbEntity
  8
Specialized_Fills
  6
Continuous
100
AcDbLine
 10
221.9626856717483
 20
257.6042970190873
 30
0.0
 11
222.3200232963066
 21
257.7414660815202
 31
0.0
  0
LINE
  5
5B6
330
1F
100
AcDbEntity
  8
Specialized_Fills
  6
Continuous
100
AcDbLine
 10
170.028213972179
 20
153.4377089199558
 30
0.0
 11
175.3636261096105
 21
155.4857817516072
 31
0.0
  0
LINE
  5
5B7
330
1F
100
AcDbEntity
  8
Specialized_Fills
  6
Continuous
100
AcDbLine
 10
170.028213972179
 20
280.2702672296855
 30
0.0
 11
171.2424338983228
 21
280.7363625899555
 31
0.0
  0
LINE
  5
5B8
330
1F
100
AcDbEntity
  8
Specialized_Fills
  6
Continuous
100
AcDbLine
 10
143.0843585258581
 20
112.5411960019507
 30
0.0
 11
146.8747183075797
 21
109.9845660472824
 31
0.0
  0
LINE
  5
5B9
330
1F
100
AcDbEntity
  8
Specialized_Fills
  6
Continuous
100
AcDbLine
 10
143.0843585258581
 20
239.3737543116804
 30
0.0
 11
146.8747183075797
 21
236.8171243570121
 31
0.0
  0
LINE
  5
5BA
330
1F
100
AcDbEntity
  8
Specialized_Fills
  6
Continuous
100
AcDbLine
 10
188.5686759065179
 20
208.6941948556613
 30
0.0
 11
192.3590356882396
 21
206.1375649009931
 31
0.0
  0
LINE
  5
5BB
330
1F
100
AcDbEntity
  8
Specialized_Fills
  6
Continuous
100
AcDbLine
 10
170.0280674022238
 20
153.4378050189655
 30
0.0
 11
173.8184271839454
 21
150.8811750642973
 31
0.0
  0
LINE
  5
5BC
330
1F
100
AcDbEntity
  8
Specialized_Fills
  6
Continuous
100
AcDbLine
 10
170.0280674022238
 20
280.2703633286953
 30
0.0
 11
173.8184271839454
 21
277.713733374027
 31
0.0
  0
LINE
  5
5BD
330
1F
100
AcDbEntity
  8
Specialized_Fills
  6
Continuous
100
AcDbLine
 10
221.9626856717483
 20
256.6771925733828
 30
0.0
 11
222.3198365869013
 21
257.7416028178742
 31
0.0
  0
LINE
  5
5BE
330
1F
100
AcDbEntity
  8
Specialized_Fills
  6
Continuous
100
AcDbLine
 10
146.8747614076042
 20
109.9845652199895
 30
0.0
 11
148.4198165231076
 21
114.5892643078841
 31
0.0
  0
LINE
  5
5BF
330
1F
100
AcDbEntity
  8
Specialized_Fills
  6
Continuous
100
AcDbLine
 10
146.8747614076042
 20
236.8171235297192
 30
0.0
 11
148.4198165231076
 21
241.4218226176138
 31
0.0
  0
LINE
  5
5C0
330
1F
100
AcDbEntity
  8
Specialized_Fills
  6
Continuous
100
AcDbLine
 10
173.8183858665611
 20
150.8812027350672
 30
0.0
 11
175.3634409820645
 21
155.4859018229618
 31
0.0
  0
LINE
  5
5C1
330
1F
100
AcDbEntity
  8
Specialized_Fills
  6
Continuous
100
AcDbLine
 10
173.8183858665611
 20
277.7137610447969
 30
0.0
 11
174.8325859022926
 21
280.7363625899555
 31
0.0
  0
LINE
  5
5C2
330
1F
100
AcDbEntity
  8
Specialized_Fills
  6
Continuous
100
AcDbLine
 10
192.3590472526014
 20
206.1375917898018
 30
0.0
 11
193.9041023681047
 21
210.7422908776964
 31
0.0
  0
POINT
  5
5C3
330
1F
100
AcDbEntity
  8
Specialized_Fills
  6
Continuous
100
AcDbPoint
 10
230.6848357829708
 20
248.7868994608224
 30
0.0
  0
POINT
  5
5C4
330
1F
100
AcDbEntity
  8
Specialized_Fills
  6
Continuous
100
AcDbPoint
 10
229.7582548077933
 20
223.4203877988765
 30
0.0
  0
POINT
  5
5C5
330
1F
100
AcDbEntity
  8
Specialized_Fills
  6
Continuous
100
AcDbPoint
 10
158.1926099656044
 20
126.8325583097297
 30
0.0
  0
POINT
  5
5C6
330
1F
100
AcDbEntity
  8
Specialized_Fills
  6
Continuous
100
AcDbPoint
 10
158.1926099656044
 20
253.6651166194594
 30
0.0
  0
POINT
  5
5C7
330
1F
100
AcDbEntity
  8
Specialized_Fills
  6
Continuous
100
AcDbPoint
 10
157.2660289904268
 20
101.4660466477837
 30
0.0
  0
POINT
  5
5C8
330
1F
100
AcDbEntity
  8
Specialized_Fills
  6
Continuous
100
AcDbPoint
 10
157.2660289904268
 20
228.2986049575134
 30
0.0
  0
POINT
  5
5C9
330
1F
100
AcDbEntity
  8
Specialized_Fills
  6
Continuous
100
AcDbPoint
 10
156.3394480152493
 20
202.9320932955675
 30
0.0
  0
POINT
  5
5CA
330
1F
100
AcDbEntity
  8
Specialized_Fills
  6
Continuous
100
AcDbPoint
 10
196.843309450478
 20
234.0117992921787
 30
0.0
  0
POINT
  5
5CB
330
1F
100
AcDbEntity
  8
Specialized_Fills
  6
Continuous
100
AcDbPoint
 10
226.9785118822607
 20
274.1534111227684
 30
0.0
  0
POINT
  5
5CC
330
1F
100
AcDbEntity
  8
Specialized_Fills
  6
Continuous
100
AcDbPoint
 10
155.4128670400717
 20
177.5655816336215
 30
0.0
  0
POINT
  5
5CD
330
1F
100
AcDbEntity
  8
Specialized_Fills
  6
Continuous
100
AcDbPoint
 10
195.9167284753004
 20
208.6452876302328
 30
0.0
  0
POINT
  5
5CE
330
1F
100
AcDbEntity
  8
Specialized_Fills
  6
Continuous
100
AcDbPoint
 10
154.4862860648942
 20
152.1990699716756
 30
0.0
  0
POINT
  5
5CF
330
1F
100
AcDbEntity
  8
Specialized_Fills
  6
Continuous
100
AcDbPoint
 10
154.4862860648942
 20
279.0316282814053
 30
0.0
  0
POINT
  5
5D0
330
1F
100
AcDbEntity
  8
Specialized_Fills
  6
Continuous
100
AcDbPoint
 10
194.9901475001229
 20
183.2787759682868
 30
0.0
  0
POINT
  5
5D1
330
1F
100
AcDbEntity
  8
Specialized_Fills
  6
Continuous
100
AcDbPoint
 10
153.5597050897166
 20
126.8325583097297
 30
0.0
  0
POINT
  5
5D2
330
1F
100
AcDbEntity
  8
Specialized_Fills
  6
Continuous
100
AcDbPoint
 10
153.5597050897166
 20
253.6651166194594
 30
0.0
  0
POINT
  5
5D3
330
1F
100
AcDbEntity
  8
Specialized_Fills
  6
Continuous
100
AcDbPoint
 10
194.0635665249454
 20
157.9122643063409
 30
0.0
  0
POINT
  5
5D4
330
1F
100
AcDbEntity
  8
Specialized_Fills
  6
Continuous
100
AcDbPoint
 10
193.1369855497678
 20
259.3783109541246
 30
0.0
  0
POINT
  5
5D5
330
1F
100
AcDbEntity
  8
Specialized_Fills
  6
Continuous
100
AcDbPoint
 10
137.9396526724846
 20
103.4517618547167
 30
0.0
  0
POINT
  5
5D6
330
1F
100
AcDbEntity
  8
Specialized_Fills
  6
Continuous
100
AcDbPoint
 10
137.9396526724846
 20
230.2843201644464
 30
0.0
  0
POINT
  5
5D7
330
1F
100
AcDbEntity
  8
Specialized_Fills
  6
Continuous
100
AcDbPoint
 10
157.0155475277474
 20
105.9631510561266
 30
0.0
  0
POINT
  5
5D8
330
1F
100
AcDbEntity
  8
Specialized_Fills
  6
Continuous
100
AcDbPoint
 10
157.0155475277474
 20
232.7957093658563
 30
0.0
  0
POINT
  5
5DA
330
1F
100
AcDbEntity
  8
Specialized_Fills
  6
Continuous
100
AcDbPoint
 10
136.9696487746557
 20
202.7415369204204
 30
0.0
  0
POINT
  5
5DB
330
1F
100
AcDbEntity
  8
Specialized_Fills
  6
Continuous
100
AcDbPoint
 10
165.8290223774691
 20
206.5409455340386
 30
0.0
  0
POINT
  5
5DC
330
1F
100
AcDbEntity
  8
Specialized_Fills
  6
Continuous
100
AcDbPoint
 10
213.9531610816371
 20
212.8766085886846
 30
0.0
  0
POINT
  5
5DD
330
1F
100
AcDbEntity
  8
Specialized_Fills
  6
Continuous
100
AcDbPoint
 10
145.7831236243774
 20
176.4867730886027
 30
0.0
  0
POINT
  5
5DE
330
1F
100
AcDbEntity
  8
Specialized_Fills
  6
Continuous
100
AcDbPoint
 10
193.9072623285454
 20
182.8224361432487
 30
0.0
  0
POINT
  5
5DF
330
1F
100
AcDbEntity
  8
Specialized_Fills
  6
Continuous
100
AcDbPoint
 10
212.9831571838082
 20
185.3338253446586
 30
0.0
  0
POINT
  5
5E0
330
1F
100
AcDbEntity
  8
Specialized_Fills
  6
Continuous
100
AcDbPoint
 10
236.7185677071599
 20
273.2651589528966
 30
0.0
  0
POINT
  5
5E1
330
1F
100
AcDbEntity
  8
Specialized_Fills
  6
Continuous
100
AcDbPoint
 10
173.8613635754536
 20
152.7682636978128
 30
0.0
  0
POINT
  5
5E2
330
1F
100
AcDbEntity
  8
Specialized_Fills
  6
Continuous
100
AcDbPoint
 10
173.8613635754536
 20
279.6008220075425
 30
0.0
  0
POINT
  5
5E3
330
1F
100
AcDbEntity
  8
Specialized_Fills
  6
Continuous
100
AcDbPoint
 10
192.9372584307165
 20
155.2796528992228
 30
0.0
  0
POINT
  5
5E4
330
1F
100
AcDbEntity
  8
Specialized_Fills
  6
Continuous
100
AcDbPoint
 10
201.7507332804381
 20
255.8574473771347
 30
0.0
  0
POINT
  5
5E5
330
1F
100
AcDbEntity
  8
Specialized_Fills
  6
Continuous
100
AcDbPoint
 10
211.2840471489376
 20
246.9213305603702
 30
0.0
  0
POINT
  5
5E6
330
1F
100
AcDbEntity
  8
Specialized_Fills
  6
Continuous
100
AcDbPoint
 10
170.6068685988761
 20
121.8073954484426
 30
0.0
  0
POINT
  5
5E7
330
1F
100
AcDbEntity
  8
Specialized_Fills
  6
Continuous
100
AcDbPoint
 10
170.6068685988761
 20
248.6399537581723
 30
0.0
  0
POINT
  5
5E9
330
1F
100
AcDbEntity
  8
Specialized_Fills
  6
Continuous
100
AcDbPoint
 10
240.9110328846889
 20
250.3585769559743
 30
0.0
  0
POINT
  5
5EA
330
1F
100
AcDbEntity
  8
Specialized_Fills
  6
Continuous
100
AcDbPoint
 10
145.9962970915502
 20
113.2904611072376
 30
0.0
  0
POINT
  5
5EB
330
1F
100
AcDbEntity
  8
Specialized_Fills
  6
Continuous
100
AcDbPoint
 10
145.9962970915502
 20
240.1230194169673
 30
0.0
  0
POINT
  5
5EC
330
1F
100
AcDbEntity
  8
Specialized_Fills
  6
Continuous
100
AcDbPoint
 10
196.1241110648848
 20
208.1880798952655
 30
0.0
  0
POINT
  5
5ED
330
1F
100
AcDbEntity
  8
Specialized_Fills
  6
Continuous
100
AcDbPoint
 10
155.4469325148234
 20
209.9067030930675
 30
0.0
  0
POINT
  5
5EE
330
1F
100
AcDbEntity
  8
Specialized_Fills
  6
Continuous
100
AcDbPoint
 10
225.7510968006362
 20
211.6253262908695
 30
0.0
  0
POINT
  5
5EF
330
1F
100
AcDbEntity
  8
Specialized_Fills
  6
Continuous
100
AcDbPoint
 10
181.2855071216868
 20
169.2501180793805
 30
0.0
  0
POINT
  5
5F0
330
1F
100
AcDbEntity
  8
Specialized_Fills
  6
Continuous
100
AcDbPoint
 10
197.3521141644223
 20
159.0145605403735
 30
0.0
  0
POINT
  5
5F1
330
1F
100
AcDbEntity
  8
Specialized_Fills
  6
Continuous
100
AcDbPoint
 10
140.6083285716254
 20
170.9687412771826
 30
0.0
  0
POINT
  5
5F2
330
1F
100
AcDbEntity
  8
Specialized_Fills
  6
Continuous
100
AcDbPoint
 10
156.6749356143609
 20
160.7331837381755
 30
0.0
  0
POINT
  5
5F3
330
1F
100
AcDbEntity
  8
Specialized_Fills
  6
Continuous
100
AcDbPoint
 10
206.8027495876956
 20
255.6308025262034
 30
0.0
  0
POINT
  5
5F4
330
1F
100
AcDbEntity
  8
Specialized_Fills
  6
Continuous
100
AcDbPoint
 10
166.1255710376341
 20
130.5168674142757
 30
0.0
  0
POINT
  5
5F5
330
1F
100
AcDbEntity
  8
Specialized_Fills
  6
Continuous
100
AcDbPoint
 10
166.1255710376341
 20
257.3494257240054
 30
0.0
  0
POINT
  5
5F6
330
1F
100
AcDbEntity
  8
Specialized_Fills
  6
Continuous
100
AcDbPoint
 10
236.4297353234469
 20
259.0680489218075
 30
0.0
  0
POINT
  5
5F8
330
1F
100
AcDbEntity
  8
Specialized_Fills
  6
Continuous
100
AcDbPoint
 10
139.8959670504502
 20
98.94848154318502
 30
0.0
  0
POINT
  5
5F9
330
1F
100
AcDbEntity
  8
Specialized_Fills
  6
Continuous
100
AcDbPoint
 10
139.8959670504502
 20
225.7810398529147
 30
0.0
  0
POINT
  5
5FA
330
1F
100
AcDbEntity
  8
Specialized_Fills
  6
Continuous
100
AcDbPoint
 10
181.1886588531748
 20
187.9432590949844
 30
0.0
  0
POINT
  5
5FB
330
1F
100
AcDbEntity
  8
Specialized_Fills
  6
Continuous
100
AcDbPoint
 10
199.4473320992775
 20
171.2122676033825
 30
0.0
  0
POINT
  5
5FC
330
1F
100
AcDbEntity
  8
Specialized_Fills
  6
Continuous
100
AcDbPoint
 10
136.7499044373694
 20
180.3153117849845
 30
0.0
  0
POINT
  5
5FD
330
1F
100
AcDbEntity
  8
Specialized_Fills
  6
Continuous
100
AcDbPoint
 10
155.0085776834721
 20
163.5843202933827
 30
0.0
  0
POINT
  5
5FE
330
1F
100
AcDbEntity
  8
Specialized_Fills
  6
Continuous
100
AcDbPoint
 10
184.1100938111066
 20
136.9176938544603
 30
0.0
  0
POINT
  5
600
330
1F
100
AcDbEntity
  8
Specialized_Fills
  6
Continuous
100
AcDbPoint
 10
139.6713393953012
 20
129.2897465444604
 30
0.0
  0
POINT
  5
601
330
1F
100
AcDbEntity
  8
Specialized_Fills
  6
Continuous
100
AcDbPoint
 10
139.6713393953012
 20
256.1223048541901
 30
0.0
  0
POINT
  5
602
330
1F
100
AcDbEntity
  8
Specialized_Fills
  6
Continuous
100
AcDbPoint
 10
250.6526822311754
 20
256.1223048541901
 30
0.0
  0
LINE
  5
603
330
1F
100
AcDbEntity
  8
Specialized_Fills
  6
Continuous
100
AcDbLine
 10
136.572701415671
 20
155.7438299087744
 30
0.0
 11
142.0762598178871
 21
155.1233741058385
 31
0.0
  0
LINE
  5
604
330
1F
100
AcDbEntity
  8
Specialized_Fills
  6
Continuous
100
AcDbLine
 10
136.572701415671
 20
155.4413527131876
 30
0.0
 11
138.5835575323852
 21
151.7482436969397
 31
0.0
  0
LINE
  5
605
330
1F
100
AcDbEntity
  8
Specialized_Fills
  6
Continuous
100
AcDbLine
 10
137.4098791587496
 20
280.7363625899555
 30
0.0
 11
138.5835575323852
 21
278.5808020066693
 31
0.0
  0
LINE
  5
606
330
1F
100
AcDbEntity
  8
Specialized_Fills
  6
Continuous
100
AcDbLine
 10
248.3912219946237
 20
280.7363625899555
 30
0.0
 11
249.5649003682594
 21
278.5808020066693
 31
0.0
  0
LINE
  5
607
330
1F
100
AcDbEntity
  8
Specialized_Fills
  6
Continuous
100
AcDbLine
 10
138.5835572180122
 20
151.7482460802505
 30
0.0
 11
142.0762838118654
 21
155.1233475514052
 31
0.0
  0
LINE
  5
608
330
1F
100
AcDbEntity
  8
Specialized_Fills
  6
Continuous
100
AcDbLine
 10
138.5835572180122
 20
278.5808043899802
 30
0.0
 11
140.8142384327836
 21
280.7363625899555
 31
0.0
  0
LINE
  5
609
330
1F
100
AcDbEntity
  8
Specialized_Fills
  6
Continuous
100
AcDbLine
 10
249.5649000538863
 20
278.5808043899802
 30
0.0
 11
251.7955812686577
 21
280.7363625899555
 31
0.0
  0
LINE
  5
60A
330
1F
100
AcDbEntity
  8
Specialized_Fills
  6
Continuous
100
AcDbLine
 10
158.0315901386347
 20
190.4056609040639
 30
0.0
 11
159.9955766023831
 21
195.7725950540431
 31
0.0
  0
LINE
  5
60B
330
1F
100
AcDbEntity
  8
Specialized_Fills
  6
Continuous
100
AcDbLine
 10
158.0314412331683
 20
190.4055700720342
 30
0.0
 11
162.449706383119
 21
191.5812048217464
 31
0.0
  0
LINE
  5
60C
330
1F
100
AcDbEntity
  8
Specialized_Fills
  6
Continuous
100
AcDbLine
 10
162.4502042190603
 20
191.5806986464082
 30
0.0
 11
159.9959593949248
 21
195.7720148290893
 31
0.0
  0
LINE
  5
60D
330
1F
100
AcDbEntity
  8
Specialized_Fills
  6
Continuous
100
AcDbLine
 10
196.5838914619031
 20
242.691066865958
 30
0.0
 11
201.9193035993346
 21
244.7391396976093
 31
0.0
  0
LINE
  5
60E
330
1F
100
AcDbEntity
  8
Specialized_Fills
  6
Continuous
100
AcDbLine
 10
196.5838716976789
 20
242.691023266818
 30
0.0
 11
200.3742314794005
 21
240.1343933121497
 31
0.0
  0
LINE
  5
60F
330
1F
100
AcDbEntity
  8
Specialized_Fills
  6
Continuous
100
AcDbLine
 10
200.3742430437623
 20
240.1344202009584
 30
0.0
 11
201.9192981592657
 21
244.739119288853
 31
0.0
  0
LINE
  5
610
330
1F
100
AcDbEntity
  8
Specialized_Fills
  6
Continuous
100
AcDbLine
 10
197.2832563046317
 20
270.4430960822764
 30
0.0
 11
202.6186684420633
 21
272.4911689139278
 31
0.0
  0
LINE
  5
611
330
1F
100
AcDbEntity
  8
Specialized_Fills
  6
Continuous
100
AcDbLine
 10
197.2832365404076
 20
270.4430524831364
 30
0.0
 11
201.0735963221292
 21
267.8864225284682
 31
0.0
  0
LINE
  5
612
330
1F
100
AcDbEntity
  8
Specialized_Fills
  6
Continuous
100
AcDbLine
 10
201.073607886491
 20
267.8864494172769
 30
0.0
 11
202.6186630019944
 21
272.4911485051714
 31
0.0
  0
LINE
  5
613
330
1F
100
AcDbEntity
  8
Specialized_Fills
  6
Continuous
100
AcDbLine
 10
137.9913383847728
 20
184.7185531699454
 30
0.0
 11
143.3267505222043
 21
186.7666260015968
 31
0.0
  0
LINE
  5
614
330
1F
100
AcDbEntity
  8
Specialized_Fills
  6
Continuous
100
AcDbLine
 10
137.9913383847728
 20
184.7185531699454
 30
0.0
 11
141.7816981664944
 21
182.1619232152772
 31
0.0
  0
LINE
  5
615
330
1F
100
AcDbEntity
  8
Specialized_Fills
  6
Continuous
100
AcDbLine
 10
141.7816883847728
 20
182.1619231699455
 30
0.0
 11
143.3267435002761
 21
186.76662225784
 31
0.0
  0
ENDSEC
  0
SECTION
  2
OBJECTS
  0
DICTIONARY
  5
C
330
0
100
AcDbDictionary
281
     1
  3
ACAD_CIP_PREVIOUS_PRODUCT_INFO
350
331
  3
ACAD_COLOR
350
325
  3
ACAD_DETAILVIEWSTYLE
350
32A
  3
ACAD_GROUP
350
D
  3
ACAD_IMAGE_DICT
350
353
  3
ACAD_IMAGE_VARS
350
357
  3
ACAD_LAYOUT
350
1A
  3
ACAD_MATERIAL
350
3B
  3
ACAD_MLEADERSTYLE
350
318
  3
ACAD_MLINESTYLE
350
17
  3
ACAD_PLOTSETTINGS
350
19
  3
ACAD_PLOTSTYLENAME
350
E
  3
ACAD_SCALELIST
350
BD
  3
ACAD_SECTIONVIEWSTYLE
350
328
  3
ACAD_TABLESTYLE
350
317
  3
ACAD_VISUALSTYLE
350
2A
  3
ACAD_WIPEOUT_VARS
350
333
  3
ACDB_RECOMPOSE_DATA
350
6A2
  3
AcDbVariableDictionary
350
2F5
  3
AcDsDecomposeData
350
6A8
  3
WATERMARKS
350
2F3
  0
DICTIONARY
  5
33F
330
2
100
AcDbDictionary
280
     1
281
     1
  3
ACAD_LAYERSTATES
360
340
  0
DICTIONARY
  5
367
330
10
100
AcDbDictionary
280
     1
281
     1
  3
ADSK_XREC_LAYER_RECONCILED
360
368
  0
DICTIONARY
  5
369
330
40
100
AcDbDictionary
280
     1
281
     1
  3
ADSK_XREC_LAYER_RECONCILED
360
36A
  0
DICTIONARY
  5
36B
330
25F
100
AcDbDictionary
280
     1
281
     1
  3
ADSK_XREC_LAYER_RECONCILED
360
36C
  0
DICTIONARY
  5
36D
330
2B6
100
AcDbDictionary
280
     1
281
     1
  3
ADSK_XREC_LAYER_RECONCILED
360
36E
  0
DICTIONARY
  5
337
330
336
100
AcDbDictionary
280
     1
281
     1
  3
ADSK_XREC_LAYER_RECONCILED
360
36F
  0
DICTIONARY
  5
56D
330
1F
100
AcDbDictionary
280
     1
281
     1
  3
ACAD_SORTENTS
360
56E
  0
DICTIONARY
  5
393
330
E1
100
AcDbDictionary
280
     1
281
     1
  3
ACAD_SORTENTS
360
3A3
  0
DICTIONARY
  5
4DC
330
44D
100
AcDbDictionary
280
     1
281
     1
  3
ACAD_SORTENTS
360
4DD
  0
IMAGEDEF_REACTOR
  5
4C0
330
4BF
100
AcDbRasterImageDefReactor
 90
        2
330
4BF
  0
IMAGEDEF_REACTOR
  5
4D5
330
4D4
100
AcDbRasterImageDefReactor
 90
        2
330
4D4
  0
IMAGEDEF_REACTOR
  5
4D9
330
4D8
100
AcDbRasterImageDefReactor
 90
        2
330
4D8
  0
IMAGEDEF_REACTOR
  5
4DB
330
4DA
100
AcDbRasterImageDefReactor
 90
        2
330
4DA
  0
IMAGEDEF_REACTOR
  5
523
330
522
100
AcDbRasterImageDefReactor
 90
        2
330
522
  0
IMAGEDEF_REACTOR
  5
525
330
524
100
AcDbRasterImageDefReactor
 90
        2
330
524
  0
XRECORD
  5
331
102
{ACAD_REACTORS
330
C
102
}
330
C
100
AcDbXrecord
280
     1
300
ACD
300
2014
300
BDSPRM_F_S
  0
DICTIONARY
  5
325
102
{ACAD_REACTORS
330
C
102
}
330
C
100
AcDbDictionary
281
     1
  0
DICTIONARY
  5
32A
102
{ACAD_REACTORS
330
C
102
}
330
C
100
AcDbDictionary
281
     1
  3
Imperial24
350
32B
  0
DICTIONARY
  5
D
102
{ACAD_REACTORS
330
C
102
}
330
C
100
AcDbDictionary
281
     1
  0
DICTIONARY
  5
353
102
{ACAD_REACTORS
330
C
102
}
330
C
100
AcDbDictionary
281
     1
  3
BRANZ logo. Do not place on drawing without number 510-
350
4E0
  3
logo sharp
350
4E1
  0
RASTERVARIABLES
  5
357
102
{ACAD_REACTORS
330
C
102
}
330
C
100
AcDbRasterVariables
 90
        0
 70
     1
 71
     1
 72
     0
  0
DICTIONARY
  5
1A
102
{ACAD_REACTORS
330
C
102
}
330
C
100
AcDbDictionary
281
     1
  3
Layout1
350
1E
  3
Layout2
350
26
  3
Model
350
22
  0
DICTIONARY
  5
3B
102
{ACAD_REACTORS
330
C
102
}
330
C
100
AcDbDictionary
281
     1
  3
ByBlock
350
3D
  3
ByLayer
350
3C
  3
Global
350
3E
  0
DICTIONARY
  5
318
102
{ACAD_REACTORS
330
C
102
}
330
C
100
AcDbDictionary
281
     1
  3
Standard
350
327
  0
DICTIONARY
  5
17
102
{ACAD_REACTORS
330
C
102
}
330
C
100
AcDbDictionary
281
     1
  3
Standard
350
18
  0
DICTIONARY
  5
19
102
{ACAD_REACTORS
330
C
102
}
330
C
100
AcDbDictionary
281
     1
  0
ACDBDICTIONARYWDFLT
  5
E
102
{ACAD_REACTORS
330
C
102
}
330
C
100
AcDbDictionary
281
     1
  3
Normal
350
F
100
AcDbDictionaryWithDefault
340
F
  0
DICTIONARY
  5
BD
102
{ACAD_REACTORS
330
C
102
}
330
C
100
AcDbDictionary
281
     1
  3
A0
350
BE
  3
A1
350
BF
  3
A2
350
C0
  3
A3
350
C1
  3
A4
350
C2
  3
A5
350
C3
  3
A6
350
C4
  3
A7
350
C5
  3
A8
350
C6
  3
A9
350
C7
  3
B0
350
C8
  3
B1
350
C9
  3
B2
350
CA
  3
B3
350
CB
  3
B4
350
CC
  3
B5
350
CD
  3
B6
350
CE
  3
B7
350
CF
  3
B8
350
D0
  3
B9
350
D1
  3
C0
350
D2
  3
C1
350
D3
  3
C2
350
D4
  3
C3
350
D5
  3
C4
350
D6
  3
C5
350
D7
  3
C6
350
D8
  3
C7
350
D9
  3
C8
350
DA
  3
C9
350
DB
  3
D0
350
DC
  3
D1
350
DD
  3
D2
350
DE
  0
DICTIONARY
  5
328
102
{ACAD_REACTORS
330
C
102
}
330
C
100
AcDbDictionary
281
     1
  3
Imperial24
350
329
  0
DICTIONARY
  5
317
102
{ACAD_REACTORS
330
C
102
}
330
C
100
AcDbDictionary
281
     1
  3
Standard
350
326
  0
DICTIONARY
  5
2A
102
{ACAD_REACTORS
330
C
102
}
330
C
100
AcDbDictionary
281
     1
  3
2dWireframe
350
2F
  3
3D Hidden
350
31
  3
3dWireframe
350
30
  3
Basic
350
32
  3
Brighten
350
36
  3
ColorChange
350
3A
  3
Conceptual
350
34
  3
Dim
350
35
  3
EdgeColorOff
350
324
  3
Facepattern
350
39
  3
Flat
350
2B
  3
FlatWithEdges
350
2C
  3
Gouraud
350
2D
  3
GouraudWithEdges
350
2E
  3
Hidden
350
31C
  3
JitterOff
350
322
  3
Linepattern
350
38
  3
OverhangOff
350
323
  3
Realistic
350
33
  3
Shaded
350
321
  3
Shaded with edges
350
320
  3
Shades of Gray
350
31D
  3
Sketchy
350
31E
  3
Thicken
350
37
  3
Wireframe
350
31B
  3
X-Ray
350
31F
  0
WIPEOUTVARIABLES
  5
333
102
{ACAD_REACTORS
330
C
102
}
330
C
100
AcDbWipeoutVariables
 70
     1
  0
XRECORD
  5
6A2
102
{ACAD_REACTORS
330
C
102
}
330
C
100
AcDbXrecord
280
     1
 90
        1
330
326
330
35C
330
35F
330
360
330
363
330
4A4
330
4AF
330
4B0
330
4B3
330
4C4
330
4C7
330
4C8
330
4CB
  0
DICTIONARY
  5
2F5
102
{ACAD_REACTORS
330
C
102
}
330
C
100
AcDbDictionary
281
     1
  3
CANNOSCALE
350
2F6
  3
CMLEADERSTYLE
350
3C8
  3
CTABLESTYLE
350
3C7
  3
CVIEWDETAILSTYLE
350
3C9
  3
CVIEWSECTIONSTYLE
350
3CA
  3
HPCOLOR
350
399
  3
LAYEREVAL
350
3CB
  3
LAYERNOTIFY
350
3CC
  0
DICTIONARY
  5
6A8
102
{ACAD_REACTORS
330
C
102
}
330
C
100
AcDbDictionary
281
     1
  3
AcDsRecords
350
6AA
  3
AcDsSchemas
350
6A9
1001
ACAD
1070
     2
  0
DICTIONARY
  5
2F3
102
{ACAD_REACTORS
330
C
102
}
330
C
100
AcDbDictionary
281
     1
  3
AC_WATERMARK
350
2F4
  0
DICTIONARY
  5
340
102
{ACAD_REACTORS
330
33F
102
}
330
33F
100
AcDbDictionary
281
     1
  0
XRECORD
  5
368
102
{ACAD_REACTORS
330
367
102
}
330
367
100
AcDbXrecord
280
     1
290
     1
  0
XRECORD
  5
36A
102
{ACAD_REACTORS
330
369
102
}
330
369
100
AcDbXrecord
280
     1
290
     1
  0
XRECORD
  5
36C
102
{ACAD_REACTORS
330
36B
102
}
330
36B
100
AcDbXrecord
280
     1
290
     1
  0
XRECORD
  5
36E
102
{ACAD_REACTORS
330
36D
102
}
330
36D
100
AcDbXrecord
280
     1
290
     1
  0
XRECORD
  5
36F
102
{ACAD_REACTORS
330
337
102
}
330
337
100
AcDbXrecord
280
     1
290
     1
  0
SORTENTSTABLE
  5
56E
102
{ACAD_REACTORS
330
56D
102
}
330
56D
100
AcDbSortentsTable
330
1F
331
265
  5
521
331
2A4
  5
5D5
331
2DB
  5
5EB
331
5AC
  5
264
331
5E3
  5
29C
331
26D
  5
569
331
2AC
  5
5DC
331
2E3
  5
5F3
331
5B4
  5
26C
331
5EB
  5
2A4
331
275
  5
5A7
331
2EB
  5
5FA
331
5BC
  5
274
331
5F3
  5
2AD
331
27D
  5
5AF
331
51D
  5
60D
331
5C4
  5
27C
331
5FB
  5
2DC
331
285
  5
5B7
331
5CC
  5
284
331
603
  5
2E4
331
28D
  5
5BE
331
362
  5
607
331
52D
  5
615
331
5D4
  5
28D
331
60B
  5
2ED
331
25E
  5
51B
331
295
  5
5C6
331
5DC
  5
295
331
613
  5
35F
331
29D
  5
5CE
331
5A5
  5
25C
331
266
  5
522
331
2DC
  5
5EC
331
5AD
  5
265
331
5E4
  5
29D
331
26E
  5
56A
331
2AD
  5
5DD
331
2E4
  5
5F4
331
5B5
  5
26D
331
5EC
  5
2A6
331
41
  5
41
331
276
  5
5A8
331
2EC
  5
5FB
331
5BD
  5
275
331
5F4
  5
2B1
331
27E
  5
5B0
331
51E
  5
60E
331
5C5
  5
27D
331
5FC
  5
2DD
331
526
  5
614
331
286
  5
5B8
331
5CD
  5
285
331
604
  5
2E5
331
28E
  5
5BF
331
363
  5
608
331
5D5
  5
28E
331
60C
  5
2EE
331
296
  5
5C7
331
566
  5
5DF
331
5DD
  5
296
331
614
  5
360
331
29E
  5
5CF
331
5A6
  5
25D
331
267
  5
524
331
2A6
  5
5D6
331
2DD
  5
5ED
331
5AE
  5
266
331
5E5
  5
29E
331
26F
  5
56B
331
2E5
  5
5F5
331
5B6
  5
26E
331
5ED
  5
2A7
331
42
  5
42
331
277
  5
5A9
331
2ED
  5
5FC
331
5BE
  5
276
331
5F5
  5
2CF
331
27F
  5
5B1
331
51F
  5
60F
331
5C6
  5
27E
331
5FD
  5
2DE
331
E0
  5
362
331
287
  5
5B9
331
35C
  5
601
331
5CE
  5
286
331
605
  5
2E6
331
28F
  5
5C0
331
364
  5
609
331
5D6
  5
28F
331
60D
  5
2EF
331
297
  5
5C8
331
567
  5
5E0
331
5DE
  5
297
331
615
  5
361
331
29F
  5
5D0
331
5A7
  5
25E
331
260
  5
51C
331
268
  5
526
331
2A7
  5
5D7
331
2DE
  5
5EE
331
5AF
  5
267
331
5E6
  5
29F
331
270
  5
56C
331
2E6
  5
5F6
331
5B7
  5
26F
331
5EE
  5
2A8
331
43
  5
43
331
278
  5
5AA
331
2EE
  5
5FD
331
5BF
  5
277
331
5F6
  5
2D1
331
520
  5
610
331
5C7
  5
27F
331
5FE
  5
2DF
331
280
  5
5B2
331
288
  5
5BA
331
35D
  5
602
331
5CF
  5
287
331
606
  5
2E8
331
290
  5
5C1
331
2CF
  5
5E6
331
5D7
  5
290
331
60E
  5
358
331
298
  5
5C9
331
568
  5
5E1
331
5DF
  5
298
331
261
  5
51D
331
2A0
  5
5D1
331
5A8
  5
260
331
269
  5
52D
331
2A8
  5
5D8
331
2DF
  5
5EF
331
5B0
  5
268
331
5E7
  5
2A0
331
271
  5
5A3
331
5B8
  5
270
331
5EF
  5
2A9
331
279
  5
5AB
331
2EF
  5
5FE
331
5C0
  5
278
331
521
  5
611
331
281
  5
5B3
331
5C8
  5
280
331
289
  5
5BB
331
35E
  5
603
331
5D0
  5
288
331
607
  5
2E9
331
291
  5
5C2
331
5D8
  5
291
331
60F
  5
359
331
299
  5
5CA
331
569
  5
5E2
331
262
  5
51E
331
2A1
  5
5D2
331
5A9
  5
261
331
5E0
  5
299
331
26A
  5
566
331
2A9
  5
5D9
331
2E0
  5
5F0
331
5B1
  5
269
331
272
  5
5A4
331
2B1
  5
5DE
331
2E8
  5
5F7
331
5B9
  5
271
331
5F0
  5
2AA
331
27A
  5
5AC
331
51A
  5
60A
331
5C1
  5
279
331
5F8
  5
2D9
331
522
  5
612
331
282
  5
5B4
331
5C9
  5
281
331
600
  5
2E1
331
28A
  5
5BC
331
35F
  5
604
331
5D1
  5
289
331
608
  5
2EA
331
25B
  5
363
331
292
  5
5C3
331
2D1
  5
5E7
331
610
  5
35C
331
29A
  5
5CB
331
56A
  5
5E3
331
263
  5
51F
331
2A2
  5
5D3
331
2D9
  5
5E9
331
5AA
  5
262
331
5E1
  5
29A
331
26B
  5
567
331
2AA
  5
5DA
331
2E1
  5
5F1
331
5B2
  5
26A
331
5E9
  5
2A2
331
273
  5
5A5
331
2E9
  5
5F8
331
5BA
  5
272
331
5F1
  5
2AB
331
27B
  5
5AD
331
51B
  5
60B
331
5C2
  5
27A
331
5F9
  5
2DA
331
283
  5
5B5
331
358
  5
5FF
331
5CA
  5
282
331
601
  5
2E2
331
28B
  5
5BD
331
360
  5
605
331
5D2
  5
28A
331
609
  5
2EB
331
25C
  5
364
331
293
  5
5C4
331
2D2
  5
5E8
331
5DA
  5
293
331
611
  5
35D
331
29B
  5
5CC
331
56B
  5
5E4
331
3F
  5
3F
331
264
  5
520
331
2A3
  5
5D4
331
2DA
  5
5EA
331
5AB
  5
263
331
5E2
  5
29B
331
26C
  5
568
331
2AB
  5
5DB
331
2E2
  5
5F2
331
5EA
  5
2A3
331
274
  5
5A6
331
2EA
  5
5F9
331
5B3
  5
26B
331
27C
  5
5AE
331
51C
  5
60C
331
5BB
  5
273
331
5F2
  5
2AC
331
524
  5
613
331
5C3
  5
27B
331
5FA
  5
2DB
331
284
  5
5B6
331
359
  5
600
331
361
  5
606
331
5CB
  5
283
331
602
  5
2E3
331
25D
  5
51A
331
294
  5
5C5
331
5D3
  5
28B
331
60A
  5
2EC
331
29C
  5
5CD
331
56C
  5
5E5
331
5DB
  5
294
331
612
  5
35E
331
5A4
  5
25B
  0
SORTENTSTABLE
  5
3A3
102
{ACAD_REACTORS
330
393
102
}
330
393
100
AcDbSortentsTable
330
E1
331
38D
  5
38F
331
38B
  5
38D
331
389
  5
38B
331
3A5
  5
38A
331
390
  5
397
331
38E
  5
390
331
38C
  5
38E
331
38A
  5
38C
331
391
  5
39A
331
38F
  5
391
  0
SORTENTSTABLE
  5
4DD
102
{ACAD_REACTORS
330
4DC
102
}
330
4DC
100
AcDbSortentsTable
330
44D
  0
ACDBDETAILVIEWSTYLE
  5
32B
102
{ACAD_XDICTIONARY
360
3C4
102
}
102
{ACAD_REACTORS
330
32A
102
}
330
32A
100
AcDbModelDocViewStyle
 70
     0
  3
Imperial24
290
     0
100
AcDbDetailViewStyle
 70
     0
 71
     0
 90
        3
 71
     1
340
11
 62
   256
 40
0.24
340
0
 62
   256
 40
0.24
300

 40
0.36
280
     3
 71
     2
340
16
 90
       25
 62
   256
 71
     3
340
11
 62
   256
 40
0.24
 90
        1
 40
0.75
 90
        1
300
%<\AcVar ViewType \f "%tc1">% %<\AcVar ViewDetailId>%\PSCALE %<\AcVar ViewScale \f "%sn">%
 71
     4
340
16
 90
       25
 62
   256
340
16
 90
       25
 62
   256
280
     0
  0
IMAGEDEF
  5
4E0
102
{ACAD_REACTORS
330
4C0
330
4D5
330
353
330
523
102
}
330
353
100
AcDbRasterImageDef
 90
        0
  1
P:\VERT-X CONSULTING LTD\2013\10 Oct\1310-015- Specialized Construction Products - Contract draughting\Drawings\BRANZ logo. Do not place on drawing without number 510-.jpg
 10
828.0
 20
781.0
 11
0.0846666666666667
 21
0.0846666666666667
280
     1
281
     5
  0
IMAGEDEF
  5
4E1
102
{ACAD_REACTORS
330
4D9
330
4DB
330
353
330
525
102
}
330
353
100
AcDbRasterImageDef
 90
        0
  1
P:\VERT-X CONSULTING LTD\2013\10 Oct\1310-015- Specialized Construction Products - Contract draughting\Drawings\logo sharp.JPG
 10
2521.0
 20
901.0
 11
0.2645833333333333
 21
0.2645833333333333
280
     1
281
     5
  0
LAYOUT
  5
1E
102
{ACAD_REACTORS
330
1A
102
}
330
1A
100
AcDbPlotSettings
  1

  2
none_device
  4

  6

 40
0.0
 41
0.0
 42
0.0
 43
0.0
 44
0.0
 45
0.0
 46
0.0
 47
0.0
 48
0.0
 49
0.0
140
0.0
141
0.0
142
1.0
143
1.0
 70
   688
 72
     0
 73
     0
 74
     5
  7

 75
    16
147
1.0
 76
     0
 77
     2
 78
   300
148
0.0
149
0.0
100
AcDbLayout
  1
Layout1
 70
     1
 71
     1
 10
0.0
 20
0.0
 11
12.0
 21
9.0
 12
0.0
 22
0.0
 32
0.0
 14
1.000000000000000E+20
 24
1.000000000000000E+20
 34
1.000000000000000E+20
 15
-1.000000000000000E+20
 25
-1.000000000000000E+20
 35
-1.000000000000000E+20
146
0.0
 13
0.0
 23
0.0
 33
0.0
 16
1.0
 26
0.0
 36
0.0
 17
0.0
 27
1.0
 37
0.0
 76
     0
330
1B
  0
LAYOUT
  5
26
102
{ACAD_REACTORS
330
1A
102
}
330
1A
100
AcDbPlotSettings
  1

  2
none_device
  4

  6

 40
0.0
 41
0.0
 42
0.0
 43
0.0
 44
0.0
 45
0.0
 46
0.0
 47
0.0
 48
0.0
 49
0.0
140
0.0
141
0.0
142
1.0
143
1.0
 70
   688
 72
     0
 73
     0
 74
     5
  7

 75
    16
147
1.0
 76
     0
 77
     2
 78
   300
148
0.0
149
0.0
100
AcDbLayout
  1
Layout2
 70
     1
 71
     2
 10
0.0
 20
0.0
 11
0.0
 21
0.0
 12
0.0
 22
0.0
 32
0.0
 14
0.0
 24
0.0
 34
0.0
 15
0.0
 25
0.0
 35
0.0
146
0.0
 13
0.0
 23
0.0
 33
0.0
 16
1.0
 26
0.0
 36
0.0
 17
0.0
 27
1.0
 37
0.0
 76
     0
330
23
  0
LAYOUT
  5
22
102
{ACAD_REACTORS
330
1A
102
}
330
1A
100
AcDbPlotSettings
  1

  2
none_device
  4

  6

 40
0.0
 41
0.0
 42
0.0
 43
0.0
 44
0.0
 45
0.0
 46
0.0
 47
0.0
 48
0.0
 49
0.0
140
0.0
141
0.0
142
1.0
143
1.0
 70
  1712
 72
     0
 73
     0
 74
     0
  7

 75
     0
147
1.0
 76
     0
 77
     2
 78
   300
148
0.0
149
0.0
100
AcDbLayout
  1
Model
 70
     1
 71
     0
 10
0.0
 20
0.0
 11
12.0
 21
9.0
 12
0.0
 22
0.0
 32
0.0
 14
1.000000000000000E+20
 24
1.000000000000000E+20
 34
1.000000000000000E+20
 15
-1.000000000000000E+20
 25
-1.000000000000000E+20
 35
-1.000000000000000E+20
146
0.0
 13
0.0
 23
0.0
 33
0.0
 16
1.0
 26
0.0
 36
0.0
 17
0.0
 27
1.0
 37
0.0
 76
     0
330
1F
331
29
  0
MATERIAL
  5
3D
102
{ACAD_REACTORS
330
3B
102
}
330
3B
100
AcDbMaterial
  1
ByBlock
 73
     1
 78
     1
172
     1
176
     1
270
     1
274
     1
  0
MATERIAL
  5
3C
102
{ACAD_REACTORS
330
3B
102
}
330
3B
100
AcDbMaterial
  1
ByLayer
 73
     1
 78
     1
172
     1
176
     1
270
     1
274
     1
  0
MATERIAL
  5
3E
102
{ACAD_REACTORS
330
3B
102
}
330
3B
100
AcDbMaterial
  1
Global
 73
     1
 78
     1
172
     1
176
     1
270
     1
274
     1
  0
MLEADERSTYLE
  5
327
102
{ACAD_XDICTIONARY
360
6DF
102
}
102
{ACAD_REACTORS
330
318
102
}
330
318
100
AcDbMLeaderStyle
179
     2
170
     2
171
     1
172
     0
 90
        2
 40
0.0
 41
0.0
173
     1
 91
-1056964608
340
14
 92
       -2
290
     1
 42
0.09
291
     1
 43
0.36
  3
Standard
 44
0.18
300

342
11
174
     1
178
     6
175
     1
176
     0
 93
-1056964608
 45
0.18
292
     0
297
     0
 46
0.18
 94
-1056964608
 47
1.0
 49
1.0
140
1.0
293
     1
141
0.0
294
     1
177
     0
142
1.0
295
     0
296
     0
143
0.125
271
     0
272
     9
273
     9
  0
MLINESTYLE
  5
18
102
{ACAD_REACTORS
330
17
102
}
330
17
100
AcDbMlineStyle
  2
STANDARD
 70
     0
  3

 62
   256
 51
90.0
 52
90.0
 71
     2
 49
0.5
 62
   256
  6
BYLAYER
 49
-0.5
 62
   256
  6
BYLAYER
  0
ACDBPLACEHOLDER
  5
F
102
{ACAD_REACTORS
330
E
102
}
330
E
  0
SCALE
  5
BE
102
{ACAD_REACTORS
330
BD
102
}
330
BD
100
AcDbScale
 70
     0
300
1:1
140
1.0
141
1.0
290
     1
  0
SCALE
  5
BF
102
{ACAD_REACTORS
330
BD
102
}
330
BD
100
AcDbScale
 70
     0
300
1:2
140
1.0
141
2.0
290
     0
  0
SCALE
  5
C0
102
{ACAD_REACTORS
330
BD
102
}
330
BD
100
AcDbScale
 70
     0
300
1:4
140
1.0
141
4.0
290
     0
  0
SCALE
  5
C1
102
{ACAD_REACTORS
330
BD
102
}
330
BD
100
AcDbScale
 70
     0
300
1:5
140
1.0
141
5.0
290
     0
  0
SCALE
  5
C2
102
{ACAD_REACTORS
330
BD
102
}
330
BD
100
AcDbScale
 70
     0
300
1:8
140
1.0
141
8.0
290
     0
  0
SCALE
  5
C3
102
{ACAD_REACTORS
330
BD
102
}
330
BD
100
AcDbScale
 70
     0
300
1:10
140
1.0
141
10.0
290
     0
  0
SCALE
  5
C4
102
{ACAD_REACTORS
330
BD
102
}
330
BD
100
AcDbScale
 70
     0
300
1:16
140
1.0
141
16.0
290
     0
  0
SCALE
  5
C5
102
{ACAD_REACTORS
330
BD
102
}
330
BD
100
AcDbScale
 70
     0
300
1:20
140
1.0
141
20.0
290
     0
  0
SCALE
  5
C6
102
{ACAD_REACTORS
330
BD
102
}
330
BD
100
AcDbScale
 70
     0
300
1:30
140
1.0
141
30.0
290
     0
  0
SCALE
  5
C7
102
{ACAD_REACTORS
330
BD
102
}
330
BD
100
AcDbScale
 70
     0
300
1:40
140
1.0
141
40.0
290
     0
  0
SCALE
  5
C8
102
{ACAD_REACTORS
330
BD
102
}
330
BD
100
AcDbScale
 70
     0
300
1:50
140
1.0
141
50.0
290
     0
  0
SCALE
  5
C9
102
{ACAD_REACTORS
330
BD
102
}
330
BD
100
AcDbScale
 70
     0
300
1:100
140
1.0
141
100.0
290
     0
  0
SCALE
  5
CA
102
{ACAD_REACTORS
330
BD
102
}
330
BD
100
AcDbScale
 70
     0
300
2:1
140
2.0
141
1.0
290
     0
  0
SCALE
  5
CB
102
{ACAD_REACTORS
330
BD
102
}
330
BD
100
AcDbScale
 70
     0
300
4:1
140
4.0
141
1.0
290
     0
  0
SCALE
  5
CC
102
{ACAD_REACTORS
330
BD
102
}
330
BD
100
AcDbScale
 70
     0
300
8:1
140
8.0
141
1.0
290
     0
  0
SCALE
  5
CD
102
{ACAD_REACTORS
330
BD
102
}
330
BD
100
AcDbScale
 70
     0
300
10:1
140
10.0
141
1.0
290
     0
  0
SCALE
  5
CE
102
{ACAD_REACTORS
330
BD
102
}
330
BD
100
AcDbScale
 70
     0
300
100:1
140
100.0
141
1.0
290
     0
  0
SCALE
  5
CF
102
{ACAD_REACTORS
330
BD
102
}
330
BD
100
AcDbScale
 70
     0
300
1/128" = 1'-0"
140
0.0078125
141
12.0
290
     0
  0
SCALE
  5
D0
102
{ACAD_REACTORS
330
BD
102
}
330
BD
100
AcDbScale
 70
     0
300
1/64" = 1'-0"
140
0.015625
141
12.0
290
     0
  0
SCALE
  5
D1
102
{ACAD_REACTORS
330
BD
102
}
330
BD
100
AcDbScale
 70
     0
300
1/32" = 1'-0"
140
0.03125
141
12.0
290
     0
  0
SCALE
  5
D2
102
{ACAD_REACTORS
330
BD
102
}
330
BD
100
AcDbScale
 70
     0
300
1/16" = 1'-0"
140
0.0625
141
12.0
290
     0
  0
SCALE
  5
D3
102
{ACAD_REACTORS
330
BD
102
}
330
BD
100
AcDbScale
 70
     0
300
3/32" = 1'-0"
140
0.09375
141
12.0
290
     0
  0
SCALE
  5
D4
102
{ACAD_REACTORS
330
BD
102
}
330
BD
100
AcDbScale
 70
     0
300
1/8" = 1'-0"
140
0.125
141
12.0
290
     0
  0
SCALE
  5
D5
102
{ACAD_REACTORS
330
BD
102
}
330
BD
100
AcDbScale
 70
     0
300
3/16" = 1'-0"
140
0.1875
141
12.0
290
     0
  0
SCALE
  5
D6
102
{ACAD_REACTORS
330
BD
102
}
330
BD
100
AcDbScale
 70
     0
300
1/4" = 1'-0"
140
0.25
141
12.0
290
     0
  0
SCALE
  5
D7
102
{ACAD_REACTORS
330
BD
102
}
330
BD
100
AcDbScale
 70
     0
300
3/8" = 1'-0"
140
0.375
141
12.0
290
     0
  0
SCALE
  5
D8
102
{ACAD_REACTORS
330
BD
102
}
330
BD
100
AcDbScale
 70
     0
300
1/2" = 1'-0"
140
0.5
141
12.0
290
     0
  0
SCALE
  5
D9
102
{ACAD_REACTORS
330
BD
102
}
330
BD
100
AcDbScale
 70
     0
300
3/4" = 1'-0"
140
0.75
141
12.0
290
     0
  0
SCALE
  5
DA
102
{ACAD_REACTORS
330
BD
102
}
330
BD
100
AcDbScale
 70
     0
300
1" = 1'-0"
140
1.0
141
12.0
290
     0
  0
SCALE
  5
DB
102
{ACAD_REACTORS
330
BD
102
}
330
BD
100
AcDbScale
 70
     0
300
1-1/2" = 1'-0"
140
1.5
141
12.0
290
     0
  0
SCALE
  5
DC
102
{ACAD_REACTORS
330
BD
102
}
330
BD
100
AcDbScale
 70
     0
300
3" = 1'-0"
140
3.0
141
12.0
290
     0
  0
SCALE
  5
DD
102
{ACAD_REACTORS
330
BD
102
}
330
BD
100
AcDbScale
 70
     0
300
6" = 1'-0"
140
6.0
141
12.0
290
     0
  0
SCALE
  5
DE
102
{ACAD_REACTORS
330
BD
102
}
330
BD
100
AcDbScale
 70
     0
300
1'-0" = 1'-0"
140
12.0
141
12.0
290
     0
  0
ACDBSECTIONVIEWSTYLE
  5
329
102
{ACAD_XDICTIONARY
360
3C2
102
}
102
{ACAD_REACTORS
330
328
102
}
330
328
100
AcDbModelDocViewStyle
 70
     0
  3
Imperial24
290
     0
100
AcDbSectionViewStyle
 70
     0
 71
     0
 90
       78
 71
     1
340
11
 62
   256
 40
0.24
340
0
340
0
 62
   256
 40
0.24
300
I, O, Q, S, X, Z
 40
0.48
 90
        3
 40
0.18
 90
        1
 71
     2
340
16
 90
       25
 62
   256
340
16
 90
       50
 62
   256
 40
0.24
 40
0.0
 40
0.24
 71
     3
340
11
 62
   256
 40
0.24
 90
        1
 40
0.75
 90
        1
300
%<\AcVar ViewType \f "%tc1">% %<\AcVar ViewSectionStartId>%-%<\AcVar ViewSectionEndId>%\PSCALE %<\AcVar ViewScale \f "%sn">%
 71
     4
 62
   256
 62
   257
300
ANSI31
 40
1.0
 90
        0
290
     0
290
     0
 90
        6
 40
0.0
 40
1.570796326794896
 40
0.2617993877991494
 40
1.308996938995747
 40
-0.2617993877991494
 40
1.832595714594046
  0
TABLESTYLE
  5
326
102
{ACAD_XDICTIONARY
360
6A0
102
}
102
{ACAD_REACTORS
330
317
102
}
330
317
100
AcDbTableStyle
280
     0
  3
Standard
 70
     0
 71
     0
 40
0.06
 41
0.06
280
     0
281
     0
  7
Standard
140
0.18
170
     2
 62
     0
 63
     7
283
     0
 90
      512
 91
        0
  1

274
    -2
284
     1
 64
     0
275
    -2
285
     1
 65
     0
276
    -2
286
     1
 66
     0
277
    -2
287
     1
 67
     0
278
    -2
288
     1
 68
     0
279
    -2
289
     1
 69
     0
  7
Standard
140
0.25
170
     5
 62
     0
 63
     7
283
     0
 90
      512
 91
        0
  1

274
    -2
284
     1
 64
     0
275
    -2
285
     1
 65
     0
276
    -2
286
     1
 66
     0
277
    -2
287
     1
 67
     0
278
    -2
288
     1
 68
     0
279
    -2
289
     1
 69
     0
  7
Standard
140
0.18
170
     5
 62
     0
 63
     7
283
     0
 90
      512
 91
        0
  1

274
    -2
284
     1
 64
     0
275
    -2
285
     1
 65
     0
276
    -2
286
     1
 66
     0
277
    -2
287
     1
 67
     0
278
    -2
288
     1
 68
     0
279
    -2
289
     1
 69
     0
  0
VISUALSTYLE
  5
2F
102
{ACAD_XDICTIONARY
360
6B3
102
}
102
{ACAD_REACTORS
330
2A
102
}
330
2A
100
AcDbVisualStyle
  2
2dWireframe
 70
     4
177
     2
291
     0
 71
     0
176
     1
 72
     2
176
     1
 73
     0
176
     1
 90
        0
176
     1
 40
0.6
176
     1
 41
30.0
176
     1
 63
     7
421
 16777215
176
     1
 74
     1
176
     1
 91
        4
176
     1
 64
     7
176
     1
 65
   257
176
     1
 75
     1
176
     1
175
     1
176
     1
 42
1.0
176
     1
 92
        0
176
     1
 66
   257
176
     1
 43
1.0
176
     1
 76
     1
176
     1
 77
     6
176
     1
 78
     2
176
     1
 67
     7
176
     1
 79
     5
176
     1
170
     0
176
     1
171
     0
176
     1
290
     0
176
     1
 93
        1
176
     1
 44
0.0
176
     1
173
     0
176
     1
1001
ACAD
1000
AcDbSavedByObjectVersion
1070
     0
  0
VISUALSTYLE
  5
31
102
{ACAD_XDICTIONARY
360
6B7
102
}
102
{ACAD_REACTORS
330
2A
102
}
330
2A
100
AcDbVisualStyle
  2
3D Hidden
 70
     6
177
     2
291
     0
 71
     1
176
     1
 72
     2
176
     1
 73
     2
176
     1
 90
        0
176
     1
 40
0.6
176
     1
 41
30.0
176
     1
 63
     7
421
 16777215
176
     1
 74
     2
176
     1
 91
        2
176
     1
 64
     7
176
     1
 65
   257
176
     1
 75
     2
176
     1
175
     1
176
     1
 42
40.0
176
     1
 92
        0
176
     1
 66
   257
176
     1
 43
1.0
176
     1
 76
     1
176
     1
 77
     6
176
     1
 78
     2
176
     1
 67
     7
176
     1
 79
     3
176
     1
170
     0
176
     1
171
     0
176
     1
290
     0
176
     1
 93
        1
176
     1
 44
0.0
176
     1
173
     0
176
     1
1001
ACAD
1000
AcDbSavedByObjectVersion
1070
     0
  0
VISUALSTYLE
  5
30
102
{ACAD_XDICTIONARY
360
6B5
102
}
102
{ACAD_REACTORS
330
2A
102
}
330
2A
100
AcDbVisualStyle
  2
3dWireframe
 70
     5
177
     2
291
     0
 71
     0
176
     1
 72
     2
176
     1
 73
     0
176
     1
 90
        0
176
     1
 40
0.6
176
     1
 41
30.0
176
     1
 63
     7
421
 16777215
176
     1
 74
     1
176
     1
 91
        4
176
     1
 64
     7
176
     1
 65
   257
176
     1
 75
     1
176
     1
175
     1
176
     1
 42
1.0
176
     1
 92
        0
176
     1
 66
   257
176
     1
 43
1.0
176
     1
 76
     1
176
     1
 77
     6
176
     1
 78
     2
176
     1
 67
     7
176
     1
 79
     5
176
     1
170
     0
176
     1
171
     0
176
     1
290
     0
176
     1
 93
        1
176
     1
 44
0.0
176
     1
173
     0
176
     1
1001
ACAD
1000
AcDbSavedByObjectVersion
1070
     0
  0
VISUALSTYLE
  5
32
102
{ACAD_XDICTIONARY
360
6B9
102
}
102
{ACAD_REACTORS
330
2A
102
}
330
2A
100
AcDbVisualStyle
  2
Basic
 70
     7
177
     2
291
     1
 71
     1
176
     1
 72
     0
176
     1
 73
     1
176
     1
 90
        0
176
     1
 40
0.6
176
     1
 41
30.0
176
     1
 63
     7
421
 16777215
176
     1
 74
     0
176
     1
 91
        4
176
     1
 64
     7
176
     1
 65
   257
176
     1
 75
     1
176
     1
175
     1
176
     1
 42
1.0
176
     1
 92
        8
176
     1
 66
     7
176
     1
 43
1.0
176
     1
 76
     1
176
     1
 77
     6
176
     1
 78
     2
176
     1
 67
     7
176
     1
 79
     5
176
     1
170
     0
176
     1
171
     0
176
     1
290
     0
176
     1
 93
        1
176
     1
 44
0.0
176
     1
173
     0
176
     1
1001
ACAD
1000
AcDbSavedByObjectVersion
1070
     0
  0
VISUALSTYLE
  5
36
102
{ACAD_XDICTIONARY
360
6C1
102
}
102
{ACAD_REACTORS
330
2A
102
}
330
2A
100
AcDbVisualStyle
  2
Brighten
 70
    12
177
     2
291
     1
 71
     2
176
     1
 72
     2
176
     1
 73
     0
176
     1
 90
        0
176
     1
 40
0.6
176
     1
 41
30.0
176
     1
 63
     7
421
 16777215
176
     1
 74
     1
176
     1
 91
        4
176
     1
 64
     7
176
     1
 65
   257
176
     1
 75
     1
176
     1
175
     1
176
     1
 42
1.0
176
     1
 92
        8
176
     1
 66
     7
176
     1
 43
1.0
176
     1
 76
     1
176
     1
 77
     6
176
     1
 78
     2
176
     1
 67
     7
176
     1
 79
     5
176
     1
170
     0
176
     1
171
     0
176
     1
290
     0
176
     1
 93
        1
176
     1
 44
50.0
176
     1
173
     0
176
     1
1001
ACAD
1000
AcDbSavedByObjectVersion
1070
     0
  0
VISUALSTYLE
  5
3A
102
{ACAD_XDICTIONARY
360
6C9
102
}
102
{ACAD_REACTORS
330
2A
102
}
330
2A
100
AcDbVisualStyle
  2
ColorChange
 70
    16
177
     2
291
     1
 71
     2
176
     1
 72
     2
176
     1
 73
     3
176
     1
 90
        0
176
     1
 40
0.6
176
     1
 41
30.0
176
     1
 63
     8
421
  8421504
176
     1
 74
     1
176
     1
 91
        4
176
     1
 64
     7
176
     1
 65
   257
176
     1
 75
     1
176
     1
175
     1
176
     1
 42
1.0
176
     1
 92
        8
176
     1
 66
     8
424
  8421504
176
     1
 43
1.0
176
     1
 76
     1
176
     1
 77
     6
176
     1
 78
     2
176
     1
 67
     7
176
     1
 79
     5
176
     1
170
     0
176
     1
171
     0
176
     1
290
     0
176
     1
 93
        1
176
     1
 44
0.0
176
     1
173
     0
176
     1
1001
ACAD
1000
AcDbSavedByObjectVersion
1070
     0
  0
VISUALSTYLE
  5
34
102
{ACAD_XDICTIONARY
360
6BD
102
}
102
{ACAD_REACTORS
330
2A
102
}
330
2A
100
AcDbVisualStyle
  2
Conceptual
 70
     9
177
     2
291
     0
 71
     3
176
     1
 72
     2
176
     1
 73
     0
176
     1
 90
        0
176
     1
 40
0.6
176
     1
 41
30.0
176
     1
 63
     7
421
 16777215
176
     1
 74
     2
176
     1
 91
        2
176
     1
 64
     7
176
     1
 65
   257
176
     1
 75
     1
176
     1
175
     1
176
     1
 42
40.0
176
     1
 92
        8
176
     1
 66
     7
176
     1
 43
1.0
176
     1
 76
     1
176
     1
 77
     6
176
     1
 78
     2
176
     1
 67
     7
176
     1
 79
     3
176
     1
170
     0
176
     1
171
     0
176
     1
290
     0
176
     1
 93
        1
176
     1
 44
0.0
176
     1
173
     0
176
     1
1001
ACAD
1000
AcDbSavedByObjectVersion
1070
     0
  0
VISUALSTYLE
  5
35
102
{ACAD_XDICTIONARY
360
6BF
102
}
102
{ACAD_REACTORS
330
2A
102
}
330
2A
100
AcDbVisualStyle
  2
Dim
 70
    11
177
     2
291
     1
 71
     2
176
     1
 72
     2
176
     1
 73
     0
176
     1
 90
        0
176
     1
 40
0.6
176
     1
 41
30.0
176
     1
 63
     7
421
 16777215
176
     1
 74
     1
176
     1
 91
        4
176
     1
 64
     7
176
     1
 65
   257
176
     1
 75
     1
176
     1
175
     1
176
     1
 42
1.0
176
     1
 92
        8
176
     1
 66
     7
176
     1
 43
1.0
176
     1
 76
     1
176
     1
 77
     6
176
     1
 78
     2
176
     1
 67
     7
176
     1
 79
     5
176
     1
170
     0
176
     1
171
     0
176
     1
290
     0
176
     1
 93
        1
176
     1
 44
-50.0
176
     1
173
     0
176
     1
1001
ACAD
1000
AcDbSavedByObjectVersion
1070
     0
  0
VISUALSTYLE
  5
324
102
{ACAD_XDICTIONARY
360
6DD
102
}
102
{ACAD_REACTORS
330
2A
102
}
330
2A
100
AcDbVisualStyle
  2
EdgeColorOff
 70
    22
177
     2
291
     1
 71
     2
176
     0
 72
     2
176
     0
 73
     0
176
     0
 90
        0
176
     0
 40
0.6
176
     0
 41
30.0
176
     0
 63
     7
421
 16777215
176
     0
 74
     1
176
     0
 91
        4
176
     0
 64
     7
176
     0
 65
   257
176
     0
 75
     1
176
     0
175
     1
176
     0
 42
1.0
176
     0
 92
        8
176
     2
 66
     7
176
     0
 43
1.0
176
     0
 76
     1
176
     0
 77
     6
176
     0
 78
     2
176
     0
 67
     7
176
     0
 79
     5
176
     0
170
     0
176
     0
171
     0
176
     0
290
     0
176
     0
 93
        1
176
     0
 44
0.0
176
     0
173
     0
176
     0
1001
ACAD
1000
AcDbSavedByObjectVersion
1070
     0
  0
VISUALSTYLE
  5
39
102
{ACAD_XDICTIONARY
360
6C7
102
}
102
{ACAD_REACTORS
330
2A
102
}
330
2A
100
AcDbVisualStyle
  2
Facepattern
 70
    15
177
     2
291
     1
 71
     2
176
     1
 72
     2
176
     1
 73
     0
176
     1
 90
        0
176
     1
 40
0.6
176
     1
 41
30.0
176
     1
 63
     7
421
 16777215
176
     1
 74
     1
176
     1
 91
        4
176
     1
 64
     7
176
     1
 65
   257
176
     1
 75
     1
176
     1
175
     1
176
     1
 42
1.0
176
     1
 92
        8
176
     1
 66
     7
176
     1
 43
1.0
176
     1
 76
     1
176
     1
 77
     6
176
     1
 78
     2
176
     1
 67
     7
176
     1
 79
     5
176
     1
170
     0
176
     1
171
     0
176
     1
290
     0
176
     1
 93
        1
176
     1
 44
0.0
176
     1
173
     0
176
     1
1001
ACAD
1000
AcDbSavedByObjectVersion
1070
     0
  0
VISUALSTYLE
  5
2B
102
{ACAD_XDICTIONARY
360
6AB
102
}
102
{ACAD_REACTORS
330
2A
102
}
330
2A
100
AcDbVisualStyle
  2
Flat
 70
     0
177
     2
291
     1
 71
     2
176
     1
 72
     1
176
     1
 73
     1
176
     1
 90
        2
176
     1
 40
0.6
176
     1
 41
30.0
176
     1
 63
     7
421
 16777215
176
     1
 74
     0
176
     1
 91
        4
176
     1
 64
     7
176
     1
 65
   257
176
     1
 75
     1
176
     1
175
     1
176
     1
 42
1.0
176
     1
 92
        8
176
     1
 66
     7
176
     1
 43
1.0
176
     1
 76
     1
176
     1
 77
     6
176
     1
 78
     2
176
     1
 67
     7
176
     1
 79
     5
176
     1
170
     0
176
     1
171
     0
176
     1
290
     0
176
     1
 93
       13
176
     1
 44
0.0
176
     1
173
     0
176
     1
1001
ACAD
1000
AcDbSavedByObjectVersion
1070
     0
  0
VISUALSTYLE
  5
2C
102
{ACAD_XDICTIONARY
360
6AD
102
}
102
{ACAD_REACTORS
330
2A
102
}
330
2A
100
AcDbVisualStyle
  2
FlatWithEdges
 70
     1
177
     2
291
     1
 71
     2
176
     1
 72
     1
176
     1
 73
     1
176
     1
 90
        2
176
     1
 40
0.6
176
     1
 41
30.0
176
     1
 63
     7
421
 16777215
176
     1
 74
     1
176
     1
 91
        4
176
     1
 64
     7
176
     1
 65
   257
176
     1
 75
     1
176
     1
175
     1
176
     1
 42
1.0
176
     1
 92
        0
176
     1
 66
   257
176
     1
 43
1.0
176
     1
 76
     1
176
     1
 77
     6
176
     1
 78
     2
176
     1
 67
     7
176
     1
 79
     5
176
     1
170
     0
176
     1
171
     0
176
     1
290
     0
176
     1
 93
       13
176
     1
 44
0.0
176
     1
173
     0
176
     1
1001
ACAD
1000
AcDbSavedByObjectVersion
1070
     0
  0
VISUALSTYLE
  5
2D
102
{ACAD_XDICTIONARY
360
6AF
102
}
102
{ACAD_REACTORS
330
2A
102
}
330
2A
100
AcDbVisualStyle
  2
Gouraud
 70
     2
177
     2
291
     1
 71
     2
176
     1
 72
     2
176
     1
 73
     1
176
     1
 90
        2
176
     1
 40
0.6
176
     1
 41
30.0
176
     1
 63
     7
421
 16777215
176
     1
 74
     0
176
     1
 91
        4
176
     1
 64
     7
176
     1
 65
   257
176
     1
 75
     1
176
     1
175
     1
176
     1
 42
1.0
176
     1
 92
        0
176
     1
 66
     7
176
     1
 43
1.0
176
     1
 76
     1
176
     1
 77
     6
176
     1
 78
     2
176
     1
 67
     7
176
     1
 79
     5
176
     1
170
     0
176
     1
171
     0
176
     1
290
     0
176
     1
 93
       13
176
     1
 44
0.0
176
     1
173
     0
176
     1
1001
ACAD
1000
AcDbSavedByObjectVersion
1070
     0
  0
VISUALSTYLE
  5
2E
102
{ACAD_XDICTIONARY
360
6B1
102
}
102
{ACAD_REACTORS
330
2A
102
}
330
2A
100
AcDbVisualStyle
  2
GouraudWithEdges
 70
     3
177
     2
291
     1
 71
     2
176
     1
 72
     2
176
     1
 73
     1
176
     1
 90
        2
176
     1
 40
0.6
176
     1
 41
30.0
176
     1
 63
     7
421
 16777215
176
     1
 74
     1
176
     1
 91
        4
176
     1
 64
     7
176
     1
 65
   257
176
     1
 75
     1
176
     1
175
     1
176
     1
 42
1.0
176
     1
 92
        0
176
     1
 66
   257
176
     1
 43
1.0
176
     1
 76
     1
176
     1
 77
     6
176
     1
 78
     2
176
     1
 67
     7
176
     1
 79
     5
176
     1
170
     0
176
     1
171
     0
176
     1
290
     0
176
     1
 93
       13
176
     1
 44
0.0
176
     1
173
     0
176
     1
1001
ACAD
1000
AcDbSavedByObjectVersion
1070
     0
  0
VISUALSTYLE
  5
31C
102
{ACAD_XDICTIONARY
360
6CD
102
}
102
{ACAD_REACTORS
330
2A
102
}
330
2A
100
AcDbVisualStyle
  2
Hidden
 70
     6
177
     2
291
     0
 71
     1
176
     1
 72
     2
176
     1
 73
     2
176
     1
 90
        0
176
     1
 40
0.6
176
     1
 41
30.0
176
     1
 63
     7
421
 16777215
176
     1
 74
     2
176
     1
 91
        2
176
     1
 64
     7
176
     1
 65
   257
176
     1
 75
     2
176
     1
175
     1
176
     1
 42
40.0
176
     1
 92
        0
176
     1
 66
   257
176
     1
 43
1.0
176
     1
 76
     1
176
     1
 77
     6
176
     1
 78
     2
176
     1
 67
     7
176
     1
 79
     3
176
     1
170
     0
176
     1
171
     0
176
     1
290
     0
176
     1
 93
        1
176
     1
 44
0.0
176
     1
173
     0
176
     1
1001
ACAD
1000
AcDbSavedByObjectVersion
1070
     0
  0
VISUALSTYLE
  5
322
102
{ACAD_XDICTIONARY
360
6D9
102
}
102
{ACAD_REACTORS
330
2A
102
}
330
2A
100
AcDbVisualStyle
  2
JitterOff
 70
    20
177
     2
291
     1
 71
     2
176
     0
 72
     2
176
     0
 73
     0
176
     0
 90
        0
176
     0
 40
0.6
176
     0
 41
30.0
176
     0
 63
     7
421
 16777215
176
     0
 74
     1
176
     0
 91
        4
176
     0
 64
     7
176
     0
 65
   257
176
     0
 75
     1
176
     0
175
     1
176
     0
 42
1.0
176
     0
 92
       10
176
     2
 66
     7
176
     0
 43
1.0
176
     0
 76
     1
176
     0
 77
     6
176
     0
 78
     2
176
     0
 67
     7
176
     0
 79
     5
176
     0
170
     0
176
     0
171
     0
176
     0
290
     0
176
     0
 93
        1
176
     0
 44
0.0
176
     0
173
     0
176
     0
1001
ACAD
1000
AcDbSavedByObjectVersion
1070
     0
  0
VISUALSTYLE
  5
38
102
{ACAD_XDICTIONARY
360
6C5
102
}
102
{ACAD_REACTORS
330
2A
102
}
330
2A
100
AcDbVisualStyle
  2
Linepattern
 70
    14
177
     2
291
     1
 71
     2
176
     1
 72
     2
176
     1
 73
     0
176
     1
 90
        0
176
     1
 40
0.6
176
     1
 41
30.0
176
     1
 63
     7
421
 16777215
176
     1
 74
     1
176
     1
 91
        4
176
     1
 64
     7
176
     1
 65
   257
176
     1
 75
     7
176
     1
175
     7
176
     1
 42
1.0
176
     1
 92
        8
176
     1
 66
     7
176
     1
 43
1.0
176
     1
 76
     1
176
     1
 77
     6
176
     1
 78
     2
176
     1
 67
     7
176
     1
 79
     5
176
     1
170
     0
176
     1
171
     0
176
     1
290
     0
176
     1
 93
        1
176
     1
 44
0.0
176
     1
173
     0
176
     1
1001
ACAD
1000
AcDbSavedByObjectVersion
1070
     0
  0
VISUALSTYLE
  5
323
102
{ACAD_XDICTIONARY
360
6DB
102
}
102
{ACAD_REACTORS
330
2A
102
}
330
2A
100
AcDbVisualStyle
  2
OverhangOff
 70
    21
177
     2
291
     1
 71
     2
176
     0
 72
     2
176
     0
 73
     0
176
     0
 90
        0
176
     0
 40
0.6
176
     0
 41
30.0
176
     0
 63
     7
421
 16777215
176
     0
 74
     1
176
     0
 91
        4
176
     0
 64
     7
176
     0
 65
   257
176
     0
 75
     1
176
     0
175
     1
176
     0
 42
1.0
176
     0
 92
        9
176
     2
 66
     7
176
     0
 43
1.0
176
     0
 76
     1
176
     0
 77
     6
176
     0
 78
     2
176
     0
 67
     7
176
     0
 79
     5
176
     0
170
     0
176
     0
171
     0
176
     0
290
     0
176
     0
 93
        1
176
     0
 44
0.0
176
     0
173
     0
176
     0
1001
ACAD
1000
AcDbSavedByObjectVersion
1070
     0
  0
VISUALSTYLE
  5
33
102
{ACAD_XDICTIONARY
360
6BB
102
}
102
{ACAD_REACTORS
330
2A
102
}
330
2A
100
AcDbVisualStyle
  2
Realistic
 70
     8
177
     2
291
     0
 71
     2
176
     1
 72
     2
176
     1
 73
     0
176
     1
 90
        0
176
     1
 40
0.6
176
     1
 41
30.0
176
     1
 63
     7
421
 16777215
176
     1
 74
     1
176
     1
 91
        0
176
     1
 64
     7
176
     1
 65
   257
176
     1
 75
     1
176
     1
175
     1
176
     1
 42
1.0
176
     1
 92
        8
176
     1
 66
     8
424
  7895160
176
     1
 43
1.0
176
     1
 76
     1
176
     1
 77
     6
176
     1
 78
     2
176
     1
 67
     7
176
     1
 79
     5
176
     1
170
     0
176
     1
171
     0
176
     1
290
     0
176
     1
 93
       13
176
     1
 44
0.0
176
     1
173
     0
176
     1
1001
ACAD
1000
AcDbSavedByObjectVersion
1070
     0
  0
VISUALSTYLE
  5
321
102
{ACAD_XDICTIONARY
360
6D7
102
}
102
{ACAD_REACTORS
330
2A
102
}
330
2A
100
AcDbVisualStyle
  2
Shaded
 70
    27
177
     2
291
     0
 71
     2
176
     1
 72
     2
176
     1
 73
     1
176
     1
 90
        2
176
     1
 40
0.6
176
     1
 41
30.0
176
     1
 63
     7
421
 16777215
176
     1
 74
     0
176
     1
 91
        4
176
     1
 64
     7
176
     1
 65
   257
176
     1
 75
     1
176
     1
175
     1
176
     1
 42
1.0
176
     1
 92
        8
176
     1
 66
   257
176
     1
 43
1.0
176
     1
 76
     1
176
     1
 77
     6
176
     1
 78
     2
176
     1
 67
     8
425
  7895160
176
     1
 79
     3
176
     1
170
     0
176
     1
171
     0
176
     1
290
     0
176
     1
 93
        5
176
     1
 44
0.0
176
     1
173
     0
176
     1
1001
ACAD
1000
AcDbSavedByObjectVersion
1070
     0
  0
VISUALSTYLE
  5
320
102
{ACAD_XDICTIONARY
360
6D5
102
}
102
{ACAD_REACTORS
330
2A
102
}
330
2A
100
AcDbVisualStyle
  2
Shaded with edges
 70
    26
177
     2
291
     0
 71
     2
176
     1
 72
     2
176
     1
 73
     1
176
     1
 90
        2
176
     1
 40
0.6
176
     1
 41
30.0
176
     1
 63
     7
421
 16777215
176
     1
 74
     1
176
     1
 91
       10
176
     1
 64
     7
176
     1
 65
   257
176
     1
 75
     2
176
     1
175
     1
176
     1
 42
1.0
176
     1
 92
        8
176
     1
 66
   257
176
     1
 43
1.0
176
     1
 76
     1
176
     1
 77
     6
176
     1
 78
     2
176
     1
 67
     7
176
     1
 79
     3
176
     1
170
     0
176
     1
171
     0
176
     1
290
     0
176
     1
 93
        5
176
     1
 44
0.0
176
     1
173
     0
176
     1
1001
ACAD
1000
AcDbSavedByObjectVersion
1070
     0
  0
VISUALSTYLE
  5
31D
102
{ACAD_XDICTIONARY
360
6CF
102
}
102
{ACAD_REACTORS
330
2A
102
}
330
2A
100
AcDbVisualStyle
  2
Shades of Gray
 70
    23
177
     2
291
     0
 71
     2
176
     1
 72
     2
176
     1
 73
     3
176
     1
 90
        0
176
     1
 40
0.6
176
     1
 41
30.0
176
     1
 63
     7
421
 16777215
176
     1
 74
     2
176
     1
 91
        2
176
     1
 64
     7
176
     1
 65
     7
176
     1
 75
     1
176
     1
175
     1
176
     1
 42
40.0
176
     1
 92
        8
176
     1
 66
     7
176
     1
 43
1.0
176
     1
 76
     1
176
     1
 77
     6
176
     1
 78
     2
176
     1
 67
     7
176
     1
 79
     3
176
     1
170
     0
176
     1
171
     0
176
     1
290
     0
176
     1
 93
        1
176
     1
 44
0.0
176
     1
173
     0
176
     1
1001
ACAD
1000
AcDbSavedByObjectVersion
1070
     0
  0
VISUALSTYLE
  5
31E
102
{ACAD_XDICTIONARY
360
6D1
102
}
102
{ACAD_REACTORS
330
2A
102
}
330
2A
100
AcDbVisualStyle
  2
Sketchy
 70
    24
177
     2
291
     0
 71
     1
176
     1
 72
     2
176
     1
 73
     2
176
     1
 90
        0
176
     1
 40
0.6
176
     1
 41
30.0
176
     1
 63
     7
421
 16777215
176
     1
 74
     2
176
     1
 91
        2
176
     1
 64
     7
176
     1
 65
     7
176
     1
 75
     1
176
     1
175
     1
176
     1
 42
40.0
176
     1
 92
       11
176
     1
 66
     7
176
     1
 43
1.0
176
     1
 76
     1
176
     1
 77
     6
176
     1
 78
     2
176
     1
 67
     7
176
     1
 79
     6
176
     1
170
     0
176
     1
171
     0
176
     1
290
     0
176
     1
 93
        1
176
     1
 44
0.0
176
     1
173
     0
176
     1
1001
ACAD
1000
AcDbSavedByObjectVersion
1070
     0
  0
VISUALSTYLE
  5
37
102
{ACAD_XDICTIONARY
360
6C3
102
}
102
{ACAD_REACTORS
330
2A
102
}
330
2A
100
AcDbVisualStyle
  2
Thicken
 70
    13
177
     2
291
     1
 71
     2
176
     1
 72
     2
176
     1
 73
     0
176
     1
 90
        0
176
     1
 40
0.6
176
     1
 41
30.0
176
     1
 63
     7
421
 16777215
176
     1
 74
     1
176
     1
 91
        4
176
     1
 64
     7
176
     1
 65
   257
176
     1
 75
     1
176
     1
175
     1
176
     1
 42
1.0
176
     1
 92
       12
176
     1
 66
     7
176
     1
 43
1.0
176
     1
 76
     1
176
     1
 77
     6
176
     1
 78
     2
176
     1
 67
     7
176
     1
 79
     5
176
     1
170
     0
176
     1
171
     0
176
     1
290
     0
176
     1
 93
        1
176
     1
 44
0.0
176
     1
173
     0
176
     1
1001
ACAD
1000
AcDbSavedByObjectVersion
1070
     0
  0
VISUALSTYLE
  5
31B
102
{ACAD_XDICTIONARY
360
6CB
102
}
102
{ACAD_REACTORS
330
2A
102
}
330
2A
100
AcDbVisualStyle
  2
Wireframe
 70
     5
177
     2
291
     0
 71
     0
176
     1
 72
     2
176
     1
 73
     0
176
     1
 90
        0
176
     1
 40
0.6
176
     1
 41
30.0
176
     1
 63
     7
421
 16777215
176
     1
 74
     1
176
     1
 91
        4
176
     1
 64
     7
176
     1
 65
   257
176
     1
 75
     1
176
     1
175
     1
176
     1
 42
1.0
176
     1
 92
        0
176
     1
 66
   257
176
     1
 43
1.0
176
     1
 76
     1
176
     1
 77
     6
176
     1
 78
     2
176
     1
 67
     7
176
     1
 79
     3
176
     1
170
     0
176
     1
171
     0
176
     1
290
     0
176
     1
 93
        1
176
     1
 44
0.0
176
     1
173
     0
176
     1
1001
ACAD
1000
AcDbSavedByObjectVersion
1070
     0
  0
VISUALSTYLE
  5
31F
102
{ACAD_XDICTIONARY
360
6D3
102
}
102
{ACAD_REACTORS
330
2A
102
}
330
2A
100
AcDbVisualStyle
  2
X-Ray
 70
    25
177
     2
291
     0
 71
     2
176
     1
 72
     2
176
     1
 73
     1
176
     1
 90
        1
176
     1
 40
0.5
176
     1
 41
30.0
176
     1
 63
     7
421
 16777215
176
     1
 74
     1
176
     1
 91
        0
176
     1
 64
     7
176
     1
 65
   257
176
     1
 75
     1
176
     1
175
     1
176
     1
 42
1.0
176
     1
 92
        8
176
     1
 66
     7
176
     1
 43
1.0
176
     1
 76
     1
176
     1
 77
     6
176
     1
 78
     2
176
     1
 67
     7
176
     1
 79
     3
176
     1
170
     0
176
     1
171
     0
176
     1
290
     0
176
     1
 93
       13
176
     1
 44
0.0
176
     1
173
     0
176
     1
1001
ACAD
1000
AcDbSavedByObjectVersion
1070
     0
  0
DICTIONARYVAR
  5
2F6
102
{ACAD_REACTORS
330
2F5
102
}
330
2F5
100
DictionaryVariables
280
     0
  1
1:1
  0
DICTIONARYVAR
  5
3C8
102
{ACAD_REACTORS
330
2F5
102
}
330
2F5
100
DictionaryVariables
280
     0
  1
STANDARD
  0
DICTIONARYVAR
  5
3C7
102
{ACAD_REACTORS
330
2F5
102
}
330
2F5
100
DictionaryVariables
280
     0
  1
STANDARD
  0
DICTIONARYVAR
  5
3C9
102
{ACAD_REACTORS
330
2F5
102
}
330
2F5
100
DictionaryVariables
280
     0
  1
Imperial24
  0
DICTIONARYVAR
  5
3CA
102
{ACAD_REACTORS
330
2F5
102
}
330
2F5
100
DictionaryVariables
280
     0
  1
Imperial24
  0
DICTIONARYVAR
  5
399
102
{ACAD_REACTORS
330
2F5
102
}
330
2F5
100
DictionaryVariables
280
     0
  1
RGB:95,95,95
  0
DICTIONARYVAR
  5
3CB
102
{ACAD_REACTORS
330
2F5
102
}
330
2F5
100
DictionaryVariables
280
     0
  1
1
  0
DICTIONARYVAR
  5
3CC
102
{ACAD_REACTORS
330
2F5
102
}
330
2F5
100
DictionaryVariables
280
     0
  1
15
  0
DICTIONARY
  5
6AA
102
{ACAD_REACTORS
330
6A8
102
}
330
6A8
100
AcDbDictionary
281
     1
  0
DICTIONARY
  5
6A9
102
{ACAD_REACTORS
330
6A8
102
}
330
6A8
100
AcDbDictionary
281
     1
  3
2127601240
350
6A3
  3
2127601248
350
6A4
  3
2127601256
350
6A5
  3
2127601264
350
6A6
  3
2127601272
350
6A7
  0
XRECORD
  5
2F4
102
{ACAD_REACTORS
330
2F3
102
}
330
2F3
100
AcDbXrecord
280
     1
1000
This DWG file was created in ArchiCAD(TM)®
  0
DICTIONARY
  5
3C4
330
32B
100
AcDbDictionary
280
     1
281
     1
  3
ACAD_XREC_ROUNDTRIP
360
6E2
  0
DICTIONARY
  5
6DF
330
327
100
AcDbDictionary
280
     1
281
     1
  3
ACAD_XREC_ROUNDTRIP
360
6E0
  0
DICTIONARY
  5
3C2
330
329
100
AcDbDictionary
280
     1
281
     1
  3
ACAD_XREC_ROUNDTRIP
360
6E1
  0
DICTIONARY
  5
6A0
330
326
100
AcDbDictionary
280
     1
281
     1
  3
ACAD_ROUNDTRIP_2008_TABLESTYLE_CELLSTYLEMAP
360
6A1
  0
DICTIONARY
  5
6B3
330
2F
100
AcDbDictionary
280
     1
281
     1
  3
ACAD_XREC_ROUNDTRIP
360
6B4
  0
DICTIONARY
  5
6B7
330
31
100
AcDbDictionary
280
     1
281
     1
  3
ACAD_XREC_ROUNDTRIP
360
6B8
  0
DICTIONARY
  5
6B5
330
30
100
AcDbDictionary
280
     1
281
     1
  3
ACAD_XREC_ROUNDTRIP
360
6B6
  0
DICTIONARY
  5
6B9
330
32
100
AcDbDictionary
280
     1
281
     1
  3
ACAD_XREC_ROUNDTRIP
360
6BA
  0
DICTIONARY
  5
6C1
330
36
100
AcDbDictionary
280
     1
281
     1
  3
ACAD_XREC_ROUNDTRIP
360
6C2
  0
DICTIONARY
  5
6C9
330
3A
100
AcDbDictionary
280
     1
281
     1
  3
ACAD_XREC_ROUNDTRIP
360
6CA
  0
DICTIONARY
  5
6BD
330
34
100
AcDbDictionary
280
     1
281
     1
  3
ACAD_XREC_ROUNDTRIP
360
6BE
  0
DICTIONARY
  5
6BF
330
35
100
AcDbDictionary
280
     1
281
     1
  3
ACAD_XREC_ROUNDTRIP
360
6C0
  0
DICTIONARY
  5
6DD
330
324
100
AcDbDictionary
280
     1
281
     1
  3
ACAD_XREC_ROUNDTRIP
360
6DE
  0
DICTIONARY
  5
6C7
330
39
100
AcDbDictionary
280
     1
281
     1
  3
ACAD_XREC_ROUNDTRIP
360
6C8
  0
DICTIONARY
  5
6AB
330
2B
100
AcDbDictionary
280
     1
281
     1
  3
ACAD_XREC_ROUNDTRIP
360
6AC
  0
DICTIONARY
  5
6AD
330
2C
100
AcDbDictionary
280
     1
281
     1
  3
ACAD_XREC_ROUNDTRIP
360
6AE
  0
DICTIONARY
  5
6AF
330
2D
100
AcDbDictionary
280
     1
281
     1
  3
ACAD_XREC_ROUNDTRIP
360
6B0
  0
DICTIONARY
  5
6B1
330
2E
100
AcDbDictionary
280
     1
281
     1
  3
ACAD_XREC_ROUNDTRIP
360
6B2
  0
DICTIONARY
  5
6CD
330
31C
100
AcDbDictionary
280
     1
281
     1
  3
ACAD_XREC_ROUNDTRIP
360
6CE
  0
DICTIONARY
  5
6D9
330
322
100
AcDbDictionary
280
     1
281
     1
  3
ACAD_XREC_ROUNDTRIP
360
6DA
  0
DICTIONARY
  5
6C5
330
38
100
AcDbDictionary
280
     1
281
     1
  3
ACAD_XREC_ROUNDTRIP
360
6C6
  0
DICTIONARY
  5
6DB
330
323
100
AcDbDictionary
280
     1
281
     1
  3
ACAD_XREC_ROUNDTRIP
360
6DC
  0
DICTIONARY
  5
6BB
330
33
100
AcDbDictionary
280
     1
281
     1
  3
ACAD_XREC_ROUNDTRIP
360
6BC
  0
DICTIONARY
  5
6D7
330
321
100
AcDbDictionary
280
     1
281
     1
  3
ACAD_XREC_ROUNDTRIP
360
6D8
  0
DICTIONARY
  5
6D5
330
320
100
AcDbDictionary
280
     1
281
     1
  3
ACAD_XREC_ROUNDTRIP
360
6D6
  0
DICTIONARY
  5
6CF
330
31D
100
AcDbDictionary
280
     1
281
     1
  3
ACAD_XREC_ROUNDTRIP
360
6D0
  0
DICTIONARY
  5
6D1
330
31E
100
AcDbDictionary
280
     1
281
     1
  3
ACAD_XREC_ROUNDTRIP
360
6D2
  0
DICTIONARY
  5
6C3
330
37
100
AcDbDictionary
280
     1
281
     1
  3
ACAD_XREC_ROUNDTRIP
360
6C4
  0
DICTIONARY
  5
6CB
330
31B
100
AcDbDictionary
280
     1
281
     1
  3
ACAD_XREC_ROUNDTRIP
360
6CC
  0
DICTIONARY
  5
6D3
330
31F
100
AcDbDictionary
280
     1
281
     1
  3
ACAD_XREC_ROUNDTRIP
360
6D4
  0
XRECORD
  5
6A3
102
{ACAD_REACTORS
330
6A9
102
}
330
6A9
100
AcDbXrecord
280
     1
  1
AcDb_Thumbnail_Schema
102
{ATTRRECORD
341
6A4
  2
AcDbDs::TreatedAsObjectData
280
     1
291
     1
102
ATTRRECORD}
102
{ATTRRECORD
341
6A5
  2
AcDbDs::Legacy
280
     1
291
     1
102
ATTRRECORD}
  2
AcDbDs::ID
280
    10
 91
        8
102
{ATTRRECORD
341
6A6
  2
AcDs:Indexable
280
     1
291
     1
102
ATTRRECORD}
102
{ATTRRECORD
341
6A7
  2
AcDbDs::HandleAttribute
280
     7
282
     1
102
ATTRRECORD}
  2
Thumbnail_Data
280
    15
 91
        0
  0
XRECORD
  5
6A4
102
{ACAD_REACTORS
330
6A9
102
}
330
6A9
100
AcDbXrecord
280
     1
  1
AcDbDs::TreatedAsObjectDataSchema
  2
AcDbDs::TreatedAsObjectData
280
     1
 91
        0
  0
XRECORD
  5
6A5
102
{ACAD_REACTORS
330
6A9
102
}
330
6A9
100
AcDbXrecord
280
     1
  1
AcDbDs::LegacySchema
  2
AcDbDs::Legacy
280
     1
 91
        0
  0
XRECORD
  5
6A6
102
{ACAD_REACTORS
330
6A9
102
}
330
6A9
100
AcDbXrecord
280
     1
  1
AcDbDs::IndexedPropertySchema
  2
AcDs:Indexable
280
     1
 91
        0
  0
XRECORD
  5
6A7
102
{ACAD_REACTORS
330
6A9
102
}
330
6A9
100
AcDbXrecord
280
     1
  1
AcDbDs::HandleAttributeSchema
  2
AcDbDs::HandleAttribute
280
     7
 91
        1
284
     1
  0
XRECORD
  5
6E2
102
{ACAD_REACTORS
330
3C4
102
}
330
3C4
100
AcDbXrecord
280
     1
102
DISPLAYNAME
  1
Imperial24
102
FLAGS
 90
        0
  0
XRECORD
  5
6E0
102
{ACAD_REACTORS
330
6DF
102
}
330
6DF
100
AcDbXrecord
280
     1
102
ACAD_ROUNDTRIP_2012_MLEADER_STYLE
298
     1
  0
XRECORD
  5
6E1
102
{ACAD_REACTORS
330
3C2
102
}
330
3C2
100
AcDbXrecord
280
     1
102
DISPLAYNAME
  1
Imperial24
102
FLAGS
 90
        0
  0
CELLSTYLEMAP
  5
6A1
102
{ACAD_REACTORS
330
6A0
102
}
330
6A0
100
AcDbCellStyleMap
 90
        3
300
CELLSTYLE
  1
TABLEFORMAT_BEGIN
 90
        5
170
     1
 91
        0
 92
    32768
 62
   257
 93
        1
300
CONTENTFORMAT
  1
CONTENTFORMAT_BEGIN
 90
        0
 91
        0
 92
      512
 93
        0
300

 40
0.0
140
1.0
 94
        5
 62
     0
340
11
144
0.25
309
CONTENTFORMAT_END
171
     0
 94
        0
309
TABLEFORMAT_END
  1
CELLSTYLE_BEGIN
 90
        1
 91
        1
300
_TITLE
309
CELLSTYLE_END
300
CELLSTYLE
  1
TABLEFORMAT_BEGIN
 90
        5
170
     1
 91
        0
 92
        0
 62
   257
 93
        1
300
CONTENTFORMAT
  1
CONTENTFORMAT_BEGIN
 90
        0
 91
        0
 92
      512
 93
        0
300

 40
0.0
140
1.0
 94
        5
 62
     0
340
11
144
0.18
309
CONTENTFORMAT_END
171
     0
 94
        0
309
TABLEFORMAT_END
  1
CELLSTYLE_BEGIN
 90
        2
 91
        1
300
_HEADER
309
CELLSTYLE_END
300
CELLSTYLE
  1
TABLEFORMAT_BEGIN
 90
        5
170
     1
 91
        0
 92
        0
 62
   257
 93
        1
300
CONTENTFORMAT
  1
CONTENTFORMAT_BEGIN
 90
        0
 91
        0
 92
      512
 93
        0
300

 40
0.0
140
1.0
 94
        2
 62
     0
340
11
144
0.18
309
CONTENTFORMAT_END
171
     0
 94
        0
309
TABLEFORMAT_END
  1
CELLSTYLE_BEGIN
 90
        3
 91
        2
300
_DATA
309
CELLSTYLE_END
  0
XRECORD
  5
6B4
102
{ACAD_REACTORS
330
6B3
102
}
330
6B3
100
AcDbXrecord
280
     1
102
RTVSPost2010Prop28
280
     1
102
RTVSPost2010PropOp28
 70
     1
102
RTVSPost2010Prop29
280
     1
102
RTVSPost2010PropOp29
 70
     1
102
RTVSPost2010Prop30
280
     0
102
RTVSPost2010PropOp30
 70
     1
102
RTVSPost2010Prop31
280
     0
102
RTVSPost2010PropOp31
 70
     1
102
RTVSPost2010Prop32
280
     0
102
RTVSPost2010PropOp32
 70
     1
102
RTVSPost2010Prop33
280
     0
102
RTVSPost2010PropOp33
 70
     1
102
RTVSPost2010Prop34
280
     0
102
RTVSPost2010PropOp34
 70
     1
102
RTVSPost2010Prop35
280
     0
102
RTVSPost2010PropOp35
 70
     1
102
RTVSPost2010Prop36
280
     0
102
RTVSPost2010PropOp36
 70
     1
102
RTVSPost2010Prop37
 90
       50
102
RTVSPost2010PropOp37
 70
     1
102
RTVSPost2010Prop38
140
0.0
102
RTVSPost2010PropOp38
 70
     1
102
RTVSPost2010Prop39
140
1.0
102
RTVSPost2010PropOp39
 70
     1
102
RTVSPost2010Prop40
 90
        0
102
RTVSPost2010PropOp40
 70
     1
102
RTVSPost2010Prop41ColorIndex
 90
       18
102
RTVSPost2010Prop41ColorRGB
 90
        0
102
RTVSPost2010PropOp41
 70
     1
102
RTVSPost2010Prop42
 90
       50
102
RTVSPost2010PropOp42
 70
     1
102
RTVSPost2010Prop43
 90
        3
102
RTVSPost2010PropOp43
 70
     1
102
RTVSPost2010Prop44ColorIndex
 90
        5
102
RTVSPost2010Prop44ColorRGB
 90
      255
102
RTVSPost2010PropOp44
 70
     1
102
RTVSPost2010Prop45
280
     0
102
RTVSPost2010PropOp45
 70
     1
102
RTVSPost2010Prop46
 90
       50
102
RTVSPost2010PropOp46
 70
     1
102
RTVSPost2010Prop47
 90
       50
102
RTVSPost2010PropOp47
 70
     1
102
RTVSPost2010Prop48
 90
       50
102
RTVSPost2010PropOp48
 70
     1
102
RTVSPost2010Prop49
280
     0
102
RTVSPost2010PropOp49
 70
     1
102
RTVSPost2010Prop50
 90
       50
102
RTVSPost2010PropOp50
 70
     1
102
RTVSPost2010Prop51ColorIndex
 90
      256
102
RTVSPost2010Prop51ColorRGB
 90
-16777216
102
RTVSPost2010PropOp51
 70
     0
102
RTVSPost2010Prop52
140
1.0
102
RTVSPost2010PropOp52
 70
     0
102
RTVSPost2010Prop53
 90
        2
102
RTVSPost2010PropOp53
 70
     1
102
RTVSPost2010Prop54
  1
strokes_ogs.tif
102
RTVSPost2010PropOp54
 70
     1
102
RTVSPost2010Prop55
280
     0
102
RTVSPost2010PropOp55
 70
     1
102
RTVSPost2010Prop56
140
1.0
102
RTVSPost2010PropOp56
 70
     1
102
RTVSPost2010Prop57
140
1.0
102
RTVSPost2010PropOp57
 70
     1
  0
XRECORD
  5
6B8
102
{ACAD_REACTORS
330
6B7
102
}
330
6B7
100
AcDbXrecord
280
     1
102
RTVSPost2010Prop28
280
     0
102
RTVSPost2010PropOp28
 70
     1
102
RTVSPost2010Prop29
280
     1
102
RTVSPost2010PropOp29
 70
     1
102
RTVSPost2010Prop30
280
     1
102
RTVSPost2010PropOp30
 70
     1
102
RTVSPost2010Prop31
280
     0
102
RTVSPost2010PropOp31
 70
     1
102
RTVSPost2010Prop32
280
     0
102
RTVSPost2010PropOp32
 70
     1
102
RTVSPost2010Prop33
280
     0
102
RTVSPost2010PropOp33
 70
     1
102
RTVSPost2010Prop34
280
     0
102
RTVSPost2010PropOp34
 70
     1
102
RTVSPost2010Prop35
280
     0
102
RTVSPost2010PropOp35
 70
     1
102
RTVSPost2010Prop36
280
     0
102
RTVSPost2010PropOp36
 70
     1
102
RTVSPost2010Prop37
 90
       50
102
RTVSPost2010PropOp37
 70
     1
102
RTVSPost2010Prop38
140
0.0
102
RTVSPost2010PropOp38
 70
     1
102
RTVSPost2010Prop39
140
1.0
102
RTVSPost2010PropOp39
 70
     1
102
RTVSPost2010Prop40
 90
        0
102
RTVSPost2010PropOp40
 70
     1
102
RTVSPost2010Prop41ColorIndex
 90
       18
102
RTVSPost2010Prop41ColorRGB
 90
        0
102
RTVSPost2010PropOp41
 70
     1
102
RTVSPost2010Prop42
 90
       50
102
RTVSPost2010PropOp42
 70
     1
102
RTVSPost2010Prop43
 90
        3
102
RTVSPost2010PropOp43
 70
     1
102
RTVSPost2010Prop44ColorIndex
 90
        5
102
RTVSPost2010Prop44ColorRGB
 90
      255
102
RTVSPost2010PropOp44
 70
     1
102
RTVSPost2010Prop45
280
     0
102
RTVSPost2010PropOp45
 70
     1
102
RTVSPost2010Prop46
 90
       50
102
RTVSPost2010PropOp46
 70
     1
102
RTVSPost2010Prop47
 90
       50
102
RTVSPost2010PropOp47
 70
     1
102
RTVSPost2010Prop48
 90
       50
102
RTVSPost2010PropOp48
 70
     1
102
RTVSPost2010Prop49
280
     0
102
RTVSPost2010PropOp49
 70
     1
102
RTVSPost2010Prop50
 90
       50
102
RTVSPost2010PropOp50
 70
     1
102
RTVSPost2010Prop51ColorIndex
 90
      256
102
RTVSPost2010Prop51ColorRGB
 90
-16777216
102
RTVSPost2010PropOp51
 70
     0
102
RTVSPost2010Prop52
140
1.0
102
RTVSPost2010PropOp52
 70
     0
102
RTVSPost2010Prop53
 90
        2
102
RTVSPost2010PropOp53
 70
     1
102
RTVSPost2010Prop54
  1
strokes_ogs.tif
102
RTVSPost2010PropOp54
 70
     1
102
RTVSPost2010Prop55
280
     0
102
RTVSPost2010PropOp55
 70
     1
102
RTVSPost2010Prop56
140
1.0
102
RTVSPost2010PropOp56
 70
     1
102
RTVSPost2010Prop57
140
1.0
102
RTVSPost2010PropOp57
 70
     1
  0
XRECORD
  5
6B6
102
{ACAD_REACTORS
330
6B5
102
}
330
6B5
100
AcDbXrecord
280
     1
102
RTVSPost2010Prop28
280
     0
102
RTVSPost2010PropOp28
 70
     1
102
RTVSPost2010Prop29
280
     1
102
RTVSPost2010PropOp29
 70
     1
102
RTVSPost2010Prop30
280
     1
102
RTVSPost2010PropOp30
 70
     1
102
RTVSPost2010Prop31
280
     0
102
RTVSPost2010PropOp31
 70
     1
102
RTVSPost2010Prop32
280
     0
102
RTVSPost2010PropOp32
 70
     1
102
RTVSPost2010Prop33
280
     0
102
RTVSPost2010PropOp33
 70
     1
102
RTVSPost2010Prop34
280
     0
102
RTVSPost2010PropOp34
 70
     1
102
RTVSPost2010Prop35
280
     0
102
RTVSPost2010PropOp35
 70
     1
102
RTVSPost2010Prop36
280
     0
102
RTVSPost2010PropOp36
 70
     1
102
RTVSPost2010Prop37
 90
       50
102
RTVSPost2010PropOp37
 70
     1
102
RTVSPost2010Prop38
140
0.0
102
RTVSPost2010PropOp38
 70
     1
102
RTVSPost2010Prop39
140
1.0
102
RTVSPost2010PropOp39
 70
     1
102
RTVSPost2010Prop40
 90
        0
102
RTVSPost2010PropOp40
 70
     1
102
RTVSPost2010Prop41ColorIndex
 90
       18
102
RTVSPost2010Prop41ColorRGB
 90
        0
102
RTVSPost2010PropOp41
 70
     1
102
RTVSPost2010Prop42
 90
       50
102
RTVSPost2010PropOp42
 70
     1
102
RTVSPost2010Prop43
 90
        3
102
RTVSPost2010PropOp43
 70
     1
102
RTVSPost2010Prop44ColorIndex
 90
        5
102
RTVSPost2010Prop44ColorRGB
 90
      255
102
RTVSPost2010PropOp44
 70
     1
102
RTVSPost2010Prop45
280
     0
102
RTVSPost2010PropOp45
 70
     1
102
RTVSPost2010Prop46
 90
       50
102
RTVSPost2010PropOp46
 70
     1
102
RTVSPost2010Prop47
 90
       50
102
RTVSPost2010PropOp47
 70
     1
102
RTVSPost2010Prop48
 90
       50
102
RTVSPost2010PropOp48
 70
     1
102
RTVSPost2010Prop49
280
     0
102
RTVSPost2010PropOp49
 70
     1
102
RTVSPost2010Prop50
 90
       50
102
RTVSPost2010PropOp50
 70
     1
102
RTVSPost2010Prop51ColorIndex
 90
      256
102
RTVSPost2010Prop51ColorRGB
 90
-16777216
102
RTVSPost2010PropOp51
 70
     0
102
RTVSPost2010Prop52
140
1.0
102
RTVSPost2010PropOp52
 70
     0
102
RTVSPost2010Prop53
 90
        2
102
RTVSPost2010PropOp53
 70
     1
102
RTVSPost2010Prop54
  1
strokes_ogs.tif
102
RTVSPost2010PropOp54
 70
     1
102
RTVSPost2010Prop55
280
     0
102
RTVSPost2010PropOp55
 70
     1
102
RTVSPost2010Prop56
140
1.0
102
RTVSPost2010PropOp56
 70
     1
102
RTVSPost2010Prop57
140
1.0
102
RTVSPost2010PropOp57
 70
     1
  0
XRECORD
  5
6BA
102
{ACAD_REACTORS
330
6B9
102
}
330
6B9
100
AcDbXrecord
280
     1
102
RTVSPost2010Prop28
280
     0
102
RTVSPost2010PropOp28
 70
     1
102
RTVSPost2010Prop29
280
     1
102
RTVSPost2010PropOp29
 70
     1
102
RTVSPost2010Prop30
280
     1
102
RTVSPost2010PropOp30
 70
     1
102
RTVSPost2010Prop31
280
     0
102
RTVSPost2010PropOp31
 70
     1
102
RTVSPost2010Prop32
280
     0
102
RTVSPost2010PropOp32
 70
     1
102
RTVSPost2010Prop33
280
     0
102
RTVSPost2010PropOp33
 70
     1
102
RTVSPost2010Prop34
280
     0
102
RTVSPost2010PropOp34
 70
     1
102
RTVSPost2010Prop35
280
     0
102
RTVSPost2010PropOp35
 70
     1
102
RTVSPost2010Prop36
280
     0
102
RTVSPost2010PropOp36
 70
     1
102
RTVSPost2010Prop37
 90
       50
102
RTVSPost2010PropOp37
 70
     1
102
RTVSPost2010Prop38
140
0.0
102
RTVSPost2010PropOp38
 70
     1
102
RTVSPost2010Prop39
140
1.0
102
RTVSPost2010PropOp39
 70
     1
102
RTVSPost2010Prop40
 90
        0
102
RTVSPost2010PropOp40
 70
     1
102
RTVSPost2010Prop41ColorIndex
 90
       18
102
RTVSPost2010Prop41ColorRGB
 90
        0
102
RTVSPost2010PropOp41
 70
     1
102
RTVSPost2010Prop42
 90
       50
102
RTVSPost2010PropOp42
 70
     1
102
RTVSPost2010Prop43
 90
        3
102
RTVSPost2010PropOp43
 70
     1
102
RTVSPost2010Prop44ColorIndex
 90
        5
102
RTVSPost2010Prop44ColorRGB
 90
      255
102
RTVSPost2010PropOp44
 70
     1
102
RTVSPost2010Prop45
280
     0
102
RTVSPost2010PropOp45
 70
     1
102
RTVSPost2010Prop46
 90
       50
102
RTVSPost2010PropOp46
 70
     1
102
RTVSPost2010Prop47
 90
       50
102
RTVSPost2010PropOp47
 70
     1
102
RTVSPost2010Prop48
 90
       50
102
RTVSPost2010PropOp48
 70
     1
102
RTVSPost2010Prop49
280
     0
102
RTVSPost2010PropOp49
 70
     1
102
RTVSPost2010Prop50
 90
       50
102
RTVSPost2010PropOp50
 70
     1
102
RTVSPost2010Prop51ColorIndex
 90
      256
102
RTVSPost2010Prop51ColorRGB
 90
-16777216
102
RTVSPost2010PropOp51
 70
     0
102
RTVSPost2010Prop52
140
1.0
102
RTVSPost2010PropOp52
 70
     0
102
RTVSPost2010Prop53
 90
        2
102
RTVSPost2010PropOp53
 70
     1
102
RTVSPost2010Prop54
  1
strokes_ogs.tif
102
RTVSPost2010PropOp54
 70
     1
102
RTVSPost2010Prop55
280
     0
102
RTVSPost2010PropOp55
 70
     1
102
RTVSPost2010Prop56
140
1.0
102
RTVSPost2010PropOp56
 70
     1
102
RTVSPost2010Prop57
140
1.0
102
RTVSPost2010PropOp57
 70
     1
  0
XRECORD
  5
6C2
102
{ACAD_REACTORS
330
6C1
102
}
330
6C1
100
AcDbXrecord
280
     1
102
RTVSPost2010Prop28
280
     0
102
RTVSPost2010PropOp28
 70
     1
102
RTVSPost2010Prop29
280
     1
102
RTVSPost2010PropOp29
 70
     1
102
RTVSPost2010Prop30
280
     1
102
RTVSPost2010PropOp30
 70
     1
102
RTVSPost2010Prop31
280
     0
102
RTVSPost2010PropOp31
 70
     1
102
RTVSPost2010Prop32
280
     0
102
RTVSPost2010PropOp32
 70
     1
102
RTVSPost2010Prop33
280
     0
102
RTVSPost2010PropOp33
 70
     1
102
RTVSPost2010Prop34
280
     0
102
RTVSPost2010PropOp34
 70
     1
102
RTVSPost2010Prop35
280
     0
102
RTVSPost2010PropOp35
 70
     1
102
RTVSPost2010Prop36
280
     0
102
RTVSPost2010PropOp36
 70
     1
102
RTVSPost2010Prop37
 90
       50
102
RTVSPost2010PropOp37
 70
     1
102
RTVSPost2010Prop38
140
0.0
102
RTVSPost2010PropOp38
 70
     1
102
RTVSPost2010Prop39
140
1.0
102
RTVSPost2010PropOp39
 70
     1
102
RTVSPost2010Prop40
 90
        0
102
RTVSPost2010PropOp40
 70
     1
102
RTVSPost2010Prop41ColorIndex
 90
       18
102
RTVSPost2010Prop41ColorRGB
 90
        0
102
RTVSPost2010PropOp41
 70
     1
102
RTVSPost2010Prop42
 90
       50
102
RTVSPost2010PropOp42
 70
     1
102
RTVSPost2010Prop43
 90
        3
102
RTVSPost2010PropOp43
 70
     1
102
RTVSPost2010Prop44ColorIndex
 90
        5
102
RTVSPost2010Prop44ColorRGB
 90
      255
102
RTVSPost2010PropOp44
 70
     1
102
RTVSPost2010Prop45
280
     0
102
RTVSPost2010PropOp45
 70
     1
102
RTVSPost2010Prop46
 90
       50
102
RTVSPost2010PropOp46
 70
     1
102
RTVSPost2010Prop47
 90
       50
102
RTVSPost2010PropOp47
 70
     1
102
RTVSPost2010Prop48
 90
       50
102
RTVSPost2010PropOp48
 70
     1
102
RTVSPost2010Prop49
280
     0
102
RTVSPost2010PropOp49
 70
     1
102
RTVSPost2010Prop50
 90
       50
102
RTVSPost2010PropOp50
 70
     1
102
RTVSPost2010Prop51ColorIndex
 90
      256
102
RTVSPost2010Prop51ColorRGB
 90
-16777216
102
RTVSPost2010PropOp51
 70
     0
102
RTVSPost2010Prop52
140
1.0
102
RTVSPost2010PropOp52
 70
     0
102
RTVSPost2010Prop53
 90
        2
102
RTVSPost2010PropOp53
 70
     1
102
RTVSPost2010Prop54
  1
strokes_ogs.tif
102
RTVSPost2010PropOp54
 70
     1
102
RTVSPost2010Prop55
280
     0
102
RTVSPost2010PropOp55
 70
     1
102
RTVSPost2010Prop56
140
1.0
102
RTVSPost2010PropOp56
 70
     1
102
RTVSPost2010Prop57
140
1.0
102
RTVSPost2010PropOp57
 70
     1
  0
XRECORD
  5
6CA
102
{ACAD_REACTORS
330
6C9
102
}
330
6C9
100
AcDbXrecord
280
     1
102
RTVSPost2010Prop28
280
     0
102
RTVSPost2010PropOp28
 70
     1
102
RTVSPost2010Prop29
280
     1
102
RTVSPost2010PropOp29
 70
     1
102
RTVSPost2010Prop30
280
     1
102
RTVSPost2010PropOp30
 70
     1
102
RTVSPost2010Prop31
280
     0
102
RTVSPost2010PropOp31
 70
     1
102
RTVSPost2010Prop32
280
     0
102
RTVSPost2010PropOp32
 70
     1
102
RTVSPost2010Prop33
280
     0
102
RTVSPost2010PropOp33
 70
     1
102
RTVSPost2010Prop34
280
     0
102
RTVSPost2010PropOp34
 70
     1
102
RTVSPost2010Prop35
280
     0
102
RTVSPost2010PropOp35
 70
     1
102
RTVSPost2010Prop36
280
     0
102
RTVSPost2010PropOp36
 70
     1
102
RTVSPost2010Prop37
 90
       50
102
RTVSPost2010PropOp37
 70
     1
102
RTVSPost2010Prop38
140
0.0
102
RTVSPost2010PropOp38
 70
     1
102
RTVSPost2010Prop39
140
1.0
102
RTVSPost2010PropOp39
 70
     1
102
RTVSPost2010Prop40
 90
        0
102
RTVSPost2010PropOp40
 70
     1
102
RTVSPost2010Prop41ColorIndex
 90
       18
102
RTVSPost2010Prop41ColorRGB
 90
        0
102
RTVSPost2010PropOp41
 70
     1
102
RTVSPost2010Prop42
 90
       50
102
RTVSPost2010PropOp42
 70
     1
102
RTVSPost2010Prop43
 90
        3
102
RTVSPost2010PropOp43
 70
     1
102
RTVSPost2010Prop44ColorIndex
 90
        5
102
RTVSPost2010Prop44ColorRGB
 90
      255
102
RTVSPost2010PropOp44
 70
     1
102
RTVSPost2010Prop45
280
     0
102
RTVSPost2010PropOp45
 70
     1
102
RTVSPost2010Prop46
 90
       50
102
RTVSPost2010PropOp46
 70
     1
102
RTVSPost2010Prop47
 90
       50
102
RTVSPost2010PropOp47
 70
     1
102
RTVSPost2010Prop48
 90
       50
102
RTVSPost2010PropOp48
 70
     1
102
RTVSPost2010Prop49
280
     0
102
RTVSPost2010PropOp49
 70
     1
102
RTVSPost2010Prop50
 90
       50
102
RTVSPost2010PropOp50
 70
     1
102
RTVSPost2010Prop51ColorIndex
 90
      256
102
RTVSPost2010Prop51ColorRGB
 90
-16777216
102
RTVSPost2010PropOp51
 70
     0
102
RTVSPost2010Prop52
140
1.0
102
RTVSPost2010PropOp52
 70
     0
102
RTVSPost2010Prop53
 90
        2
102
RTVSPost2010PropOp53
 70
     1
102
RTVSPost2010Prop54
  1
strokes_ogs.tif
102
RTVSPost2010PropOp54
 70
     1
102
RTVSPost2010Prop55
280
     0
102
RTVSPost2010PropOp55
 70
     1
102
RTVSPost2010Prop56
140
1.0
102
RTVSPost2010PropOp56
 70
     1
102
RTVSPost2010Prop57
140
1.0
102
RTVSPost2010PropOp57
 70
     1
  0
XRECORD
  5
6BE
102
{ACAD_REACTORS
330
6BD
102
}
330
6BD
100
AcDbXrecord
280
     1
102
RTVSPost2010Prop28
280
     0
102
RTVSPost2010PropOp28
 70
     1
102
RTVSPost2010Prop29
280
     1
102
RTVSPost2010PropOp29
 70
     1
102
RTVSPost2010Prop30
280
     1
102
RTVSPost2010PropOp30
 70
     1
102
RTVSPost2010Prop31
280
     0
102
RTVSPost2010PropOp31
 70
     1
102
RTVSPost2010Prop32
280
     0
102
RTVSPost2010PropOp32
 70
     1
102
RTVSPost2010Prop33
280
     0
102
RTVSPost2010PropOp33
 70
     1
102
RTVSPost2010Prop34
280
     0
102
RTVSPost2010PropOp34
 70
     1
102
RTVSPost2010Prop35
280
     0
102
RTVSPost2010PropOp35
 70
     1
102
RTVSPost2010Prop36
280
     0
102
RTVSPost2010PropOp36
 70
     1
102
RTVSPost2010Prop37
 90
       50
102
RTVSPost2010PropOp37
 70
     1
102
RTVSPost2010Prop38
140
0.0
102
RTVSPost2010PropOp38
 70
     1
102
RTVSPost2010Prop39
140
1.0
102
RTVSPost2010PropOp39
 70
     1
102
RTVSPost2010Prop40
 90
        0
102
RTVSPost2010PropOp40
 70
     1
102
RTVSPost2010Prop41ColorIndex
 90
       18
102
RTVSPost2010Prop41ColorRGB
 90
        0
102
RTVSPost2010PropOp41
 70
     1
102
RTVSPost2010Prop42
 90
       50
102
RTVSPost2010PropOp42
 70
     1
102
RTVSPost2010Prop43
 90
        3
102
RTVSPost2010PropOp43
 70
     1
102
RTVSPost2010Prop44ColorIndex
 90
        5
102
RTVSPost2010Prop44ColorRGB
 90
      255
102
RTVSPost2010PropOp44
 70
     1
102
RTVSPost2010Prop45
280
     0
102
RTVSPost2010PropOp45
 70
     1
102
RTVSPost2010Prop46
 90
       50
102
RTVSPost2010PropOp46
 70
     1
102
RTVSPost2010Prop47
 90
       50
102
RTVSPost2010PropOp47
 70
     1
102
RTVSPost2010Prop48
 90
       50
102
RTVSPost2010PropOp48
 70
     1
102
RTVSPost2010Prop49
280
     0
102
RTVSPost2010PropOp49
 70
     1
102
RTVSPost2010Prop50
 90
       50
102
RTVSPost2010PropOp50
 70
     1
102
RTVSPost2010Prop51ColorIndex
 90
      256
102
RTVSPost2010Prop51ColorRGB
 90
-16777216
102
RTVSPost2010PropOp51
 70
     0
102
RTVSPost2010Prop52
140
1.0
102
RTVSPost2010PropOp52
 70
     0
102
RTVSPost2010Prop53
 90
        2
102
RTVSPost2010PropOp53
 70
     1
102
RTVSPost2010Prop54
  1
strokes_ogs.tif
102
RTVSPost2010PropOp54
 70
     1
102
RTVSPost2010Prop55
280
     0
102
RTVSPost2010PropOp55
 70
     1
102
RTVSPost2010Prop56
140
1.0
102
RTVSPost2010PropOp56
 70
     1
102
RTVSPost2010Prop57
140
1.0
102
RTVSPost2010PropOp57
 70
     1
  0
XRECORD
  5
6C0
102
{ACAD_REACTORS
330
6BF
102
}
330
6BF
100
AcDbXrecord
280
     1
102
RTVSPost2010Prop28
280
     0
102
RTVSPost2010PropOp28
 70
     1
102
RTVSPost2010Prop29
280
     1
102
RTVSPost2010PropOp29
 70
     1
102
RTVSPost2010Prop30
280
     1
102
RTVSPost2010PropOp30
 70
     1
102
RTVSPost2010Prop31
280
     0
102
RTVSPost2010PropOp31
 70
     1
102
RTVSPost2010Prop32
280
     0
102
RTVSPost2010PropOp32
 70
     1
102
RTVSPost2010Prop33
280
     0
102
RTVSPost2010PropOp33
 70
     1
102
RTVSPost2010Prop34
280
     0
102
RTVSPost2010PropOp34
 70
     1
102
RTVSPost2010Prop35
280
     0
102
RTVSPost2010PropOp35
 70
     1
102
RTVSPost2010Prop36
280
     0
102
RTVSPost2010PropOp36
 70
     1
102
RTVSPost2010Prop37
 90
       50
102
RTVSPost2010PropOp37
 70
     1
102
RTVSPost2010Prop38
140
0.0
102
RTVSPost2010PropOp38
 70
     1
102
RTVSPost2010Prop39
140
1.0
102
RTVSPost2010PropOp39
 70
     1
102
RTVSPost2010Prop40
 90
        0
102
RTVSPost2010PropOp40
 70
     1
102
RTVSPost2010Prop41ColorIndex
 90
       18
102
RTVSPost2010Prop41ColorRGB
 90
        0
102
RTVSPost2010PropOp41
 70
     1
102
RTVSPost2010Prop42
 90
       50
102
RTVSPost2010PropOp42
 70
     1
102
RTVSPost2010Prop43
 90
        3
102
RTVSPost2010PropOp43
 70
     1
102
RTVSPost2010Prop44ColorIndex
 90
        5
102
RTVSPost2010Prop44ColorRGB
 90
      255
102
RTVSPost2010PropOp44
 70
     1
102
RTVSPost2010Prop45
280
     0
102
RTVSPost2010PropOp45
 70
     1
102
RTVSPost2010Prop46
 90
       50
102
RTVSPost2010PropOp46
 70
     1
102
RTVSPost2010Prop47
 90
       50
102
RTVSPost2010PropOp47
 70
     1
102
RTVSPost2010Prop48
 90
       50
102
RTVSPost2010PropOp48
 70
     1
102
RTVSPost2010Prop49
280
     0
102
RTVSPost2010PropOp49
 70
     1
102
RTVSPost2010Prop50
 90
       50
102
RTVSPost2010PropOp50
 70
     1
102
RTVSPost2010Prop51ColorIndex
 90
      256
102
RTVSPost2010Prop51ColorRGB
 90
-16777216
102
RTVSPost2010PropOp51
 70
     0
102
RTVSPost2010Prop52
140
1.0
102
RTVSPost2010PropOp52
 70
     0
102
RTVSPost2010Prop53
 90
        2
102
RTVSPost2010PropOp53
 70
     1
102
RTVSPost2010Prop54
  1
strokes_ogs.tif
102
RTVSPost2010PropOp54
 70
     1
102
RTVSPost2010Prop55
280
     0
102
RTVSPost2010PropOp55
 70
     1
102
RTVSPost2010Prop56
140
1.0
102
RTVSPost2010PropOp56
 70
     1
102
RTVSPost2010Prop57
140
1.0
102
RTVSPost2010PropOp57
 70
     1
  0
XRECORD
  5
6DE
102
{ACAD_REACTORS
330
6DD
102
}
330
6DD
100
AcDbXrecord
280
     1
102
RTVSPost2010Prop28
280
     0
102
RTVSPost2010PropOp28
 70
     0
102
RTVSPost2010Prop29
280
     1
102
RTVSPost2010PropOp29
 70
     0
102
RTVSPost2010Prop30
280
     1
102
RTVSPost2010PropOp30
 70
     0
102
RTVSPost2010Prop31
280
     0
102
RTVSPost2010PropOp31
 70
     0
102
RTVSPost2010Prop32
280
     0
102
RTVSPost2010PropOp32
 70
     0
102
RTVSPost2010Prop33
280
     0
102
RTVSPost2010PropOp33
 70
     0
102
RTVSPost2010Prop34
280
     0
102
RTVSPost2010PropOp34
 70
     0
102
RTVSPost2010Prop35
280
     0
102
RTVSPost2010PropOp35
 70
     0
102
RTVSPost2010Prop36
280
     0
102
RTVSPost2010PropOp36
 70
     0
102
RTVSPost2010Prop37
 90
       50
102
RTVSPost2010PropOp37
 70
     0
102
RTVSPost2010Prop38
140
0.0
102
RTVSPost2010PropOp38
 70
     0
102
RTVSPost2010Prop39
140
1.0
102
RTVSPost2010PropOp39
 70
     0
102
RTVSPost2010Prop40
 90
        0
102
RTVSPost2010PropOp40
 70
     0
102
RTVSPost2010Prop41ColorIndex
 90
       18
102
RTVSPost2010Prop41ColorRGB
 90
        0
102
RTVSPost2010PropOp41
 70
     0
102
RTVSPost2010Prop42
 90
       50
102
RTVSPost2010PropOp42
 70
     0
102
RTVSPost2010Prop43
 90
        3
102
RTVSPost2010PropOp43
 70
     0
102
RTVSPost2010Prop44ColorIndex
 90
        5
102
RTVSPost2010Prop44ColorRGB
 90
      255
102
RTVSPost2010PropOp44
 70
     0
102
RTVSPost2010Prop45
280
     0
102
RTVSPost2010PropOp45
 70
     0
102
RTVSPost2010Prop46
 90
       50
102
RTVSPost2010PropOp46
 70
     0
102
RTVSPost2010Prop47
 90
       50
102
RTVSPost2010PropOp47
 70
     0
102
RTVSPost2010Prop48
 90
       50
102
RTVSPost2010PropOp48
 70
     0
102
RTVSPost2010Prop49
280
     0
102
RTVSPost2010PropOp49
 70
     0
102
RTVSPost2010Prop50
 90
       50
102
RTVSPost2010PropOp50
 70
     0
102
RTVSPost2010Prop51ColorIndex
 90
      256
102
RTVSPost2010Prop51ColorRGB
 90
-16777216
102
RTVSPost2010PropOp51
 70
     0
102
RTVSPost2010Prop52
140
1.0
102
RTVSPost2010PropOp52
 70
     0
102
RTVSPost2010Prop53
 90
        2
102
RTVSPost2010PropOp53
 70
     0
102
RTVSPost2010Prop54
  1
strokes_ogs.tif
102
RTVSPost2010PropOp54
 70
     0
102
RTVSPost2010Prop55
280
     0
102
RTVSPost2010PropOp55
 70
     0
102
RTVSPost2010Prop56
140
1.0
102
RTVSPost2010PropOp56
 70
     0
102
RTVSPost2010Prop57
140
1.0
102
RTVSPost2010PropOp57
 70
     0
  0
XRECORD
  5
6C8
102
{ACAD_REACTORS
330
6C7
102
}
330
6C7
100
AcDbXrecord
280
     1
102
RTVSPost2010Prop28
280
     0
102
RTVSPost2010PropOp28
 70
     1
102
RTVSPost2010Prop29
280
     1
102
RTVSPost2010PropOp29
 70
     1
102
RTVSPost2010Prop30
280
     1
102
RTVSPost2010PropOp30
 70
     1
102
RTVSPost2010Prop31
280
     0
102
RTVSPost2010PropOp31
 70
     1
102
RTVSPost2010Prop32
280
     0
102
RTVSPost2010PropOp32
 70
     1
102
RTVSPost2010Prop33
280
     0
102
RTVSPost2010PropOp33
 70
     1
102
RTVSPost2010Prop34
280
     0
102
RTVSPost2010PropOp34
 70
     1
102
RTVSPost2010Prop35
280
     0
102
RTVSPost2010PropOp35
 70
     1
102
RTVSPost2010Prop36
280
     0
102
RTVSPost2010PropOp36
 70
     1
102
RTVSPost2010Prop37
 90
       50
102
RTVSPost2010PropOp37
 70
     1
102
RTVSPost2010Prop38
140
0.0
102
RTVSPost2010PropOp38
 70
     1
102
RTVSPost2010Prop39
140
1.0
102
RTVSPost2010PropOp39
 70
     1
102
RTVSPost2010Prop40
 90
        0
102
RTVSPost2010PropOp40
 70
     1
102
RTVSPost2010Prop41ColorIndex
 90
       18
102
RTVSPost2010Prop41ColorRGB
 90
        0
102
RTVSPost2010PropOp41
 70
     1
102
RTVSPost2010Prop42
 90
       50
102
RTVSPost2010PropOp42
 70
     1
102
RTVSPost2010Prop43
 90
        3
102
RTVSPost2010PropOp43
 70
     1
102
RTVSPost2010Prop44ColorIndex
 90
        5
102
RTVSPost2010Prop44ColorRGB
 90
      255
102
RTVSPost2010PropOp44
 70
     1
102
RTVSPost2010Prop45
280
     0
102
RTVSPost2010PropOp45
 70
     1
102
RTVSPost2010Prop46
 90
       50
102
RTVSPost2010PropOp46
 70
     1
102
RTVSPost2010Prop47
 90
       50
102
RTVSPost2010PropOp47
 70
     1
102
RTVSPost2010Prop48
 90
       50
102
RTVSPost2010PropOp48
 70
     1
102
RTVSPost2010Prop49
280
     0
102
RTVSPost2010PropOp49
 70
     1
102
RTVSPost2010Prop50
 90
       50
102
RTVSPost2010PropOp50
 70
     1
102
RTVSPost2010Prop51ColorIndex
 90
      256
102
RTVSPost2010Prop51ColorRGB
 90
-16777216
102
RTVSPost2010PropOp51
 70
     0
102
RTVSPost2010Prop52
140
1.0
102
RTVSPost2010PropOp52
 70
     0
102
RTVSPost2010Prop53
 90
        2
102
RTVSPost2010PropOp53
 70
     1
102
RTVSPost2010Prop54
  1
strokes_ogs.tif
102
RTVSPost2010PropOp54
 70
     1
102
RTVSPost2010Prop55
280
     0
102
RTVSPost2010PropOp55
 70
     1
102
RTVSPost2010Prop56
140
1.0
102
RTVSPost2010PropOp56
 70
     1
102
RTVSPost2010Prop57
140
1.0
102
RTVSPost2010PropOp57
 70
     1
  0
XRECORD
  5
6AC
102
{ACAD_REACTORS
330
6AB
102
}
330
6AB
100
AcDbXrecord
280
     1
102
RTVSPost2010Prop28
280
     0
102
RTVSPost2010PropOp28
 70
     1
102
RTVSPost2010Prop29
280
     1
102
RTVSPost2010PropOp29
 70
     1
102
RTVSPost2010Prop30
280
     1
102
RTVSPost2010PropOp30
 70
     1
102
RTVSPost2010Prop31
280
     0
102
RTVSPost2010PropOp31
 70
     1
102
RTVSPost2010Prop32
280
     0
102
RTVSPost2010PropOp32
 70
     1
102
RTVSPost2010Prop33
280
     0
102
RTVSPost2010PropOp33
 70
     1
102
RTVSPost2010Prop34
280
     0
102
RTVSPost2010PropOp34
 70
     1
102
RTVSPost2010Prop35
280
     0
102
RTVSPost2010PropOp35
 70
     1
102
RTVSPost2010Prop36
280
     0
102
RTVSPost2010PropOp36
 70
     1
102
RTVSPost2010Prop37
 90
       50
102
RTVSPost2010PropOp37
 70
     1
102
RTVSPost2010Prop38
140
0.0
102
RTVSPost2010PropOp38
 70
     1
102
RTVSPost2010Prop39
140
1.0
102
RTVSPost2010PropOp39
 70
     1
102
RTVSPost2010Prop40
 90
        0
102
RTVSPost2010PropOp40
 70
     1
102
RTVSPost2010Prop41ColorIndex
 90
       18
102
RTVSPost2010Prop41ColorRGB
 90
        0
102
RTVSPost2010PropOp41
 70
     1
102
RTVSPost2010Prop42
 90
       50
102
RTVSPost2010PropOp42
 70
     1
102
RTVSPost2010Prop43
 90
        3
102
RTVSPost2010PropOp43
 70
     1
102
RTVSPost2010Prop44ColorIndex
 90
        5
102
RTVSPost2010Prop44ColorRGB
 90
      255
102
RTVSPost2010PropOp44
 70
     1
102
RTVSPost2010Prop45
280
     0
102
RTVSPost2010PropOp45
 70
     1
102
RTVSPost2010Prop46
 90
       50
102
RTVSPost2010PropOp46
 70
     1
102
RTVSPost2010Prop47
 90
       50
102
RTVSPost2010PropOp47
 70
     1
102
RTVSPost2010Prop48
 90
       50
102
RTVSPost2010PropOp48
 70
     1
102
RTVSPost2010Prop49
280
     0
102
RTVSPost2010PropOp49
 70
     1
102
RTVSPost2010Prop50
 90
       50
102
RTVSPost2010PropOp50
 70
     1
102
RTVSPost2010Prop51ColorIndex
 90
      256
102
RTVSPost2010Prop51ColorRGB
 90
-16777216
102
RTVSPost2010PropOp51
 70
     0
102
RTVSPost2010Prop52
140
1.0
102
RTVSPost2010PropOp52
 70
     0
102
RTVSPost2010Prop53
 90
        2
102
RTVSPost2010PropOp53
 70
     1
102
RTVSPost2010Prop54
  1
strokes_ogs.tif
102
RTVSPost2010PropOp54
 70
     1
102
RTVSPost2010Prop55
280
     0
102
RTVSPost2010PropOp55
 70
     1
102
RTVSPost2010Prop56
140
1.0
102
RTVSPost2010PropOp56
 70
     1
102
RTVSPost2010Prop57
140
1.0
102
RTVSPost2010PropOp57
 70
     1
  0
XRECORD
  5
6AE
102
{ACAD_REACTORS
330
6AD
102
}
330
6AD
100
AcDbXrecord
280
     1
102
RTVSPost2010Prop28
280
     0
102
RTVSPost2010PropOp28
 70
     1
102
RTVSPost2010Prop29
280
     1
102
RTVSPost2010PropOp29
 70
     1
102
RTVSPost2010Prop30
280
     1
102
RTVSPost2010PropOp30
 70
     1
102
RTVSPost2010Prop31
280
     0
102
RTVSPost2010PropOp31
 70
     1
102
RTVSPost2010Prop32
280
     0
102
RTVSPost2010PropOp32
 70
     1
102
RTVSPost2010Prop33
280
     0
102
RTVSPost2010PropOp33
 70
     1
102
RTVSPost2010Prop34
280
     0
102
RTVSPost2010PropOp34
 70
     1
102
RTVSPost2010Prop35
280
     0
102
RTVSPost2010PropOp35
 70
     1
102
RTVSPost2010Prop36
280
     0
102
RTVSPost2010PropOp36
 70
     1
102
RTVSPost2010Prop37
 90
       50
102
RTVSPost2010PropOp37
 70
     1
102
RTVSPost2010Prop38
140
0.0
102
RTVSPost2010PropOp38
 70
     1
102
RTVSPost2010Prop39
140
1.0
102
RTVSPost2010PropOp39
 70
     1
102
RTVSPost2010Prop40
 90
        0
102
RTVSPost2010PropOp40
 70
     1
102
RTVSPost2010Prop41ColorIndex
 90
       18
102
RTVSPost2010Prop41ColorRGB
 90
        0
102
RTVSPost2010PropOp41
 70
     1
102
RTVSPost2010Prop42
 90
       50
102
RTVSPost2010PropOp42
 70
     1
102
RTVSPost2010Prop43
 90
        3
102
RTVSPost2010PropOp43
 70
     1
102
RTVSPost2010Prop44ColorIndex
 90
        5
102
RTVSPost2010Prop44ColorRGB
 90
      255
102
RTVSPost2010PropOp44
 70
     1
102
RTVSPost2010Prop45
280
     0
102
RTVSPost2010PropOp45
 70
     1
102
RTVSPost2010Prop46
 90
       50
102
RTVSPost2010PropOp46
 70
     1
102
RTVSPost2010Prop47
 90
       50
102
RTVSPost2010PropOp47
 70
     1
102
RTVSPost2010Prop48
 90
       50
102
RTVSPost2010PropOp48
 70
     1
102
RTVSPost2010Prop49
280
     0
102
RTVSPost2010PropOp49
 70
     1
102
RTVSPost2010Prop50
 90
       50
102
RTVSPost2010PropOp50
 70
     1
102
RTVSPost2010Prop51ColorIndex
 90
      256
102
RTVSPost2010Prop51ColorRGB
 90
-16777216
102
RTVSPost2010PropOp51
 70
     0
102
RTVSPost2010Prop52
140
1.0
102
RTVSPost2010PropOp52
 70
     0
102
RTVSPost2010Prop53
 90
        2
102
RTVSPost2010PropOp53
 70
     1
102
RTVSPost2010Prop54
  1
strokes_ogs.tif
102
RTVSPost2010PropOp54
 70
     1
102
RTVSPost2010Prop55
280
     0
102
RTVSPost2010PropOp55
 70
     1
102
RTVSPost2010Prop56
140
1.0
102
RTVSPost2010PropOp56
 70
     1
102
RTVSPost2010Prop57
140
1.0
102
RTVSPost2010PropOp57
 70
     1
  0
XRECORD
  5
6B0
102
{ACAD_REACTORS
330
6AF
102
}
330
6AF
100
AcDbXrecord
280
     1
102
RTVSPost2010Prop28
280
     0
102
RTVSPost2010PropOp28
 70
     1
102
RTVSPost2010Prop29
280
     1
102
RTVSPost2010PropOp29
 70
     1
102
RTVSPost2010Prop30
280
     1
102
RTVSPost2010PropOp30
 70
     1
102
RTVSPost2010Prop31
280
     0
102
RTVSPost2010PropOp31
 70
     1
102
RTVSPost2010Prop32
280
     0
102
RTVSPost2010PropOp32
 70
     1
102
RTVSPost2010Prop33
280
     0
102
RTVSPost2010PropOp33
 70
     1
102
RTVSPost2010Prop34
280
     0
102
RTVSPost2010PropOp34
 70
     1
102
RTVSPost2010Prop35
280
     0
102
RTVSPost2010PropOp35
 70
     1
102
RTVSPost2010Prop36
280
     0
102
RTVSPost2010PropOp36
 70
     1
102
RTVSPost2010Prop37
 90
       50
102
RTVSPost2010PropOp37
 70
     1
102
RTVSPost2010Prop38
140
0.0
102
RTVSPost2010PropOp38
 70
     1
102
RTVSPost2010Prop39
140
1.0
102
RTVSPost2010PropOp39
 70
     1
102
RTVSPost2010Prop40
 90
        0
102
RTVSPost2010PropOp40
 70
     1
102
RTVSPost2010Prop41ColorIndex
 90
       18
102
RTVSPost2010Prop41ColorRGB
 90
        0
102
RTVSPost2010PropOp41
 70
     1
102
RTVSPost2010Prop42
 90
       50
102
RTVSPost2010PropOp42
 70
     1
102
RTVSPost2010Prop43
 90
        3
102
RTVSPost2010PropOp43
 70
     1
102
RTVSPost2010Prop44ColorIndex
 90
        5
102
RTVSPost2010Prop44ColorRGB
 90
      255
102
RTVSPost2010PropOp44
 70
     1
102
RTVSPost2010Prop45
280
     0
102
RTVSPost2010PropOp45
 70
     1
102
RTVSPost2010Prop46
 90
       50
102
RTVSPost2010PropOp46
 70
     1
102
RTVSPost2010Prop47
 90
       50
102
RTVSPost2010PropOp47
 70
     1
102
RTVSPost2010Prop48
 90
       50
102
RTVSPost2010PropOp48
 70
     1
102
RTVSPost2010Prop49
280
     0
102
RTVSPost2010PropOp49
 70
     1
102
RTVSPost2010Prop50
 90
       50
102
RTVSPost2010PropOp50
 70
     1
102
RTVSPost2010Prop51ColorIndex
 90
      256
102
RTVSPost2010Prop51ColorRGB
 90
-16777216
102
RTVSPost2010PropOp51
 70
     0
102
RTVSPost2010Prop52
140
1.0
102
RTVSPost2010PropOp52
 70
     0
102
RTVSPost2010Prop53
 90
        2
102
RTVSPost2010PropOp53
 70
     1
102
RTVSPost2010Prop54
  1
strokes_ogs.tif
102
RTVSPost2010PropOp54
 70
     1
102
RTVSPost2010Prop55
280
     0
102
RTVSPost2010PropOp55
 70
     1
102
RTVSPost2010Prop56
140
1.0
102
RTVSPost2010PropOp56
 70
     1
102
RTVSPost2010Prop57
140
1.0
102
RTVSPost2010PropOp57
 70
     1
  0
XRECORD
  5
6B2
102
{ACAD_REACTORS
330
6B1
102
}
330
6B1
100
AcDbXrecord
280
     1
102
RTVSPost2010Prop28
280
     0
102
RTVSPost2010PropOp28
 70
     1
102
RTVSPost2010Prop29
280
     1
102
RTVSPost2010PropOp29
 70
     1
102
RTVSPost2010Prop30
280
     1
102
RTVSPost2010PropOp30
 70
     1
102
RTVSPost2010Prop31
280
     0
102
RTVSPost2010PropOp31
 70
     1
102
RTVSPost2010Prop32
280
     0
102
RTVSPost2010PropOp32
 70
     1
102
RTVSPost2010Prop33
280
     0
102
RTVSPost2010PropOp33
 70
     1
102
RTVSPost2010Prop34
280
     0
102
RTVSPost2010PropOp34
 70
     1
102
RTVSPost2010Prop35
280
     0
102
RTVSPost2010PropOp35
 70
     1
102
RTVSPost2010Prop36
280
     0
102
RTVSPost2010PropOp36
 70
     1
102
RTVSPost2010Prop37
 90
       50
102
RTVSPost2010PropOp37
 70
     1
102
RTVSPost2010Prop38
140
0.0
102
RTVSPost2010PropOp38
 70
     1
102
RTVSPost2010Prop39
140
1.0
102
RTVSPost2010PropOp39
 70
     1
102
RTVSPost2010Prop40
 90
        0
102
RTVSPost2010PropOp40
 70
     1
102
RTVSPost2010Prop41ColorIndex
 90
       18
102
RTVSPost2010Prop41ColorRGB
 90
        0
102
RTVSPost2010PropOp41
 70
     1
102
RTVSPost2010Prop42
 90
       50
102
RTVSPost2010PropOp42
 70
     1
102
RTVSPost2010Prop43
 90
        3
102
RTVSPost2010PropOp43
 70
     1
102
RTVSPost2010Prop44ColorIndex
 90
        5
102
RTVSPost2010Prop44ColorRGB
 90
      255
102
RTVSPost2010PropOp44
 70
     1
102
RTVSPost2010Prop45
280
     0
102
RTVSPost2010PropOp45
 70
     1
102
RTVSPost2010Prop46
 90
       50
102
RTVSPost2010PropOp46
 70
     1
102
RTVSPost2010Prop47
 90
       50
102
RTVSPost2010PropOp47
 70
     1
102
RTVSPost2010Prop48
 90
       50
102
RTVSPost2010PropOp48
 70
     1
102
RTVSPost2010Prop49
280
     0
102
RTVSPost2010PropOp49
 70
     1
102
RTVSPost2010Prop50
 90
       50
102
RTVSPost2010PropOp50
 70
     1
102
RTVSPost2010Prop51ColorIndex
 90
      256
102
RTVSPost2010Prop51ColorRGB
 90
-16777216
102
RTVSPost2010PropOp51
 70
     0
102
RTVSPost2010Prop52
140
1.0
102
RTVSPost2010PropOp52
 70
     0
102
RTVSPost2010Prop53
 90
        2
102
RTVSPost2010PropOp53
 70
     1
102
RTVSPost2010Prop54
  1
strokes_ogs.tif
102
RTVSPost2010PropOp54
 70
     1
102
RTVSPost2010Prop55
280
     0
102
RTVSPost2010PropOp55
 70
     1
102
RTVSPost2010Prop56
140
1.0
102
RTVSPost2010PropOp56
 70
     1
102
RTVSPost2010Prop57
140
1.0
102
RTVSPost2010PropOp57
 70
     1
  0
XRECORD
  5
6CE
102
{ACAD_REACTORS
330
6CD
102
}
330
6CD
100
AcDbXrecord
280
     1
102
RTVSPost2010Prop28
280
     0
102
RTVSPost2010PropOp28
 70
     1
102
RTVSPost2010Prop29
280
     1
102
RTVSPost2010PropOp29
 70
     1
102
RTVSPost2010Prop30
280
     1
102
RTVSPost2010PropOp30
 70
     1
102
RTVSPost2010Prop31
280
     0
102
RTVSPost2010PropOp31
 70
     1
102
RTVSPost2010Prop32
280
     0
102
RTVSPost2010PropOp32
 70
     1
102
RTVSPost2010Prop33
280
     0
102
RTVSPost2010PropOp33
 70
     1
102
RTVSPost2010Prop34
280
     0
102
RTVSPost2010PropOp34
 70
     1
102
RTVSPost2010Prop35
280
     0
102
RTVSPost2010PropOp35
 70
     1
102
RTVSPost2010Prop36
280
     0
102
RTVSPost2010PropOp36
 70
     1
102
RTVSPost2010Prop37
 90
       50
102
RTVSPost2010PropOp37
 70
     1
102
RTVSPost2010Prop38
140
0.0
102
RTVSPost2010PropOp38
 70
     1
102
RTVSPost2010Prop39
140
1.0
102
RTVSPost2010PropOp39
 70
     1
102
RTVSPost2010Prop40
 90
        0
102
RTVSPost2010PropOp40
 70
     1
102
RTVSPost2010Prop41ColorIndex
 90
       18
102
RTVSPost2010Prop41ColorRGB
 90
        0
102
RTVSPost2010PropOp41
 70
     1
102
RTVSPost2010Prop42
 90
       50
102
RTVSPost2010PropOp42
 70
     1
102
RTVSPost2010Prop43
 90
        3
102
RTVSPost2010PropOp43
 70
     1
102
RTVSPost2010Prop44ColorIndex
 90
        5
102
RTVSPost2010Prop44ColorRGB
 90
      255
102
RTVSPost2010PropOp44
 70
     1
102
RTVSPost2010Prop45
280
     0
102
RTVSPost2010PropOp45
 70
     1
102
RTVSPost2010Prop46
 90
       50
102
RTVSPost2010PropOp46
 70
     1
102
RTVSPost2010Prop47
 90
       50
102
RTVSPost2010PropOp47
 70
     1
102
RTVSPost2010Prop48
 90
       50
102
RTVSPost2010PropOp48
 70
     1
102
RTVSPost2010Prop49
280
     0
102
RTVSPost2010PropOp49
 70
     1
102
RTVSPost2010Prop50
 90
       50
102
RTVSPost2010PropOp50
 70
     1
102
RTVSPost2010Prop51ColorIndex
 90
      256
102
RTVSPost2010Prop51ColorRGB
 90
-16777216
102
RTVSPost2010PropOp51
 70
     0
102
RTVSPost2010Prop52
140
1.0
102
RTVSPost2010PropOp52
 70
     0
102
RTVSPost2010Prop53
 90
        2
102
RTVSPost2010PropOp53
 70
     1
102
RTVSPost2010Prop54
  1
strokes_ogs.tif
102
RTVSPost2010PropOp54
 70
     1
102
RTVSPost2010Prop55
280
     0
102
RTVSPost2010PropOp55
 70
     1
102
RTVSPost2010Prop56
140
1.0
102
RTVSPost2010PropOp56
 70
     1
102
RTVSPost2010Prop57
140
1.0
102
RTVSPost2010PropOp57
 70
     1
  0
XRECORD
  5
6DA
102
{ACAD_REACTORS
330
6D9
102
}
330
6D9
100
AcDbXrecord
280
     1
102
RTVSPost2010Prop28
280
     0
102
RTVSPost2010PropOp28
 70
     0
102
RTVSPost2010Prop29
280
     1
102
RTVSPost2010PropOp29
 70
     0
102
RTVSPost2010Prop30
280
     1
102
RTVSPost2010PropOp30
 70
     0
102
RTVSPost2010Prop31
280
     0
102
RTVSPost2010PropOp31
 70
     0
102
RTVSPost2010Prop32
280
     0
102
RTVSPost2010PropOp32
 70
     0
102
RTVSPost2010Prop33
280
     0
102
RTVSPost2010PropOp33
 70
     0
102
RTVSPost2010Prop34
280
     0
102
RTVSPost2010PropOp34
 70
     0
102
RTVSPost2010Prop35
280
     0
102
RTVSPost2010PropOp35
 70
     0
102
RTVSPost2010Prop36
280
     0
102
RTVSPost2010PropOp36
 70
     0
102
RTVSPost2010Prop37
 90
       50
102
RTVSPost2010PropOp37
 70
     0
102
RTVSPost2010Prop38
140
0.0
102
RTVSPost2010PropOp38
 70
     0
102
RTVSPost2010Prop39
140
1.0
102
RTVSPost2010PropOp39
 70
     0
102
RTVSPost2010Prop40
 90
        0
102
RTVSPost2010PropOp40
 70
     0
102
RTVSPost2010Prop41ColorIndex
 90
       18
102
RTVSPost2010Prop41ColorRGB
 90
        0
102
RTVSPost2010PropOp41
 70
     0
102
RTVSPost2010Prop42
 90
       50
102
RTVSPost2010PropOp42
 70
     0
102
RTVSPost2010Prop43
 90
        3
102
RTVSPost2010PropOp43
 70
     0
102
RTVSPost2010Prop44ColorIndex
 90
        5
102
RTVSPost2010Prop44ColorRGB
 90
      255
102
RTVSPost2010PropOp44
 70
     0
102
RTVSPost2010Prop45
280
     0
102
RTVSPost2010PropOp45
 70
     0
102
RTVSPost2010Prop46
 90
       50
102
RTVSPost2010PropOp46
 70
     0
102
RTVSPost2010Prop47
 90
       50
102
RTVSPost2010PropOp47
 70
     0
102
RTVSPost2010Prop48
 90
       50
102
RTVSPost2010PropOp48
 70
     0
102
RTVSPost2010Prop49
280
     0
102
RTVSPost2010PropOp49
 70
     0
102
RTVSPost2010Prop50
 90
       50
102
RTVSPost2010PropOp50
 70
     0
102
RTVSPost2010Prop51ColorIndex
 90
      256
102
RTVSPost2010Prop51ColorRGB
 90
-16777216
102
RTVSPost2010PropOp51
 70
     0
102
RTVSPost2010Prop52
140
1.0
102
RTVSPost2010PropOp52
 70
     0
102
RTVSPost2010Prop53
 90
        2
102
RTVSPost2010PropOp53
 70
     0
102
RTVSPost2010Prop54
  1
strokes_ogs.tif
102
RTVSPost2010PropOp54
 70
     0
102
RTVSPost2010Prop55
280
     0
102
RTVSPost2010PropOp55
 70
     0
102
RTVSPost2010Prop56
140
1.0
102
RTVSPost2010PropOp56
 70
     0
102
RTVSPost2010Prop57
140
1.0
102
RTVSPost2010PropOp57
 70
     0
  0
XRECORD
  5
6C6
102
{ACAD_REACTORS
330
6C5
102
}
330
6C5
100
AcDbXrecord
280
     1
102
RTVSPost2010Prop28
280
     0
102
RTVSPost2010PropOp28
 70
     1
102
RTVSPost2010Prop29
280
     1
102
RTVSPost2010PropOp29
 70
     1
102
RTVSPost2010Prop30
280
     1
102
RTVSPost2010PropOp30
 70
     1
102
RTVSPost2010Prop31
280
     0
102
RTVSPost2010PropOp31
 70
     1
102
RTVSPost2010Prop32
280
     0
102
RTVSPost2010PropOp32
 70
     1
102
RTVSPost2010Prop33
280
     0
102
RTVSPost2010PropOp33
 70
     1
102
RTVSPost2010Prop34
280
     0
102
RTVSPost2010PropOp34
 70
     1
102
RTVSPost2010Prop35
280
     0
102
RTVSPost2010PropOp35
 70
     1
102
RTVSPost2010Prop36
280
     0
102
RTVSPost2010PropOp36
 70
     1
102
RTVSPost2010Prop37
 90
       50
102
RTVSPost2010PropOp37
 70
     1
102
RTVSPost2010Prop38
140
0.0
102
RTVSPost2010PropOp38
 70
     1
102
RTVSPost2010Prop39
140
1.0
102
RTVSPost2010PropOp39
 70
     1
102
RTVSPost2010Prop40
 90
        0
102
RTVSPost2010PropOp40
 70
     1
102
RTVSPost2010Prop41ColorIndex
 90
       18
102
RTVSPost2010Prop41ColorRGB
 90
        0
102
RTVSPost2010PropOp41
 70
     1
102
RTVSPost2010Prop42
 90
       50
102
RTVSPost2010PropOp42
 70
     1
102
RTVSPost2010Prop43
 90
        3
102
RTVSPost2010PropOp43
 70
     1
102
RTVSPost2010Prop44ColorIndex
 90
        5
102
RTVSPost2010Prop44ColorRGB
 90
      255
102
RTVSPost2010PropOp44
 70
     1
102
RTVSPost2010Prop45
280
     0
102
RTVSPost2010PropOp45
 70
     1
102
RTVSPost2010Prop46
 90
       50
102
RTVSPost2010PropOp46
 70
     1
102
RTVSPost2010Prop47
 90
       50
102
RTVSPost2010PropOp47
 70
     1
102
RTVSPost2010Prop48
 90
       50
102
RTVSPost2010PropOp48
 70
     1
102
RTVSPost2010Prop49
280
     0
102
RTVSPost2010PropOp49
 70
     1
102
RTVSPost2010Prop50
 90
       50
102
RTVSPost2010PropOp50
 70
     1
102
RTVSPost2010Prop51ColorIndex
 90
      256
102
RTVSPost2010Prop51ColorRGB
 90
-16777216
102
RTVSPost2010PropOp51
 70
     0
102
RTVSPost2010Prop52
140
1.0
102
RTVSPost2010PropOp52
 70
     0
102
RTVSPost2010Prop53
 90
        2
102
RTVSPost2010PropOp53
 70
     1
102
RTVSPost2010Prop54
  1
strokes_ogs.tif
102
RTVSPost2010PropOp54
 70
     1
102
RTVSPost2010Prop55
280
     0
102
RTVSPost2010PropOp55
 70
     1
102
RTVSPost2010Prop56
140
1.0
102
RTVSPost2010PropOp56
 70
     1
102
RTVSPost2010Prop57
140
1.0
102
RTVSPost2010PropOp57
 70
     1
  0
XRECORD
  5
6DC
102
{ACAD_REACTORS
330
6DB
102
}
330
6DB
100
AcDbXrecord
280
     1
102
RTVSPost2010Prop28
280
     0
102
RTVSPost2010PropOp28
 70
     0
102
RTVSPost2010Prop29
280
     1
102
RTVSPost2010PropOp29
 70
     0
102
RTVSPost2010Prop30
280
     1
102
RTVSPost2010PropOp30
 70
     0
102
RTVSPost2010Prop31
280
     0
102
RTVSPost2010PropOp31
 70
     0
102
RTVSPost2010Prop32
280
     0
102
RTVSPost2010PropOp32
 70
     0
102
RTVSPost2010Prop33
280
     0
102
RTVSPost2010PropOp33
 70
     0
102
RTVSPost2010Prop34
280
     0
102
RTVSPost2010PropOp34
 70
     0
102
RTVSPost2010Prop35
280
     0
102
RTVSPost2010PropOp35
 70
     0
102
RTVSPost2010Prop36
280
     0
102
RTVSPost2010PropOp36
 70
     0
102
RTVSPost2010Prop37
 90
       50
102
RTVSPost2010PropOp37
 70
     0
102
RTVSPost2010Prop38
140
0.0
102
RTVSPost2010PropOp38
 70
     0
102
RTVSPost2010Prop39
140
1.0
102
RTVSPost2010PropOp39
 70
     0
102
RTVSPost2010Prop40
 90
        0
102
RTVSPost2010PropOp40
 70
     0
102
RTVSPost2010Prop41ColorIndex
 90
       18
102
RTVSPost2010Prop41ColorRGB
 90
        0
102
RTVSPost2010PropOp41
 70
     0
102
RTVSPost2010Prop42
 90
       50
102
RTVSPost2010PropOp42
 70
     0
102
RTVSPost2010Prop43
 90
        3
102
RTVSPost2010PropOp43
 70
     0
102
RTVSPost2010Prop44ColorIndex
 90
        5
102
RTVSPost2010Prop44ColorRGB
 90
      255
102
RTVSPost2010PropOp44
 70
     0
102
RTVSPost2010Prop45
280
     0
102
RTVSPost2010PropOp45
 70
     0
102
RTVSPost2010Prop46
 90
       50
102
RTVSPost2010PropOp46
 70
     0
102
RTVSPost2010Prop47
 90
       50
102
RTVSPost2010PropOp47
 70
     0
102
RTVSPost2010Prop48
 90
       50
102
RTVSPost2010PropOp48
 70
     0
102
RTVSPost2010Prop49
280
     0
102
RTVSPost2010PropOp49
 70
     0
102
RTVSPost2010Prop50
 90
       50
102
RTVSPost2010PropOp50
 70
     0
102
RTVSPost2010Prop51ColorIndex
 90
      256
102
RTVSPost2010Prop51ColorRGB
 90
-16777216
102
RTVSPost2010PropOp51
 70
     0
102
RTVSPost2010Prop52
140
1.0
102
RTVSPost2010PropOp52
 70
     0
102
RTVSPost2010Prop53
 90
        2
102
RTVSPost2010PropOp53
 70
     0
102
RTVSPost2010Prop54
  1
strokes_ogs.tif
102
RTVSPost2010PropOp54
 70
     0
102
RTVSPost2010Prop55
280
     0
102
RTVSPost2010PropOp55
 70
     0
102
RTVSPost2010Prop56
140
1.0
102
RTVSPost2010PropOp56
 70
     0
102
RTVSPost2010Prop57
140
1.0
102
RTVSPost2010PropOp57
 70
     0
  0
XRECORD
  5
6BC
102
{ACAD_REACTORS
330
6BB
102
}
330
6BB
100
AcDbXrecord
280
     1
102
RTVSPost2010Prop28
280
     0
102
RTVSPost2010PropOp28
 70
     1
102
RTVSPost2010Prop29
280
     1
102
RTVSPost2010PropOp29
 70
     1
102
RTVSPost2010Prop30
280
     1
102
RTVSPost2010PropOp30
 70
     1
102
RTVSPost2010Prop31
280
     0
102
RTVSPost2010PropOp31
 70
     1
102
RTVSPost2010Prop32
280
     0
102
RTVSPost2010PropOp32
 70
     1
102
RTVSPost2010Prop33
280
     0
102
RTVSPost2010PropOp33
 70
     1
102
RTVSPost2010Prop34
280
     0
102
RTVSPost2010PropOp34
 70
     1
102
RTVSPost2010Prop35
280
     0
102
RTVSPost2010PropOp35
 70
     1
102
RTVSPost2010Prop36
280
     0
102
RTVSPost2010PropOp36
 70
     1
102
RTVSPost2010Prop37
 90
       50
102
RTVSPost2010PropOp37
 70
     1
102
RTVSPost2010Prop38
140
0.0
102
RTVSPost2010PropOp38
 70
     1
102
RTVSPost2010Prop39
140
1.0
102
RTVSPost2010PropOp39
 70
     1
102
RTVSPost2010Prop40
 90
        0
102
RTVSPost2010PropOp40
 70
     1
102
RTVSPost2010Prop41ColorIndex
 90
       18
102
RTVSPost2010Prop41ColorRGB
 90
        0
102
RTVSPost2010PropOp41
 70
     1
102
RTVSPost2010Prop42
 90
       50
102
RTVSPost2010PropOp42
 70
     1
102
RTVSPost2010Prop43
 90
        3
102
RTVSPost2010PropOp43
 70
     1
102
RTVSPost2010Prop44ColorIndex
 90
        5
102
RTVSPost2010Prop44ColorRGB
 90
      255
102
RTVSPost2010PropOp44
 70
     1
102
RTVSPost2010Prop45
280
     0
102
RTVSPost2010PropOp45
 70
     1
102
RTVSPost2010Prop46
 90
       50
102
RTVSPost2010PropOp46
 70
     1
102
RTVSPost2010Prop47
 90
       50
102
RTVSPost2010PropOp47
 70
     1
102
RTVSPost2010Prop48
 90
       50
102
RTVSPost2010PropOp48
 70
     1
102
RTVSPost2010Prop49
280
     0
102
RTVSPost2010PropOp49
 70
     1
102
RTVSPost2010Prop50
 90
       50
102
RTVSPost2010PropOp50
 70
     1
102
RTVSPost2010Prop51ColorIndex
 90
      256
102
RTVSPost2010Prop51ColorRGB
 90
-16777216
102
RTVSPost2010PropOp51
 70
     0
102
RTVSPost2010Prop52
140
1.0
102
RTVSPost2010PropOp52
 70
     0
102
RTVSPost2010Prop53
 90
        2
102
RTVSPost2010PropOp53
 70
     1
102
RTVSPost2010Prop54
  1
strokes_ogs.tif
102
RTVSPost2010PropOp54
 70
     1
102
RTVSPost2010Prop55
280
     0
102
RTVSPost2010PropOp55
 70
     1
102
RTVSPost2010Prop56
140
1.0
102
RTVSPost2010PropOp56
 70
     1
102
RTVSPost2010Prop57
140
1.0
102
RTVSPost2010PropOp57
 70
     1
  0
XRECORD
  5
6D8
102
{ACAD_REACTORS
330
6D7
102
}
330
6D7
100
AcDbXrecord
280
     1
102
RTVSPost2010Prop28
280
     0
102
RTVSPost2010PropOp28
 70
     1
102
RTVSPost2010Prop29
280
     1
102
RTVSPost2010PropOp29
 70
     1
102
RTVSPost2010Prop30
280
     1
102
RTVSPost2010PropOp30
 70
     1
102
RTVSPost2010Prop31
280
     0
102
RTVSPost2010PropOp31
 70
     1
102
RTVSPost2010Prop32
280
     0
102
RTVSPost2010PropOp32
 70
     1
102
RTVSPost2010Prop33
280
     0
102
RTVSPost2010PropOp33
 70
     1
102
RTVSPost2010Prop34
280
     0
102
RTVSPost2010PropOp34
 70
     1
102
RTVSPost2010Prop35
280
     0
102
RTVSPost2010PropOp35
 70
     1
102
RTVSPost2010Prop36
280
     0
102
RTVSPost2010PropOp36
 70
     1
102
RTVSPost2010Prop37
 90
       50
102
RTVSPost2010PropOp37
 70
     1
102
RTVSPost2010Prop38
140
0.0
102
RTVSPost2010PropOp38
 70
     1
102
RTVSPost2010Prop39
140
1.0
102
RTVSPost2010PropOp39
 70
     1
102
RTVSPost2010Prop40
 90
        0
102
RTVSPost2010PropOp40
 70
     1
102
RTVSPost2010Prop41ColorIndex
 90
       18
102
RTVSPost2010Prop41ColorRGB
 90
        0
102
RTVSPost2010PropOp41
 70
     1
102
RTVSPost2010Prop42
 90
       50
102
RTVSPost2010PropOp42
 70
     1
102
RTVSPost2010Prop43
 90
        3
102
RTVSPost2010PropOp43
 70
     1
102
RTVSPost2010Prop44ColorIndex
 90
        5
102
RTVSPost2010Prop44ColorRGB
 90
      255
102
RTVSPost2010PropOp44
 70
     1
102
RTVSPost2010Prop45
280
     0
102
RTVSPost2010PropOp45
 70
     1
102
RTVSPost2010Prop46
 90
       50
102
RTVSPost2010PropOp46
 70
     1
102
RTVSPost2010Prop47
 90
       50
102
RTVSPost2010PropOp47
 70
     1
102
RTVSPost2010Prop48
 90
       50
102
RTVSPost2010PropOp48
 70
     1
102
RTVSPost2010Prop49
280
     0
102
RTVSPost2010PropOp49
 70
     1
102
RTVSPost2010Prop50
 90
       50
102
RTVSPost2010PropOp50
 70
     1
102
RTVSPost2010Prop51ColorIndex
 90
      256
102
RTVSPost2010Prop51ColorRGB
 90
-16777216
102
RTVSPost2010PropOp51
 70
     0
102
RTVSPost2010Prop52
140
1.0
102
RTVSPost2010PropOp52
 70
     0
102
RTVSPost2010Prop53
 90
        2
102
RTVSPost2010PropOp53
 70
     1
102
RTVSPost2010Prop54
  1
strokes_ogs.tif
102
RTVSPost2010PropOp54
 70
     1
102
RTVSPost2010Prop55
280
     0
102
RTVSPost2010PropOp55
 70
     1
102
RTVSPost2010Prop56
140
1.0
102
RTVSPost2010PropOp56
 70
     1
102
RTVSPost2010Prop57
140
1.0
102
RTVSPost2010PropOp57
 70
     1
  0
XRECORD
  5
6D6
102
{ACAD_REACTORS
330
6D5
102
}
330
6D5
100
AcDbXrecord
280
     1
102
RTVSPost2010Prop28
280
     0
102
RTVSPost2010PropOp28
 70
     1
102
RTVSPost2010Prop29
280
     1
102
RTVSPost2010PropOp29
 70
     1
102
RTVSPost2010Prop30
280
     1
102
RTVSPost2010PropOp30
 70
     1
102
RTVSPost2010Prop31
280
     0
102
RTVSPost2010PropOp31
 70
     1
102
RTVSPost2010Prop32
280
     0
102
RTVSPost2010PropOp32
 70
     1
102
RTVSPost2010Prop33
280
     0
102
RTVSPost2010PropOp33
 70
     1
102
RTVSPost2010Prop34
280
     0
102
RTVSPost2010PropOp34
 70
     1
102
RTVSPost2010Prop35
280
     0
102
RTVSPost2010PropOp35
 70
     1
102
RTVSPost2010Prop36
280
     0
102
RTVSPost2010PropOp36
 70
     1
102
RTVSPost2010Prop37
 90
       50
102
RTVSPost2010PropOp37
 70
     1
102
RTVSPost2010Prop38
140
0.0
102
RTVSPost2010PropOp38
 70
     1
102
RTVSPost2010Prop39
140
1.0
102
RTVSPost2010PropOp39
 70
     1
102
RTVSPost2010Prop40
 90
        0
102
RTVSPost2010PropOp40
 70
     1
102
RTVSPost2010Prop41ColorIndex
 90
       18
102
RTVSPost2010Prop41ColorRGB
 90
        0
102
RTVSPost2010PropOp41
 70
     1
102
RTVSPost2010Prop42
 90
       50
102
RTVSPost2010PropOp42
 70
     1
102
RTVSPost2010Prop43
 90
        3
102
RTVSPost2010PropOp43
 70
     1
102
RTVSPost2010Prop44ColorIndex
 90
        5
102
RTVSPost2010Prop44ColorRGB
 90
      255
102
RTVSPost2010PropOp44
 70
     1
102
RTVSPost2010Prop45
280
     0
102
RTVSPost2010PropOp45
 70
     1
102
RTVSPost2010Prop46
 90
       50
102
RTVSPost2010PropOp46
 70
     1
102
RTVSPost2010Prop47
 90
       50
102
RTVSPost2010PropOp47
 70
     1
102
RTVSPost2010Prop48
 90
       50
102
RTVSPost2010PropOp48
 70
     1
102
RTVSPost2010Prop49
280
     0
102
RTVSPost2010PropOp49
 70
     1
102
RTVSPost2010Prop50
 90
       50
102
RTVSPost2010PropOp50
 70
     1
102
RTVSPost2010Prop51ColorIndex
 90
      256
102
RTVSPost2010Prop51ColorRGB
 90
-16777216
102
RTVSPost2010PropOp51
 70
     0
102
RTVSPost2010Prop52
140
1.0
102
RTVSPost2010PropOp52
 70
     0
102
RTVSPost2010Prop53
 90
        2
102
RTVSPost2010PropOp53
 70
     1
102
RTVSPost2010Prop54
  1
strokes_ogs.tif
102
RTVSPost2010PropOp54
 70
     1
102
RTVSPost2010Prop55
280
     0
102
RTVSPost2010PropOp55
 70
     1
102
RTVSPost2010Prop56
140
1.0
102
RTVSPost2010PropOp56
 70
     1
102
RTVSPost2010Prop57
140
1.0
102
RTVSPost2010PropOp57
 70
     1
  0
XRECORD
  5
6D0
102
{ACAD_REACTORS
330
6CF
102
}
330
6CF
100
AcDbXrecord
280
     1
102
RTVSPost2010Prop28
280
     0
102
RTVSPost2010PropOp28
 70
     1
102
RTVSPost2010Prop29
280
     1
102
RTVSPost2010PropOp29
 70
     1
102
RTVSPost2010Prop30
280
     1
102
RTVSPost2010PropOp30
 70
     1
102
RTVSPost2010Prop31
280
     0
102
RTVSPost2010PropOp31
 70
     1
102
RTVSPost2010Prop32
280
     0
102
RTVSPost2010PropOp32
 70
     1
102
RTVSPost2010Prop33
280
     0
102
RTVSPost2010PropOp33
 70
     1
102
RTVSPost2010Prop34
280
     0
102
RTVSPost2010PropOp34
 70
     1
102
RTVSPost2010Prop35
280
     0
102
RTVSPost2010PropOp35
 70
     1
102
RTVSPost2010Prop36
280
     0
102
RTVSPost2010PropOp36
 70
     1
102
RTVSPost2010Prop37
 90
       50
102
RTVSPost2010PropOp37
 70
     1
102
RTVSPost2010Prop38
140
0.0
102
RTVSPost2010PropOp38
 70
     1
102
RTVSPost2010Prop39
140
1.0
102
RTVSPost2010PropOp39
 70
     1
102
RTVSPost2010Prop40
 90
        0
102
RTVSPost2010PropOp40
 70
     1
102
RTVSPost2010Prop41ColorIndex
 90
       18
102
RTVSPost2010Prop41ColorRGB
 90
        0
102
RTVSPost2010PropOp41
 70
     1
102
RTVSPost2010Prop42
 90
       50
102
RTVSPost2010PropOp42
 70
     1
102
RTVSPost2010Prop43
 90
        3
102
RTVSPost2010PropOp43
 70
     1
102
RTVSPost2010Prop44ColorIndex
 90
        5
102
RTVSPost2010Prop44ColorRGB
 90
      255
102
RTVSPost2010PropOp44
 70
     1
102
RTVSPost2010Prop45
280
     0
102
RTVSPost2010PropOp45
 70
     1
102
RTVSPost2010Prop46
 90
       50
102
RTVSPost2010PropOp46
 70
     1
102
RTVSPost2010Prop47
 90
       50
102
RTVSPost2010PropOp47
 70
     1
102
RTVSPost2010Prop48
 90
       50
102
RTVSPost2010PropOp48
 70
     1
102
RTVSPost2010Prop49
280
     0
102
RTVSPost2010PropOp49
 70
     1
102
RTVSPost2010Prop50
 90
       50
102
RTVSPost2010PropOp50
 70
     1
102
RTVSPost2010Prop51ColorIndex
 90
      256
102
RTVSPost2010Prop51ColorRGB
 90
-16777216
102
RTVSPost2010PropOp51
 70
     0
102
RTVSPost2010Prop52
140
1.0
102
RTVSPost2010PropOp52
 70
     0
102
RTVSPost2010Prop53
 90
        2
102
RTVSPost2010PropOp53
 70
     1
102
RTVSPost2010Prop54
  1
strokes_ogs.tif
102
RTVSPost2010PropOp54
 70
     1
102
RTVSPost2010Prop55
280
     0
102
RTVSPost2010PropOp55
 70
     1
102
RTVSPost2010Prop56
140
1.0
102
RTVSPost2010PropOp56
 70
     1
102
RTVSPost2010Prop57
140
1.0
102
RTVSPost2010PropOp57
 70
     1
  0
XRECORD
  5
6D2
102
{ACAD_REACTORS
330
6D1
102
}
330
6D1
100
AcDbXrecord
280
     1
102
RTVSPost2010Prop28
280
     0
102
RTVSPost2010PropOp28
 70
     1
102
RTVSPost2010Prop29
280
     1
102
RTVSPost2010PropOp29
 70
     1
102
RTVSPost2010Prop30
280
     1
102
RTVSPost2010PropOp30
 70
     1
102
RTVSPost2010Prop31
280
     0
102
RTVSPost2010PropOp31
 70
     1
102
RTVSPost2010Prop32
280
     0
102
RTVSPost2010PropOp32
 70
     1
102
RTVSPost2010Prop33
280
     0
102
RTVSPost2010PropOp33
 70
     1
102
RTVSPost2010Prop34
280
     0
102
RTVSPost2010PropOp34
 70
     1
102
RTVSPost2010Prop35
280
     0
102
RTVSPost2010PropOp35
 70
     1
102
RTVSPost2010Prop36
280
     0
102
RTVSPost2010PropOp36
 70
     1
102
RTVSPost2010Prop37
 90
       50
102
RTVSPost2010PropOp37
 70
     1
102
RTVSPost2010Prop38
140
0.0
102
RTVSPost2010PropOp38
 70
     1
102
RTVSPost2010Prop39
140
1.0
102
RTVSPost2010PropOp39
 70
     1
102
RTVSPost2010Prop40
 90
        0
102
RTVSPost2010PropOp40
 70
     1
102
RTVSPost2010Prop41ColorIndex
 90
       18
102
RTVSPost2010Prop41ColorRGB
 90
        0
102
RTVSPost2010PropOp41
 70
     1
102
RTVSPost2010Prop42
 90
       50
102
RTVSPost2010PropOp42
 70
     1
102
RTVSPost2010Prop43
 90
        3
102
RTVSPost2010PropOp43
 70
     1
102
RTVSPost2010Prop44ColorIndex
 90
        5
102
RTVSPost2010Prop44ColorRGB
 90
      255
102
RTVSPost2010PropOp44
 70
     1
102
RTVSPost2010Prop45
280
     0
102
RTVSPost2010PropOp45
 70
     1
102
RTVSPost2010Prop46
 90
       50
102
RTVSPost2010PropOp46
 70
     1
102
RTVSPost2010Prop47
 90
       50
102
RTVSPost2010PropOp47
 70
     1
102
RTVSPost2010Prop48
 90
       50
102
RTVSPost2010PropOp48
 70
     1
102
RTVSPost2010Prop49
280
     0
102
RTVSPost2010PropOp49
 70
     1
102
RTVSPost2010Prop50
 90
       50
102
RTVSPost2010PropOp50
 70
     1
102
RTVSPost2010Prop51ColorIndex
 90
      256
102
RTVSPost2010Prop51ColorRGB
 90
-16777216
102
RTVSPost2010PropOp51
 70
     0
102
RTVSPost2010Prop52
140
1.0
102
RTVSPost2010PropOp52
 70
     0
102
RTVSPost2010Prop53
 90
        2
102
RTVSPost2010PropOp53
 70
     1
102
RTVSPost2010Prop54
  1
strokes_ogs.tif
102
RTVSPost2010PropOp54
 70
     1
102
RTVSPost2010Prop55
280
     0
102
RTVSPost2010PropOp55
 70
     1
102
RTVSPost2010Prop56
140
1.0
102
RTVSPost2010PropOp56
 70
     1
102
RTVSPost2010Prop57
140
1.0
102
RTVSPost2010PropOp57
 70
     1
  0
XRECORD
  5
6C4
102
{ACAD_REACTORS
330
6C3
102
}
330
6C3
100
AcDbXrecord
280
     1
102
RTVSPost2010Prop28
280
     0
102
RTVSPost2010PropOp28
 70
     1
102
RTVSPost2010Prop29
280
     1
102
RTVSPost2010PropOp29
 70
     1
102
RTVSPost2010Prop30
280
     1
102
RTVSPost2010PropOp30
 70
     1
102
RTVSPost2010Prop31
280
     0
102
RTVSPost2010PropOp31
 70
     1
102
RTVSPost2010Prop32
280
     0
102
RTVSPost2010PropOp32
 70
     1
102
RTVSPost2010Prop33
280
     0
102
RTVSPost2010PropOp33
 70
     1
102
RTVSPost2010Prop34
280
     0
102
RTVSPost2010PropOp34
 70
     1
102
RTVSPost2010Prop35
280
     0
102
RTVSPost2010PropOp35
 70
     1
102
RTVSPost2010Prop36
280
     0
102
RTVSPost2010PropOp36
 70
     1
102
RTVSPost2010Prop37
 90
       50
102
RTVSPost2010PropOp37
 70
     1
102
RTVSPost2010Prop38
140
0.0
102
RTVSPost2010PropOp38
 70
     1
102
RTVSPost2010Prop39
140
1.0
102
RTVSPost2010PropOp39
 70
     1
102
RTVSPost2010Prop40
 90
        0
102
RTVSPost2010PropOp40
 70
     1
102
RTVSPost2010Prop41ColorIndex
 90
       18
102
RTVSPost2010Prop41ColorRGB
 90
        0
102
RTVSPost2010PropOp41
 70
     1
102
RTVSPost2010Prop42
 90
       50
102
RTVSPost2010PropOp42
 70
     1
102
RTVSPost2010Prop43
 90
        3
102
RTVSPost2010PropOp43
 70
     1
102
RTVSPost2010Prop44ColorIndex
 90
        5
102
RTVSPost2010Prop44ColorRGB
 90
      255
102
RTVSPost2010PropOp44
 70
     1
102
RTVSPost2010Prop45
280
     0
102
RTVSPost2010PropOp45
 70
     1
102
RTVSPost2010Prop46
 90
       50
102
RTVSPost2010PropOp46
 70
     1
102
RTVSPost2010Prop47
 90
       50
102
RTVSPost2010PropOp47
 70
     1
102
RTVSPost2010Prop48
 90
       50
102
RTVSPost2010PropOp48
 70
     1
102
RTVSPost2010Prop49
280
     0
102
RTVSPost2010PropOp49
 70
     1
102
RTVSPost2010Prop50
 90
       50
102
RTVSPost2010PropOp50
 70
     1
102
RTVSPost2010Prop51ColorIndex
 90
      256
102
RTVSPost2010Prop51ColorRGB
 90
-16777216
102
RTVSPost2010PropOp51
 70
     0
102
RTVSPost2010Prop52
140
1.0
102
RTVSPost2010PropOp52
 70
     0
102
RTVSPost2010Prop53
 90
        2
102
RTVSPost2010PropOp53
 70
     1
102
RTVSPost2010Prop54
  1
strokes_ogs.tif
102
RTVSPost2010PropOp54
 70
     1
102
RTVSPost2010Prop55
280
     0
102
RTVSPost2010PropOp55
 70
     1
102
RTVSPost2010Prop56
140
1.0
102
RTVSPost2010PropOp56
 70
     1
102
RTVSPost2010Prop57
140
1.0
102
RTVSPost2010PropOp57
 70
     1
  0
XRECORD
  5
6CC
102
{ACAD_REACTORS
330
6CB
102
}
330
6CB
100
AcDbXrecord
280
     1
102
RTVSPost2010Prop28
280
     0
102
RTVSPost2010PropOp28
 70
     1
102
RTVSPost2010Prop29
280
     1
102
RTVSPost2010PropOp29
 70
     1
102
RTVSPost2010Prop30
280
     1
102
RTVSPost2010PropOp30
 70
     1
102
RTVSPost2010Prop31
280
     0
102
RTVSPost2010PropOp31
 70
     1
102
RTVSPost2010Prop32
280
     0
102
RTVSPost2010PropOp32
 70
     1
102
RTVSPost2010Prop33
280
     0
102
RTVSPost2010PropOp33
 70
     1
102
RTVSPost2010Prop34
280
     0
102
RTVSPost2010PropOp34
 70
     1
102
RTVSPost2010Prop35
280
     0
102
RTVSPost2010PropOp35
 70
     1
102
RTVSPost2010Prop36
280
     0
102
RTVSPost2010PropOp36
 70
     1
102
RTVSPost2010Prop37
 90
       50
102
RTVSPost2010PropOp37
 70
     1
102
RTVSPost2010Prop38
140
0.0
102
RTVSPost2010PropOp38
 70
     1
102
RTVSPost2010Prop39
140
1.0
102
RTVSPost2010PropOp39
 70
     1
102
RTVSPost2010Prop40
 90
        0
102
RTVSPost2010PropOp40
 70
     1
102
RTVSPost2010Prop41ColorIndex
 90
       18
102
RTVSPost2010Prop41ColorRGB
 90
        0
102
RTVSPost2010PropOp41
 70
     1
102
RTVSPost2010Prop42
 90
       50
102
RTVSPost2010PropOp42
 70
     1
102
RTVSPost2010Prop43
 90
        3
102
RTVSPost2010PropOp43
 70
     1
102
RTVSPost2010Prop44ColorIndex
 90
        5
102
RTVSPost2010Prop44ColorRGB
 90
      255
102
RTVSPost2010PropOp44
 70
     1
102
RTVSPost2010Prop45
280
     0
102
RTVSPost2010PropOp45
 70
     1
102
RTVSPost2010Prop46
 90
       50
102
RTVSPost2010PropOp46
 70
     1
102
RTVSPost2010Prop47
 90
       50
102
RTVSPost2010PropOp47
 70
     1
102
RTVSPost2010Prop48
 90
       50
102
RTVSPost2010PropOp48
 70
     1
102
RTVSPost2010Prop49
280
     0
102
RTVSPost2010PropOp49
 70
     1
102
RTVSPost2010Prop50
 90
       50
102
RTVSPost2010PropOp50
 70
     1
102
RTVSPost2010Prop51ColorIndex
 90
      256
102
RTVSPost2010Prop51ColorRGB
 90
-16777216
102
RTVSPost2010PropOp51
 70
     0
102
RTVSPost2010Prop52
140
1.0
102
RTVSPost2010PropOp52
 70
     0
102
RTVSPost2010Prop53
 90
        2
102
RTVSPost2010PropOp53
 70
     1
102
RTVSPost2010Prop54
  1
strokes_ogs.tif
102
RTVSPost2010PropOp54
 70
     1
102
RTVSPost2010Prop55
280
     0
102
RTVSPost2010PropOp55
 70
     1
102
RTVSPost2010Prop56
140
1.0
102
RTVSPost2010PropOp56
 70
     1
102
RTVSPost2010Prop57
140
1.0
102
RTVSPost2010PropOp57
 70
     1
  0
XRECORD
  5
6D4
102
{ACAD_REACTORS
330
6D3
102
}
330
6D3
100
AcDbXrecord
280
     1
102
RTVSPost2010Prop28
280
     0
102
RTVSPost2010PropOp28
 70
     1
102
RTVSPost2010Prop29
280
     1
102
RTVSPost2010PropOp29
 70
     1
102
RTVSPost2010Prop30
280
     1
102
RTVSPost2010PropOp30
 70
     1
102
RTVSPost2010Prop31
280
     0
102
RTVSPost2010PropOp31
 70
     1
102
RTVSPost2010Prop32
280
     0
102
RTVSPost2010PropOp32
 70
     1
102
RTVSPost2010Prop33
280
     0
102
RTVSPost2010PropOp33
 70
     1
102
RTVSPost2010Prop34
280
     0
102
RTVSPost2010PropOp34
 70
     1
102
RTVSPost2010Prop35
280
     0
102
RTVSPost2010PropOp35
 70
     1
102
RTVSPost2010Prop36
280
     0
102
RTVSPost2010PropOp36
 70
     1
102
RTVSPost2010Prop37
 90
       50
102
RTVSPost2010PropOp37
 70
     1
102
RTVSPost2010Prop38
140
0.0
102
RTVSPost2010PropOp38
 70
     1
102
RTVSPost2010Prop39
140
1.0
102
RTVSPost2010PropOp39
 70
     1
102
RTVSPost2010Prop40
 90
        0
102
RTVSPost2010PropOp40
 70
     1
102
RTVSPost2010Prop41ColorIndex
 90
       18
102
RTVSPost2010Prop41ColorRGB
 90
        0
102
RTVSPost2010PropOp41
 70
     1
102
RTVSPost2010Prop42
 90
       50
102
RTVSPost2010PropOp42
 70
     1
102
RTVSPost2010Prop43
 90
        3
102
RTVSPost2010PropOp43
 70
     1
102
RTVSPost2010Prop44ColorIndex
 90
        5
102
RTVSPost2010Prop44ColorRGB
 90
      255
102
RTVSPost2010PropOp44
 70
     1
102
RTVSPost2010Prop45
280
     0
102
RTVSPost2010PropOp45
 70
     1
102
RTVSPost2010Prop46
 90
       50
102
RTVSPost2010PropOp46
 70
     1
102
RTVSPost2010Prop47
 90
       50
102
RTVSPost2010PropOp47
 70
     1
102
RTVSPost2010Prop48
 90
       50
102
RTVSPost2010PropOp48
 70
     1
102
RTVSPost2010Prop49
280
     0
102
RTVSPost2010PropOp49
 70
     1
102
RTVSPost2010Prop50
 90
       50
102
RTVSPost2010PropOp50
 70
     1
102
RTVSPost2010Prop51ColorIndex
 90
      256
102
RTVSPost2010Prop51ColorRGB
 90
-16777216
102
RTVSPost2010PropOp51
 70
     0
102
RTVSPost2010Prop52
140
1.0
102
RTVSPost2010PropOp52
 70
     0
102
RTVSPost2010Prop53
 90
        2
102
RTVSPost2010PropOp53
 70
     1
102
RTVSPost2010Prop54
  1
strokes_ogs.tif
102
RTVSPost2010PropOp54
 70
     1
102
RTVSPost2010Prop55
280
     0
102
RTVSPost2010PropOp55
 70
     1
102
RTVSPost2010Prop56
140
1.0
102
RTVSPost2010PropOp56
 70
     1
102
RTVSPost2010Prop57
140
1.0
102
RTVSPost2010PropOp57
 70
     1
  0
ENDSEC
  0
EOF
