999
DXF file: 105-100-88_rear_access_junction.dxf
999
Pro/ENGINEER 2006320 by Parametric Technology Corporation
  0
SECTION
  2
HEADER
  9
$EXTMAX
 10
420.0
 20
297.0
 30
0.0
  9
$EXTMIN
 10
0.0
 20
0.0
 30
0.0
  9
$LIMMIN
 10
0.0
 20
0.0
  9
$LIMMAX
 10
420.0
 20
297.0
  9
$VIEWCTR
 10
210.0
 20
148.5
  9
$VIEWSIZE
 40
297.0
  9
$CLAYER
  8
0
  9
$LTSCALE
 40
23.1
  9
$CELTYPE
  6
BYLAYER
  9
$DIMSCALE
 40
1.0
  9
$DIMASZ
 40
3.0
  9
$DIMEXO
 40
2.625
  9
$DIMDLI
 40
15.96
  9
$DIMEXE
 40
7.56
  9
$DIMCEN
 40
3.78
  9
$DIMLFAC
 40
1.0
  9
$DIMBLK
  1
_FILLED
  9
$DIMTXT
 40
3.0
  9
$PDMODE
 70
3
  9
$PDSIZE
 40
0.3125
  0
ENDSEC
  0
SECTION
  2
TABLES
  0
TABLE
  2
LTYPE
 70
6
  0
LTYPE
  2
BYBLOCK
 70
0
  3

 72
65
 73
0
 40
0.0
  0
LTYPE
  2
BYLAYER
 70
0
  3

 72
65
 73
0
 40
0.0
  0
LTYPE
  2
CONTINUOUS
 70
64
  3
Solid line
 72
65
 73
0
 40
0.0
  0
LTYPE
  2
CENTER
 70
64
  3
____ _ ____ _ ____ _ ____ _ ____ _ ____ _ ____
 72
65
 73
4
 40
0.6
 49
0.375
 49
-0.075
 49
0.075
 49
-0.075
  0
LTYPE
  2
HIDDEN
 70
64
  3
- - - - - - - - - - - - - - - - - - - -
 72
65
 73
2
 40
0.2
 49
0.1
 49
-0.1
  0
LTYPE
  2
PHANTOM
 70
64
  3
_____ _ _ _____ _ _ _____ _ _ _____
 72
65
 73
6
 40
0.8
 49
0.45
 49
-0.05
 49
0.1
 49
-0.05
 49
0.1
 49
-0.05
  0
LTYPE
  2
DOT
 70
64
  3
. . . . . . . . . . . . . . . . . . . .
 72
65
 73
2
 40
0.2
 49
0.1
 49
-0.1
  0
LTYPE
  2
DASHED
 70
64
  3
- - - - - - - - - - - - - - - - - - - -
 72
65
 73
2
 40
0.2
 49
0.1
 49
-0.1
  0
ENDTAB
  0
TABLE
  2
LAYER
 70
36
  0
LAYER
  2
0
 70
0
 62
7
  6
CONTINUOUS
  0
LAYER
  2
DEFAULT_1
 70
0
 62
7
  6
CENTER
  0
LAYER
  2
DEFAULT_2
 70
0
 62
8
  6
HIDDEN
  0
LAYER
  2
DEFAULT_3
 70
0
 62
7
  6
PHANTOM
  0
LAYER
  2
_2D_DELETED_OBJS
 70
0
 62
7
  6
CONTINUOUS
  0
LAYER
  2
01___PRT_ALL_DTM_PLN
 70
0
 62
7
  6
CONTINUOUS
  0
LAYER
  2
01___PRT_DEF_DTM_PLN
 70
0
 62
7
  6
CONTINUOUS
  0
LAYER
  2
02___PRT_ALL_AXES
 70
0
 62
7
  6
CONTINUOUS
  0
LAYER
  2
03___PRT_ALL_CURVES
 70
0
 62
7
  6
CONTINUOUS
  0
LAYER
  2
04___PRT_ALL_DTM_PNT
 70
0
 62
7
  6
CONTINUOUS
  0
LAYER
  2
05___PRT_ALL_DTM_CSYS
 70
0
 62
7
  6
CONTINUOUS
  0
LAYER
  2
05___PRT_DEF_DTM_CSYS
 70
0
 62
7
  6
CONTINUOUS
  0
LAYER
  2
06___PRT_ALL_SURFS
 70
0
 62
7
  6
CONTINUOUS
  0
LAYER
  2
CURVES
 70
0
 62
7
  6
CONTINUOUS
  0
ENDTAB
  0
TABLE
  2
STYLE
 70
1
  0
STYLE
  2
STANDARD
 70
0
 40
0.0
 41
0.6
 50
0.0
 71
0
 42
0.2
  3
txt
  4

  0
ENDTAB
  0
ENDSEC
  0
SECTION
  2
BLOCKS
  0
BLOCK
  8
0
 62
7
  6
CONTINUOUS
  2
*D0
 70
65
 10
0.0
 20
0.0
  0
TEXT
  8
0
 62
7
  6
CONTINUOUS
 10
367.9547920892
 20
147.7261782787
  7
STANDARD
 40
3.0
  1
240
 41
0.6
 72
0
  0
LINE
  8
0
 62
7
  6
CONTINUOUS
 10
233.760799221
 20
269.2261782787
 11
373.6547920892
 21
269.2261782787
  0
LINE
  8
0
 62
7
  6
CONTINUOUS
 10
232.6517314688
 20
29.2261782787
 11
373.6547920892
 21
29.2261782787
  0
LINE
  8
0
 62
7
  6
CONTINUOUS
 10
370.6547920892
 20
269.2261782787
 11
370.6547920892
 21
152.2261782787
  0
LINE
  8
0
 62
7
  6
CONTINUOUS
 10
370.6547920892
 20
29.2261782787
 11
370.6547920892
 21
146.2261782787
  0
INSERT
  8
0
 62
7
  6
CONTINUOUS
  2
_FILLED
 10
370.6547920892
 20
269.2261782787
 41
3.0
 42
3.0
 43
3.0
 50
90.0
  0
INSERT
  8
0
 62
7
  6
CONTINUOUS
  2
_FILLED
 10
370.6547920892
 20
29.2261782787
 41
3.0
 42
3.0
 43
3.0
 50
270.0
  0
ENDBLK
  8
0
  6
BYBLOCK
 62
0
  0
BLOCK
  8
0
 62
7
  6
CONTINUOUS
  2
*D1
 70
65
 10
0.0
 20
0.0
  0
TEXT
  8
0
 62
7
  6
CONTINUOUS
 10
208.0532658811
 20
10.3946186343
  7
STANDARD
 40
3.0
  1
195
 41
0.6
 72
0
  0
LINE
  8
0
 62
7
  6
CONTINUOUS
 10
113.1517314688
 20
27.7261782787
 11
113.1517314688
 21
8.8946186343
  0
LINE
  8
0
 62
7
  6
CONTINUOUS
 10
308.3548002935
 20
107.6722963643
 11
308.3548002935
 21
8.8946186343
  0
LINE
  8
0
 62
7
  6
CONTINUOUS
 10
113.1517314688
 20
11.8946186343
 11
206.5532658811
 21
11.8946186343
  0
LINE
  8
0
 62
7
  6
CONTINUOUS
 10
308.3548002935
 20
11.8946186343
 11
214.9532658811
 21
11.8946186343
  0
INSERT
  8
0
 62
7
  6
CONTINUOUS
  2
_FILLED
 10
113.1517314688
 20
11.8946186343
 41
3.0
 42
3.0
 43
3.0
 50
180.0
  0
INSERT
  8
0
 62
7
  6
CONTINUOUS
  2
_FILLED
 10
308.3548002935
 20
11.8946186343
 41
3.0
 42
3.0
 43
3.0
  0
ENDBLK
  8
0
  6
BYBLOCK
 62
0
  0
BLOCK
  8
0
 62
7
  6
CONTINUOUS
  2
*D2
 70
65
 10
0.0
 20
0.0
  0
TEXT
  8
0
 62
7
  6
CONTINUOUS
 10
340.9992900609
 20
97.1812667186
  7
STANDARD
 40
3.0
  1
139
 41
0.6
 72
0
  0
LINE
  8
0
 62
7
  6
CONTINUOUS
 10
232.6517314688
 20
29.2261782787
 11
346.6992900609
 21
29.2261782787
  0
LINE
  8
0
 62
7
  6
CONTINUOUS
 10
307.7957299881
 20
168.1363551585
 11
346.6992900609
 21
168.1363551585
  0
LINE
  8
0
 62
7
  6
CONTINUOUS
 10
343.6992900609
 20
29.2261782787
 11
343.6992900609
 21
95.6812667186
  0
LINE
  8
0
 62
7
  6
CONTINUOUS
 10
343.6992900609
 20
168.1363551585
 11
343.6992900609
 21
101.6812667186
  0
INSERT
  8
0
 62
7
  6
CONTINUOUS
  2
_FILLED
 10
343.6992900609
 20
29.2261782787
 41
3.0
 42
3.0
 43
3.0
 50
270.0
  0
INSERT
  8
0
 62
7
  6
CONTINUOUS
  2
_FILLED
 10
343.6992900609
 20
168.1363551585
 41
3.0
 42
3.0
 43
3.0
 50
90.0
  0
ENDBLK
  8
0
  6
BYBLOCK
 62
0
  0
BLOCK
  8
0
 62
7
  6
CONTINUOUS
  2
*D3
 70
65
 10
0.0
 20
0.0
  0
TEXT
  8
0
 62
7
  6
CONTINUOUS
 10
43.0511409736
 20
148.9549849255
  7
STANDARD
 40
3.0
  1
131
 41
0.6
 72
0
  0
LINE
  8
0
 62
7
  6
CONTINUOUS
 10
80.6517314688
 20
215.9549849255
 11
42.7511409736
 21
215.9549849255
  0
LINE
  8
0
 62
7
  6
CONTINUOUS
 10
80.6517314688
 20
84.9549849255
 11
42.7511409736
 21
84.9549849255
  0
LINE
  8
0
 62
7
  6
CONTINUOUS
 10
45.7511409736
 20
215.9549849255
 11
45.7511409736
 21
153.4549849255
  0
LINE
  8
0
 62
7
  6
CONTINUOUS
 10
45.7511409736
 20
84.9549849255
 11
45.7511409736
 21
147.4549849255
  0
INSERT
  8
0
 62
7
  6
CONTINUOUS
  2
_FILLED
 10
45.7511409736
 20
215.9549849255
 41
3.0
 42
3.0
 43
3.0
 50
90.0
  0
INSERT
  8
0
 62
7
  6
CONTINUOUS
  2
_FILLED
 10
45.7511409736
 20
84.9549849255
 41
3.0
 42
3.0
 43
3.0
 50
270.0
  0
ENDBLK
  8
0
  6
BYBLOCK
 62
0
  0
BLOCK
  8
0
 62
7
  6
CONTINUOUS
  2
*D4
 70
65
 10
0.0
 20
0.0
  0
TEXT
  8
0
 62
7
  6
CONTINUOUS
 10
256.5916700692
 20
252.2915445014
  7
STANDARD
 40
3.0
  1
88%%d
 41
0.6222222222
 72
0
  0
LINE
  8
0
 62
7
  6
CONTINUOUS
 10
276.9707047295
 20
167.1123027111
 11
300.6602239786
 21
167.9395589521
  0
LINE
  8
0
 62
7
  6
CONTINUOUS
 10
172.1517314688
 20
265.9613764045
 11
172.1517314688
 21
292.0387676362
  0
ARC
  8
0
 62
7
  6
CONTINUOUS
 10
172.1517314688
 20
163.4519435075
 40
125.5868241287
 50
2.0
 51
44.0632422609
  0
ARC
  8
0
 62
7
  6
CONTINUOUS
 10
172.1517314688
 20
163.4519435075
 40
125.5868241287
 50
48.0070930825
 51
90.0
  0
SOLID
  8
0
 62
7
  6
CONTINUOUS
 10
296.7723743336
 20
170.7964435765
 11
297.6620514975
 21
167.834860462
 12
298.2707284067
 22
170.8666936402
 13
298.2707284067
 23
170.8666936402
  0
SOLID
  8
0
 62
7
  6
CONTINUOUS
 10
175.1604752183
 20
289.7528832079
 11
172.1517314688
 21
289.0387676362
 12
175.1425597521
 22
288.2529901997
 13
175.1425597521
 23
288.2529901997
  0
ENDBLK
  8
0
  6
BYBLOCK
 62
0
  0
BLOCK
  8
0
 62
7
  6
CONTINUOUS
  2
*D5
 70
65
 10
0.0
 20
0.0
  0
TEXT
  8
0
 62
7
  6
CONTINUOUS
 10
169.4517314688
 20
17.955375383
  7
STANDARD
 40
3.0
  1
118
 41
0.6
 72
0
  0
LINE
  8
0
 62
7
  6
CONTINUOUS
 10
231.1517314688
 20
27.7261782787
 11
231.1517314688
 21
16.455375383
  0
LINE
  8
0
 62
7
  6
CONTINUOUS
 10
113.1517314688
 20
27.7261782787
 11
113.1517314688
 21
16.455375383
  0
LINE
  8
0
 62
7
  6
CONTINUOUS
 10
231.1517314688
 20
19.455375383
 11
176.3517314688
 21
19.455375383
  0
LINE
  8
0
 62
7
  6
CONTINUOUS
 10
113.1517314688
 20
19.455375383
 11
167.9517314688
 21
19.455375383
  0
INSERT
  8
0
 62
7
  6
CONTINUOUS
  2
_FILLED
 10
231.1517314688
 20
19.455375383
 41
3.0
 42
3.0
 43
3.0
  0
INSERT
  8
0
 62
7
  6
CONTINUOUS
  2
_FILLED
 10
113.1517314688
 20
19.455375383
 41
3.0
 42
3.0
 43
3.0
 50
180.0
  0
ENDBLK
  8
0
  6
BYBLOCK
 62
0
  0
BLOCK
  8
0
  2
_FILLED
 70
64
 10
0.0
 20
0.0
  0
SOLID
  8
0
  6
BYBLOCK
 62
0
 10
0.0
 20
0.0
 11
-1.0
 21
0.25
 12
-1.0
 22
-0.25
 13
-1.0
 23
-0.25
  0
ENDBLK
  8
0
  6
BYBLOCK
 62
0
  0
ENDSEC
  0
SECTION
  2
ENTITIES
  0
DIMENSION
  8
0
 62
7
  6
CONTINUOUS
  2
*D0
 10
370.6547920892
 20
29.2261782787
 11
370.6547920892
 21
149.2261782787
 70
128
 13
233.760799221
 23
269.2261782787
 14
232.6517314688
 24
29.2261782787
 50
270.0
  0
DIMENSION
  8
0
 62
7
  6
CONTINUOUS
  2
*D1
 10
308.3548002935
 20
11.8946186343
 11
210.7532658811
 21
11.8946186343
 70
128
 13
113.1517314688
 23
27.7261782787
 14
308.3548002935
 24
107.6722963643
  0
DIMENSION
  8
0
 62
7
  6
CONTINUOUS
  2
*D2
 10
343.6992900609
 20
168.1363551585
 11
343.6992900609
 21
98.6812667186
 70
128
 13
232.6517314688
 23
29.2261782787
 14
307.7957299881
 24
168.1363551585
 50
90.0
  0
DIMENSION
  8
0
 62
7
  6
CONTINUOUS
  2
*D3
 10
45.7511409736
 20
84.9549849255
 11
45.7511409736
 21
150.4549849255
 70
128
 13
80.6517314688
 23
215.9549849255
 14
80.6517314688
 24
84.9549849255
 50
270.0
  0
DIMENSION
  8
0
 62
7
  6
CONTINUOUS
  2
*D4
 10
172.1517314688
 20
265.9613764045
 11
259.3916700692
 21
253.7915445014
 70
130
 13
276.9707047295
 23
167.1123027111
 14
300.6602239786
 24
167.9395589521
 15
172.1517314688
 25
292.0387676362
 16
259.3916700692
 26
253.7915445014
  0
DIMENSION
  8
0
 62
7
  6
CONTINUOUS
  2
*D5
 10
113.1517314688
 20
19.455375383
 11
172.1517314688
 21
19.455375383
 70
128
 13
231.1517314688
 23
27.7261782787
 14
113.1517314688
 24
27.7261782787
 50
180.0
  0
LINE
  8
0
 62
7
  6
CONTINUOUS
 10
0.0
 20
0.0
 11
0.0
 21
297.0
  0
LINE
  8
0
 62
7
  6
CONTINUOUS
 10
0.0
 20
0.0
 11
420.0
 21
0.0
  0
LINE
  8
0
 62
7
  6
CONTINUOUS
 10
0.0
 20
297.0
 11
420.0
 21
297.0
  0
LINE
  8
0
 62
7
  6
CONTINUOUS
 10
420.0
 20
0.0
 11
420.0
 21
297.0
  0
LINE
  8
0
 62
7
  6
CONTINUOUS
 10
77.1517314688
 20
89.9549849255
 11
77.1517314688
 21
210.9549849255
  0
LINE
  8
0
 62
9
  6
CONTINUOUS
 10
82.1517314688
 20
84.9549849255
 11
82.1517314688
 21
215.9549849255
  0
LINE
  8
0
 62
7
  6
CONTINUOUS
 10
83.1517314688
 20
207.4296469138
 11
83.1517314688
 21
207.0542359209
  0
LINE
  8
0
 62
7
  6
CONTINUOUS
 10
83.1517314688
 20
150.7049846966
 11
83.1517314688
 21
150.204985157
  0
LINE
  8
0
 62
7
  6
CONTINUOUS
 10
83.1517314688
 20
93.8557339301
 11
83.1517314688
 21
93.480950535
  0
LINE
  8
02___PRT_ALL_AXES
 62
7
  6
CONTINUOUS
 10
231.1517314688
 20
29.2261782787
 11
113.1517314688
 21
29.2261782787
  0
LINE
  8
0
 62
9
  6
CONTINUOUS
 10
84.6517314688
 20
208.9296488734
 11
84.6517314688
 21
206.2844811289
  0
LINE
  8
0
 62
9
  6
CONTINUOUS
 10
84.6517314688
 20
152.2049849255
 11
84.6517314688
 21
148.7049849255
  0
LINE
  8
0
 62
9
  6
CONTINUOUS
 10
84.6517314688
 20
94.6254887221
 11
84.6517314688
 21
91.9803209776
  0
POLYLINE
  8
0
 62
7
  6
CONTINUOUS
 66
1
 70
0
  0
VERTEX
  8
0
 62
7
  6
CONTINUOUS
 10
83.1517314688
 20
93.8557339301
  0
VERTEX
  8
0
 62
7
  6
CONTINUOUS
 10
83.1668163494
 20
93.9628297248
  0
VERTEX
  8
0
 62
7
  6
CONTINUOUS
 10
83.2123618969
 20
94.069381035
  0
VERTEX
  8
0
 62
7
  6
CONTINUOUS
 10
83.2872531034
 20
94.1718782782
  0
VERTEX
  8
0
 62
7
  6
CONTINUOUS
 10
83.3890708813
 20
94.2676009565
  0
VERTEX
  8
0
 62
7
  6
CONTINUOUS
 10
83.5175102175
 20
94.356122346
  0
VERTEX
  8
0
 62
7
  6
CONTINUOUS
 10
83.6701055649
 20
94.4350490678
  0
VERTEX
  8
0
 62
7
  6
CONTINUOUS
 10
83.8419773354
 20
94.5017246996
  0
VERTEX
  8
0
 62
7
  6
CONTINUOUS
 10
84.0286832541
 20
94.5547322366
  0
VERTEX
  8
0
 62
7
  6
CONTINUOUS
 10
84.2295574466
 20
94.5937999332
  0
VERTEX
  8
0
 62
7
  6
CONTINUOUS
 10
84.4395100626
 20
94.617598845
  0
VERTEX
  8
0
 62
7
  6
CONTINUOUS
 10
84.6517314688
 20
94.6254887221
  0
SEQEND
  0
LINE
  8
02___PRT_ALL_AXES
 62
7
  6
CONTINUOUS
 10
105.1517314688
 20
215.9549849255
 11
105.1517314688
 21
84.9549849255
  0
LINE
  8
0
 62
7
  6
CONTINUOUS
 10
113.1517314688
 20
251.0714777403
 11
113.1517314688
 21
219.2261782787
  0
LINE
  8
02___PRT_ALL_AXES
 62
7
  6
CONTINUOUS
 10
113.1517314688
 20
82.2261782787
 11
113.1517314688
 21
29.2261782787
  0
LINE
  8
02___PRT_ALL_AXES
 62
7
  6
CONTINUOUS
 10
112.0426637166
 20
269.2261782787
 11
111.1517314688
 21
252.2261782787
  0
LINE
  8
0
 62
7
  6
CONTINUOUS
 10
117.1517314688
 20
216.9167772019
 11
117.1517314688
 21
210.4549849255
  0
LINE
  8
0
 62
7
  6
CONTINUOUS
 10
117.1517314688
 20
90.4549849255
 11
117.1517314688
 21
84.2261782787
  0
LINE
  8
0
 62
7
  6
CONTINUOUS
 10
119.3241818379
 20
224.2261782787
 11
119.3241818379
 21
227.2261782787
  0
LINE
  8
02___PRT_ALL_AXES
 62
7
  6
CONTINUOUS
 10
121.1517314688
 20
206.8109961399
 11
121.1517314688
 21
94.0989737111
  0
LINE
  8
02___PRT_ALL_AXES
 62
7
  6
CONTINUOUS
 10
233.1517314688
 20
252.2261782787
 11
231.1517314688
 21
251.0714777403
  0
LINE
  8
02___PRT_ALL_AXES
 62
7
  6
CONTINUOUS
 10
231.1517314688
 20
82.2261782787
 11
113.1517314688
 21
82.2261782787
  0
LINE
  8
02___PRT_ALL_AXES
 62
7
  6
CONTINUOUS
 10
227.6876298537
 20
84.2261782787
 11
116.6158330839
 21
84.2261782787
  0
LINE
  8
0
 62
7
  6
CONTINUOUS
 10
82.1517314688
 20
84.9549849255
 11
105.1517314688
 21
84.9549849255
  0
LINE
  8
02___PRT_ALL_AXES
 62
7
  6
CONTINUOUS
 10
105.1517314688
 20
90.4549849255
 11
117.1517314688
 21
90.4549849255
  0
LINE
  8
02___PRT_ALL_AXES
 62
7
  6
CONTINUOUS
 10
84.6517314688
 20
91.9803209776
 11
105.1517314688
 21
91.9803209776
  0
LINE
  8
0
 62
7
  6
CONTINUOUS
 10
84.6517314688
 20
94.6254887221
 11
105.1517314688
 21
94.6254887221
  0
LINE
  8
0
 62
7
  6
CONTINUOUS
 10
141.6517314688
 20
224.2261782787
 11
141.6517314688
 21
227.2261782787
  0
LINE
  8
0
 62
7
  6
CONTINUOUS
 10
142.6517314688
 20
227.2261782787
 11
142.6517314688
 21
224.2261782787
  0
LINE
  8
0
 62
7
  6
CONTINUOUS
 10
225.8043667065
 20
216.9167772019
 11
228.6958519157
 21
218.1843452207
  0
LINE
  8
0
 62
7
  6
CONTINUOUS
 10
228.6958519157
 20
218.1843452207
 11
231.080356777
 21
219.2261782787
  0
LINE
  8
02___PRT_ALL_AXES
 62
7
  6
CONTINUOUS
 10
308.3548002935
 20
109.1722963643
 11
255.3870864615
 21
107.3226230391
  0
LINE
  8
02___PRT_ALL_AXES
 62
7
  6
CONTINUOUS
 10
227.6876298537
 20
84.2261782787
 11
231.1517314688
 21
82.2261782787
  0
LINE
  8
02___PRT_ALL_AXES
 62
7
  6
CENTER
 10
172.1517314688
 20
26.7261782787
 11
172.1517314688
 21
276.458695097
  0
LINE
  8
0
 62
7
  6
CONTINUOUS
 10
231.080356777
 20
219.2261782787
 11
231.1517314688
 21
219.3160572049
  0
POLYLINE
  8
0
 62
7
  6
CONTINUOUS
 66
1
 70
0
  0
VERTEX
  8
0
 62
7
  6
CONTINUOUS
 10
225.8043667065
 20
216.9167772019
  0
VERTEX
  8
0
 62
7
  6
CONTINUOUS
 10
225.3289696664
 20
216.3276069385
  0
VERTEX
  8
0
 62
7
  6
CONTINUOUS
 10
224.7855118885
 20
215.6508520201
  0
VERTEX
  8
0
 62
7
  6
CONTINUOUS
 10
224.175875688
 20
214.8875152937
  0
VERTEX
  8
0
 62
7
  6
CONTINUOUS
 10
223.502158291
 20
214.0387202494
  0
VERTEX
  8
0
 62
7
  6
CONTINUOUS
 10
222.7666596836
 20
213.1057066176
  0
VERTEX
  8
0
 62
7
  6
CONTINUOUS
 10
221.9718694373
 20
212.0898255399
  0
VERTEX
  8
0
 62
7
  6
CONTINUOUS
 10
221.1204526275
 20
210.9925343421
  0
VERTEX
  8
0
 62
7
  6
CONTINUOUS
 10
220.2152349729
 20
209.8153909378
  0
VERTEX
  8
0
 62
7
  6
CONTINUOUS
 10
219.2591873252
 20
208.5600478959
  0
VERTEX
  8
0
 62
7
  6
CONTINUOUS
 10
218.255409645
 20
207.2282462045
  0
VERTEX
  8
0
 62
7
  6
CONTINUOUS
 10
217.2071145981
 20
205.8218087663
  0
VERTEX
  8
0
 62
7
  6
CONTINUOUS
 10
216.1176109114
 20
204.3426336615
  0
VERTEX
  8
0
 62
7
  6
CONTINUOUS
 10
214.990286621
 20
202.7926872151
  0
VERTEX
  8
0
 62
7
  6
CONTINUOUS
 10
213.8285923475
 20
201.1739969061
  0
VERTEX
  8
0
 62
7
  6
CONTINUOUS
 10
212.6360247265
 20
199.4886441559
  0
VERTEX
  8
0
 62
7
  6
CONTINUOUS
 10
211.4161101166
 20
197.7387570358
  0
VERTEX
  8
0
 62
7
  6
CONTINUOUS
 10
210.1723887042
 20
195.9265029286
  0
VERTEX
  8
0
 62
7
  6
CONTINUOUS
 10
208.9083991127
 20
194.0540811849
  0
VERTEX
  8
0
 62
7
  6
CONTINUOUS
 10
207.6276636172
 20
192.1237158091
  0
VERTEX
  8
0
 62
7
  6
CONTINUOUS
 10
206.3336740568
 20
190.1376482121
  0
VERTEX
  8
0
 62
7
  6
CONTINUOUS
 10
205.0298785271
 20
188.098130066
  0
VERTEX
  8
0
 62
7
  6
CONTINUOUS
 10
203.7196689212
 20
186.0074162947
  0
VERTEX
  8
0
 62
7
  6
CONTINUOUS
 10
202.406369384
 20
183.8677582327
  0
VERTEX
  8
0
 62
7
  6
CONTINUOUS
 10
201.0932257256
 20
181.6813969846
  0
VERTEX
  8
0
 62
7
  6
CONTINUOUS
 10
199.7833958347
 20
179.4505570128
  0
VERTEX
  8
0
 62
7
  6
CONTINUOUS
 10
198.4799411191
 20
177.1774399831
  0
VERTEX
  8
0
 62
7
  6
CONTINUOUS
 10
197.1858189892
 20
174.8642188929
  0
VERTEX
  8
0
 62
7
  6
CONTINUOUS
 10
195.9038763929
 20
172.5130325055
  0
VERTEX
  8
0
 62
7
  6
CONTINUOUS
 10
194.6368443967
 20
170.125980114
  0
VERTEX
  8
0
 62
7
  6
CONTINUOUS
 10
193.387333801
 20
167.7051166521
  0
VERTEX
  8
0
 62
7
  6
CONTINUOUS
 10
192.1578317669
 20
165.252448171
  0
VERTEX
  8
0
 62
7
  6
CONTINUOUS
 10
190.9506994254
 20
162.7699276972
  0
VERTEX
  8
0
 62
7
  6
CONTINUOUS
 10
189.768170431
 20
160.2594514832
  0
VERTEX
  8
0
 62
7
  6
CONTINUOUS
 10
188.6123504143
 20
157.7228556636
  0
VERTEX
  8
0
 62
7
  6
CONTINUOUS
 10
187.4852172858
 20
155.1619133245
  0
VERTEX
  8
0
 62
7
  6
CONTINUOUS
 10
186.3886223325
 20
152.5783319915
  0
VERTEX
  8
0
 62
7
  6
CONTINUOUS
 10
185.3242920498
 20
149.9737515429
  0
VERTEX
  8
0
 62
7
  6
CONTINUOUS
 10
184.2938306442
 20
147.3497425482
  0
VERTEX
  8
0
 62
7
  6
CONTINUOUS
 10
183.2987231404
 20
144.7078050334
  0
VERTEX
  8
0
 62
7
  6
CONTINUOUS
 10
182.3403390266
 20
142.0493676704
  0
VERTEX
  8
0
 62
7
  6
CONTINUOUS
 10
181.4199363649
 20
139.3757873877
  0
VERTEX
  8
0
 62
7
  6
CONTINUOUS
 10
180.5386663014
 20
136.6883493964
  0
VERTEX
  8
0
 62
7
  6
CONTINUOUS
 10
179.697577901
 20
133.9882676239
  0
VERTEX
  8
0
 62
7
  6
CONTINUOUS
 10
178.8976232416
 20
131.2766855471
  0
VERTEX
  8
0
 62
7
  6
CONTINUOUS
 10
178.1396626969
 20
128.5546774139
  0
VERTEX
  8
0
 62
7
  6
CONTINUOUS
 10
177.4244703417
 20
125.8232498415
  0
VERTEX
  8
0
 62
7
  6
CONTINUOUS
 10
176.7527394154
 20
123.0833437777
  0
VERTEX
  8
0
 62
7
  6
CONTINUOUS
 10
176.1250877812
 20
120.3358368107
  0
VERTEX
  8
0
 62
7
  6
CONTINUOUS
 10
175.5420633215
 20
117.581545811
  0
VERTEX
  8
0
 62
7
  6
CONTINUOUS
 10
175.0041492133
 20
114.8212298889
  0
VERTEX
  8
0
 62
7
  6
CONTINUOUS
 10
174.5117690301
 20
112.0555936488
  0
VERTEX
  8
0
 62
7
  6
CONTINUOUS
 10
174.0652916219
 20
109.2852907213
  0
VERTEX
  8
0
 62
7
  6
CONTINUOUS
 10
173.6650357252
 20
106.5109275532
  0
VERTEX
  8
0
 62
7
  6
CONTINUOUS
 10
173.3112742634
 20
103.7330674345
  0
VERTEX
  8
0
 62
7
  6
CONTINUOUS
 10
173.0042382969
 20
100.9522347399
  0
VERTEX
  8
0
 62
7
  6
CONTINUOUS
 10
172.7441205901
 20
98.1689193642
  0
VERTEX
  8
0
 62
7
  6
CONTINUOUS
 10
172.5310787648
 20
95.3835813274
  0
VERTEX
  8
0
 62
7
  6
CONTINUOUS
 10
172.3652380123
 20
92.5966555259
  0
VERTEX
  8
0
 62
7
  6
CONTINUOUS
 10
172.246693344
 20
89.808556612
  0
VERTEX
  8
0
 62
7
  6
CONTINUOUS
 10
172.1755113343
 20
87.0196824412
  0
VERTEX
  8
0
 62
7
  6
CONTINUOUS
 10
172.1517314688
 20
84.2261782787
  0
SEQEND
  0
LINE
  8
02___PRT_ALL_AXES
 62
7
  6
CONTINUOUS
 10
121.1517314688
 20
99.4549849255
 11
172.1517314688
 21
150.4549849255
  0
LINE
  8
02___PRT_ALL_AXES
 62
7
  6
CONTINUOUS
 10
172.1517314688
 20
150.4549849255
 11
121.1517314688
 21
201.4549849255
  0
LINE
  8
02___PRT_ALL_AXES
 62
7
  6
CONTINUOUS
 10
117.1517314688
 20
90.4549849255
 11
118.6785900456
 21
91.8514282616
  0
POLYLINE
  8
02___PRT_ALL_AXES
 62
7
  6
CONTINUOUS
 66
1
 70
0
  0
VERTEX
  8
02___PRT_ALL_AXES
 62
7
  6
CONTINUOUS
 10
118.6785900456
 20
91.8514282616
  0
VERTEX
  8
02___PRT_ALL_AXES
 62
7
  6
CONTINUOUS
 10
120.1865998995
 20
93.2240938001
  0
VERTEX
  8
02___PRT_ALL_AXES
 62
7
  6
CONTINUOUS
 10
121.1517314688
 20
94.0989737111
  0
SEQEND
  0
LINE
  8
02___PRT_ALL_AXES
 62
7
  6
CONTINUOUS
 10
84.6517314688
 20
148.7049849255
 11
105.1517314688
 21
148.7049849255
  0
LINE
  8
02___PRT_ALL_AXES
 62
7
  6
CONTINUOUS
 10
121.1517314688
 20
206.8109961399
 11
120.1866174718
 21
207.6858600954
  0
LINE
  8
02___PRT_ALL_AXES
 62
7
  6
CONTINUOUS
 10
120.1866174718
 20
207.6858600954
 11
118.6785983347
 21
209.0585340261
  0
LINE
  8
02___PRT_ALL_AXES
 62
7
  6
CONTINUOUS
 10
118.6785983347
 20
209.0585340261
 11
117.1517314688
 21
210.4549849255
  0
LINE
  8
02___PRT_ALL_AXES
 62
7
  6
CONTINUOUS
 10
201.6517314688
 20
227.2261782787
 11
201.6517314688
 21
224.2261782787
  0
LINE
  8
02___PRT_ALL_AXES
 62
7
  6
CONTINUOUS
 10
202.6517314688
 20
224.2261782787
 11
202.6517314688
 21
227.2261782787
  0
LINE
  8
02___PRT_ALL_AXES
 62
7
  6
CONTINUOUS
 10
84.6517314688
 20
152.2049849255
 11
105.1517314688
 21
152.2049849255
  0
LINE
  8
02___PRT_ALL_AXES
 62
7
  6
CONTINUOUS
 10
251.2689458506
 20
225.2507406274
 11
249.3910595995
 21
221.7189502559
  0
LINE
  8
02___PRT_ALL_AXES
 62
7
  6
CONTINUOUS
 10
116.6158330839
 20
84.2261782787
 11
113.1517314688
 21
82.2261782787
  0
LINE
  8
02___PRT_ALL_AXES
 62
7
  6
CENTER
 10
308.7942070556
 20
168.2236039002
 11
168.0979801866
 21
163.3103833934
  0
LINE
  8
0
 62
7
  6
CONTINUOUS
 10
113.1517314688
 20
219.2261782787
 11
117.1517314688
 21
216.9167772019
  0
LINE
  8
02___PRT_ALL_AXES
 62
7
  6
CONTINUOUS
 10
224.9792810996
 20
224.2261782787
 11
224.9792810996
 21
227.2261782787
  0
LINE
  8
02___PRT_ALL_AXES
 62
7
  6
CONTINUOUS
 10
255.3870864615
 20
107.3226230391
 11
253.2674094046
 21
110.7148154237
  0
LINE
  8
02___PRT_ALL_AXES
 62
7
  6
CONTINUOUS
 10
232.260799221
 20
269.2261782787
 11
233.1517314688
 21
252.2261782787
  0
LINE
  8
0
 62
7
  6
CONTINUOUS
 10
231.1517314688
 20
251.0714777403
 11
231.1517314688
 21
219.3160572049
  0
LINE
  8
02___PRT_ALL_AXES
 62
7
  6
CONTINUOUS
 10
231.1517314688
 20
82.2261782787
 11
231.1517314688
 21
29.2261782787
  0
POLYLINE
  8
0
 62
7
  6
CONTINUOUS
 66
1
 70
0
  0
VERTEX
  8
0
 62
7
  6
CONTINUOUS
 10
84.6517314688
 20
206.2844811289
  0
VERTEX
  8
0
 62
7
  6
CONTINUOUS
 10
84.4395100626
 20
206.292371006
  0
VERTEX
  8
0
 62
7
  6
CONTINUOUS
 10
84.2295574466
 20
206.3161699178
  0
VERTEX
  8
0
 62
7
  6
CONTINUOUS
 10
84.0286832541
 20
206.3552376144
  0
VERTEX
  8
0
 62
7
  6
CONTINUOUS
 10
83.8419773354
 20
206.4082451514
  0
VERTEX
  8
0
 62
7
  6
CONTINUOUS
 10
83.6701055649
 20
206.4749207832
  0
VERTEX
  8
0
 62
7
  6
CONTINUOUS
 10
83.5175102175
 20
206.553847505
  0
VERTEX
  8
0
 62
7
  6
CONTINUOUS
 10
83.3890708813
 20
206.6423688945
  0
VERTEX
  8
0
 62
7
  6
CONTINUOUS
 10
83.2872531034
 20
206.7380915728
  0
VERTEX
  8
0
 62
7
  6
CONTINUOUS
 10
83.2123618969
 20
206.840588816
  0
VERTEX
  8
0
 62
7
  6
CONTINUOUS
 10
83.1668163494
 20
206.9471401262
  0
VERTEX
  8
0
 62
7
  6
CONTINUOUS
 10
83.1517314688
 20
207.0542359209
  0
SEQEND
  0
LINE
  8
02___PRT_ALL_AXES
 62
7
  6
CONTINUOUS
 10
111.1517314688
 20
252.2261782787
 11
113.1517314688
 21
251.0714777403
  0
LINE
  8
02___PRT_ALL_AXES
 62
7
  6
CONTINUOUS
 10
253.2674094046
 20
110.7148154237
 11
249.3910595995
 21
221.7189502559
  0
LINE
  8
02___PRT_ALL_AXES
 62
7
  6
CONTINUOUS
 10
255.3870864615
 20
107.3226230391
 11
251.2689458506
 21
225.2507406274
  0
LINE
  8
0
 62
7
  6
CONTINUOUS
 10
84.6517314688
 20
206.2844811289
 11
105.1517314688
 21
206.2844811289
  0
LINE
  8
02___PRT_ALL_AXES
 62
7
  6
CONTINUOUS
 10
84.6517314688
 20
208.9296488734
 11
105.1517314688
 21
208.9296488734
  0
LINE
  8
02___PRT_ALL_AXES
 62
7
  6
CONTINUOUS
 10
105.1517314688
 20
210.4549849255
 11
117.1517314688
 21
210.4549849255
  0
LINE
  8
0
 62
7
  6
CONTINUOUS
 10
82.1517314688
 20
215.9549849255
 11
105.1517314688
 21
215.9549849255
  0
LINE
  8
0
 62
7
  6
CONTINUOUS
 10
225.8043667065
 20
216.9167772019
 11
117.1517314688
 21
216.9167772019
  0
LINE
  8
02___PRT_ALL_AXES
 62
7
  6
CONTINUOUS
 10
304.2366596826
 20
227.1004139526
 11
251.2689458506
 21
225.2507406274
  0
LINE
  8
0
 62
7
  6
CONTINUOUS
 10
231.080356777
 20
219.2261782787
 11
113.1517314688
 21
219.2261782787
  0
LINE
  8
0
 62
7
  6
CONTINUOUS
 10
142.6517314688
 20
224.2261782787
 11
119.3241818379
 21
224.2261782787
  0
LINE
  8
02___PRT_ALL_AXES
 62
7
  6
CONTINUOUS
 10
201.6517314688
 20
224.2261782787
 11
224.9792810996
 21
224.2261782787
  0
LINE
  8
02___PRT_ALL_AXES
 62
7
  6
CONTINUOUS
 10
224.9792810996
 20
227.2261782787
 11
201.6517314688
 21
227.2261782787
  0
LINE
  8
0
 62
7
  6
CONTINUOUS
 10
119.3241818379
 20
227.2261782787
 11
142.6517314688
 21
227.2261782787
  0
LINE
  8
02___PRT_ALL_AXES
 62
7
  6
CONTINUOUS
 10
231.1517314688
 20
251.0714777403
 11
113.1517314688
 21
251.0714777403
  0
LINE
  8
02___PRT_ALL_AXES
 62
7
  6
CONTINUOUS
 10
233.1517314688
 20
252.2261782787
 11
111.1517314688
 21
252.2261782787
  0
LINE
  8
02___PRT_ALL_AXES
 62
7
  6
CONTINUOUS
 10
308.3548002935
 20
109.1722963643
 11
304.2366596826
 21
227.1004139526
  0
LINE
  8
02___PRT_ALL_AXES
 62
7
  6
CONTINUOUS
 10
232.260799221
 20
269.2261782787
 11
112.0426637166
 21
269.2261782787
  0
ARC
  8
0
 62
7
  6
CONTINUOUS
 10
254.1924129964
 20
84.2261782787
 40
137.0406815277
 50
92.0
 51
99.6791245325
  0
ARC
  8
0
 62
7
  6
CONTINUOUS
 10
254.1924129964
 20
84.2261782787
 40
27.0406815277
 50
92.0
 51
180.0
  0
ARC
  8
0
 62
7
  6
CONTINUOUS
 10
82.1517314688
 20
210.9549849255
 40
5.0
 50
90.0
 51
180.0
  0
ARC
  8
0
 62
7
  6
CONTINUOUS
 10
82.1517314688
 20
89.9549849255
 40
5.0
 50
180.0
 51
270.0
  0
ARC
  8
0
 62
7
  6
CONTINUOUS
 10
84.6517314688
 20
207.4296488734
 40
1.5
 50
90.0
 51
180.0
  0
ARC
  8
0
 62
7
  6
CONTINUOUS
 10
84.6517314688
 20
93.4803209776
 40
1.5
 50
180.0
 51
270.0
  0
ARC
  8
0
 62
7
  6
CONTINUOUS
 10
84.6517314688
 20
150.7049849255
 40
1.5
 50
90.0
 51
180.0
  0
ARC
  8
0
 62
7
  6
CONTINUOUS
 10
84.6517314688
 20
150.2049849255
 40
1.5
 50
180.0
 51
270.0
  0
ENDSEC
  0
EOF
