999
DXF file: 126-100-lc4_floor_flange.dxf
999
Pro/ENGINEER 2006320 by Parametric Technology Corporation
  0
SECTION
  2
HEADER
  9
$EXTMAX
 10
420.0
 20
297.0
 30
0.0
  9
$EXTMIN
 10
0.0
 20
0.0
 30
0.0
  9
$LIMMIN
 10
0.0
 20
0.0
  9
$LIMMAX
 10
420.0
 20
297.0
  9
$VIEWCTR
 10
210.0
 20
148.5
  9
$VIEWSIZE
 40
297.0
  9
$CLAYER
  8
0
  9
$LTSCALE
 40
23.1
  9
$CELTYPE
  6
BYLAYER
  9
$DIMSCALE
 40
1.0
  9
$DIMASZ
 40
3.0
  9
$DIMEXO
 40
2.625
  9
$DIMDLI
 40
15.96
  9
$DIMEXE
 40
7.56
  9
$DIMCEN
 40
3.78
  9
$DIMLFAC
 40
1.0
  9
$DIMBLK
  1
_FILLED
  9
$DIMTXT
 40
3.0
  9
$PDMODE
 70
3
  9
$PDSIZE
 40
0.3125
  0
ENDSEC
  0
SECTION
  2
TABLES
  0
TABLE
  2
LTYPE
 70
6
  0
LTYPE
  2
BYBLOCK
 70
0
  3

 72
65
 73
0
 40
0.0
  0
LTYPE
  2
BYLAYER
 70
0
  3

 72
65
 73
0
 40
0.0
  0
LTYPE
  2
CONTINUOUS
 70
64
  3
Solid line
 72
65
 73
0
 40
0.0
  0
LTYPE
  2
CENTER
 70
64
  3
____ _ ____ _ ____ _ ____ _ ____ _ ____ _ ____
 72
65
 73
4
 40
0.6
 49
0.375
 49
-0.075
 49
0.075
 49
-0.075
  0
LTYPE
  2
HIDDEN
 70
64
  3
- - - - - - - - - - - - - - - - - - - -
 72
65
 73
2
 40
0.2
 49
0.1
 49
-0.1
  0
LTYPE
  2
PHANTOM
 70
64
  3
_____ _ _ _____ _ _ _____ _ _ _____
 72
65
 73
6
 40
0.8
 49
0.45
 49
-0.05
 49
0.1
 49
-0.05
 49
0.1
 49
-0.05
  0
LTYPE
  2
DOT
 70
64
  3
. . . . . . . . . . . . . . . . . . . .
 72
65
 73
2
 40
0.2
 49
0.1
 49
-0.1
  0
LTYPE
  2
DASHED
 70
64
  3
- - - - - - - - - - - - - - - - - - - -
 72
65
 73
2
 40
0.2
 49
0.1
 49
-0.1
  0
ENDTAB
  0
TABLE
  2
LAYER
 70
36
  0
LAYER
  2
0
 70
0
 62
7
  6
CONTINUOUS
  0
LAYER
  2
DEFAULT_1
 70
0
 62
7
  6
CENTER
  0
LAYER
  2
DEFAULT_2
 70
0
 62
8
  6
HIDDEN
  0
LAYER
  2
DEFAULT_3
 70
0
 62
7
  6
PHANTOM
  0
LAYER
  2
01___PRT_ALL_DTM_PLN
 70
0
 62
7
  6
CONTINUOUS
  0
LAYER
  2
01___PRT_DEF_DTM_PLN
 70
0
 62
7
  6
CONTINUOUS
  0
LAYER
  2
02___PRT_ALL_AXES
 70
0
 62
7
  6
CONTINUOUS
  0
LAYER
  2
03___PRT_ALL_CURVES
 70
0
 62
7
  6
CONTINUOUS
  0
LAYER
  2
04___PRT_ALL_DTM_PNT
 70
0
 62
7
  6
CONTINUOUS
  0
LAYER
  2
05___PRT_ALL_DTM_CSYS
 70
0
 62
7
  6
CONTINUOUS
  0
LAYER
  2
05___PRT_DEF_DTM_CSYS
 70
0
 62
7
  6
CONTINUOUS
  0
LAYER
  2
06___PRT_ALL_SURFS
 70
0
 62
7
  6
CONTINUOUS
  0
ENDTAB
  0
TABLE
  2
STYLE
 70
1
  0
STYLE
  2
STANDARD
 70
0
 40
0.0
 41
0.6
 50
0.0
 71
0
 42
0.2
  3
txt
  4

  0
ENDTAB
  0
ENDSEC
  0
SECTION
  2
BLOCKS
  0
BLOCK
  8
0
 62
7
  6
CONTINUOUS
  2
*D0
 70
65
 10
0.0
 20
0.0
  0
TEXT
  8
0
 62
7
  6
CONTINUOUS
 10
193.6841572746
 20
193.0635143556
  7
STANDARD
 40
3.0
  1
218
 41
0.6
 72
0
  0
LINE
  8
0
 62
7
  6
CONTINUOUS
 10
87.3841572746
 20
184.589267418
 11
87.3841572746
 21
197.5635143556
  0
LINE
  8
0
 62
7
  6
CONTINUOUS
 10
305.3841572746
 20
184.589267418
 11
305.3841572746
 21
197.5635143556
  0
LINE
  8
0
 62
7
  6
CONTINUOUS
 10
87.3841572746
 20
194.5635143556
 11
192.1841572746
 21
194.5635143556
  0
LINE
  8
0
 62
7
  6
CONTINUOUS
 10
305.3841572746
 20
194.5635143556
 11
200.5841572746
 21
194.5635143556
  0
INSERT
  8
0
 62
7
  6
CONTINUOUS
  2
_FILLED
 10
87.3841572746
 20
194.5635143556
 41
3.0
 42
3.0
 43
3.0
 50
180.0
  0
INSERT
  8
0
 62
7
  6
CONTINUOUS
  2
_FILLED
 10
305.3841572746
 20
194.5635143556
 41
3.0
 42
3.0
 43
3.0
  0
ENDBLK
  8
0
  6
BYBLOCK
 62
0
  0
BLOCK
  8
0
 62
7
  6
CONTINUOUS
  2
*D1
 70
65
 10
0.0
 20
0.0
  0
TEXT
  8
0
 62
7
  6
CONTINUOUS
 10
75.3075024049
 20
148.089267418
  7
STANDARD
 40
3.0
  1
67
 41
0.6
 72
0
  0
LINE
  8
0
 62
7
  6
CONTINUOUS
 10
85.8841572746
 20
183.089267418
 11
74.1075024049
 21
183.089267418
  0
LINE
  8
0
 62
7
  6
CONTINUOUS
 10
143.3841572746
 20
116.089267418
 11
74.1075024049
 21
116.089267418
  0
LINE
  8
0
 62
7
  6
CONTINUOUS
 10
77.1075024049
 20
183.089267418
 11
77.1075024049
 21
152.589267418
  0
LINE
  8
0
 62
7
  6
CONTINUOUS
 10
77.1075024049
 20
116.089267418
 11
77.1075024049
 21
146.589267418
  0
INSERT
  8
0
 62
7
  6
CONTINUOUS
  2
_FILLED
 10
77.1075024049
 20
183.089267418
 41
3.0
 42
3.0
 43
3.0
 50
90.0
  0
INSERT
  8
0
 62
7
  6
CONTINUOUS
  2
_FILLED
 10
77.1075024049
 20
116.089267418
 41
3.0
 42
3.0
 43
3.0
 50
270.0
  0
ENDBLK
  8
0
  6
BYBLOCK
 62
0
  0
BLOCK
  8
0
  2
_FILLED
 70
64
 10
0.0
 20
0.0
  0
SOLID
  8
0
  6
BYBLOCK
 62
0
 10
0.0
 20
0.0
 11
-1.0
 21
0.25
 12
-1.0
 22
-0.25
 13
-1.0
 23
-0.25
  0
ENDBLK
  8
0
  6
BYBLOCK
 62
0
  0
ENDSEC
  0
SECTION
  2
ENTITIES
  0
DIMENSION
  8
0
 62
7
  6
CONTINUOUS
  2
*D0
 10
305.3841572746
 20
194.5635143556
 11
196.3841572746
 21
194.5635143556
 70
128
 13
87.3841572746
 23
184.589267418
 14
305.3841572746
 24
184.589267418
  0
DIMENSION
  8
0
 62
7
  6
CONTINUOUS
  2
*D1
 10
77.1075024049
 20
116.089267418
 11
77.1075024049
 21
149.589267418
 70
128
 13
85.8841572746
 23
183.089267418
 14
143.3841572746
 24
116.089267418
 50
270.0
  0
LINE
  8
0
 62
7
  6
CONTINUOUS
 10
0.0
 20
0.0
 11
0.0
 21
297.0
  0
LINE
  8
0
 62
7
  6
CONTINUOUS
 10
0.0
 20
0.0
 11
420.0
 21
0.0
  0
LINE
  8
0
 62
7
  6
CONTINUOUS
 10
0.0
 20
297.0
 11
420.0
 21
297.0
  0
LINE
  8
0
 62
7
  6
CONTINUOUS
 10
420.0
 20
0.0
 11
420.0
 21
297.0
  0
LINE
  8
02___PRT_ALL_AXES
 62
7
  6
CONTINUOUS
 10
87.3841572746
 20
183.089267418
 11
87.3841572746
 21
180.089267418
  0
LINE
  8
02___PRT_ALL_AXES
 62
7
  6
CONTINUOUS
 10
126.7141572746
 20
178.089267418
 11
126.7141572746
 21
170.089267418
  0
LINE
  8
02___PRT_ALL_AXES
 62
7
  6
CONTINUOUS
 10
144.8841572746
 20
166.089267418
 11
144.8841572746
 21
116.089267418
  0
LINE
  8
02___PRT_ALL_AXES
 62
7
  6
CONTINUOUS
 10
247.8841572746
 20
116.089267418
 11
144.8841572746
 21
116.089267418
  0
LINE
  8
02___PRT_ALL_AXES
 62
7
  6
CENTER
 10
196.3841572746
 20
113.589267418
 11
196.3841572746
 21
185.589267418
  0
LINE
  8
0
 62
9
  6
CONTINUOUS
 10
247.8841572746
 20
166.089267418
 11
144.8841572746
 21
166.089267418
  0
LINE
  8
0
 62
7
  6
CONTINUOUS
 10
128.7141572746
 20
168.089267418
 11
264.0541572746
 21
168.089267418
  0
LINE
  8
0
 62
9
  6
CONTINUOUS
 10
126.7141572746
 20
170.089267418
 11
266.0541572746
 21
170.089267418
  0
LINE
  8
0
 62
9
  6
CONTINUOUS
 10
266.0541572746
 20
178.089267418
 11
126.7141572746
 21
178.089267418
  0
LINE
  8
02___PRT_ALL_AXES
 62
7
  6
CONTINUOUS
 10
305.3841572746
 20
180.089267418
 11
87.3841572746
 21
180.089267418
  0
LINE
  8
02___PRT_ALL_AXES
 62
7
  6
CONTINUOUS
 10
305.3841572746
 20
183.089267418
 11
87.3841572746
 21
183.089267418
  0
LINE
  8
02___PRT_ALL_AXES
 62
7
  6
CONTINUOUS
 10
247.8841572746
 20
166.089267418
 11
247.8841572746
 21
116.089267418
  0
LINE
  8
02___PRT_ALL_AXES
 62
7
  6
CONTINUOUS
 10
266.0541572746
 20
178.089267418
 11
266.0541572746
 21
170.089267418
  0
LINE
  8
02___PRT_ALL_AXES
 62
7
  6
CONTINUOUS
 10
305.3841572746
 20
183.089267418
 11
305.3841572746
 21
180.089267418
  0
ARC
  8
0
 62
7
  6
CONTINUOUS
 10
264.0541572746
 20
170.089267418
 40
2.0
 50
270.0
 51
360.0
  0
ARC
  8
0
 62
7
  6
CONTINUOUS
 10
128.7141572746
 20
170.089267418
 40
2.0
 50
180.0
 51
270.0
  0
ARC
  8
0
 62
7
  6
CONTINUOUS
 10
268.0541572746
 20
178.089267418
 40
2.0
 50
90.0
 51
180.0
  0
ARC
  8
0
 62
7
  6
CONTINUOUS
 10
124.7141572746
 20
178.089267418
 40
2.0
 50
0.0
 51
90.0
  0
ARC
  8
0
 62
7
  6
CONTINUOUS
 10
249.8841572746
 20
166.089267418
 40
2.0
 50
90.0
 51
180.0
  0
ARC
  8
0
 62
7
  6
CONTINUOUS
 10
142.8841572746
 20
166.089267418
 40
2.0
 50
0.0
 51
90.0
  0
ENDSEC
  0
EOF
