999
DXF file: 159-80-80p.dxf
999
Pro/ENGINEER 2006320 by Parametric Technology Corporation
  0
SECTION
  2
HEADER
  9
$EXTMAX
 10
420.0
 20
297.0
 30
0.0
  9
$EXTMIN
 10
0.0
 20
0.0
 30
0.0
  9
$LIMMIN
 10
0.0
 20
0.0
  9
$LIMMAX
 10
420.0
 20
297.0
  9
$VIEWCTR
 10
210.0
 20
148.5
  9
$VIEWSIZE
 40
297.0
  9
$CLAYER
  8
0
  9
$LTSCALE
 40
23.1
  9
$CELTYPE
  6
BYLAYER
  9
$DIMSCALE
 40
1.0
  9
$DIMASZ
 40
3.0
  9
$DIMEXO
 40
2.625
  9
$DIMDLI
 40
15.96
  9
$DIMEXE
 40
7.56
  9
$DIMCEN
 40
3.78
  9
$DIMLFAC
 40
1.0
  9
$DIMBLK
  1
_FILLED
  9
$DIMTXT
 40
3.0
  9
$PDMODE
 70
3
  9
$PDSIZE
 40
0.3125
  0
ENDSEC
  0
SECTION
  2
TABLES
  0
TABLE
  2
LTYPE
 70
6
  0
LTYPE
  2
BYBLOCK
 70
0
  3

 72
65
 73
0
 40
0.0
  0
LTYPE
  2
BYLAYER
 70
0
  3

 72
65
 73
0
 40
0.0
  0
LTYPE
  2
CONTINUOUS
 70
64
  3
Solid line
 72
65
 73
0
 40
0.0
  0
LTYPE
  2
CENTER
 70
64
  3
____ _ ____ _ ____ _ ____ _ ____ _ ____ _ ____
 72
65
 73
4
 40
0.6
 49
0.375
 49
-0.075
 49
0.075
 49
-0.075
  0
LTYPE
  2
HIDDEN
 70
64
  3
- - - - - - - - - - - - - - - - - - - -
 72
65
 73
2
 40
0.2
 49
0.1
 49
-0.1
  0
LTYPE
  2
PHANTOM
 70
64
  3
_____ _ _ _____ _ _ _____ _ _ _____
 72
65
 73
6
 40
0.8
 49
0.45
 49
-0.05
 49
0.1
 49
-0.05
 49
0.1
 49
-0.05
  0
LTYPE
  2
DOT
 70
64
  3
. . . . . . . . . . . . . . . . . . . .
 72
65
 73
2
 40
0.2
 49
0.1
 49
-0.1
  0
LTYPE
  2
DASHED
 70
64
  3
- - - - - - - - - - - - - - - - - - - -
 72
65
 73
2
 40
0.2
 49
0.1
 49
-0.1
  0
ENDTAB
  0
TABLE
  2
LAYER
 70
36
  0
LAYER
  2
0
 70
0
 62
7
  6
CONTINUOUS
  0
LAYER
  2
DEFAULT_1
 70
0
 62
7
  6
CENTER
  0
LAYER
  2
DEFAULT_2
 70
0
 62
8
  6
HIDDEN
  0
LAYER
  2
DEFAULT_3
 70
0
 62
7
  6
PHANTOM
  0
LAYER
  2
_2D_DELETED_OBJS
 70
0
 62
7
  6
CONTINUOUS
  0
LAYER
  2
01___PRT_ALL_DTM_PLN
 70
0
 62
7
  6
CONTINUOUS
  0
LAYER
  2
01___PRT_DEF_DTM_PLN
 70
0
 62
7
  6
CONTINUOUS
  0
LAYER
  2
02___PRT_ALL_AXES
 70
0
 62
7
  6
CONTINUOUS
  0
LAYER
  2
03___PRT_ALL_CURVES
 70
0
 62
7
  6
CONTINUOUS
  0
LAYER
  2
04___PRT_ALL_DTM_PNT
 70
0
 62
7
  6
CONTINUOUS
  0
LAYER
  2
05___PRT_ALL_DTM_CSYS
 70
0
 62
7
  6
CONTINUOUS
  0
LAYER
  2
05___PRT_DEF_DTM_CSYS
 70
0
 62
7
  6
CONTINUOUS
  0
LAYER
  2
06___PRT_ALL_SURFS
 70
0
 62
7
  6
CONTINUOUS
  0
LAYER
  2
CURVES
 70
0
 62
7
  6
CONTINUOUS
  0
ENDTAB
  0
TABLE
  2
STYLE
 70
1
  0
STYLE
  2
STANDARD
 70
0
 40
0.0
 41
0.6
 50
0.0
 71
0
 42
0.2
  3
txt
  4

  0
ENDTAB
  0
ENDSEC
  0
SECTION
  2
BLOCKS
  0
BLOCK
  8
0
 62
7
  6
CONTINUOUS
  2
*D0
 70
65
 10
0.0
 20
0.0
  0
TEXT
  8
0
 62
7
  6
CONTINUOUS
 10
46.5907995444
 20
108.3094262295
  7
STANDARD
 40
3.0
  1
156
 41
0.6
 72
0
  0
LINE
  8
0
 62
7
  6
CONTINUOUS
 10
57.7907995444
 20
187.795597924
 11
46.2907995444
 21
187.795597924
  0
LINE
  8
0
 62
7
  6
CONTINUOUS
 10
166.489372156
 20
31.823254535
 11
46.2907995444
 21
31.823254535
  0
LINE
  8
0
 62
7
  6
CONTINUOUS
 10
49.2907995444
 20
187.795597924
 11
49.2907995444
 21
112.8094262295
  0
LINE
  8
0
 62
7
  6
CONTINUOUS
 10
49.2907995444
 20
31.823254535
 11
49.2907995444
 21
106.8094262295
  0
INSERT
  8
0
 62
7
  6
CONTINUOUS
  2
_FILLED
 10
49.2907995444
 20
187.795597924
 41
3.0
 42
3.0
 43
3.0
 50
90.0
  0
INSERT
  8
0
 62
7
  6
CONTINUOUS
  2
_FILLED
 10
49.2907995444
 20
31.823254535
 41
3.0
 42
3.0
 43
3.0
 50
270.0
  0
ENDBLK
  8
0
  6
BYBLOCK
 62
0
  0
BLOCK
  8
0
 62
7
  6
CONTINUOUS
  2
*D1
 70
65
 10
0.0
 20
0.0
  0
TEXT
  8
0
 62
7
  6
CONTINUOUS
 10
38.5907995444
 20
152.8094262295
  7
STANDARD
 40
3.0
  1
245
 41
0.6
 72
0
  0
LINE
  8
0
 62
7
  6
CONTINUOUS
 10
166.489372156
 20
31.823254535
 11
38.2907995444
 21
31.823254535
  0
LINE
  8
0
 62
7
  6
CONTINUOUS
 10
301.9964360333
 20
276.795597924
 11
38.2907995444
 21
276.795597924
  0
LINE
  8
0
 62
7
  6
CONTINUOUS
 10
41.2907995444
 20
31.823254535
 11
41.2907995444
 21
151.3094262295
  0
LINE
  8
0
 62
7
  6
CONTINUOUS
 10
41.2907995444
 20
276.795597924
 11
41.2907995444
 21
157.3094262295
  0
INSERT
  8
0
 62
7
  6
CONTINUOUS
  2
_FILLED
 10
41.2907995444
 20
31.823254535
 41
3.0
 42
3.0
 43
3.0
 50
270.0
  0
INSERT
  8
0
 62
7
  6
CONTINUOUS
  2
_FILLED
 10
41.2907995444
 20
276.795597924
 41
3.0
 42
3.0
 43
3.0
 50
90.0
  0
ENDBLK
  8
0
  6
BYBLOCK
 62
0
  0
BLOCK
  8
0
 62
7
  6
CONTINUOUS
  2
*D2
 70
65
 10
0.0
 20
0.0
  0
TEXT
  8
0
 62
7
  6
CONTINUOUS
 10
165.2076247525
 20
20.323254535
  7
STANDARD
 40
3.0
  1
217
 41
0.6
 72
0
  0
LINE
  8
0
 62
7
  6
CONTINUOUS
 10
59.2907995444
 20
136.295597924
 11
59.2907995444
 21
18.823254535
  0
LINE
  8
0
 62
7
  6
CONTINUOUS
 10
276.5244499606
 20
152.8404362073
 11
276.5244499606
 21
18.823254535
  0
LINE
  8
0
 62
7
  6
CONTINUOUS
 10
59.2907995444
 20
21.823254535
 11
163.7076247525
 21
21.823254535
  0
LINE
  8
0
 62
7
  6
CONTINUOUS
 10
276.5244499606
 20
21.823254535
 11
172.1076247525
 21
21.823254535
  0
INSERT
  8
0
 62
7
  6
CONTINUOUS
  2
_FILLED
 10
59.2907995444
 20
21.823254535
 41
3.0
 42
3.0
 43
3.0
 50
180.0
  0
INSERT
  8
0
 62
7
  6
CONTINUOUS
  2
_FILLED
 10
276.5244499606
 20
21.823254535
 41
3.0
 42
3.0
 43
3.0
  0
ENDBLK
  8
0
  6
BYBLOCK
 62
0
  0
BLOCK
  8
0
 62
7
  6
CONTINUOUS
  2
*D3
 70
65
 10
0.0
 20
0.0
  0
TEXT
  8
0
 62
7
  6
CONTINUOUS
 10
202.7613857582
 20
12.323254535
  7
STANDARD
 40
3.0
  1
292
 41
0.6
 72
0
  0
LINE
  8
0
 62
7
  6
CONTINUOUS
 10
59.2907995444
 20
136.295597924
 11
59.2907995444
 21
10.823254535
  0
LINE
  8
0
 62
7
  6
CONTINUOUS
 10
351.631971972
 20
182.295597924
 11
351.631971972
 21
10.823254535
  0
LINE
  8
0
 62
7
  6
CONTINUOUS
 10
59.2907995444
 20
13.823254535
 11
201.2613857582
 21
13.823254535
  0
LINE
  8
0
 62
7
  6
CONTINUOUS
 10
351.631971972
 20
13.823254535
 11
209.6613857582
 21
13.823254535
  0
INSERT
  8
0
 62
7
  6
CONTINUOUS
  2
_FILLED
 10
59.2907995444
 20
13.823254535
 41
3.0
 42
3.0
 43
3.0
 50
180.0
  0
INSERT
  8
0
 62
7
  6
CONTINUOUS
  2
_FILLED
 10
351.631971972
 20
13.823254535
 41
3.0
 42
3.0
 43
3.0
  0
ENDBLK
  8
0
  6
BYBLOCK
 62
0
  0
BLOCK
  8
0
 62
7
  6
CONTINUOUS
  2
*D4
 70
65
 10
0.0
 20
0.0
  0
TEXT
  8
0
 62
7
  6
CONTINUOUS
 10
100.4407995444
 20
201.6298174442
  7
STANDARD
 40
3.0
  1
89.5
 41
0.6
 72
0
  0
LINE
  8
0
 62
7
  6
CONTINUOUS
 10
148.7907995444
 20
189.295597924
 11
148.7907995444
 21
206.1298174442
  0
LINE
  8
0
 62
7
  6
CONTINUOUS
 10
59.2907995444
 20
189.295597924
 11
59.2907995444
 21
206.1298174442
  0
LINE
  8
0
 62
7
  6
CONTINUOUS
 10
148.7907995444
 20
203.1298174442
 11
109.1407995444
 21
203.1298174442
  0
LINE
  8
0
 62
7
  6
CONTINUOUS
 10
59.2907995444
 20
203.1298174442
 11
98.9407995444
 21
203.1298174442
  0
INSERT
  8
0
 62
7
  6
CONTINUOUS
  2
_FILLED
 10
148.7907995444
 20
203.1298174442
 41
3.0
 42
3.0
 43
3.0
  0
INSERT
  8
0
 62
7
  6
CONTINUOUS
  2
_FILLED
 10
59.2907995444
 20
203.1298174442
 41
3.0
 42
3.0
 43
3.0
 50
180.0
  0
ENDBLK
  8
0
  6
BYBLOCK
 62
0
  0
BLOCK
  8
0
 62
7
  6
CONTINUOUS
  2
*D5
 70
65
 10
0.0
 20
0.0
  0
TEXT
  8
0
 62
7
  6
CONTINUOUS
 10
359.831971972
 20
228.295597924
  7
STANDARD
 40
3.0
  1
92
 41
0.6
 72
0
  0
LINE
  8
0
 62
7
  6
CONTINUOUS
 10
353.131971972
 20
183.795597924
 11
364.631971972
 21
183.795597924
  0
LINE
  8
0
 62
7
  6
CONTINUOUS
 10
353.131971972
 20
275.795597924
 11
364.631971972
 21
275.795597924
  0
LINE
  8
0
 62
7
  6
CONTINUOUS
 10
361.631971972
 20
183.795597924
 11
361.631971972
 21
226.795597924
  0
LINE
  8
0
 62
7
  6
CONTINUOUS
 10
361.631971972
 20
275.795597924
 11
361.631971972
 21
232.795597924
  0
INSERT
  8
0
 62
7
  6
CONTINUOUS
  2
_FILLED
 10
361.631971972
 20
183.795597924
 41
3.0
 42
3.0
 43
3.0
 50
270.0
  0
INSERT
  8
0
 62
7
  6
CONTINUOUS
  2
_FILLED
 10
361.631971972
 20
275.795597924
 41
3.0
 42
3.0
 43
3.0
 50
90.0
  0
ENDBLK
  8
0
  6
BYBLOCK
 62
0
  0
BLOCK
  8
0
  2
_FILLED
 70
64
 10
0.0
 20
0.0
  0
SOLID
  8
0
  6
BYBLOCK
 62
0
 10
0.0
 20
0.0
 11
-1.0
 21
0.25
 12
-1.0
 22
-0.25
 13
-1.0
 23
-0.25
  0
ENDBLK
  8
0
  6
BYBLOCK
 62
0
  0
ENDSEC
  0
SECTION
  2
ENTITIES
  0
DIMENSION
  8
0
 62
7
  6
CONTINUOUS
  2
*D0
 10
49.2907995444
 20
31.823254535
 11
49.2907995444
 21
109.8094262295
 70
128
 13
57.7907995444
 23
187.795597924
 14
166.489372156
 24
31.823254535
 50
270.0
  0
DIMENSION
  8
0
 62
7
  6
CONTINUOUS
  2
*D1
 10
41.2907995444
 20
276.795597924
 11
41.2907995444
 21
154.3094262295
 70
128
 13
166.489372156
 23
31.823254535
 14
301.9964360333
 24
276.795597924
 50
90.0
  0
DIMENSION
  8
0
 62
7
  6
CONTINUOUS
  2
*D2
 10
276.5244499606
 20
21.823254535
 11
167.9076247525
 21
21.823254535
 70
128
 13
59.2907995444
 23
136.295597924
 14
276.5244499606
 24
152.8404362073
  0
DIMENSION
  8
0
 62
7
  6
CONTINUOUS
  2
*D3
 10
351.631971972
 20
13.823254535
 11
205.4613857582
 21
13.823254535
 70
128
 13
59.2907995444
 23
136.295597924
 14
351.631971972
 24
182.295597924
  0
DIMENSION
  8
0
 62
7
  6
CONTINUOUS
  2
*D4
 10
59.2907995444
 20
203.1298174442
 11
104.0407995444
 21
203.1298174442
 70
128
 13
148.7907995444
 23
189.295597924
 14
59.2907995444
 24
189.295597924
 50
180.0
  0
DIMENSION
  8
0
 62
7
  6
CONTINUOUS
  2
*D5
 10
361.631971972
 20
275.795597924
 11
361.631971972
 21
229.795597924
 70
128
 13
353.131971972
 23
183.795597924
 14
353.131971972
 24
275.795597924
 50
90.0
  0
LINE
  8
0
 62
7
  6
CONTINUOUS
 10
0.0
 20
0.0
 11
0.0
 21
297.0
  0
LINE
  8
0
 62
7
  6
CONTINUOUS
 10
0.0
 20
0.0
 11
420.0
 21
0.0
  0
LINE
  8
0
 62
7
  6
CONTINUOUS
 10
0.0
 20
297.0
 11
420.0
 21
297.0
  0
LINE
  8
0
 62
7
  6
CONTINUOUS
 10
420.0
 20
0.0
 11
420.0
 21
297.0
  0
LINE
  8
02___PRT_ALL_AXES
 62
7
  6
CONTINUOUS
 10
59.2907995444
 20
187.795597924
 11
59.2907995444
 21
137.795597924
  0
LINE
  8
02___PRT_ALL_AXES
 62
7
  6
CENTER
 10
104.0407995444
 20
135.295597924
 11
104.0407995444
 21
190.295597924
  0
LINE
  8
0
 62
7
  6
CONTINUOUS
 10
148.7656528141
 20
162.737360739
 11
148.7656528141
 21
137.795597924
  0
LINE
  8
02___PRT_ALL_AXES
 62
7
  6
CONTINUOUS
 10
148.7907995444
 20
187.795597924
 11
148.7907995444
 21
162.795597924
  0
LINE
  8
0
 62
7
  6
CONTINUOUS
 10
148.7907995444
 20
162.795597924
 11
148.7656528141
 21
162.737360739
  0
LINE
  8
0
 62
9
  6
CONTINUOUS
 10
171.7739355216
 20
116.4457861202
 11
248.8029375436
 21
88.409522209
  0
LINE
  8
0
 62
9
  6
CONTINUOUS
 10
167.7776436882
 20
113.8013756012
 11
163.468234386
 21
31.9421779624
  0
LINE
  8
0
 62
7
  6
CONTINUOUS
 10
175.8145625704
 20
137.7869488898
 11
259.4234427943
 21
107.355805168
  0
LINE
  8
02___PRT_ALL_AXES
 62
7
  6
CONTINUOUS
 10
180.7570463994
 20
151.4402490177
 11
192.8918067106
 21
184.7802289633
  0
LINE
  8
0
 62
7
  6
CONTINUOUS
 10
175.8145625704
 20
137.7869488898
 11
180.7777461834
 21
151.4231837951
  0
LINE
  8
0
 62
7
  6
CONTINUOUS
 10
207.3277458039
 20
214.20933025
 11
196.1807308834
 21
183.5831584616
  0
LINE
  8
0
 62
7
  6
CONTINUOUS
 10
171.7739355216
 20
116.4457861202
 11
179.1055165996
 21
136.5891395809
  0
LINE
  8
0
 62
7
  6
CONTINUOUS
 10
292.6319723058
 20
270.7955975902
 11
296.6319723383
 21
274.7955975577
  0
LINE
  8
0
 62
7
  6
CONTINUOUS
 10
148.7656528141
 20
137.795597924
 11
59.2907995444
 21
137.795597924
  0
LINE
  8
0
 62
7
  6
CONTINUOUS
 10
180.7777461834
 20
151.4231837951
 11
180.7570463994
 21
151.4402490177
  0
LINE
  8
02___PRT_ALL_AXES
 62
7
  6
CENTER
 10
260.4487563886
 20
240.2821269235
 11
216.752070811
 21
120.226469994
  0
LINE
  8
0
 62
7
  6
CONTINUOUS
 10
336.631971972
 20
183.295597924
 11
351.631971972
 21
183.795597924
  0
LINE
  8
02___PRT_ALL_AXES
 62
7
  6
CONTINUOUS
 10
192.8918067106
 20
184.7802289633
 11
276.5244499606
 21
154.3404362073
  0
LINE
  8
0
 62
7
  6
CONTINUOUS
 10
303.4964360333
 20
182.795597924
 11
307.9964360333
 21
182.795597924
  0
LINE
  8
02___PRT_ALL_AXES
 62
7
  6
CONTINUOUS
 10
296.631971972
 20
184.795597924
 11
302.7464360333
 21
184.795597924
  0
LINE
  8
02___PRT_ALL_AXES
 62
7
  6
CONTINUOUS
 10
308.7464360333
 20
184.795597924
 11
336.0860166206
 21
184.795597924
  0
LINE
  8
02___PRT_ALL_AXES
 62
7
  6
CONTINUOUS
 10
148.7907995444
 20
187.795597924
 11
59.2907995444
 21
187.795597924
  0
LINE
  8
0
 62
7
  6
CONTINUOUS
 10
292.631971972
 20
188.795597924
 11
288.1413111915
 21
188.795597924
  0
LINE
  8
0
 62
7
  6
CONTINUOUS
 10
302.7464360333
 20
274.795597924
 11
303.4964360333
 21
276.795597924
  0
LINE
  8
0
 62
7
  6
CONTINUOUS
 10
284.3825407083
 20
186.1636784973
 11
273.2355257878
 21
155.5375067089
  0
LINE
  8
0
 62
7
  6
CONTINUOUS
 10
248.8029375436
 20
88.409522209
 11
256.1345186216
 21
108.5528756696
  0
LINE
  8
0
 62
9
  6
CONTINUOUS
 10
284.3825407083
 20
186.1636784973
 11
207.3277458039
 21
214.20933025
  0
LINE
  8
02___PRT_ALL_AXES
 62
7
  6
CONTINUOUS
 10
259.4234427943
 20
107.355805168
 11
276.5244499606
 21
154.3404362073
  0
LINE
  8
02___PRT_ALL_AXES
 62
7
  6
CENTER
 10
354.131971972
 20
229.795597924
 11
235.1573672114
 21
229.795597924
  0
LINE
  8
0
 62
9
  6
CONTINUOUS
 10
288.1413111915
 20
188.795597924
 11
288.1413111915
 21
270.795597924
  0
LINE
  8
0
 62
7
  6
CONTINUOUS
 10
292.631971972
 20
270.795597924
 11
292.631971972
 21
188.795597924
  0
LINE
  8
0
 62
7
  6
CONTINUOUS
 10
336.0860166206
 20
274.795597924
 11
336.631971972
 21
276.295597924
  0
LINE
  8
0
 62
7
  6
CONTINUOUS
 10
307.9964360333
 20
182.795597924
 11
308.7464360333
 21
184.795597924
  0
LINE
  8
0
 62
7
  6
CONTINUOUS
 10
292.6319723058
 20
188.7955982577
 11
296.6319723383
 21
184.7955982903
  0
LINE
  8
0
 62
7
  6
CONTINUOUS
 10
296.631971972
 20
274.795597924
 11
296.631971972
 21
184.795597924
  0
LINE
  8
0
 62
7
  6
CONTINUOUS
 10
302.7464360333
 20
274.795597924
 11
302.7464360333
 21
184.795597924
  0
LINE
  8
0
 62
7
  6
CONTINUOUS
 10
303.4964360333
 20
182.795597924
 11
303.4964360333
 21
276.795597924
  0
LINE
  8
0
 62
7
  6
CONTINUOUS
 10
307.9964360333
 20
182.795597924
 11
307.9964360333
 21
276.795597924
  0
LINE
  8
0
 62
7
  6
CONTINUOUS
 10
308.7464360333
 20
274.795597924
 11
308.7464360333
 21
184.795597924
  0
LINE
  8
0
 62
7
  6
CONTINUOUS
 10
302.7464360333
 20
184.795597924
 11
303.4964360333
 21
182.795597924
  0
LINE
  8
0
 62
7
  6
CONTINUOUS
 10
292.631971972
 20
270.795597924
 11
288.1413111915
 21
270.795597924
  0
LINE
  8
02___PRT_ALL_AXES
 62
7
  6
CONTINUOUS
 10
296.631971972
 20
274.795597924
 11
302.7464360333
 21
274.795597924
  0
LINE
  8
02___PRT_ALL_AXES
 62
7
  6
CONTINUOUS
 10
308.7464360333
 20
274.795597924
 11
336.0860166206
 21
274.795597924
  0
LINE
  8
0
 62
7
  6
CONTINUOUS
 10
303.4964360333
 20
276.795597924
 11
307.9964360333
 21
276.795597924
  0
LINE
  8
0
 62
7
  6
CONTINUOUS
 10
336.631971972
 20
276.295597924
 11
351.631971972
 21
275.795597924
  0
LINE
  8
0
 62
7
  6
CONTINUOUS
 10
336.0860166206
 20
274.795597924
 11
336.0860166206
 21
184.795597924
  0
LINE
  8
0
 62
7
  6
CONTINUOUS
 10
336.631971972
 20
183.295597924
 11
336.631971972
 21
276.295597924
  0
LINE
  8
0
 62
7
  6
CONTINUOUS
 10
307.9964360333
 20
276.795597924
 11
308.7464360333
 21
274.795597924
  0
LINE
  8
0
 62
7
  6
CONTINUOUS
 10
336.0860166206
 20
184.795597924
 11
336.631971972
 21
183.295597924
  0
LINE
  8
0
 62
7
  6
CONTINUOUS
 10
351.631971972
 20
183.795597924
 11
351.631971972
 21
275.795597924
  0
ARC
  8
0
 62
7
  6
CONTINUOUS
 10
169.0407995444
 20
137.795597924
 40
106.0
 50
180.0
 51
266.9864932246
  0
ARC
  8
0
 62
7
  6
CONTINUOUS
 10
288.1413111915
 20
184.795597924
 40
86.0
 50
90.0
 51
160.0
  0
ARC
  8
0
 62
7
  6
CONTINUOUS
 10
167.989372156
 20
117.823254535
 40
86.0
 50
266.9864932246
 51
340.0
  0
ARC
  8
0
 62
7
  6
CONTINUOUS
 10
169.0407995444
 20
137.795597924
 40
24.0274482122
 50
180.0
 51
266.9864932246
  0
ARC
  8
0
 62
7
  6
CONTINUOUS
 10
166.7907995444
 20
162.795597924
 40
18.0
 50
180.0
 51
320.8869374929
  0
ARC
  8
0
 62
7
  6
CONTINUOUS
 10
167.989372156
 20
117.823254535
 40
4.0274482122
 50
266.9864932246
 51
340.0
  0
ARC
  8
0
 62
7
  6
CONTINUOUS
 10
288.1413111915
 20
184.795597924
 40
4.0
 50
90.0
 51
160.0
  0
CIRCLE
  8
02___PRT_ALL_AXES
 62
7
  6
CONTINUOUS
 10
162.0407995444
 20
137.795597924
 40
2.5
  0
ENDSEC
  0
EOF
