  0
SECTION
  2
HEADER
  9
$ACADVER
  1
AC1024
  9
$ACADMAINTVER
 70
   155
  9
$DWGCODEPAGE
  3
ANSI_1252
  9
$LASTSAVEDBY
  1
Jason
  9
$INSBASE
 10
0.0
 20
0.0
 30
0.0
  9
$EXTMIN
 10
-14.35320375322681
 20
8.897508898626256
 30
0.0
  9
$EXTMAX
 10
361.1935211229467
 20
548.9471245374224
 30
0.0
  9
$LIMMIN
 10
0.0
 20
0.0
  9
$LIMMAX
 10
12.0
 20
9.0
  9
$ORTHOMODE
 70
     0
  9
$REGENMODE
 70
     1
  9
$FILLMODE
 70
     1
  9
$QTEXTMODE
 70
     0
  9
$MIRRTEXT
 70
     1
  9
$LTSCALE
 40
5.0
  9
$ATTMODE
 70
     1
  9
$TEXTSIZE
 40
0.2
  9
$TRACEWID
 40
0.05
  9
$TEXTSTYLE
  7
Standard
  9
$CLAYER
  8
Specialized_Lines
  9
$CELTYPE
  6
PLASTER
  9
$CECOLOR
 62
   256
  9
$CELTSCALE
 40
3.0
  9
$DISPSILH
 70
     0
  9
$DIMSCALE
 40
1.0
  9
$DIMASZ
 40
0.18
  9
$DIMEXO
 40
0.0625
  9
$DIMDLI
 40
0.38
  9
$DIMRND
 40
0.0
  9
$DIMDLE
 40
0.0
  9
$DIMEXE
 40
0.18
  9
$DIMTP
 40
0.0
  9
$DIMTM
 40
0.0
  9
$DIMTXT
 40
0.18
  9
$DIMCEN
 40
0.09
  9
$DIMTSZ
 40
0.0
  9
$DIMTOL
 70
     0
  9
$DIMLIM
 70
     0
  9
$DIMTIH
 70
     1
  9
$DIMTOH
 70
     1
  9
$DIMSE1
 70
     0
  9
$DIMSE2
 70
     0
  9
$DIMTAD
 70
     0
  9
$DIMZIN
 70
     0
  9
$DIMBLK
  1

  9
$DIMASO
 70
     1
  9
$DIMSHO
 70
     1
  9
$DIMPOST
  1

  9
$DIMAPOST
  1

  9
$DIMALT
 70
     0
  9
$DIMALTD
 70
     2
  9
$DIMALTF
 40
25.4
  9
$DIMLFAC
 40
1.0
  9
$DIMTOFL
 70
     0
  9
$DIMTVP
 40
0.0
  9
$DIMTIX
 70
     0
  9
$DIMSOXD
 70
     0
  9
$DIMSAH
 70
     0
  9
$DIMBLK1
  1

  9
$DIMBLK2
  1

  9
$DIMSTYLE
  2
Standard
  9
$DIMCLRD
 70
     0
  9
$DIMCLRE
 70
     0
  9
$DIMCLRT
 70
     0
  9
$DIMTFAC
 40
1.0
  9
$DIMGAP
 40
0.09
  9
$DIMJUST
 70
     0
  9
$DIMSD1
 70
     0
  9
$DIMSD2
 70
     0
  9
$DIMTOLJ
 70
     1
  9
$DIMTZIN
 70
     0
  9
$DIMALTZ
 70
     0
  9
$DIMALTTZ
 70
     0
  9
$DIMUPT
 70
     0
  9
$DIMDEC
 70
     4
  9
$DIMTDEC
 70
     4
  9
$DIMALTU
 70
     2
  9
$DIMALTTD
 70
     2
  9
$DIMTXSTY
  7
Standard
  9
$DIMAUNIT
 70
     0
  9
$DIMADEC
 70
     0
  9
$DIMALTRND
 40
0.0
  9
$DIMAZIN
 70
     0
  9
$DIMDSEP
 70
    46
  9
$DIMATFIT
 70
     3
  9
$DIMFRAC
 70
     0
  9
$DIMLDRBLK
  1

  9
$DIMLUNIT
 70
     2
  9
$DIMLWD
 70
    -2
  9
$DIMLWE
 70
    -2
  9
$DIMTMOVE
 70
     0
  9
$DIMFXL
 40
1.0
  9
$DIMFXLON
 70
     0
  9
$DIMJOGANG
 40
0.7853981633974483
  9
$DIMTFILL
 70
     0
  9
$DIMTFILLCLR
 70
     0
  9
$DIMARCSYM
 70
     0
  9
$DIMLTYPE
  6

  9
$DIMLTEX1
  6

  9
$DIMLTEX2
  6

  9
$DIMTXTDIRECTION
 70
     0
  9
$LUNITS
 70
     2
  9
$LUPREC
 70
     4
  9
$SKETCHINC
 40
0.1
  9
$FILLETRAD
 40
0.5
  9
$AUNITS
 70
     0
  9
$AUPREC
 70
     0
  9
$MENU
  1
.
  9
$ELEVATION
 40
0.0
  9
$PELEVATION
 40
0.0
  9
$THICKNESS
 40
0.0
  9
$LIMCHECK
 70
     0
  9
$CHAMFERA
 40
0.5
  9
$CHAMFERB
 40
0.5
  9
$CHAMFERC
 40
1.0
  9
$CHAMFERD
 40
0.0
  9
$SKPOLY
 70
     0
  9
$TDCREATE
 40
2456216.552502187
  9
$TDUCREATE
 40
2456216.010835521
  9
$TDUPDATE
 40
2456636.580144618
  9
$TDUUPDATE
 40
2456636.038477951
  9
$TDINDWG
 40
0.1302185532
  9
$TDUSRTIMER
 40
0.1302185532
  9
$USRTIMER
 70
     1
  9
$ANGBASE
 50
0.0
  9
$ANGDIR
 70
     0
  9
$PDMODE
 70
     0
  9
$PDSIZE
 40
0.0
  9
$PLINEWID
 40
0.0
  9
$SPLFRAME
 70
     0
  9
$SPLINETYPE
 70
     6
  9
$SPLINESEGS
 70
     8
  9
$HANDSEED
  5
9AF
  9
$SURFTAB1
 70
     6
  9
$SURFTAB2
 70
     6
  9
$SURFTYPE
 70
     6
  9
$SURFU
 70
     6
  9
$SURFV
 70
     6
  9
$UCSBASE
  2

  9
$UCSNAME
  2

  9
$UCSORG
 10
0.0
 20
0.0
 30
0.0
  9
$UCSXDIR
 10
1.0
 20
0.0
 30
0.0
  9
$UCSYDIR
 10
0.0
 20
1.0
 30
0.0
  9
$UCSORTHOREF
  2

  9
$UCSORTHOVIEW
 70
     0
  9
$UCSORGTOP
 10
0.0
 20
0.0
 30
0.0
  9
$UCSORGBOTTOM
 10
0.0
 20
0.0
 30
0.0
  9
$UCSORGLEFT
 10
0.0
 20
0.0
 30
0.0
  9
$UCSORGRIGHT
 10
0.0
 20
0.0
 30
0.0
  9
$UCSORGFRONT
 10
0.0
 20
0.0
 30
0.0
  9
$UCSORGBACK
 10
0.0
 20
0.0
 30
0.0
  9
$PUCSBASE
  2

  9
$PUCSNAME
  2

  9
$PUCSORG
 10
0.0
 20
0.0
 30
0.0
  9
$PUCSXDIR
 10
1.0
 20
0.0
 30
0.0
  9
$PUCSYDIR
 10
0.0
 20
1.0
 30
0.0
  9
$PUCSORTHOREF
  2

  9
$PUCSORTHOVIEW
 70
     0
  9
$PUCSORGTOP
 10
0.0
 20
0.0
 30
0.0
  9
$PUCSORGBOTTOM
 10
0.0
 20
0.0
 30
0.0
  9
$PUCSORGLEFT
 10
0.0
 20
0.0
 30
0.0
  9
$PUCSORGRIGHT
 10
0.0
 20
0.0
 30
0.0
  9
$PUCSORGFRONT
 10
0.0
 20
0.0
 30
0.0
  9
$PUCSORGBACK
 10
0.0
 20
0.0
 30
0.0
  9
$USERI1
 70
     0
  9
$USERI2
 70
     0
  9
$USERI3
 70
     0
  9
$USERI4
 70
     0
  9
$USERI5
 70
     0
  9
$USERR1
 40
0.0
  9
$USERR2
 40
0.0
  9
$USERR3
 40
0.0
  9
$USERR4
 40
0.0
  9
$USERR5
 40
0.0
  9
$WORLDVIEW
 70
     1
  9
$SHADEDGE
 70
     3
  9
$SHADEDIF
 70
    70
  9
$TILEMODE
 70
     1
  9
$MAXACTVP
 70
    64
  9
$PINSBASE
 10
0.0
 20
0.0
 30
0.0
  9
$PLIMCHECK
 70
     0
  9
$PEXTMIN
 10
1.000000000000000E+20
 20
1.000000000000000E+20
 30
1.000000000000000E+20
  9
$PEXTMAX
 10
-1.000000000000000E+20
 20
-1.000000000000000E+20
 30
-1.000000000000000E+20
  9
$PLIMMIN
 10
0.0
 20
0.0
  9
$PLIMMAX
 10
12.0
 20
9.0
  9
$UNITMODE
 70
     0
  9
$VISRETAIN
 70
     1
  9
$PLINEGEN
 70
     0
  9
$PSLTSCALE
 70
     1
  9
$TREEDEPTH
 70
  3020
  9
$CMLSTYLE
  2
Standard
  9
$CMLJUST
 70
     0
  9
$CMLSCALE
 40
1.0
  9
$PROXYGRAPHICS
 70
     1
  9
$MEASUREMENT
 70
     0
  9
$CELWEIGHT
370
    -1
  9
$ENDCAPS
280
     0
  9
$JOINSTYLE
280
     0
  9
$LWDISPLAY
290
     1
  9
$INSUNITS
 70
     0
  9
$HYPERLINKBASE
  1

  9
$STYLESHEET
  1

  9
$XEDIT
290
     1
  9
$CEPSNTYPE
380
     0
  9
$PSTYLEMODE
290
     1
  9
$FINGERPRINTGUID
  2
{0B7DC2B4-6C0C-44B3-B76E-DA9CCBF9E768}
  9
$VERSIONGUID
  2
{76F5BE4B-3D02-4838-B510-EA622F3D414D}
  9
$EXTNAMES
290
     1
  9
$PSVPSCALE
 40
0.0
  9
$OLESTARTUP
290
     0
  9
$SORTENTS
280
   127
  9
$INDEXCTL
280
     0
  9
$HIDETEXT
280
     1
  9
$XCLIPFRAME
280
     0
  9
$HALOGAP
280
     0
  9
$OBSCOLOR
 70
   257
  9
$OBSLTYPE
280
     0
  9
$INTERSECTIONDISPLAY
280
     0
  9
$INTERSECTIONCOLOR
 70
   257
  9
$DIMASSOC
280
     2
  9
$PROJECTNAME
  1

  9
$CAMERADISPLAY
290
     0
  9
$LENSLENGTH
 40
50.0
  9
$CAMERAHEIGHT
 40
0.0
  9
$STEPSPERSEC
 40
2.0
  9
$STEPSIZE
 40
6.0
  9
$3DDWFPREC
 40
2.0
  9
$PSOLWIDTH
 40
0.25
  9
$PSOLHEIGHT
 40
4.0
  9
$LOFTANG1
 40
1.570796326794896
  9
$LOFTANG2
 40
1.570796326794896
  9
$LOFTMAG1
 40
0.0
  9
$LOFTMAG2
 40
0.0
  9
$LOFTPARAM
 70
     7
  9
$LOFTNORMALS
280
     1
  9
$LATITUDE
 40
37.795
  9
$LONGITUDE
 40
-122.394
  9
$NORTHDIRECTION
 40
0.0
  9
$TIMEZONE
 70
 -8000
  9
$LIGHTGLYPHDISPLAY
280
     1
  9
$TILEMODELIGHTSYNCH
280
     1
  9
$CMATERIAL
347
3C
  9
$SOLIDHIST
280
     1
  9
$SHOWHIST
280
     1
  9
$DWFFRAME
280
     2
  9
$DGNFRAME
280
     2
  9
$REALWORLDSCALE
290
     1
  9
$INTERFERECOLOR
 62
   256
  9
$INTERFEREOBJVS
345
33
  9
$INTERFEREVPVS
346
40B
  9
$CSHADOW
280
     0
  9
$SHADOWPLANELOCATION
 40
0.0
  0
ENDSEC
  0
SECTION
  2
CLASSES
  0
CLASS
  1
ACDBDICTIONARYWDFLT
  2
AcDbDictionaryWithDefault
  3
ObjectDBX Classes
 90
        0
 91
        1
280
     0
281
     0
  0
CLASS
  1
VISUALSTYLE
  2
AcDbVisualStyle
  3
ObjectDBX Classes
 90
     4095
 91
       26
280
     0
281
     0
  0
CLASS
  1
MATERIAL
  2
AcDbMaterial
  3
ObjectDBX Classes
 90
     1153
 91
        3
280
     0
281
     0
  0
CLASS
  1
SCALE
  2
AcDbScale
  3
ObjectDBX Classes
 90
     1153
 91
       33
280
     0
281
     0
  0
CLASS
  1
WIPEOUT
  2
AcDbWipeout
  3
WipeOut|Product Desc: Object Enabler for WipeOut entity | Company: Autodesk, Inc. | WEB Address: www.autodesk.com
 90
     2175
 91
        1
280
     0
281
     1
  0
CLASS
  1
DICTIONARYVAR
  2
AcDbDictionaryVar
  3
ObjectDBX Classes
 90
        0
 91
       17
280
     0
281
     0
  0
CLASS
  1
TABLESTYLE
  2
AcDbTableStyle
  3
ObjectDBX Classes
 90
     4095
 91
        1
280
     0
281
     0
  0
CLASS
  1
MLEADERSTYLE
  2
AcDbMLeaderStyle
  3
ACDB_MLEADERSTYLE_CLASS
 90
     4095
 91
        1
280
     0
281
     0
  0
CLASS
  1
ACDBSECTIONVIEWSTYLE
  2
AcDbSectionViewStyle
  3
ObjectDBX Classes
 90
     1025
 91
        1
280
     0
281
     0
  0
CLASS
  1
ACDBDETAILVIEWSTYLE
  2
AcDbDetailViewStyle
  3
ObjectDBX Classes
 90
     1025
 91
        1
280
     0
281
     0
  0
CLASS
  1
WIPEOUTVARIABLES
  2
AcDbWipeoutVariables
  3
"WipeOut|Product Desc:     WipeOut Dbx Application|Company:          Autodesk, Inc.|WEB Address:      www.autodesk.com"
 90
        0
 91
        1
280
     0
281
     0
  0
CLASS
  1
EXACXREFPANELOBJECT
  2
ExAcXREFPanelObject
  3
EXAC_ESW
 90
     1025
 91
        1
280
     0
281
     0
  0
CLASS
  1
NPOCOLLECTION
  2
AcDbImpNonPersistentObjectsCollection
  3
ObjectDBX Classes
 90
     1153
 91
        1
280
     0
281
     0
  0
CLASS
  1
IMAGE
  2
AcDbRasterImage
  3
ISM
 90
     2175
 91
        2
280
     0
281
     1
  0
CLASS
  1
IMAGEDEF_REACTOR
  2
AcDbRasterImageDefReactor
  3
ISM
 90
        1
 91
        2
280
     0
281
     0
  0
CLASS
  1
SORTENTSTABLE
  2
AcDbSortentsTable
  3
ObjectDBX Classes
 90
        0
 91
        3
280
     0
281
     0
  0
CLASS
  1
IMAGEDEF
  2
AcDbRasterImageDef
  3
ISM
 90
        0
 91
        2
280
     0
281
     0
  0
CLASS
  1
RASTERVARIABLES
  2
AcDbRasterVariables
  3
ISM
 90
        0
 91
        1
280
     0
281
     0
  0
CLASS
  1
ACAD_EVALUATION_GRAPH
  2
AcDbEvalGraph
  3
ObjectDBX Classes
 90
     1153
 91
        0
280
     0
281
     0
  0
CLASS
  1
ACAECUSTOBJ
  2
AcAeEditorObj
  3
AcAeEditorObj
 90
     1024
 91
        0
280
     0
281
     0
  0
CLASS
  1
ACDB_DYNAMICBLOCKPURGEPREVENTER_VERSION
  2
AcDbDynamicBlockPurgePreventer
  3
ObjectDBX Classes
 90
     1153
 91
        0
280
     0
281
     0
  0
CLASS
  1
ACDBASSOCNETWORK
  2
AcDbAssocNetwork
  3
ObjectDBX Classes
 90
     1025
 91
        0
280
     0
281
     0
  0
CLASS
  1
ACDBASSOC2DCONSTRAINTGROUP
  2
AcDbAssoc2dConstraintGroup
  3
ObjectDBX Classes
 90
     1025
 91
        0
280
     0
281
     0
  0
CLASS
  1
ACDBASSOCGEOMDEPENDENCY
  2
AcDbAssocGeomDependency
  3
ObjectDBX Classes
 90
     1025
 91
        0
280
     0
281
     0
  0
CLASS
  1
CELLSTYLEMAP
  2
AcDbCellStyleMap
  3
ObjectDBX Classes
 90
     1152
 91
        2
280
     0
281
     0
  0
ENDSEC
  0
SECTION
  2
TABLES
  0
TABLE
  2
VPORT
  5
8
330
0
100
AcDbSymbolTable
 70
     1
  0
VPORT
  5
29
330
8
100
AcDbSymbolTableRecord
100
AcDbViewportTableRecord
  2
*Active
 70
     0
 10
0.0
 20
0.0
 11
1.0
 21
1.0
 12
499.360626669712
 22
191.0131271445659
 13
0.0
 23
0.0
 14
0.5
 24
0.5
 15
0.5
 25
0.5
 16
0.0
 26
0.0
 36
1.0
 17
0.0
 27
0.0
 37
0.0
 40
1042.678006381026
 41
1.816348195329086
 42
50.0
 43
0.0
 44
0.0
 50
0.0
 51
0.0
 71
     0
 72
   100
 73
     1
 74
     3
 75
     0
 76
     0
 77
     0
 78
     0
281
     0
 65
     1
110
0.0
120
0.0
130
0.0
111
1.0
121
0.0
131
0.0
112
0.0
122
1.0
132
0.0
 79
     0
146
0.0
348
2F
 60
     3
 61
     5
292
     1
282
     1
141
0.0
142
0.0
 63
   250
1001
ACAD_NAV_VCDISPLAY
1070
     3
  0
ENDTAB
  0
TABLE
  2
LTYPE
  5
5
330
0
100
AcDbSymbolTable
 70
     9
  0
LTYPE
  5
14
330
5
100
AcDbSymbolTableRecord
100
AcDbLinetypeTableRecord
  2
ByBlock
 70
     0
  3

 72
    65
 73
     0
 40
0.0
  0
LTYPE
  5
15
330
5
100
AcDbSymbolTableRecord
100
AcDbLinetypeTableRecord
  2
ByLayer
 70
     0
  3

 72
    65
 73
     0
 40
0.0
  0
LTYPE
  5
16
330
5
100
AcDbSymbolTableRecord
100
AcDbLinetypeTableRecord
  2
Continuous
 70
     0
  3
Solid line
 72
    65
 73
     0
 40
0.0
  0
LTYPE
  5
321
330
5
100
AcDbSymbolTableRecord
100
AcDbLinetypeTableRecord
  2
Hidden
 70
     0
  3
- - - - - 
 72
    65
 73
     2
 40
4.938889980316162
 49
2.822222709655761
 74
     0
 49
-2.1166672706604
 74
     0
  0
LTYPE
  5
323
330
5
100
AcDbSymbolTableRecord
100
AcDbLinetypeTableRecord
  2
Hidden Line
 70
     0
  3
- - - - - 
 72
    65
 73
     2
 40
2000.0
 49
1000.0
 74
     0
 49
-1000.0
 74
     0
  0
LTYPE
  5
330
330
5
100
AcDbSymbolTableRecord
100
AcDbLinetypeTableRecord
  2
Sketch
 70
     0
  3
??????????
 72
    65
 73
     3
 40
40.0
 49
0.0
 74
     4
 75
     1
340
331
 46
0.3174603174603174
 50
0.0
 44
0.0
 45
0.0
 49
-40.0
 74
     0
 49
0.0
 74
     0
  0
LTYPE
  5
396
330
5
100
AcDbSymbolTableRecord
100
AcDbLinetypeTableRecord
  2
Above
 70
     0
  3
- - - - - 
 72
    65
 73
     2
 40
9.599999999999999
 49
6.0
 74
     0
 49
-3.6
 74
     0
  0
LTYPE
  5
3B1
330
5
100
AcDbSymbolTableRecord
100
AcDbLinetypeTableRecord
  2
Wipeout_Contour
 70
     0
  3
- - - - - 
 72
    65
 73
     2
 40
1000.0
 49
0.0
 74
     0
 49
-1000.0
 74
     0
  0
LTYPE
  5
459
330
5
100
AcDbSymbolTableRecord
100
AcDbLinetypeTableRecord
  2
ZIGZAG
 70
     0
  3
Zig zag /\/\/\/\/\/\/\/\/\/\/\/\/\/\/\/\/\/\/\/
 72
    65
 73
     4
 40
0.8001000000000001
 49
0.0001
 74
     0
 49
-0.2
 74
     4
 75
   131
340
458
 46
0.2
 50
0.0
 44
-0.2
 45
0.0
 49
-0.4
 74
     4
 75
   131
340
458
 46
0.2
 50
180.0
 44
0.2
 45
0.0
 49
-0.2
 74
     0
  0
LTYPE
  5
502
330
5
100
AcDbSymbolTableRecord
100
AcDbLinetypeTableRecord
  2
DASHEDX2
 70
     0
  3
Dashed (2x) ____  ____  ____  ____  ____  ___
 72
    65
 73
     2
 40
1.5
 49
1.0
 74
     0
 49
-0.5
 74
     0
  0
LTYPE
  5
52E
330
5
100
AcDbSymbolTableRecord
100
AcDbLinetypeTableRecord
  2
PLASTER
 70
     0
  3
PLASTER
 72
    65
 73
     2
 40
2.379214999999999
 49
0.000024
 74
     4
 75
     1
340
52F
 46
0.2
 50
0.0
 44
0.0
 45
0.0
 49
-2.379191
 74
     0
  0
ENDTAB
  0
TABLE
  2
LAYER
  5
2
102
{ACAD_XDICTIONARY
360
42F
102
}
330
0
100
AcDbSymbolTable
 70
     6
  0
LAYER
  5
10
102
{ACAD_XDICTIONARY
360
480
102
}
330
2
100
AcDbSymbolTableRecord
100
AcDbLayerTableRecord
  2
0
 70
     0
 62
     7
  6
Continuous
370
    -3
390
F
347
3E
  0
LAYER
  5
46
102
{ACAD_XDICTIONARY
360
482
102
}
330
2
100
AcDbSymbolTableRecord
100
AcDbLayerTableRecord
  2
Specialized_Fills
 70
     0
 62
     7
  6
Continuous
370
    -3
390
F
347
3E
  0
LAYER
  5
2F9
102
{ACAD_XDICTIONARY
360
484
102
}
330
2
100
AcDbSymbolTableRecord
100
AcDbLayerTableRecord
  2
Specialized_Lines
 70
     0
 62
     7
  6
Continuous
370
    -3
390
F
347
3E
  0
LAYER
  5
381
102
{ACAD_XDICTIONARY
360
486
102
}
330
2
100
AcDbSymbolTableRecord
100
AcDbLayerTableRecord
  2
Specialized_Text
 70
     0
 62
     7
  6
Continuous
370
    -3
390
F
347
3E
  0
LAYER
  5
426
102
{ACAD_XDICTIONARY
360
427
102
}
330
2
100
AcDbSymbolTableRecord
100
AcDbLayerTableRecord
  2
Viewport
 70
     0
 62
     7
  6
Continuous
370
    -3
390
F
347
3E
1001
AcAecLayerStandard
1000

1000

1001
AcCmTransparency
1071
        0
  0
LAYER
  5
7F7
330
2
100
AcDbSymbolTableRecord
100
AcDbLayerTableRecord
  2
Defpoints
 70
     0
 62
     7
  6
Continuous
290
     0
370
    -3
390
F
347
3E
  0
ENDTAB
  0
TABLE
  2
STYLE
  5
3
330
0
100
AcDbSymbolTable
 70
     6
  0
STYLE
  5
11
330
3
100
AcDbSymbolTableRecord
100
AcDbTextStyleTableRecord
  2
Standard
 70
     0
 40
0.0
 41
1.0
 50
0.0
 71
     0
 42
0.2
  3
txt
  4
BIGFONT.SHX
  0
STYLE
  5
331
330
3
100
AcDbSymbolTableRecord
100
AcDbTextStyleTableRecord
  2

 70
     1
 40
0.2
 41
1.0
 50
0.0
 71
     0
 42
0.2
  3
06E Wall _ Floor_ REBATED CONCRETE SLAB (Sealed at Base)1.Shx
  4

  0
STYLE
  5
3B2
330
3
100
AcDbSymbolTableRecord
100
AcDbTextStyleTableRecord
  2
GENERATED_STYLE_1
 70
     0
 40
0.0
 41
1.0
 50
0.0
 71
     0
 42
0.2
  3
ARIALUNI.TTF
  4

1001
ACAD
1000
Arial Unicode MS
1071
       34
  0
STYLE
  5
428
330
3
100
AcDbSymbolTableRecord
100
AcDbTextStyleTableRecord
  2
GENERATED_STYLE_2
 70
     0
 40
0.0
 41
1.0
 50
0.0
 71
     0
 42
0.2
  3
ARIALUNI.TTF
  4

1001
ACAD
1000
Arial Unicode MS
1071
       34
  0
STYLE
  5
458
330
3
100
AcDbSymbolTableRecord
100
AcDbTextStyleTableRecord
  2

 70
     1
 40
0.0
 41
1.0
 50
0.0
 71
     0
 42
0.2
  3
ltypeshp.shx
  4

  0
STYLE
  5
52F
330
3
100
AcDbSymbolTableRecord
100
AcDbTextStyleTableRecord
  2

 70
     1
 40
0.0
 41
1.0
 50
0.0
 71
     0
 42
0.2
  3
P:\VERT-X CONSULTING LTD\2013\10 OCT\1310-015- SPECIALIZED CONSTRUCTION PRODUCTS - CONTRACT DRAUGHTING\DRAWINGS\PLASTER.SHX
  4

  0
ENDTAB
  0
TABLE
  2
VIEW
  5
6
330
0
100
AcDbSymbolTable
 70
     0
  0
ENDTAB
  0
TABLE
  2
UCS
  5
7
330
0
100
AcDbSymbolTable
 70
     0
  0
ENDTAB
  0
TABLE
  2
APPID
  5
9
330
0
100
AcDbSymbolTable
 70
    11
  0
APPID
  5
12
330
9
100
AcDbSymbolTableRecord
100
AcDbRegAppTableRecord
  2
ACAD
 70
     0
  0
APPID
  5
429
330
9
100
AcDbSymbolTableRecord
100
AcDbRegAppTableRecord
  2
ACAD_PSEXT
 70
     0
  0
APPID
  5
42A
330
9
100
AcDbSymbolTableRecord
100
AcDbRegAppTableRecord
  2
ACAD_NAV_VCDISPLAY
 70
     0
  0
APPID
  5
42B
330
9
100
AcDbSymbolTableRecord
100
AcDbRegAppTableRecord
  2
AcAecLayerStandard
 70
     0
  0
APPID
  5
42C
330
9
100
AcDbSymbolTableRecord
100
AcDbRegAppTableRecord
  2
AcCmTransparency
 70
     0
  0
APPID
  5
42D
330
9
100
AcDbSymbolTableRecord
100
AcDbRegAppTableRecord
  2
GradientColor1ACI
 70
     0
  0
APPID
  5
42E
330
9
100
AcDbSymbolTableRecord
100
AcDbRegAppTableRecord
  2
GradientColor2ACI
 70
     0
  0
APPID
  5
455
330
9
100
AcDbSymbolTableRecord
100
AcDbRegAppTableRecord
  2
ACAD_EXEMPT_FROM_CAD_STANDARDS
 70
     0
  0
APPID
  5
462
330
9
100
AcDbSymbolTableRecord
100
AcDbRegAppTableRecord
  2
ACAUTHENVIRON
 70
     0
  0
APPID
  5
471
330
9
100
AcDbSymbolTableRecord
100
AcDbRegAppTableRecord
  2
AcDbDynamicBlockTrueName
 70
     0
  0
APPID
  5
472
330
9
100
AcDbSymbolTableRecord
100
AcDbRegAppTableRecord
  2
AcDbDynamicBlockGUID
 70
     0
  0
ENDTAB
  0
TABLE
  2
DIMSTYLE
  5
A
330
0
100
AcDbSymbolTable
 70
     3
100
AcDbDimStyleTable
 71
     1
340
27
  0
DIMSTYLE
105
27
330
A
100
AcDbSymbolTableRecord
100
AcDbDimStyleTableRecord
  2
Standard
 70
     0
340
11
  0
DIMSTYLE
105
3B5
102
{ACAD_REACTORS
330
3B4
102
}
330
A
100
AcDbSymbolTableRecord
100
AcDbDimStyleTableRecord
  2
GENERATED_STYLE__1
 70
     0
 41
3.799999999999999
 42
7.802650713349734
 73
     0
 74
     0
 77
     1
140
6.0
172
     1
176
     7
177
     7
178
     7
179
     2
271
     0
340
3B2
342
3B6
343
3B6
344
3B6
  0
DIMSTYLE
105
3BD
330
A
100
AcDbSymbolTableRecord
100
AcDbDimStyleTableRecord
  2
GENERATED_STYLE__2
 70
     0
 41
7.295999999999999
172
     1
341
3BE
  0
ENDTAB
  0
TABLE
  2
BLOCK_RECORD
  5
1
330
0
100
AcDbSymbolTable
 70
    10
  0
BLOCK_RECORD
  5
1F
102
{ACAD_XDICTIONARY
360
6A1
102
}
330
1
100
AcDbSymbolTableRecord
100
AcDbBlockTableRecord
  2
*Model_Space
340
22
 70
     0
280
     1
281
     0
  0
BLOCK_RECORD
  5
1B
330
1
100
AcDbSymbolTableRecord
100
AcDbBlockTableRecord
  2
*Paper_Space
340
1E
 70
     0
280
     1
281
     0
  0
BLOCK_RECORD
  5
23
330
1
100
AcDbSymbolTableRecord
100
AcDbBlockTableRecord
  2
*Paper_Space0
340
26
 70
     0
280
     1
281
     0
  0
BLOCK_RECORD
  5
3F
330
1
100
AcDbSymbolTableRecord
100
AcDbBlockTableRecord
  2
Fill_1
340
0
 70
     0
280
     1
281
     0
  0
BLOCK_RECORD
  5
42
330
1
100
AcDbSymbolTableRecord
100
AcDbBlockTableRecord
  2
*X2
340
0
102
{BLKREFS
331
174
102
}
 70
     0
280
     1
281
     0
  0
BLOCK_RECORD
  5
1A6
102
{ACAD_XDICTIONARY
360
463
102
}
330
1
100
AcDbSymbolTableRecord
100
AcDbBlockTableRecord
  2
Fill_2
340
0
102
{BLKREFS
331
2F2
102
}
 70
     0
280
     1
281
     0
1001
AcDbDynamicBlockGUID
1000
{7E00C1B6-718A-478C-A956-FE07F7F820C3}
  0
BLOCK_RECORD
  5
37D
330
1
100
AcDbSymbolTableRecord
100
AcDbBlockTableRecord
  2
Line_1
340
0
 70
     0
280
     1
281
     0
  0
BLOCK_RECORD
  5
386
102
{ACAD_XDICTIONARY
360
4CF
102
}
330
1
100
AcDbSymbolTableRecord
100
AcDbBlockTableRecord
  2
Line_2
340
0
102
{BLKREFS
331
38E
102
}
 70
     0
280
     1
281
     0
1001
AcDbDynamicBlockGUID
1000
{C7843BFF-5F90-4D2A-B257-28E989CD3F2B}
  0
BLOCK_RECORD
  5
3A6
330
1
100
AcDbSymbolTableRecord
100
AcDbBlockTableRecord
  2
*D6
340
0
 70
     0
280
     1
281
     0
  0
BLOCK_RECORD
  5
3B6
330
1
100
AcDbSymbolTableRecord
100
AcDbBlockTableRecord
  2
ARROWHEAD_6
340
0
102
{BLKREFS
331
86B
331
86C
102
}
 70
     0
280
     1
281
     0
  0
BLOCK_RECORD
  5
3BE
330
1
100
AcDbSymbolTableRecord
100
AcDbBlockTableRecord
  2
ARROWHEAD_5
340
0
 70
     0
280
     1
281
     0
  0
BLOCK_RECORD
  5
3E0
330
1
100
AcDbSymbolTableRecord
100
AcDbBlockTableRecord
  2
06E Wall _ Floor_ REBATED CONCR_STORY_MARKER
340
0
 70
     0
280
     1
281
     0
  0
ENDTAB
  0
ENDSEC
  0
SECTION
  2
BLOCKS
  0
BLOCK
  5
20
330
1F
100
AcDbEntity
  8
0
100
AcDbBlockBegin
  2
*Model_Space
 70
     0
 10
0.0
 20
0.0
 30
0.0
  3
*Model_Space
  1

  0
ENDBLK
  5
21
330
1F
100
AcDbEntity
  8
0
100
AcDbBlockEnd
  0
BLOCK
  5
1C
330
1B
100
AcDbEntity
 67
     1
  8
0
100
AcDbBlockBegin
  2
*Paper_Space
 70
     0
 10
0.0
 20
0.0
 30
0.0
  3
*Paper_Space
  1

  0
ENDBLK
  5
1D
330
1B
100
AcDbEntity
 67
     1
  8
0
100
AcDbBlockEnd
  0
BLOCK
  5
24
330
23
100
AcDbEntity
 67
     1
  8
0
100
AcDbBlockBegin
  2
*Paper_Space0
 70
     0
 10
0.0
 20
0.0
 30
0.0
  3
*Paper_Space0
  1

  0
ENDBLK
  5
25
330
23
100
AcDbEntity
 67
     1
  8
0
100
AcDbBlockEnd
  0
BLOCK
  5
40
330
3F
100
AcDbEntity
  8
0
100
AcDbBlockBegin
  2
Fill_1
 70
     0
 10
0.0
 20
0.0
 30
0.0
  3
Fill_1
  1

  0
INSERT
  5
174
330
3F
100
AcDbEntity
  8
Specialized_Fills
  6
Continuous
100
AcDbBlockReference
  2
*X2
 10
0.0
 20
0.0
 30
0.0
  0
ENDBLK
  5
41
330
3F
100
AcDbEntity
  8
0
100
AcDbBlockEnd
  0
BLOCK
  5
43
330
42
100
AcDbEntity
  8
0
100
AcDbBlockBegin
  2
*X2
 70
     1
 10
0.0
 20
0.0
 30
0.0
  3
*X2
  1

  0
LINE
  5
45
330
42
100
AcDbEntity
  8
Specialized_Fills
  6
Continuous
100
AcDbLine
 10
231.118652774252
 20
49.68457774113455
 30
0.0
 11
231.5786240467967
 21
50.23275015767989
 31
0.0
  0
LINE
  5
47
330
42
100
AcDbEntity
  8
Specialized_Fills
  6
Continuous
100
AcDbLine
 10
227.9050928574382
 20
172.6873644749846
 30
0.0
 11
231.5786240467967
 21
177.0653084674095
 31
0.0
  0
LINE
  5
48
330
42
100
AcDbEntity
  8
Specialized_Fills
  6
Continuous
100
AcDbLine
 10
228.4595284485448
 20
300.1806733922777
 30
0.0
 11
231.5786240467967
 21
303.8978667771393
 31
0.0
  0
LINE
  5
49
330
42
100
AcDbEntity
  8
Specialized_Fills
  6
Continuous
100
AcDbLine
 10
338.8864356933124
 20
299.5199227847143
 30
0.0
 11
342.5599668826709
 21
303.8978667771393
 31
0.0
  0
LINE
  5
4A
330
42
100
AcDbEntity
  8
Specialized_Fills
  6
Continuous
100
AcDbLine
 10
271.987467129741
 20
98.39013407435444
 30
0.0
 11
275.6609983190996
 21
102.7680780667794
 31
0.0
  0
LINE
  5
4B
330
42
100
AcDbEntity
  8
Specialized_Fills
  6
Continuous
100
AcDbLine
 10
271.987467129741
 20
225.2226923840841
 30
0.0
 11
275.6609983190996
 21
229.6006363765091
 31
0.0
  0
LINE
  5
4C
330
42
100
AcDbEntity
  8
Specialized_Fills
  6
Continuous
100
AcDbLine
 10
282.5604935562394
 20
167.9056388133136
 30
0.0
 11
286.2340247455979
 21
172.2835828057386
 31
0.0
  0
LINE
  5
4D
330
42
100
AcDbEntity
  8
Specialized_Fills
  6
Continuous
100
AcDbLine
 10
282.5604935562394
 20
294.7381971230433
 30
0.0
 11
286.2340247455979
 21
299.1161411154683
 31
0.0
  0
LINE
  5
4E
330
42
100
AcDbEntity
  8
Specialized_Fills
  6
Continuous
100
AcDbLine
 10
215.6615249926681
 20
93.6084084126835
 30
0.0
 11
219.3350561820267
 21
97.98635240510847
 31
0.0
  0
LINE
  5
4F
330
42
100
AcDbEntity
  8
Specialized_Fills
  6
Continuous
100
AcDbLine
 10
215.6615249926681
 20
220.4409667224132
 30
0.0
 11
219.3350561820267
 21
224.8189107148381
 31
0.0
  0
LINE
  5
50
330
42
100
AcDbEntity
  8
Specialized_Fills
  6
Continuous
100
AcDbLine
 10
271.9874709808436
 20
98.39008635980139
 30
0.0
 11
276.542073140519
 21
97.99161030395911
 31
0.0
  0
LINE
  5
51
330
42
100
AcDbEntity
  8
Specialized_Fills
  6
Continuous
100
AcDbLine
 10
271.9874709808436
 20
225.2226446695311
 30
0.0
 11
276.542073140519
 21
224.8241686136887
 31
0.0
  0
LINE
  5
52
330
42
100
AcDbEntity
  8
Specialized_Fills
  6
Continuous
100
AcDbLine
 10
215.661354061075
 20
93.60837368969386
 30
0.0
 11
220.2159562207504
 21
93.20989763385156
 31
0.0
  0
LINE
  5
53
330
42
100
AcDbEntity
  8
Specialized_Fills
  6
Continuous
100
AcDbLine
 10
215.661354061075
 20
220.4409319994236
 30
0.0
 11
220.2159562207504
 21
220.0424559435813
 31
0.0
  0
LINE
  5
54
330
42
100
AcDbEntity
  8
Specialized_Fills
  6
Continuous
100
AcDbLine
 10
227.9050928574382
 20
172.6873644749846
 30
0.0
 11
232.4596950171136
 21
172.2888884191423
 31
0.0
  0
LINE
  5
55
330
42
100
AcDbEntity
  8
Specialized_Fills
  6
Continuous
100
AcDbLine
 10
228.4595284485448
 20
299.4714159558371
 30
0.0
 11
232.4596950171136
 21
299.121446728872
 31
0.0
  0
LINE
  5
56
330
42
100
AcDbEntity
  8
Specialized_Fills
  6
Continuous
100
AcDbLine
 10
338.8864356933123
 20
299.5199227847143
 30
0.0
 11
343.4410378529877
 21
299.121446728872
 31
0.0
  0
LINE
  5
57
330
42
100
AcDbEntity
  8
Specialized_Fills
  6
Continuous
100
AcDbLine
 10
282.5603187735437
 20
167.905651804877
 30
0.0
 11
287.1149209332191
 21
167.5071757490348
 31
0.0
  0
LINE
  5
58
330
42
100
AcDbEntity
  8
Specialized_Fills
  6
Continuous
100
AcDbLine
 10
282.5603187735437
 20
294.7382101146068
 30
0.0
 11
287.1149209332191
 21
294.3397340587645
 31
0.0
  0
LINE
  5
59
330
42
100
AcDbEntity
  8
Specialized_Fills
  6
Continuous
100
AcDbLine
 10
231.6797733410371
 20
49.68457774113455
 30
0.0
 11
231.5786594396338
 21
50.23275546767113
 31
0.0
  0
LINE
  5
5A
330
42
100
AcDbEntity
  8
Specialized_Fills
  6
Continuous
100
AcDbLine
 10
232.4596928574381
 20
172.2888894749846
 30
0.0
 11
231.5786594396338
 21
177.0653137774008
 31
0.0
  0
LINE
  5
5B
330
42
100
AcDbEntity
  8
Specialized_Fills
  6
Continuous
100
AcDbLine
 10
232.4596928574382
 20
299.1214477847143
 30
0.0
 11
231.5786594396339
 21
303.8978720871305
 31
0.0
  0
LINE
  5
5C
330
42
100
AcDbEntity
  8
Specialized_Fills
  6
Continuous
100
AcDbLine
 10
343.4410356933123
 20
299.1214477847143
 30
0.0
 11
342.5600022755081
 21
303.8978720871305
 31
0.0
  0
LINE
  5
5D
330
42
100
AcDbEntity
  8
Specialized_Fills
  6
Continuous
100
AcDbLine
 10
287.1148443708774
 20
167.5068041920777
 30
0.0
 11
286.2338109530731
 21
172.283228494494
 31
0.0
  0
LINE
  5
5E
330
42
100
AcDbEntity
  8
Specialized_Fills
  6
Continuous
100
AcDbLine
 10
287.1148443708774
 20
294.3393625018074
 30
0.0
 11
286.2338109530731
 21
299.1157868042236
 31
0.0
  0
LINE
  5
5F
330
42
100
AcDbEntity
  8
Specialized_Fills
  6
Continuous
100
AcDbLine
 10
276.5424433572259
 20
97.99133751134249
 30
0.0
 11
275.6614099394217
 21
102.7677618137587
 31
0.0
  0
LINE
  5
60
330
42
100
AcDbEntity
  8
Specialized_Fills
  6
Continuous
100
AcDbLine
 10
276.5424433572259
 20
224.8238958210722
 30
0.0
 11
275.6614099394217
 21
229.6003201234884
 31
0.0
  0
LINE
  5
61
330
42
100
AcDbEntity
  8
Specialized_Fills
  6
Continuous
100
AcDbLine
 10
220.2162520347911
 20
93.20925222843564
 30
0.0
 11
219.3352186169868
 21
97.98567653085187
 31
0.0
  0
LINE
  5
62
330
42
100
AcDbEntity
  8
Specialized_Fills
  6
Continuous
100
AcDbLine
 10
220.2162520347911
 20
220.0418105381653
 30
0.0
 11
219.3352186169868
 21
224.8182348405816
 31
0.0
  0
LINE
  5
63
330
42
100
AcDbEntity
  8
Specialized_Fills
  6
Continuous
100
AcDbLine
 10
227.9050928574382
 20
61.09480616525492
 30
0.0
 11
233.8401962092962
 21
67.28045927974193
 31
0.0
  0
LINE
  5
64
330
42
100
AcDbEntity
  8
Specialized_Fills
  6
Continuous
100
AcDbLine
 10
227.9050928574382
 20
187.9273644749846
 30
0.0
 11
233.8401962092962
 21
194.1130175894716
 31
0.0
  0
LINE
  5
65
330
42
100
AcDbEntity
  8
Specialized_Fills
  6
Continuous
100
AcDbLine
 10
228.4595284485448
 20
315.3377638158797
 30
0.0
 11
233.8401962092963
 21
320.9455758992012
 31
0.0
  0
LINE
  5
66
330
42
100
AcDbEntity
  8
Specialized_Fills
  6
Continuous
100
AcDbLine
 10
338.8864356933124
 20
314.7599227847142
 30
0.0
 11
344.8215390451704
 21
320.9455758992012
 31
0.0
  0
LINE
  5
67
330
42
100
AcDbEntity
  8
Specialized_Fills
  6
Continuous
100
AcDbLine
 10
199.4012262220456
 20
49.68457774113455
 30
0.0
 11
204.1825656410611
 21
54.6677608999238
 31
0.0
  0
LINE
  5
68
330
42
100
AcDbEntity
  8
Specialized_Fills
  6
Continuous
100
AcDbLine
 10
310.3825690579197
 20
49.68457774113455
 30
0.0
 11
312.2789738735523
 21
51.66103908623878
 31
0.0
  0
LINE
  5
69
330
42
100
AcDbEntity
  8
Specialized_Fills
  6
Continuous
100
AcDbLine
 10
198.247462289203
 20
175.3146660951665
 30
0.0
 11
204.1825656410611
 21
181.5003192096535
 31
0.0
  0
LINE
  5
6A
330
42
100
AcDbEntity
  8
Specialized_Fills
  6
Continuous
100
AcDbLine
 10
309.2288051250771
 20
175.3146660951665
 30
0.0
 11
312.2789738735523
 21
178.4935973959684
 31
0.0
  0
LINE
  5
6B
330
42
100
AcDbEntity
  8
Specialized_Fills
  6
Continuous
100
AcDbLine
 10
309.2288051250771
 20
302.1472244048961
 30
0.0
 11
315.1639084769353
 21
308.3328775193832
 31
0.0
  0
LINE
  5
6C
330
42
100
AcDbEntity
  8
Specialized_Fills
  6
Continuous
100
AcDbLine
 10
234.6820628574382
 20
60.04375616525493
 30
0.0
 11
233.840191657028
 21
67.28045176006336
 31
0.0
  0
LINE
  5
6D
330
42
100
AcDbEntity
  8
Specialized_Fills
  6
Continuous
100
AcDbLine
 10
234.6820628574382
 20
186.8763144749846
 30
0.0
 11
233.840191657028
 21
194.113010069793
 31
0.0
  0
LINE
  5
6E
330
42
100
AcDbEntity
  8
Specialized_Fills
  6
Continuous
100
AcDbLine
 10
234.6820628574382
 20
313.7088727847143
 30
0.0
 11
233.840191657028
 21
320.9455683795227
 31
0.0
  0
LINE
  5
6F
330
42
100
AcDbEntity
  8
Specialized_Fills
  6
Continuous
100
AcDbLine
 10
345.6634056933123
 20
313.7088727847143
 30
0.0
 11
344.8215344929022
 21
320.9455683795227
 31
0.0
  0
LINE
  5
70
330
42
100
AcDbEntity
  8
Specialized_Fills
  6
Continuous
100
AcDbLine
 10
204.7622866633906
 20
49.68457774113455
 30
0.0
 11
204.1825735659471
 21
54.6677713893768
 31
0.0
  0
LINE
  5
71
330
42
100
AcDbEntity
  8
Specialized_Fills
  6
Continuous
100
AcDbLine
 10
205.0244447663573
 20
174.263634104298
 30
0.0
 11
204.1825735659471
 21
181.5003296991065
 31
0.0
  0
LINE
  5
72
330
42
100
AcDbEntity
  8
Specialized_Fills
  6
Continuous
100
AcDbLine
 10
316.0057876022314
 20
301.0961924140277
 30
0.0
 11
315.1639164018212
 21
308.3328880088361
 31
0.0
  0
LINE
  5
73
330
42
100
AcDbEntity
  8
Specialized_Fills
  6
Continuous
100
AcDbLine
 10
227.9050928574382
 20
61.09480616525492
 30
0.0
 11
234.6820698476979
 21
60.04373677007233
 31
0.0
  0
LINE
  5
74
330
42
100
AcDbEntity
  8
Specialized_Fills
  6
Continuous
100
AcDbLine
 10
227.9050928574382
 20
187.9273644749846
 30
0.0
 11
234.6820698476979
 21
186.876295079802
 31
0.0
  0
LINE
  5
75
330
42
100
AcDbEntity
  8
Specialized_Fills
  6
Continuous
100
AcDbLine
 10
228.4595284485448
 20
314.6739330754014
 30
0.0
 11
234.6820698476979
 21
313.7088533895317
 31
0.0
  0
LINE
  5
76
330
42
100
AcDbEntity
  8
Specialized_Fills
  6
Continuous
100
AcDbLine
 10
338.8864356933123
 20
314.7599227847142
 30
0.0
 11
345.6634126835721
 21
313.7088533895317
 31
0.0
  0
LINE
  5
77
330
42
100
AcDbEntity
  8
Specialized_Fills
  6
Continuous
100
AcDbLine
 10
198.2474739046813
 20
175.3145317327933
 30
0.0
 11
205.0244508949411
 21
174.2634623376107
 31
0.0
  0
LINE
  5
78
330
42
100
AcDbEntity
  8
Specialized_Fills
  6
Continuous
100
AcDbLine
 10
309.2288167405555
 20
175.3145317327933
 30
0.0
 11
312.2789738735523
 21
174.8414702457028
 31
0.0
  0
LINE
  5
79
330
42
100
AcDbEntity
  8
Specialized_Fills
  6
Continuous
100
AcDbLine
 10
309.2288167405556
 20
302.1470900425231
 30
0.0
 11
316.0057937308153
 21
301.0960206473404
 31
0.0
  0
LINE
  5
7A
330
42
100
AcDbEntity
  8
Specialized_Fills
  6
Continuous
100
AcDbLine
 10
254.0655745560012
 20
112.5413357001003
 30
0.0
 11
259.4009866934328
 21
114.5894085317517
 31
0.0
  0
LINE
  5
7B
330
42
100
AcDbEntity
  8
Specialized_Fills
  6
Continuous
100
AcDbLine
 10
254.0655745560012
 20
239.37389400983
 30
0.0
 11
259.4009866934328
 21
241.4219668414814
 31
0.0
  0
LINE
  5
7C
330
42
100
AcDbEntity
  8
Specialized_Fills
  6
Continuous
100
AcDbLine
 10
192.2789750328492
 20
83.28592295211869
 30
0.0
 11
193.9041078081736
 21
83.90975297672301
 31
0.0
  0
LINE
  5
7D
330
42
100
AcDbEntity
  8
Specialized_Fills
  6
Continuous
100
AcDbLine
 10
299.5500385066163
 20
81.86168014507163
 30
0.0
 11
304.8854506440477
 21
83.90975297672301
 31
0.0
  0
LINE
  5
7E
330
42
100
AcDbEntity
  8
Specialized_Fills
  6
Continuous
100
AcDbLine
 10
192.2789750328492
 20
210.1184812618483
 30
0.0
 11
193.9041078081736
 21
210.7423112864527
 31
0.0
  0
LINE
  5
7F
330
42
100
AcDbEntity
  8
Specialized_Fills
  6
Continuous
100
AcDbLine
 10
299.5500385066163
 20
208.6942384548013
 30
0.0
 11
304.8854506440477
 21
210.7423112864527
 31
0.0
  0
LINE
  5
80
330
42
100
AcDbEntity
  8
Specialized_Fills
  6
Continuous
100
AcDbLine
 10
299.5500385066163
 20
335.526796764531
 30
0.0
 11
304.0074319338601
 21
337.237829791253
 31
0.0
  0
LINE
  5
81
330
42
100
AcDbEntity
  8
Specialized_Fills
  6
Continuous
100
AcDbLine
 10
221.9626856717483
 20
130.7717387093576
 30
0.0
 11
222.3200232963066
 21
130.9089077717905
 31
0.0
  0
LINE
  5
82
330
42
100
AcDbEntity
  8
Specialized_Fills
  6
Continuous
100
AcDbLine
 10
221.9626856717483
 20
257.6042970190873
 30
0.0
 11
222.3200232963066
 21
257.7414660815202
 31
0.0
  0
LINE
  5
83
330
42
100
AcDbEntity
  8
Specialized_Fills
  6
Continuous
100
AcDbLine
 10
332.9440285076224
 20
257.6042970190873
 30
0.0
 11
333.3013661321807
 21
257.7414660815202
 31
0.0
  0
LINE
  5
84
330
42
100
AcDbEntity
  8
Specialized_Fills
  6
Continuous
100
AcDbLine
 10
281.0095568080531
 20
153.4377089199558
 30
0.0
 11
286.3449689454847
 21
155.4857817516072
 31
0.0
  0
LINE
  5
85
330
42
100
AcDbEntity
  8
Specialized_Fills
  6
Continuous
100
AcDbLine
 10
281.0095568080532
 20
280.2702672296855
 30
0.0
 11
286.3449689454847
 21
282.3183400613369
 31
0.0
  0
LINE
  5
86
330
42
100
AcDbEntity
  8
Specialized_Fills
  6
Continuous
100
AcDbLine
 10
254.0657013617322
 20
112.5411960019507
 30
0.0
 11
257.8560611434539
 21
109.9845660472824
 31
0.0
  0
LINE
  5
87
330
42
100
AcDbEntity
  8
Specialized_Fills
  6
Continuous
100
AcDbLine
 10
254.0657013617322
 20
239.3737543116804
 30
0.0
 11
257.8560611434539
 21
236.8171243570121
 31
0.0
  0
LINE
  5
88
330
42
100
AcDbEntity
  8
Specialized_Fills
  6
Continuous
100
AcDbLine
 10
192.2789750328492
 20
79.35900818518814
 30
0.0
 11
192.3590356882396
 21
79.30500659126341
 31
0.0
  0
LINE
  5
89
330
42
100
AcDbEntity
  8
Specialized_Fills
  6
Continuous
100
AcDbLine
 10
299.5500187423921
 20
81.86163654593165
 30
0.0
 11
303.3403785241137
 21
79.30500659126341
 31
0.0
  0
LINE
  5
8A
330
42
100
AcDbEntity
  8
Specialized_Fills
  6
Continuous
100
AcDbLine
 10
192.2789750328492
 20
206.1915664949178
 30
0.0
 11
192.3590356882396
 21
206.1375649009931
 31
0.0
  0
LINE
  5
8B
330
42
100
AcDbEntity
  8
Specialized_Fills
  6
Continuous
100
AcDbLine
 10
299.5500187423921
 20
208.6941948556613
 30
0.0
 11
303.3403785241137
 21
206.1375649009931
 31
0.0
  0
LINE
  5
8C
330
42
100
AcDbEntity
  8
Specialized_Fills
  6
Continuous
100
AcDbLine
 10
299.5500187423921
 20
335.526753165391
 30
0.0
 11
303.3403785241137
 21
332.9701232107227
 31
0.0
  0
LINE
  5
8D
330
42
100
AcDbEntity
  8
Specialized_Fills
  6
Continuous
100
AcDbLine
 10
281.0094102380979
 20
153.4378050189655
 30
0.0
 11
284.7997700198196
 21
150.8811750642973
 31
0.0
  0
LINE
  5
8E
330
42
100
AcDbEntity
  8
Specialized_Fills
  6
Continuous
100
AcDbLine
 10
170.2418612650009
 20
280.1261575474035
 30
0.0
 11
173.8184271839454
 21
277.713733374027
 31
0.0
  0
LINE
  5
8F
330
42
100
AcDbEntity
  8
Specialized_Fills
  6
Continuous
100
AcDbLine
 10
281.009410238098
 20
280.2703633286953
 30
0.0
 11
284.7997700198197
 21
277.713733374027
 31
0.0
  0
LINE
  5
90
330
42
100
AcDbEntity
  8
Specialized_Fills
  6
Continuous
100
AcDbLine
 10
221.9626856717483
 20
129.8446342636532
 30
0.0
 11
222.3198365869013
 21
130.9090445081445
 31
0.0
  0
LINE
  5
91
330
42
100
AcDbEntity
  8
Specialized_Fills
  6
Continuous
100
AcDbLine
 10
221.9626856717483
 20
256.6771925733828
 30
0.0
 11
222.3198365869013
 21
257.7416028178742
 31
0.0
  0
LINE
  5
92
330
42
100
AcDbEntity
  8
Specialized_Fills
  6
Continuous
100
AcDbLine
 10
332.9440285076224
 20
256.6771925733828
 30
0.0
 11
333.3011794227754
 21
257.7416028178742
 31
0.0
  0
LINE
  5
93
330
42
100
AcDbEntity
  8
Specialized_Fills
  6
Continuous
100
AcDbLine
 10
257.8561042434785
 20
109.9845652199895
 30
0.0
 11
259.4011593589818
 21
114.5892643078841
 31
0.0
  0
LINE
  5
94
330
42
100
AcDbEntity
  8
Specialized_Fills
  6
Continuous
100
AcDbLine
 10
257.8561042434785
 20
236.8171235297192
 30
0.0
 11
259.4011593589818
 21
241.4218226176138
 31
0.0
  0
LINE
  5
95
330
42
100
AcDbEntity
  8
Specialized_Fills
  6
Continuous
100
AcDbLine
 10
284.7997287024352
 20
150.8812027350672
 30
0.0
 11
286.3447838179386
 21
155.4859018229618
 31
0.0
  0
LINE
  5
96
330
42
100
AcDbEntity
  8
Specialized_Fills
  6
Continuous
100
AcDbLine
 10
173.8183858665611
 20
277.7137610447969
 30
0.0
 11
174.6278384465947
 21
280.1261575474035
 31
0.0
  0
LINE
  5
97
330
42
100
AcDbEntity
  8
Specialized_Fills
  6
Continuous
100
AcDbLine
 10
284.7997287024353
 20
277.7137610447969
 30
0.0
 11
286.3447838179386
 21
282.3184601326915
 31
0.0
  0
LINE
  5
98
330
42
100
AcDbEntity
  8
Specialized_Fills
  6
Continuous
100
AcDbLine
 10
192.3590472526013
 20
79.30503348007217
 30
0.0
 11
193.9041023681047
 21
83.90973256796673
 31
0.0
  0
LINE
  5
99
330
42
100
AcDbEntity
  8
Specialized_Fills
  6
Continuous
100
AcDbLine
 10
303.3403900884755
 20
79.30503348007217
 30
0.0
 11
304.8854452039789
 21
83.90973256796673
 31
0.0
  0
LINE
  5
9A
330
42
100
AcDbEntity
  8
Specialized_Fills
  6
Continuous
100
AcDbLine
 10
192.3590472526014
 20
206.1375917898018
 30
0.0
 11
193.9041023681047
 21
210.7422908776964
 31
0.0
  0
LINE
  5
9B
330
42
100
AcDbEntity
  8
Specialized_Fills
  6
Continuous
100
AcDbLine
 10
303.3403900884755
 20
206.1375917898018
 30
0.0
 11
304.8854452039789
 21
210.7422908776964
 31
0.0
  0
LINE
  5
9C
330
42
100
AcDbEntity
  8
Specialized_Fills
  6
Continuous
100
AcDbLine
 10
303.3403900884755
 20
332.9701500995315
 30
0.0
 11
304.7723621268567
 21
337.237829791253
 31
0.0
  0
POINT
  5
9D
330
42
100
AcDbEntity
  8
Specialized_Fills
  6
Continuous
100
AcDbPoint
 10
230.6848357829708
 20
121.9543411510927
 30
0.0
  0
POINT
  5
9E
330
42
100
AcDbEntity
  8
Specialized_Fills
  6
Continuous
100
AcDbPoint
 10
230.6848357829708
 20
248.7868994608224
 30
0.0
  0
POINT
  5
9F
330
42
100
AcDbEntity
  8
Specialized_Fills
  6
Continuous
100
AcDbPoint
 10
341.666178618845
 20
248.7868994608224
 30
0.0
  0
POINT
  5
A0
330
42
100
AcDbEntity
  8
Specialized_Fills
  6
Continuous
100
AcDbPoint
 10
229.7582548077933
 20
96.58782948914684
 30
0.0
  0
POINT
  5
A1
330
42
100
AcDbEntity
  8
Specialized_Fills
  6
Continuous
100
AcDbPoint
 10
229.7582548077933
 20
223.4203877988765
 30
0.0
  0
POINT
  5
A2
330
42
100
AcDbEntity
  8
Specialized_Fills
  6
Continuous
100
AcDbPoint
 10
269.1739528014785
 20
126.8325583097297
 30
0.0
  0
POINT
  5
A3
330
42
100
AcDbEntity
  8
Specialized_Fills
  6
Continuous
100
AcDbPoint
 10
158.1926099656044
 20
253.6651166194594
 30
0.0
  0
POINT
  5
A4
330
42
100
AcDbEntity
  8
Specialized_Fills
  6
Continuous
100
AcDbPoint
 10
269.1739528014785
 20
253.6651166194594
 30
0.0
  0
POINT
  5
A5
330
42
100
AcDbEntity
  8
Specialized_Fills
  6
Continuous
100
AcDbPoint
 10
228.8316738326157
 20
71.22131782720088
 30
0.0
  0
POINT
  5
A6
330
42
100
AcDbEntity
  8
Specialized_Fills
  6
Continuous
100
AcDbPoint
 10
228.8316738326157
 20
198.0538761369305
 30
0.0
  0
POINT
  5
A7
330
42
100
AcDbEntity
  8
Specialized_Fills
  6
Continuous
100
AcDbPoint
 10
228.8316738326158
 20
324.8864344466602
 30
0.0
  0
POINT
  5
A8
330
42
100
AcDbEntity
  8
Specialized_Fills
  6
Continuous
100
AcDbPoint
 10
339.8130166684899
 20
324.8864344466602
 30
0.0
  0
POINT
  5
A9
330
42
100
AcDbEntity
  8
Specialized_Fills
  6
Continuous
100
AcDbPoint
 10
268.247371826301
 20
101.4660466477837
 30
0.0
  0
POINT
  5
AA
330
42
100
AcDbEntity
  8
Specialized_Fills
  6
Continuous
100
AcDbPoint
 10
268.247371826301
 20
228.2986049575134
 30
0.0
  0
POINT
  5
AB
330
42
100
AcDbEntity
  8
Specialized_Fills
  6
Continuous
100
AcDbPoint
 10
227.9050928574382
 20
172.6873644749846
 30
0.0
  0
POINT
  5
AC
330
42
100
AcDbEntity
  8
Specialized_Fills
  6
Continuous
100
AcDbPoint
 10
338.8864356933124
 20
299.5199227847143
 30
0.0
  0
POINT
  5
AD
330
42
100
AcDbEntity
  8
Specialized_Fills
  6
Continuous
100
AcDbPoint
 10
267.3207908511234
 20
76.09953498583779
 30
0.0
  0
POINT
  5
AE
330
42
100
AcDbEntity
  8
Specialized_Fills
  6
Continuous
100
AcDbPoint
 10
267.3207908511234
 20
202.9320932955675
 30
0.0
  0
POINT
  5
AF
330
42
100
AcDbEntity
  8
Specialized_Fills
  6
Continuous
100
AcDbPoint
 10
267.3207908511235
 20
329.7646516052971
 30
0.0
  0
POINT
  5
B0
330
42
100
AcDbEntity
  8
Specialized_Fills
  6
Continuous
100
AcDbPoint
 10
196.843309450478
 20
107.179240982449
 30
0.0
  0
POINT
  5
B1
330
42
100
AcDbEntity
  8
Specialized_Fills
  6
Continuous
100
AcDbPoint
 10
307.8246522863521
 20
107.179240982449
 30
0.0
  0
POINT
  5
B2
330
42
100
AcDbEntity
  8
Specialized_Fills
  6
Continuous
100
AcDbPoint
 10
196.843309450478
 20
234.0117992921787
 30
0.0
  0
POINT
  5
B3
330
42
100
AcDbEntity
  8
Specialized_Fills
  6
Continuous
100
AcDbPoint
 10
307.8246522863521
 20
234.0117992921787
 30
0.0
  0
POINT
  5
B4
330
42
100
AcDbEntity
  8
Specialized_Fills
  6
Continuous
100
AcDbPoint
 10
226.9785118822606
 20
147.3208528130387
 30
0.0
  0
POINT
  5
B5
330
42
100
AcDbEntity
  8
Specialized_Fills
  6
Continuous
100
AcDbPoint
 10
226.9785118822607
 20
274.1534111227684
 30
0.0
  0
POINT
  5
B6
330
42
100
AcDbEntity
  8
Specialized_Fills
  6
Continuous
100
AcDbPoint
 10
337.9598547181347
 20
274.1534111227684
 30
0.0
  0
POINT
  5
B7
330
42
100
AcDbEntity
  8
Specialized_Fills
  6
Continuous
100
AcDbPoint
 10
266.3942098759459
 20
50.73302332389186
 30
0.0
  0
POINT
  5
B8
330
42
100
AcDbEntity
  8
Specialized_Fills
  6
Continuous
100
AcDbPoint
 10
266.3942098759459
 20
177.5655816336215
 30
0.0
  0
POINT
  5
B9
330
42
100
AcDbEntity
  8
Specialized_Fills
  6
Continuous
100
AcDbPoint
 10
266.3942098759459
 20
304.3981399433512
 30
0.0
  0
POINT
  5
BA
330
42
100
AcDbEntity
  8
Specialized_Fills
  6
Continuous
100
AcDbPoint
 10
195.9167284753004
 20
81.81272932050308
 30
0.0
  0
POINT
  5
BB
330
42
100
AcDbEntity
  8
Specialized_Fills
  6
Continuous
100
AcDbPoint
 10
306.8980713111746
 20
81.81272932050308
 30
0.0
  0
POINT
  5
BC
330
42
100
AcDbEntity
  8
Specialized_Fills
  6
Continuous
100
AcDbPoint
 10
195.9167284753004
 20
208.6452876302328
 30
0.0
  0
POINT
  5
BD
330
42
100
AcDbEntity
  8
Specialized_Fills
  6
Continuous
100
AcDbPoint
 10
306.8980713111746
 20
208.6452876302328
 30
0.0
  0
POINT
  5
BE
330
42
100
AcDbEntity
  8
Specialized_Fills
  6
Continuous
100
AcDbPoint
 10
306.8980713111746
 20
335.4778459399625
 30
0.0
  0
POINT
  5
BF
330
42
100
AcDbEntity
  8
Specialized_Fills
  6
Continuous
100
AcDbPoint
 10
265.4676289007683
 20
152.1990699716756
 30
0.0
  0
POINT
  5
C0
330
42
100
AcDbEntity
  8
Specialized_Fills
  6
Continuous
100
AcDbPoint
 10
265.4676289007684
 20
279.0316282814053
 30
0.0
  0
POINT
  5
C1
330
42
100
AcDbEntity
  8
Specialized_Fills
  6
Continuous
100
AcDbPoint
 10
194.9901475001229
 20
56.44621765855714
 30
0.0
  0
POINT
  5
C2
330
42
100
AcDbEntity
  8
Specialized_Fills
  6
Continuous
100
AcDbPoint
 10
305.971490335997
 20
56.44621765855714
 30
0.0
  0
POINT
  5
C3
330
42
100
AcDbEntity
  8
Specialized_Fills
  6
Continuous
100
AcDbPoint
 10
194.9901475001229
 20
183.2787759682868
 30
0.0
  0
POINT
  5
C4
330
42
100
AcDbEntity
  8
Specialized_Fills
  6
Continuous
100
AcDbPoint
 10
305.971490335997
 20
183.2787759682868
 30
0.0
  0
POINT
  5
C5
330
42
100
AcDbEntity
  8
Specialized_Fills
  6
Continuous
100
AcDbPoint
 10
305.9714903359971
 20
310.1113342780165
 30
0.0
  0
POINT
  5
C6
330
42
100
AcDbEntity
  8
Specialized_Fills
  6
Continuous
100
AcDbPoint
 10
264.5410479255908
 20
126.8325583097297
 30
0.0
  0
POINT
  5
C7
330
42
100
AcDbEntity
  8
Specialized_Fills
  6
Continuous
100
AcDbPoint
 10
264.5410479255908
 20
253.6651166194594
 30
0.0
  0
POINT
  5
C8
330
42
100
AcDbEntity
  8
Specialized_Fills
  6
Continuous
100
AcDbPoint
 10
194.0635665249454
 20
157.9122643063409
 30
0.0
  0
POINT
  5
C9
330
42
100
AcDbEntity
  8
Specialized_Fills
  6
Continuous
100
AcDbPoint
 10
305.0449093608195
 20
157.9122643063409
 30
0.0
  0
POINT
  5
CA
330
42
100
AcDbEntity
  8
Specialized_Fills
  6
Continuous
100
AcDbPoint
 10
305.0449093608195
 20
284.7448226160706
 30
0.0
  0
POINT
  5
CB
330
42
100
AcDbEntity
  8
Specialized_Fills
  6
Continuous
100
AcDbPoint
 10
193.1369855497678
 20
132.5457526443949
 30
0.0
  0
POINT
  5
CC
330
42
100
AcDbEntity
  8
Specialized_Fills
  6
Continuous
100
AcDbPoint
 10
304.118328385642
 20
132.5457526443949
 30
0.0
  0
POINT
  5
CD
330
42
100
AcDbEntity
  8
Specialized_Fills
  6
Continuous
100
AcDbPoint
 10
193.1369855497678
 20
259.3783109541246
 30
0.0
  0
POINT
  5
CE
330
42
100
AcDbEntity
  8
Specialized_Fills
  6
Continuous
100
AcDbPoint
 10
304.118328385642
 20
259.3783109541246
 30
0.0
  0
POINT
  5
CF
330
42
100
AcDbEntity
  8
Specialized_Fills
  6
Continuous
100
AcDbPoint
 10
248.9209955083587
 20
103.4517618547167
 30
0.0
  0
POINT
  5
D0
330
42
100
AcDbEntity
  8
Specialized_Fills
  6
Continuous
100
AcDbPoint
 10
248.9209955083587
 20
230.2843201644464
 30
0.0
  0
POINT
  5
D1
330
42
100
AcDbEntity
  8
Specialized_Fills
  6
Continuous
100
AcDbPoint
 10
267.9968903636216
 20
105.9631510561266
 30
0.0
  0
POINT
  5
D2
330
42
100
AcDbEntity
  8
Specialized_Fills
  6
Continuous
100
AcDbPoint
 10
267.9968903636216
 20
232.7957093658563
 30
0.0
  0
POINT
  5
D3
330
42
100
AcDbEntity
  8
Specialized_Fills
  6
Continuous
100
AcDbPoint
 10
296.856263966435
 20
109.7625596697448
 30
0.0
  0
POINT
  5
D4
330
42
100
AcDbEntity
  8
Specialized_Fills
  6
Continuous
100
AcDbPoint
 10
185.8749211305608
 20
236.5951179794745
 30
0.0
  0
POINT
  5
D5
330
42
100
AcDbEntity
  8
Specialized_Fills
  6
Continuous
100
AcDbPoint
 10
296.856263966435
 20
236.5951179794745
 30
0.0
  0
POINT
  5
D6
330
42
100
AcDbEntity
  8
Specialized_Fills
  6
Continuous
100
AcDbPoint
 10
228.8750967552671
 20
73.39758940928087
 30
0.0
  0
POINT
  5
D7
330
42
100
AcDbEntity
  8
Specialized_Fills
  6
Continuous
100
AcDbPoint
 10
228.8750967552671
 20
200.2301477190105
 30
0.0
  0
POINT
  5
D8
330
42
100
AcDbEntity
  8
Specialized_Fills
  6
Continuous
100
AcDbPoint
 10
228.8750967552671
 20
327.0627060287402
 30
0.0
  0
POINT
  5
D9
330
42
100
AcDbEntity
  8
Specialized_Fills
  6
Continuous
100
AcDbPoint
 10
339.8564395911413
 20
327.0627060287402
 30
0.0
  0
POINT
  5
DA
330
42
100
AcDbEntity
  8
Specialized_Fills
  6
Continuous
100
AcDbPoint
 10
247.9509916105298
 20
75.90897861069077
 30
0.0
  0
POINT
  5
DB
330
42
100
AcDbEntity
  8
Specialized_Fills
  6
Continuous
100
AcDbPoint
 10
247.9509916105298
 20
202.7415369204204
 30
0.0
  0
POINT
  5
DC
330
42
100
AcDbEntity
  8
Specialized_Fills
  6
Continuous
100
AcDbPoint
 10
247.9509916105299
 20
329.5740952301501
 30
0.0
  0
POINT
  5
DD
330
42
100
AcDbEntity
  8
Specialized_Fills
  6
Continuous
100
AcDbPoint
 10
276.8103652133433
 20
79.7083872243089
 30
0.0
  0
POINT
  5
DE
330
42
100
AcDbEntity
  8
Specialized_Fills
  6
Continuous
100
AcDbPoint
 10
276.8103652133433
 20
206.5409455340386
 30
0.0
  0
POINT
  5
DF
330
42
100
AcDbEntity
  8
Specialized_Fills
  6
Continuous
100
AcDbPoint
 10
276.8103652133433
 20
333.3735038437682
 30
0.0
  0
POINT
  5
E0
330
42
100
AcDbEntity
  8
Specialized_Fills
  6
Continuous
100
AcDbPoint
 10
213.9531610816371
 20
86.04405027895488
 30
0.0
  0
POINT
  5
E1
330
42
100
AcDbEntity
  8
Specialized_Fills
  6
Continuous
100
AcDbPoint
 10
213.9531610816371
 20
212.8766085886846
 30
0.0
  0
POINT
  5
E2
330
42
100
AcDbEntity
  8
Specialized_Fills
  6
Continuous
100
AcDbPoint
 10
227.9050928574382
 20
172.6873644749846
 30
0.0
  0
POINT
  5
E3
330
42
100
AcDbEntity
  8
Specialized_Fills
  6
Continuous
100
AcDbPoint
 10
338.8864356933123
 20
299.5199227847143
 30
0.0
  0
POINT
  5
E4
330
42
100
AcDbEntity
  8
Specialized_Fills
  6
Continuous
100
AcDbPoint
 10
256.7644664602516
 20
176.4867730886027
 30
0.0
  0
POINT
  5
E5
330
42
100
AcDbEntity
  8
Specialized_Fills
  6
Continuous
100
AcDbPoint
 10
256.7644664602516
 20
303.3193313983324
 30
0.0
  0
POINT
  5
E6
330
42
100
AcDbEntity
  8
Specialized_Fills
  6
Continuous
100
AcDbPoint
 10
193.9072623285453
 20
55.98987783351906
 30
0.0
  0
POINT
  5
E7
330
42
100
AcDbEntity
  8
Specialized_Fills
  6
Continuous
100
AcDbPoint
 10
304.8886051644195
 20
55.98987783351906
 30
0.0
  0
POINT
  5
E8
330
42
100
AcDbEntity
  8
Specialized_Fills
  6
Continuous
100
AcDbPoint
 10
193.9072623285454
 20
182.8224361432487
 30
0.0
  0
POINT
  5
E9
330
42
100
AcDbEntity
  8
Specialized_Fills
  6
Continuous
100
AcDbPoint
 10
304.8886051644195
 20
182.8224361432487
 30
0.0
  0
POINT
  5
EA
330
42
100
AcDbEntity
  8
Specialized_Fills
  6
Continuous
100
AcDbPoint
 10
304.8886051644195
 20
309.6549944529784
 30
0.0
  0
POINT
  5
EB
330
42
100
AcDbEntity
  8
Specialized_Fills
  6
Continuous
100
AcDbPoint
 10
212.9831571838082
 20
58.50126703492896
 30
0.0
  0
POINT
  5
EC
330
42
100
AcDbEntity
  8
Specialized_Fills
  6
Continuous
100
AcDbPoint
 10
212.9831571838082
 20
185.3338253446586
 30
0.0
  0
POINT
  5
ED
330
42
100
AcDbEntity
  8
Specialized_Fills
  6
Continuous
100
AcDbPoint
 10
323.9645000196824
 20
312.1663836543883
 30
0.0
  0
POINT
  5
EE
330
42
100
AcDbEntity
  8
Specialized_Fills
  6
Continuous
100
AcDbPoint
 10
236.7185677071598
 20
146.4326006431669
 30
0.0
  0
POINT
  5
EF
330
42
100
AcDbEntity
  8
Specialized_Fills
  6
Continuous
100
AcDbPoint
 10
236.7185677071599
 20
273.2651589528966
 30
0.0
  0
POINT
  5
F0
330
42
100
AcDbEntity
  8
Specialized_Fills
  6
Continuous
100
AcDbPoint
 10
347.699910543034
 20
273.2651589528966
 30
0.0
  0
POINT
  5
F1
330
42
100
AcDbEntity
  8
Specialized_Fills
  6
Continuous
100
AcDbPoint
 10
284.8427064113278
 20
152.7682636978128
 30
0.0
  0
POINT
  5
F2
330
42
100
AcDbEntity
  8
Specialized_Fills
  6
Continuous
100
AcDbPoint
 10
173.8613635754536
 20
279.6008220075425
 30
0.0
  0
POINT
  5
F3
330
42
100
AcDbEntity
  8
Specialized_Fills
  6
Continuous
100
AcDbPoint
 10
284.8427064113278
 20
279.6008220075425
 30
0.0
  0
POINT
  5
F4
330
42
100
AcDbEntity
  8
Specialized_Fills
  6
Continuous
100
AcDbPoint
 10
192.9372584307165
 20
155.2796528992228
 30
0.0
  0
POINT
  5
F5
330
42
100
AcDbEntity
  8
Specialized_Fills
  6
Continuous
100
AcDbPoint
 10
303.9186012665906
 20
155.2796528992228
 30
0.0
  0
POINT
  5
F6
330
42
100
AcDbEntity
  8
Specialized_Fills
  6
Continuous
100
AcDbPoint
 10
303.9186012665906
 20
282.1122112089525
 30
0.0
  0
POINT
  5
F7
330
42
100
AcDbEntity
  8
Specialized_Fills
  6
Continuous
100
AcDbPoint
 10
221.7966320335299
 20
159.0790615128409
 30
0.0
  0
POINT
  5
F8
330
42
100
AcDbEntity
  8
Specialized_Fills
  6
Continuous
100
AcDbPoint
 10
332.7779748694041
 20
285.9116198225706
 30
0.0
  0
POINT
  5
F9
330
42
100
AcDbEntity
  8
Specialized_Fills
  6
Continuous
100
AcDbPoint
 10
201.7507332804381
 20
129.0248890674051
 30
0.0
  0
POINT
  5
FA
330
42
100
AcDbEntity
  8
Specialized_Fills
  6
Continuous
100
AcDbPoint
 10
201.7507332804381
 20
255.8574473771347
 30
0.0
  0
POINT
  5
FB
330
42
100
AcDbEntity
  8
Specialized_Fills
  6
Continuous
100
AcDbPoint
 10
312.7320761163123
 20
255.8574473771347
 30
0.0
  0
POINT
  5
FC
330
42
100
AcDbEntity
  8
Specialized_Fills
  6
Continuous
100
AcDbPoint
 10
211.2840471489376
 20
120.0887722506405
 30
0.0
  0
POINT
  5
FD
330
42
100
AcDbEntity
  8
Specialized_Fills
  6
Continuous
100
AcDbPoint
 10
211.2840471489376
 20
246.9213305603702
 30
0.0
  0
POINT
  5
FE
330
42
100
AcDbEntity
  8
Specialized_Fills
  6
Continuous
100
AcDbPoint
 10
322.2653899848117
 20
246.9213305603702
 30
0.0
  0
POINT
  5
FF
330
42
100
AcDbEntity
  8
Specialized_Fills
  6
Continuous
100
AcDbPoint
 10
281.5882114347503
 20
121.8073954484426
 30
0.0
  0
POINT
  5
100
330
42
100
AcDbEntity
  8
Specialized_Fills
  6
Continuous
100
AcDbPoint
 10
170.6068685988761
 20
248.6399537581723
 30
0.0
  0
POINT
  5
101
330
42
100
AcDbEntity
  8
Specialized_Fills
  6
Continuous
100
AcDbPoint
 10
281.5882114347503
 20
248.6399537581723
 30
0.0
  0
POINT
  5
102
330
42
100
AcDbEntity
  8
Specialized_Fills
  6
Continuous
100
AcDbPoint
 10
297.6548184774858
 20
111.5718379094355
 30
0.0
  0
POINT
  5
103
330
42
100
AcDbEntity
  8
Specialized_Fills
  6
Continuous
100
AcDbPoint
 10
186.6734756416116
 20
238.4043962191653
 30
0.0
  0
POINT
  5
104
330
42
100
AcDbEntity
  8
Specialized_Fills
  6
Continuous
100
AcDbPoint
 10
297.6548184774858
 20
238.4043962191653
 30
0.0
  0
POINT
  5
105
330
42
100
AcDbEntity
  8
Specialized_Fills
  6
Continuous
100
AcDbPoint
 10
240.9110328846889
 20
123.5260186462446
 30
0.0
  0
POINT
  5
106
330
42
100
AcDbEntity
  8
Specialized_Fills
  6
Continuous
100
AcDbPoint
 10
240.9110328846889
 20
250.3585769559743
 30
0.0
  0
POINT
  5
107
330
42
100
AcDbEntity
  8
Specialized_Fills
  6
Continuous
100
AcDbPoint
 10
351.8923757205631
 20
250.3585769559743
 30
0.0
  0
POINT
  5
108
330
42
100
AcDbEntity
  8
Specialized_Fills
  6
Continuous
100
AcDbPoint
 10
256.9776399274243
 20
113.2904611072376
 30
0.0
  0
POINT
  5
109
330
42
100
AcDbEntity
  8
Specialized_Fills
  6
Continuous
100
AcDbPoint
 10
256.9776399274243
 20
240.1230194169673
 30
0.0
  0
POINT
  5
10A
330
42
100
AcDbEntity
  8
Specialized_Fills
  6
Continuous
100
AcDbPoint
 10
196.1241110648848
 20
81.35552158553576
 30
0.0
  0
POINT
  5
10B
330
42
100
AcDbEntity
  8
Specialized_Fills
  6
Continuous
100
AcDbPoint
 10
307.105453900759
 20
81.35552158553576
 30
0.0
  0
POINT
  5
10C
330
42
100
AcDbEntity
  8
Specialized_Fills
  6
Continuous
100
AcDbPoint
 10
196.1241110648848
 20
208.1880798952655
 30
0.0
  0
POINT
  5
10D
330
42
100
AcDbEntity
  8
Specialized_Fills
  6
Continuous
100
AcDbPoint
 10
307.105453900759
 20
208.1880798952655
 30
0.0
  0
POINT
  5
10E
330
42
100
AcDbEntity
  8
Specialized_Fills
  6
Continuous
100
AcDbPoint
 10
307.105453900759
 20
335.0206382049951
 30
0.0
  0
POINT
  5
10F
330
42
100
AcDbEntity
  8
Specialized_Fills
  6
Continuous
100
AcDbPoint
 10
266.4282753506976
 20
83.07414478333777
 30
0.0
  0
POINT
  5
110
330
42
100
AcDbEntity
  8
Specialized_Fills
  6
Continuous
100
AcDbPoint
 10
266.4282753506976
 20
209.9067030930675
 30
0.0
  0
POINT
  5
111
330
42
100
AcDbEntity
  8
Specialized_Fills
  6
Continuous
100
AcDbPoint
 10
266.4282753506976
 20
336.7392614027971
 30
0.0
  0
POINT
  5
112
330
42
100
AcDbEntity
  8
Specialized_Fills
  6
Continuous
100
AcDbPoint
 10
221.9626856717483
 20
167.5314948815784
 30
0.0
  0
POINT
  5
113
330
42
100
AcDbEntity
  8
Specialized_Fills
  6
Continuous
100
AcDbPoint
 10
332.9440285076224
 20
294.3640531913081
 30
0.0
  0
POINT
  5
114
330
42
100
AcDbEntity
  8
Specialized_Fills
  6
Continuous
100
AcDbPoint
 10
225.7510968006362
 20
84.79276798113984
 30
0.0
  0
POINT
  5
115
330
42
100
AcDbEntity
  8
Specialized_Fills
  6
Continuous
100
AcDbPoint
 10
225.7510968006362
 20
211.6253262908695
 30
0.0
  0
POINT
  5
116
330
42
100
AcDbEntity
  8
Specialized_Fills
  6
Continuous
100
AcDbPoint
 10
292.266849957561
 20
169.2501180793805
 30
0.0
  0
POINT
  5
117
330
42
100
AcDbEntity
  8
Specialized_Fills
  6
Continuous
100
AcDbPoint
 10
292.266849957561
 20
296.0826763891102
 30
0.0
  0
POINT
  5
118
330
42
100
AcDbEntity
  8
Specialized_Fills
  6
Continuous
100
AcDbPoint
 10
197.3521141644223
 20
159.0145605403735
 30
0.0
  0
POINT
  5
119
330
42
100
AcDbEntity
  8
Specialized_Fills
  6
Continuous
100
AcDbPoint
 10
308.3334570002965
 20
159.0145605403735
 30
0.0
  0
POINT
  5
11A
330
42
100
AcDbEntity
  8
Specialized_Fills
  6
Continuous
100
AcDbPoint
 10
308.3334570002965
 20
285.8471188501032
 30
0.0
  0
POINT
  5
11B
330
42
100
AcDbEntity
  8
Specialized_Fills
  6
Continuous
100
AcDbPoint
 10
251.5896714074996
 20
170.9687412771826
 30
0.0
  0
POINT
  5
11C
330
42
100
AcDbEntity
  8
Specialized_Fills
  6
Continuous
100
AcDbPoint
 10
251.5896714074996
 20
297.8012995869122
 30
0.0
  0
POINT
  5
11D
330
42
100
AcDbEntity
  8
Specialized_Fills
  6
Continuous
100
AcDbPoint
 10
267.6562784502351
 20
160.7331837381755
 30
0.0
  0
POINT
  5
11E
330
42
100
AcDbEntity
  8
Specialized_Fills
  6
Continuous
100
AcDbPoint
 10
267.6562784502351
 20
287.5657420479052
 30
0.0
  0
POINT
  5
11F
330
42
100
AcDbEntity
  8
Specialized_Fills
  6
Continuous
100
AcDbPoint
 10
206.8027495876956
 20
128.7982442164737
 30
0.0
  0
POINT
  5
120
330
42
100
AcDbEntity
  8
Specialized_Fills
  6
Continuous
100
AcDbPoint
 10
206.8027495876956
 20
255.6308025262034
 30
0.0
  0
POINT
  5
121
330
42
100
AcDbEntity
  8
Specialized_Fills
  6
Continuous
100
AcDbPoint
 10
317.7840924235697
 20
255.6308025262034
 30
0.0
  0
POINT
  5
122
330
42
100
AcDbEntity
  8
Specialized_Fills
  6
Continuous
100
AcDbPoint
 10
226.9790999001736
 20
162.4518069359776
 30
0.0
  0
POINT
  5
123
330
42
100
AcDbEntity
  8
Specialized_Fills
  6
Continuous
100
AcDbPoint
 10
337.9604427360478
 20
289.2843652457072
 30
0.0
  0
POINT
  5
124
330
42
100
AcDbEntity
  8
Specialized_Fills
  6
Continuous
100
AcDbPoint
 10
277.1069138735083
 20
130.5168674142757
 30
0.0
  0
POINT
  5
125
330
42
100
AcDbEntity
  8
Specialized_Fills
  6
Continuous
100
AcDbPoint
 10
166.1255710376341
 20
257.3494257240054
 30
0.0
  0
POINT
  5
126
330
42
100
AcDbEntity
  8
Specialized_Fills
  6
Continuous
100
AcDbPoint
 10
277.1069138735084
 20
257.3494257240054
 30
0.0
  0
POINT
  5
127
330
42
100
AcDbEntity
  8
Specialized_Fills
  6
Continuous
100
AcDbPoint
 10
236.4297353234469
 20
132.2354906120778
 30
0.0
  0
POINT
  5
128
330
42
100
AcDbEntity
  8
Specialized_Fills
  6
Continuous
100
AcDbPoint
 10
236.4297353234469
 20
259.0680489218075
 30
0.0
  0
POINT
  5
129
330
42
100
AcDbEntity
  8
Specialized_Fills
  6
Continuous
100
AcDbPoint
 10
347.4110781593211
 20
259.0680489218075
 30
0.0
  0
POINT
  5
12A
330
42
100
AcDbEntity
  8
Specialized_Fills
  6
Continuous
100
AcDbPoint
 10
295.3160643021297
 20
106.5764288531849
 30
0.0
  0
POINT
  5
12B
330
42
100
AcDbEntity
  8
Specialized_Fills
  6
Continuous
100
AcDbPoint
 10
295.3160643021297
 20
233.4089871629146
 30
0.0
  0
POINT
  5
12C
330
42
100
AcDbEntity
  8
Specialized_Fills
  6
Continuous
100
AcDbPoint
 10
250.8773098863244
 20
98.94848154318502
 30
0.0
  0
POINT
  5
12D
330
42
100
AcDbEntity
  8
Specialized_Fills
  6
Continuous
100
AcDbPoint
 10
250.8773098863244
 20
225.7810398529147
 30
0.0
  0
POINT
  5
12E
330
42
100
AcDbEntity
  8
Specialized_Fills
  6
Continuous
100
AcDbPoint
 10
292.170001689049
 20
61.11070078525475
 30
0.0
  0
POINT
  5
12F
330
42
100
AcDbEntity
  8
Specialized_Fills
  6
Continuous
100
AcDbPoint
 10
292.170001689049
 20
187.9432590949844
 30
0.0
  0
POINT
  5
130
330
42
100
AcDbEntity
  8
Specialized_Fills
  6
Continuous
100
AcDbPoint
 10
292.1700016890491
 20
314.7758174047141
 30
0.0
  0
POINT
  5
131
330
42
100
AcDbEntity
  8
Specialized_Fills
  6
Continuous
100
AcDbPoint
 10
199.4473320992775
 20
171.2122676033825
 30
0.0
  0
POINT
  5
132
330
42
100
AcDbEntity
  8
Specialized_Fills
  6
Continuous
100
AcDbPoint
 10
310.4286749351517
 20
171.2122676033825
 30
0.0
  0
POINT
  5
133
330
42
100
AcDbEntity
  8
Specialized_Fills
  6
Continuous
100
AcDbPoint
 10
310.4286749351517
 20
298.0448259131123
 30
0.0
  0
POINT
  5
134
330
42
100
AcDbEntity
  8
Specialized_Fills
  6
Continuous
100
AcDbPoint
 10
247.7312472732436
 20
53.48275347525483
 30
0.0
  0
POINT
  5
135
330
42
100
AcDbEntity
  8
Specialized_Fills
  6
Continuous
100
AcDbPoint
 10
247.7312472732436
 20
180.3153117849845
 30
0.0
  0
POINT
  5
136
330
42
100
AcDbEntity
  8
Specialized_Fills
  6
Continuous
100
AcDbPoint
 10
247.7312472732436
 20
307.1478700947142
 30
0.0
  0
POINT
  5
137
330
42
100
AcDbEntity
  8
Specialized_Fills
  6
Continuous
100
AcDbPoint
 10
265.9899205193463
 20
163.5843202933827
 30
0.0
  0
POINT
  5
138
330
42
100
AcDbEntity
  8
Specialized_Fills
  6
Continuous
100
AcDbPoint
 10
265.9899205193463
 20
290.4168786031123
 30
0.0
  0
POINT
  5
139
330
42
100
AcDbEntity
  8
Specialized_Fills
  6
Continuous
100
AcDbPoint
 10
295.0914366469808
 20
136.9176938544603
 30
0.0
  0
POINT
  5
13A
330
42
100
AcDbEntity
  8
Specialized_Fills
  6
Continuous
100
AcDbPoint
 10
184.1100938111066
 20
263.75025216419
 30
0.0
  0
POINT
  5
13B
330
42
100
AcDbEntity
  8
Specialized_Fills
  6
Continuous
100
AcDbPoint
 10
295.0914366469808
 20
263.75025216419
 30
0.0
  0
POINT
  5
13C
330
42
100
AcDbEntity
  8
Specialized_Fills
  6
Continuous
100
AcDbPoint
 10
250.6526822311754
 20
129.2897465444604
 30
0.0
  0
POINT
  5
13D
330
42
100
AcDbEntity
  8
Specialized_Fills
  6
Continuous
100
AcDbPoint
 10
250.6526822311754
 20
256.1223048541901
 30
0.0
  0
LINE
  5
13E
330
42
100
AcDbEntity
  8
Specialized_Fills
  6
Continuous
100
AcDbLine
 10
247.3785779928967
 20
155.7636114847007
 30
0.0
 11
253.0576026537612
 21
155.1233741058385
 31
0.0
  0
LINE
  5
13F
330
42
100
AcDbEntity
  8
Specialized_Fills
  6
Continuous
100
AcDbLine
 10
247.3785779928967
 20
282.5961697944304
 30
0.0
 11
253.0576026537613
 21
281.9559324155683
 31
0.0
  0
LINE
  5
140
330
42
100
AcDbEntity
  8
Specialized_Fills
  6
Continuous
100
AcDbLine
 10
247.3785779928967
 20
155.7636114847007
 30
0.0
 11
249.5649003682593
 21
151.7482436969397
 31
0.0
  0
LINE
  5
141
330
42
100
AcDbEntity
  8
Specialized_Fills
  6
Continuous
100
AcDbLine
 10
247.3785779928967
 20
282.5961697944304
 30
0.0
 11
249.5649003682594
 21
278.5808020066693
 31
0.0
  0
LINE
  5
142
330
42
100
AcDbEntity
  8
Specialized_Fills
  6
Continuous
100
AcDbLine
 10
249.5649000538863
 20
151.7482460802505
 30
0.0
 11
253.0576266477396
 21
155.1233475514052
 31
0.0
  0
LINE
  5
143
330
42
100
AcDbEntity
  8
Specialized_Fills
  6
Continuous
100
AcDbLine
 10
249.5649000538863
 20
278.5808043899802
 30
0.0
 11
253.0576266477396
 21
281.9559058611348
 31
0.0
  0
LINE
  5
144
330
42
100
AcDbEntity
  8
Specialized_Fills
  6
Continuous
100
AcDbLine
 10
269.0129329745088
 20
63.57310259433425
 30
0.0
 11
270.9769194382573
 21
68.94003674431345
 31
0.0
  0
LINE
  5
145
330
42
100
AcDbEntity
  8
Specialized_Fills
  6
Continuous
100
AcDbLine
 10
269.0129329745088
 20
190.4056609040639
 30
0.0
 11
270.9769194382573
 21
195.7725950540431
 31
0.0
  0
LINE
  5
146
330
42
100
AcDbEntity
  8
Specialized_Fills
  6
Continuous
100
AcDbLine
 10
269.0129329745088
 20
317.2382192137936
 30
0.0
 11
270.9769194382573
 21
322.6051533637729
 31
0.0
  0
LINE
  5
147
330
42
100
AcDbEntity
  8
Specialized_Fills
  6
Continuous
100
AcDbLine
 10
269.0127840690424
 20
63.57301176230457
 30
0.0
 11
273.4310492189932
 21
64.74864651201681
 31
0.0
  0
LINE
  5
148
330
42
100
AcDbEntity
  8
Specialized_Fills
  6
Continuous
100
AcDbLine
 10
269.0127840690424
 20
190.4055700720342
 30
0.0
 11
273.4310492189932
 21
191.5812048217464
 31
0.0
  0
LINE
  5
149
330
42
100
AcDbEntity
  8
Specialized_Fills
  6
Continuous
100
AcDbLine
 10
269.0127840690424
 20
317.2381283817639
 30
0.0
 11
273.4310492189932
 21
318.4137631314762
 31
0.0
  0
LINE
  5
14A
330
42
100
AcDbEntity
  8
Specialized_Fills
  6
Continuous
100
AcDbLine
 10
273.4315470549345
 20
64.74814033667859
 30
0.0
 11
270.9773022307989
 21
68.93945651935965
 31
0.0
  0
LINE
  5
14B
330
42
100
AcDbEntity
  8
Specialized_Fills
  6
Continuous
100
AcDbLine
 10
273.4315470549345
 20
191.5806986464082
 30
0.0
 11
270.9773022307989
 21
195.7720148290893
 31
0.0
  0
LINE
  5
14C
330
42
100
AcDbEntity
  8
Specialized_Fills
  6
Continuous
100
AcDbLine
 10
273.4315470549345
 20
318.4132569561379
 30
0.0
 11
270.9773022307989
 21
322.604573138819
 31
0.0
  0
LINE
  5
14D
330
42
100
AcDbEntity
  8
Specialized_Fills
  6
Continuous
100
AcDbLine
 10
196.5838914619031
 20
115.8585085562282
 30
0.0
 11
201.9193035993346
 21
117.9065813878796
 31
0.0
  0
LINE
  5
14E
330
42
100
AcDbEntity
  8
Specialized_Fills
  6
Continuous
100
AcDbLine
 10
307.5652342977772
 20
115.8585085562282
 30
0.0
 11
312.2789738735523
 21
117.6679436498914
 31
0.0
  0
LINE
  5
14F
330
42
100
AcDbEntity
  8
Specialized_Fills
  6
Continuous
100
AcDbLine
 10
196.5838914619031
 20
242.691066865958
 30
0.0
 11
201.9193035993346
 21
244.7391396976093
 31
0.0
  0
LINE
  5
150
330
42
100
AcDbEntity
  8
Specialized_Fills
  6
Continuous
100
AcDbLine
 10
307.5652342977772
 20
242.691066865958
 30
0.0
 11
312.9006464352088
 21
244.7391396976093
 31
0.0
  0
LINE
  5
151
330
42
100
AcDbEntity
  8
Specialized_Fills
  6
Continuous
100
AcDbLine
 10
196.5838716976789
 20
115.8584649570882
 30
0.0
 11
200.3742314794005
 21
113.30183500242
 31
0.0
  0
LINE
  5
152
330
42
100
AcDbEntity
  8
Specialized_Fills
  6
Continuous
100
AcDbLine
 10
307.565214533553
 20
115.8584649570882
 30
0.0
 11
311.3555743152747
 21
113.30183500242
 31
0.0
  0
LINE
  5
153
330
42
100
AcDbEntity
  8
Specialized_Fills
  6
Continuous
100
AcDbLine
 10
196.5838716976789
 20
242.691023266818
 30
0.0
 11
200.3742314794005
 21
240.1343933121497
 31
0.0
  0
LINE
  5
154
330
42
100
AcDbEntity
  8
Specialized_Fills
  6
Continuous
100
AcDbLine
 10
307.565214533553
 20
242.691023266818
 30
0.0
 11
311.3555743152747
 21
240.1343933121497
 31
0.0
  0
LINE
  5
155
330
42
100
AcDbEntity
  8
Specialized_Fills
  6
Continuous
100
AcDbLine
 10
200.3742430437623
 20
113.3018618912288
 30
0.0
 11
201.9192981592657
 21
117.9065609791233
 31
0.0
  0
LINE
  5
156
330
42
100
AcDbEntity
  8
Specialized_Fills
  6
Continuous
100
AcDbLine
 10
311.3555858796364
 20
113.3018618912288
 30
0.0
 11
312.2789738735523
 21
116.0538179934369
 31
0.0
  0
LINE
  5
157
330
42
100
AcDbEntity
  8
Specialized_Fills
  6
Continuous
100
AcDbLine
 10
200.3742430437623
 20
240.1344202009584
 30
0.0
 11
201.9192981592657
 21
244.739119288853
 31
0.0
  0
LINE
  5
158
330
42
100
AcDbEntity
  8
Specialized_Fills
  6
Continuous
100
AcDbLine
 10
311.3555858796364
 20
240.1344202009584
 30
0.0
 11
312.9006409951399
 21
244.739119288853
 31
0.0
  0
LINE
  5
159
330
42
100
AcDbEntity
  8
Specialized_Fills
  6
Continuous
100
AcDbLine
 10
197.2832563046317
 20
143.6105377725467
 30
0.0
 11
202.6186684420633
 21
145.6586106041981
 31
0.0
  0
LINE
  5
15A
330
42
100
AcDbEntity
  8
Specialized_Fills
  6
Continuous
100
AcDbLine
 10
308.2645991405059
 20
143.6105377725467
 30
0.0
 11
312.2789738735523
 21
145.1515118557181
 31
0.0
  0
LINE
  5
15B
330
42
100
AcDbEntity
  8
Specialized_Fills
  6
Continuous
100
AcDbLine
 10
197.2832563046317
 20
270.4430960822764
 30
0.0
 11
202.6186684420633
 21
272.4911689139278
 31
0.0
  0
LINE
  5
15C
330
42
100
AcDbEntity
  8
Specialized_Fills
  6
Continuous
100
AcDbLine
 10
308.2645991405059
 20
270.4430960822764
 30
0.0
 11
313.6000112779375
 21
272.4911689139278
 31
0.0
  0
LINE
  5
15D
330
42
100
AcDbEntity
  8
Specialized_Fills
  6
Continuous
100
AcDbLine
 10
197.2832365404076
 20
143.6104941734067
 30
0.0
 11
201.0735963221292
 21
141.0538642187385
 31
0.0
  0
LINE
  5
15E
330
42
100
AcDbEntity
  8
Specialized_Fills
  6
Continuous
100
AcDbLine
 10
308.2645793762817
 20
143.6104941734067
 30
0.0
 11
312.0549391580034
 21
141.0538642187385
 31
0.0
  0
LINE
  5
15F
330
42
100
AcDbEntity
  8
Specialized_Fills
  6
Continuous
100
AcDbLine
 10
197.2832365404076
 20
270.4430524831364
 30
0.0
 11
201.0735963221292
 21
267.8864225284682
 31
0.0
  0
LINE
  5
160
330
42
100
AcDbEntity
  8
Specialized_Fills
  6
Continuous
100
AcDbLine
 10
308.2645793762817
 20
270.4430524831364
 30
0.0
 11
312.0549391580034
 21
267.8864225284682
 31
0.0
  0
LINE
  5
161
330
42
100
AcDbEntity
  8
Specialized_Fills
  6
Continuous
100
AcDbLine
 10
201.073607886491
 20
141.0538911075472
 30
0.0
 11
202.6186630019944
 21
145.6585901954418
 31
0.0
  0
LINE
  5
162
330
42
100
AcDbEntity
  8
Specialized_Fills
  6
Continuous
100
AcDbLine
 10
312.0549507223651
 20
141.0538911075472
 30
0.0
 11
312.2789738735523
 21
141.7215431476512
 31
0.0
  0
LINE
  5
163
330
42
100
AcDbEntity
  8
Specialized_Fills
  6
Continuous
100
AcDbLine
 10
201.073607886491
 20
267.8864494172769
 30
0.0
 11
202.6186630019944
 21
272.4911485051714
 31
0.0
  0
LINE
  5
164
330
42
100
AcDbEntity
  8
Specialized_Fills
  6
Continuous
100
AcDbLine
 10
312.0549507223651
 20
267.8864494172769
 30
0.0
 11
313.6000058378686
 21
272.4911485051714
 31
0.0
  0
LINE
  5
165
330
42
100
AcDbEntity
  8
Specialized_Fills
  6
Continuous
100
AcDbLine
 10
241.0050920584518
 20
87.64053189632127
 30
0.0
 11
246.3405041958833
 21
89.68860472797265
 31
0.0
  0
LINE
  5
166
330
42
100
AcDbEntity
  8
Specialized_Fills
  6
Continuous
100
AcDbLine
 10
241.0050920584518
 20
214.4730902060509
 30
0.0
 11
246.3405041958833
 21
216.5211630377023
 31
0.0
  0
LINE
  5
167
330
42
100
AcDbEntity
  8
Specialized_Fills
  6
Continuous
100
AcDbLine
 10
241.0050722942276
 20
87.64048829718131
 30
0.0
 11
244.7954320759493
 21
85.08385834251305
 31
0.0
  0
LINE
  5
168
330
42
100
AcDbEntity
  8
Specialized_Fills
  6
Continuous
100
AcDbLine
 10
241.0050722942276
 20
214.4730466069109
 30
0.0
 11
244.7954320759493
 21
211.9164166522427
 31
0.0
  0
LINE
  5
169
330
42
100
AcDbEntity
  8
Specialized_Fills
  6
Continuous
100
AcDbLine
 10
244.7954436403111
 20
85.08388523132181
 30
0.0
 11
246.3404987558144
 21
89.68858431921637
 31
0.0
  0
LINE
  5
16A
330
42
100
AcDbEntity
  8
Specialized_Fills
  6
Continuous
100
AcDbLine
 10
244.7954436403111
 20
211.9164435410515
 30
0.0
 11
246.3404987558144
 21
216.521142628946
 31
0.0
  0
LINE
  5
16B
330
42
100
AcDbEntity
  8
Specialized_Fills
  6
Continuous
100
AcDbLine
 10
248.9726812206469
 20
57.88599486021578
 30
0.0
 11
254.3080933580785
 21
59.93406769186719
 31
0.0
  0
LINE
  5
16C
330
42
100
AcDbEntity
  8
Specialized_Fills
  6
Continuous
100
AcDbLine
 10
248.9726812206469
 20
184.7185531699454
 30
0.0
 11
254.3080933580785
 21
186.7666260015968
 31
0.0
  0
LINE
  5
16D
330
42
100
AcDbEntity
  8
Specialized_Fills
  6
Continuous
100
AcDbLine
 10
248.972681220647
 20
311.5511114796751
 30
0.0
 11
254.3080933580785
 21
313.5991843113266
 31
0.0
  0
LINE
  5
16E
330
42
100
AcDbEntity
  8
Specialized_Fills
  6
Continuous
100
AcDbLine
 10
248.9726812206469
 20
57.88599486021579
 30
0.0
 11
252.7630410023686
 21
55.32936490554754
 31
0.0
  0
LINE
  5
16F
330
42
100
AcDbEntity
  8
Specialized_Fills
  6
Continuous
100
AcDbLine
 10
248.9726812206469
 20
184.7185531699454
 30
0.0
 11
252.7630410023686
 21
182.1619232152772
 31
0.0
  0
LINE
  5
170
330
42
100
AcDbEntity
  8
Specialized_Fills
  6
Continuous
100
AcDbLine
 10
248.972681220647
 20
311.5511114796751
 30
0.0
 11
252.7630410023686
 21
308.9944815250068
 31
0.0
  0
LINE
  5
171
330
42
100
AcDbEntity
  8
Specialized_Fills
  6
Continuous
100
AcDbLine
 10
252.7630312206469
 20
55.32936486021579
 30
0.0
 11
254.3080863361503
 21
59.93406394811035
 31
0.0
  0
LINE
  5
172
330
42
100
AcDbEntity
  8
Specialized_Fills
  6
Continuous
100
AcDbLine
 10
252.7630312206469
 20
182.1619231699455
 30
0.0
 11
254.3080863361503
 21
186.76662225784
 31
0.0
  0
LINE
  5
173
330
42
100
AcDbEntity
  8
Specialized_Fills
  6
Continuous
100
AcDbLine
 10
252.763031220647
 20
308.9944814796751
 30
0.0
 11
254.3080863361503
 21
313.5991805675697
 31
0.0
  0
ENDBLK
  5
44
330
42
100
AcDbEntity
  8
0
100
AcDbBlockEnd
  0
BLOCK
  5
1A7
330
1A6
100
AcDbEntity
  8
0
100
AcDbBlockBegin
  2
Fill_2
 70
     0
 10
0.0
 20
0.0
 30
0.0
  3
Fill_2
  1

  0
LINE
  5
45E
102
{ACAD_REACTORS
330
470
102
}
330
1A6
100
AcDbEntity
  8
Specialized_Fills
  6
Continuous
100
AcDbLine
 10
157.131962523545
 20
501.6188788397806
 30
0.0
 11
157.1319625235467
 21
286.9981194232878
 31
0.0
  0
LINE
  5
45F
102
{ACAD_REACTORS
330
470
102
}
330
1A6
100
AcDbEntity
  8
Specialized_Fills
  6
Continuous
100
AcDbLine
 10
157.1319625235467
 20
286.9981194232878
 30
0.0
 11
207.1319625235386
 21
286.9981194232878
 31
0.0
  0
LINE
  5
460
102
{ACAD_REACTORS
330
470
102
}
330
1A6
100
AcDbEntity
  8
Specialized_Fills
  6
Continuous
100
AcDbLine
 10
207.1319625235386
 20
286.9981194232878
 30
0.0
 11
207.1319625235368
 21
501.6188788397806
 31
0.0
  0
LINE
  5
461
102
{ACAD_REACTORS
330
470
102
}
330
1A6
100
AcDbEntity
  8
Specialized_Fills
  6
Continuous
100
AcDbLine
 10
207.1319625235368
 20
501.6188788397806
 30
0.0
 11
157.131962523545
 21
501.6188788397806
 31
0.0
  0
HATCH
  5
470
330
1A6
100
AcDbEntity
  8
0
 62
   251
420
  6250335
100
AcDbHatch
 10
0.0
 20
0.0
 30
0.0
210
0.0
220
0.0
230
1.0
  2
HPCRC1E0
 70
     0
 71
     1
 91
        1
 92
        7
 72
     0
 73
     1
 93
        4
 10
207.1319625235368
 20
501.6188788397806
 10
157.131962523545
 20
501.6188788397806
 10
157.1319625235467
 20
286.9981194232878
 10
207.1319625235386
 20
286.9981194232878
 97
        4
330
461
330
45E
330
45F
330
460
 75
     1
 76
     2
 52
0.0
 41
0.12
 77
     0
 78
    78
 53
82.8749847
 43
0.0
 44
4.2
 45
-0.0000004961129005
 46
8.399999852931037
 79
     2
 49
0.9674709324
 49
-66.75549316799998
 53
75.96376039999999
 43
0.12
 44
5.16
 45
-0.000000348785556
 46
8.399999709154096
 79
     2
 49
0.4947726600000001
 49
-34.139315184
 53
63.43495179999999
 43
0.24
 44
5.639999999999999
 45
-0.0000000286036308
 46
8.400000041591663
 79
     2
 49
1.073312639999999
 49
-17.70965881199999
 53
45.0
 43
0.72
 44
6.599999999999999
 45
0.0000000000000009
 46
8.400000002875099
 79
     2
 49
1.527350688
 49
-10.352043456
 53
33.6900673
 43
1.799999999999999
 44
7.679999999999999
 45
0.0000001596020127
 46
8.399999824188462
 79
     2
 49
0.4326661440000001
 49
-29.85396423600001
 53
33.6900673
 43
10.2
 44
7.679999999999999
 45
0.0000001596020127
 46
8.399999824188462
 79
     2
 49
0.4326661440000001
 49
-29.85396423600001
 53
33.6900673
 43
18.6
 44
7.679999999999999
 45
0.0000001596020127
 46
8.399999824188462
 79
     2
 49
0.4326661440000001
 49
-29.85396423600001
 53
26.5650501
 43
2.16
 44
7.919999999999999
 45
-0.0000000460215162
 46
8.400000143556356
 79
     2
 49
0.26832816
 49
-18.514643556
 53
26.5650501
 43
10.56
 44
7.919999999999999
 45
-0.0000000460215162
 46
8.400000143556356
 79
     2
 49
0.26832816
 49
-18.514643556
 53
18.434948
 43
2.399999999999999
 44
8.039999999999999
 45
0.0000002686412607
 46
8.399999851558131
 79
     2
 49
0.3794733239999999
 49
-26.183659056
 53
18.434948
 43
10.8
 44
8.039999999999999
 45
0.0000002686412607
 46
8.399999851558131
 79
     2
 49
0.3794733239999999
 49
-26.183659056
 53
18.434948
 43
19.2
 44
8.039999999999999
 45
0.0000002686412607
 46
8.399999851558131
 79
     2
 49
0.3794733239999999
 49
-26.183659056
 53
26.5650501
 43
2.759999999999999
 44
8.16
 45
-0.0000000460215162
 46
8.400000143556356
 79
     2
 49
0.26832816
 49
-18.514643556
 53
26.5650501
 43
11.16
 44
8.16
 45
-0.0000000460215162
 46
8.400000143556356
 79
     2
 49
0.26832816
 49
-18.514643556
 53
11.3099327
 43
3.0
 44
8.279999999999999
 45
-0.0000000543109101
 46
8.400000069389928
 79
     2
 49
0.6118823435999998
 49
-42.21988036799999
 53
11.3099327
 43
11.4
 44
8.279999999999999
 45
-0.0000000543109101
 46
8.400000069389928
 79
     2
 49
0.6118823435999998
 49
-42.21988036799999
 53
11.3099327
 43
19.8
 44
8.279999999999999
 45
-0.0000000543109101
 46
8.400000069389928
 79
     2
 49
0.6118823435999998
 49
-42.21988036799999
 53
11.3099327
 43
28.2
 44
8.279999999999999
 45
-0.0000000543109101
 46
8.400000069389928
 79
     2
 49
0.6118823435999998
 49
-42.21988036799999
 53
11.3099327
 43
36.6
 44
8.279999999999999
 45
-0.0000000543109101
 46
8.400000069389928
 79
     2
 49
0.6118823435999998
 49
-42.21988036799999
 53
0.0
 43
3.599999999999999
 44
8.4
 45
0.0
 46
8.4
 79
     2
 49
1.199999999999999
 49
-7.199999999999999
 53
348.6900673
 43
4.799999999999999
 44
8.4
 45
0.0000000543109101
 46
8.400000069389928
 79
     2
 49
0.6118823435999998
 49
-42.21988036799999
 53
348.6900673
 43
13.2
 44
8.4
 45
0.0000000543109101
 46
8.400000069389928
 79
     2
 49
0.6118823435999998
 49
-42.21988036799999
 53
348.6900673
 43
21.6
 44
8.4
 45
0.0000000543109101
 46
8.400000069389928
 79
     2
 49
0.6118823435999998
 49
-42.21988036799999
 53
348.6900673
 43
30.0
 44
8.4
 45
0.0000000543109101
 46
8.400000069389928
 79
     2
 49
0.6118823435999998
 49
-42.21988036799999
 53
348.6900673
 43
38.4
 44
8.4
 45
0.0000000543109101
 46
8.400000069389928
 79
     2
 49
0.6118823435999998
 49
-42.21988036799999
 53
333.4349499
 43
5.399999999999999
 44
8.279999999999999
 45
0.0000000460215162
 46
8.400000143556356
 79
     2
 49
0.2683281599999999
 49
-18.514643556
 53
333.4349499
 43
13.8
 44
8.279999999999999
 45
0.0000000460215162
 46
8.400000143556356
 79
     2
 49
0.2683281599999999
 49
-18.514643556
 53
341.565052
 43
5.639999999999999
 44
8.16
 45
-0.0000002686412607
 46
8.399999851558131
 79
     2
 49
0.379473324
 49
-26.183659056
 53
341.565052
 43
14.04
 44
8.16
 45
-0.0000002686412607
 46
8.399999851558131
 79
     2
 49
0.379473324
 49
-26.183659056
 53
341.565052
 43
22.44
 44
8.16
 45
-0.0000002686412607
 46
8.399999851558131
 79
     2
 49
0.379473324
 49
-26.183659056
 53
333.4349499
 43
6.0
 44
8.039999999999999
 45
0.0000000460215162
 46
8.400000143556356
 79
     2
 49
0.2683281599999999
 49
-18.514643556
 53
333.4349499
 43
14.4
 44
8.039999999999999
 45
0.0000000460215162
 46
8.400000143556356
 79
     2
 49
0.2683281599999999
 49
-18.514643556
 53
326.3099327
 43
6.24
 44
7.919999999999999
 45
-0.0000001596020127
 46
8.399999824188462
 79
     2
 49
0.4326661440000001
 49
-29.85396423600001
 53
326.3099327
 43
14.64
 44
7.919999999999999
 45
-0.0000001596020127
 46
8.399999824188462
 79
     2
 49
0.4326661440000001
 49
-29.85396423600001
 53
326.3099327
 43
23.04
 44
7.919999999999999
 45
-0.0000001596020127
 46
8.399999824188462
 79
     2
 49
0.4326661440000001
 49
-29.85396423600001
 53
315.0
 43
6.599999999999999
 44
7.679999999999999
 45
-0.0000000000000009
 46
8.400000002875099
 79
     2
 49
1.527350688
 49
-10.352043456
 53
296.5650482
 43
7.679999999999999
 44
6.599999999999999
 45
0.0000000286036308
 46
8.400000041591663
 79
     2
 49
1.073312639999999
 49
-17.70965881199999
 53
284.0362396
 43
8.16
 44
5.639999999999999
 45
0.000000348785556
 46
8.399999709154096
 79
     2
 49
0.4947726600000001
 49
-34.139315184
 53
277.1250153
 43
8.279999999999999
 44
5.16
 45
0.0000004961129005
 46
8.399999852931037
 79
     2
 49
0.9674709324
 49
-66.75549316799998
 53
277.1250153
 43
0.0
 44
4.2
 45
0.0000004961129005
 46
8.399999852931037
 79
     2
 49
0.9674709324
 49
-66.75549316799998
 53
284.0362396
 43
0.12
 44
3.239999999999999
 45
0.000000348785556
 46
8.399999709154096
 79
     2
 49
0.4947726600000001
 49
-34.139315184
 53
296.5650482
 43
0.24
 44
2.759999999999999
 45
0.0000000286036308
 46
8.400000041591663
 79
     2
 49
1.073312639999999
 49
-17.70965881199999
 53
315.0
 43
0.72
 44
1.799999999999999
 45
-0.0000000000000009
 46
8.400000002875099
 79
     2
 49
1.527350688
 49
-10.352043456
 53
326.3099327
 43
1.799999999999999
 44
0.72
 45
-0.0000001596020127
 46
8.399999824188462
 79
     2
 49
0.4326661440000001
 49
-29.85396423600001
 53
326.3099327
 43
10.2
 44
0.72
 45
-0.0000001596020127
 46
8.399999824188462
 79
     2
 49
0.4326661440000001
 49
-29.85396423600001
 53
326.3099327
 43
18.6
 44
0.72
 45
-0.0000001596020127
 46
8.399999824188462
 79
     2
 49
0.4326661440000001
 49
-29.85396423600001
 53
333.4349499
 43
2.16
 44
0.48
 45
0.0000000460215162
 46
8.400000143556356
 79
     2
 49
0.2683281599999999
 49
-18.514643556
 53
333.4349499
 43
10.56
 44
0.48
 45
0.0000000460215162
 46
8.400000143556356
 79
     2
 49
0.2683281599999999
 49
-18.514643556
 53
341.565052
 43
2.399999999999999
 44
0.36
 45
-0.0000002686412607
 46
8.399999851558131
 79
     2
 49
0.379473324
 49
-26.183659056
 53
341.565052
 43
10.8
 44
0.36
 45
-0.0000002686412607
 46
8.399999851558131
 79
     2
 49
0.379473324
 49
-26.183659056
 53
341.565052
 43
19.2
 44
0.36
 45
-0.0000002686412607
 46
8.399999851558131
 79
     2
 49
0.379473324
 49
-26.183659056
 53
333.4349499
 43
2.759999999999999
 44
0.24
 45
0.0000000460215162
 46
8.400000143556356
 79
     2
 49
0.2683281599999999
 49
-18.514643556
 53
333.4349499
 43
11.16
 44
0.24
 45
0.0000000460215162
 46
8.400000143556356
 79
     2
 49
0.2683281599999999
 49
-18.514643556
 53
348.6900673
 43
3.0
 44
0.12
 45
0.0000000543109101
 46
8.400000069389928
 79
     2
 49
0.6118823435999998
 49
-42.21988036799999
 53
348.6900673
 43
11.4
 44
0.12
 45
0.0000000543109101
 46
8.400000069389928
 79
     2
 49
0.6118823435999998
 49
-42.21988036799999
 53
348.6900673
 43
19.8
 44
0.12
 45
0.0000000543109101
 46
8.400000069389928
 79
     2
 49
0.6118823435999998
 49
-42.21988036799999
 53
348.6900673
 43
28.2
 44
0.12
 45
0.0000000543109101
 46
8.400000069389928
 79
     2
 49
0.6118823435999998
 49
-42.21988036799999
 53
348.6900673
 43
36.6
 44
0.12
 45
0.0000000543109101
 46
8.400000069389928
 79
     2
 49
0.6118823435999998
 49
-42.21988036799999
 53
0.0
 43
3.599999999999999
 44
0.0
 45
0.0
 46
8.4
 79
     2
 49
1.199999999999999
 49
-7.199999999999999
 53
11.3099327
 43
4.799999999999999
 44
0.0
 45
-0.0000000543109101
 46
8.400000069389928
 79
     2
 49
0.6118823435999998
 49
-42.21988036799999
 53
11.3099327
 43
13.2
 44
0.0
 45
-0.0000000543109101
 46
8.400000069389928
 79
     2
 49
0.6118823435999998
 49
-42.21988036799999
 53
11.3099327
 43
21.6
 44
0.0
 45
-0.0000000543109101
 46
8.400000069389928
 79
     2
 49
0.6118823435999998
 49
-42.21988036799999
 53
11.3099327
 43
30.0
 44
0.0
 45
-0.0000000543109101
 46
8.400000069389928
 79
     2
 49
0.6118823435999998
 49
-42.21988036799999
 53
11.3099327
 43
38.4
 44
0.0
 45
-0.0000000543109101
 46
8.400000069389928
 79
     2
 49
0.6118823435999998
 49
-42.21988036799999
 53
26.5650501
 43
5.399999999999999
 44
0.12
 45
-0.0000000460215162
 46
8.400000143556356
 79
     2
 49
0.26832816
 49
-18.514643556
 53
26.5650501
 43
13.8
 44
0.12
 45
-0.0000000460215162
 46
8.400000143556356
 79
     2
 49
0.26832816
 49
-18.514643556
 53
18.434948
 43
5.639999999999999
 44
0.24
 45
0.0000002686412607
 46
8.399999851558131
 79
     2
 49
0.3794733239999999
 49
-26.183659056
 53
18.434948
 43
14.04
 44
0.24
 45
0.0000002686412607
 46
8.399999851558131
 79
     2
 49
0.3794733239999999
 49
-26.183659056
 53
18.434948
 43
22.44
 44
0.24
 45
0.0000002686412607
 46
8.399999851558131
 79
     2
 49
0.3794733239999999
 49
-26.183659056
 53
26.5650501
 43
6.0
 44
0.36
 45
-0.0000000460215162
 46
8.400000143556356
 79
     2
 49
0.26832816
 49
-18.514643556
 53
26.5650501
 43
14.4
 44
0.36
 45
-0.0000000460215162
 46
8.400000143556356
 79
     2
 49
0.26832816
 49
-18.514643556
 53
33.6900673
 43
6.24
 44
0.48
 45
0.0000001596020127
 46
8.399999824188462
 79
     2
 49
0.4326661440000001
 49
-29.85396423600001
 53
33.6900673
 43
14.64
 44
0.48
 45
0.0000001596020127
 46
8.399999824188462
 79
     2
 49
0.4326661440000001
 49
-29.85396423600001
 53
33.6900673
 43
23.04
 44
0.48
 45
0.0000001596020127
 46
8.399999824188462
 79
     2
 49
0.4326661440000001
 49
-29.85396423600001
 53
45.0
 43
6.599999999999999
 44
0.72
 45
0.0000000000000009
 46
8.400000002875099
 79
     2
 49
1.527350688
 49
-10.352043456
 53
63.43495179999999
 43
7.679999999999999
 44
1.799999999999999
 45
-0.0000000286036308
 46
8.400000041591663
 79
     2
 49
1.073312639999999
 49
-17.70965881199999
 53
75.96376039999999
 43
8.16
 44
2.759999999999999
 45
-0.000000348785556
 46
8.399999709154096
 79
     2
 49
0.4947726600000001
 49
-34.139315184
 53
82.8749847
 43
8.279999999999999
 44
3.239999999999999
 45
-0.0000004961129005
 46
8.399999852931037
 79
     2
 49
0.9674709324
 49
-66.75549316799998
 47
0.3236429702431762
 98
        1
 10
176.3986571216778
 20
463.083012405147
1001
GradientColor1ACI
1070
     5
1001
GradientColor2ACI
1070
     2
1001
ACAD
1010
0.0
1020
0.0
1030
0.0
  0
ENDBLK
  5
1A8
330
1A6
100
AcDbEntity
  8
0
100
AcDbBlockEnd
  0
BLOCK
  5
37E
330
37D
100
AcDbEntity
  8
0
100
AcDbBlockBegin
  2
Line_1
 70
     0
 10
134.1024312981069
 20
280.1261558667423
 30
0.0
  3
Line_1
  1

  0
LINE
  5
380
330
37D
100
AcDbEntity
  8
Specialized_Text
  6
Continuous
100
AcDbLine
 10
134.1024312981069
 20
280.1261558667423
 30
0.0
 11
134.1024312981069
 21
219.5444747479613
 31
0.0
  0
LINE
  5
382
330
37D
100
AcDbEntity
  8
Specialized_Text
  6
Continuous
 62
    30
420
 16742400
370
    20
100
AcDbLine
 10
136.1024312981069
 20
278.1261558667423
 30
0.0
 11
132.1024312981069
 21
282.1261558667423
 31
0.0
  0
ENDBLK
  5
37F
330
37D
100
AcDbEntity
  8
0
100
AcDbBlockEnd
  0
BLOCK
  5
387
330
386
100
AcDbEntity
  8
0
100
AcDbBlockBegin
  2
Line_2
 70
     0
 10
134.1024312981069
 20
219.5444747479613
 30
0.0
  3
Line_2
  1

  0
LINE
  5
4CA
330
386
100
AcDbEntity
  8
Specialized_Text
  6
Continuous
 62
   251
420
  6250335
100
AcDbLine
 10
134.1024312981069
 20
219.5444747479613
 30
0.0
 11
134.1024312981069
 21
159.2598237143384
 31
0.0
  0
LINE
  5
4CB
330
386
100
AcDbEntity
  8
Specialized_Text
  6
Continuous
 62
   251
420
  6250335
370
    20
100
AcDbLine
 10
134.1024312981069
 20
151.7957237143384
 30
0.0
 11
132.1024312981069
 21
159.2598237143384
 31
0.0
  0
LINE
  5
4CC
330
386
100
AcDbEntity
  8
Specialized_Text
  6
Continuous
 62
   251
420
  6250335
370
    20
100
AcDbLine
 10
134.1024312981069
 20
151.7957237143384
 30
0.0
 11
136.1024312981069
 21
159.2598237143384
 31
0.0
  0
LINE
  5
4CD
330
386
100
AcDbEntity
  8
Specialized_Text
  6
Continuous
 62
   251
420
  6250335
370
    20
100
AcDbLine
 10
132.1024312981069
 20
159.2598237143384
 30
0.0
 11
136.1024312981069
 21
159.2598237143384
 31
0.0
  0
HATCH
  5
4CE
330
386
100
AcDbEntity
  8
Specialized_Text
  6
Continuous
 62
   251
420
  6250335
370
    20
100
AcDbHatch
 10
0.0
 20
0.0
 30
0.0
210
0.0
220
0.0
230
1.0
  2
SOLID
 70
     1
 71
     0
 91
        1
 92
        2
 72
     0
 73
     1
 93
        3
 10
134.1024312981069
 20
151.7957237143384
 10
132.1024312981069
 20
159.2598237143384
 10
136.1024312981069
 20
159.2598237143384
 97
        0
 75
     0
 76
     1
 98
        0
450
        0
451
        0
460
0.0
461
0.0
452
        1
462
0.0
453
        0
470

  0
ENDBLK
  5
388
330
386
100
AcDbEntity
  8
0
100
AcDbBlockEnd
  0
BLOCK
  5
3A7
330
3A6
100
AcDbEntity
  8
0
100
AcDbBlockBegin
  2
*D6
 70
     1
 10
0.0
 20
0.0
 30
0.0
  3
*D6
  1

  0
LINE
  5
868
330
3A6
100
AcDbEntity
  8
Specialized_Text
  6
Continuous
 62
     7
440
 16777216
370
    -2
100
AcDbLine
 10
236.2621791618945
 20
280.1261575474035
 30
0.0
 11
244.058977502883
 21
280.1261575474035
 31
0.0
  0
LINE
  5
869
330
3A6
100
AcDbEntity
  8
Specialized_Text
  6
Continuous
 62
     7
440
 16777216
370
    -2
100
AcDbLine
 10
242.5487041830809
 20
337.237829791253
 30
0.0
 11
243.698977502883
 21
337.237829791253
 31
0.0
  0
LINE
  5
86A
330
3A6
100
AcDbEntity
  8
Specialized_Text
  6
Continuous
 62
     7
440
 16777216
370
    -2
100
AcDbLine
 10
243.8789775028829
 20
283.9261575474035
 30
0.0
 11
243.878977502883
 21
333.437829791253
 31
0.0
  0
INSERT
  5
86B
330
3A6
100
AcDbEntity
  8
Specialized_Text
  6
Continuous
 62
     7
440
 16777216
370
    -2
100
AcDbBlockReference
  2
ARROWHEAD_6
 10
243.8789775028829
 20
280.1261575474035
 30
0.0
 41
3.799999999999999
 42
3.799999999999999
 43
3.799999999999999
 50
270.0
  0
INSERT
  5
86C
330
3A6
100
AcDbEntity
  8
Specialized_Text
  6
Continuous
 62
     7
440
 16777216
370
    -2
100
AcDbBlockReference
  2
ARROWHEAD_6
 10
243.878977502883
 20
337.237829791253
 30
0.0
 41
3.799999999999999
 42
3.799999999999999
 43
3.799999999999999
 50
90.0
  0
MTEXT
  5
86D
330
3A6
100
AcDbEntity
  8
Specialized_Text
  6
Continuous
 62
     7
440
 16777216
100
AcDbMText
 10
238.8134931918324
 20
308.6819936693284
 30
0.0
 40
6.0
 41
0.0
 46
0.0
 71
     5
 72
     1
  1
\A1;50mm min.
  7
GENERATED_STYLE_1
 11
0.0000000000000001
 21
1.0
 31
0.0
 73
     1
 44
1.0
  0
POINT
  5
86E
330
3A6
100
AcDbEntity
  8
Defpoints
  6
Continuous
 62
     0
440
 16777216
100
AcDbPoint
 10
228.4595284485448
 20
280.1261575474035
 30
0.0
  0
POINT
  5
86F
330
3A6
100
AcDbEntity
  8
Defpoints
  6
Continuous
 62
     0
440
 16777216
100
AcDbPoint
 10
250.3513548964307
 20
337.237829791253
 30
0.0
  0
POINT
  5
870
330
3A6
100
AcDbEntity
  8
Defpoints
  6
Continuous
 62
     0
440
 16777216
100
AcDbPoint
 10
243.878977502883
 20
337.237829791253
 30
0.0
  0
ENDBLK
  5
3A8
330
3A6
100
AcDbEntity
  8
0
100
AcDbBlockEnd
  0
BLOCK
  5
3B7
330
3B6
100
AcDbEntity
  8
0
100
AcDbBlockBegin
  2
ARROWHEAD_6
 70
     0
 10
0.0
 20
0.0
 30
0.0
  3
ARROWHEAD_6
  1

  0
LINE
  5
3B9
330
3B6
100
AcDbEntity
  8
0
  6
Continuous
 62
     0
370
     0
100
AcDbLine
 10
-0.5
 20
-0.5
 30
0.0
 11
0.5
 21
0.5
 31
0.0
  0
LINE
  5
3BA
330
3B6
100
AcDbEntity
  8
0
  6
Continuous
 62
     0
370
     0
100
AcDbLine
 10
0.0
 20
0.0
 30
0.0
 11
-1.0
 21
0.0
 31
0.0
  0
ENDBLK
  5
3B8
330
3B6
100
AcDbEntity
  8
0
100
AcDbBlockEnd
  0
BLOCK
  5
3BF
330
3BE
100
AcDbEntity
  8
0
100
AcDbBlockBegin
  2
ARROWHEAD_5
 70
     0
 10
0.0
 20
0.0
 30
0.0
  3
ARROWHEAD_5
  1

  0
SOLID
  5
3C1
330
3BE
100
AcDbEntity
  8
0
  6
Continuous
 62
     0
370
     0
100
AcDbTrace
 10
-1.0
 20
0.2679
 30
0.0
 11
0.0
 21
0.0
 31
0.0
 12
-1.0
 22
-0.2679
 32
0.0
 13
-1.0
 23
0.2679
 33
0.0
  0
LINE
  5
3C2
330
3BE
100
AcDbEntity
  8
0
  6
Continuous
 62
     0
370
     0
100
AcDbLine
 10
0.0
 20
0.0
 30
0.0
 11
-1.0
 21
0.0
 31
0.0
  0
ENDBLK
  5
3C0
330
3BE
100
AcDbEntity
  8
0
100
AcDbBlockEnd
  0
BLOCK
  5
3E1
330
3E0
100
AcDbEntity
  8
0
100
AcDbBlockBegin
  2
06E Wall _ Floor_ REBATED CONCR_STORY_MARKER
 70
     0
 10
0.0
 20
0.0
 30
0.0
  3
06E Wall _ Floor_ REBATED CONCR_STORY_MARKER
  1

  0
ENDBLK
  5
3E2
330
3E0
100
AcDbEntity
  8
0
100
AcDbBlockEnd
  0
ENDSEC
  0
SECTION
  2
ENTITIES
  0
HATCH
  5
198
330
1F
100
AcDbEntity
  8
Specialized_Fills
  6
Continuous
 62
   254
420
 14671839
370
    13
100
AcDbHatch
 10
0.0
 20
0.0
 30
0.0
210
0.0
220
0.0
230
1.0
  2
SOLID
 70
     1
 71
     1
 91
        1
 92
        2
 72
     0
 73
     1
 93
        4
 10
318.4595275208046
 20
384.0792857600985
 10
228.4595275208012
 20
384.0792858601003
 10
228.4595275208012
 20
339.0792858601057
 10
318.4595275208046
 20
339.0792857601039
 97
        1
330
199
 75
     0
 76
     1
 98
        0
450
        0
451
        0
460
0.0
461
0.0
452
        1
462
0.0
453
        0
470

  0
LWPOLYLINE
  5
199
102
{ACAD_REACTORS
330
198
102
}
330
1F
100
AcDbEntity
  8
Specialized_Fills
  6
Continuous
100
AcDbPolyline
 90
        4
 70
   129
 43
0.0
 10
318.4595275208046
 20
384.0792857600985
 10
228.4595275208012
 20
384.0792858601003
 10
228.4595275208012
 20
339.0792858601057
 10
318.4595275208046
 20
339.0792857601039
  0
HATCH
  5
19A
330
1F
100
AcDbEntity
  8
Specialized_Fills
  6
Continuous
100
AcDbHatch
 10
0.0
 20
0.0
 30
0.0
210
0.0
220
0.0
230
1.0
  2
LINES___ANGLED
 70
     0
 71
     1
 91
        1
 92
        2
 72
     0
 73
     1
 93
        4
 10
226.9970278009659
 20
339.7555095869689
 10
207.9970278009604
 20
339.7555095869689
 10
207.9970278009604
 20
389.755509586966
 10
226.9970278009659
 20
389.755509586966
 97
        1
330
19B
 75
     0
 76
     2
 52
0.0
 41
1.0
 77
     0
 78
     1
 53
44.99999999999999
 43
0.0
 44
0.0
 45
-1.838477563650065
 46
1.838477563650065
 79
     0
 98
        0
  0
LWPOLYLINE
  5
19B
102
{ACAD_REACTORS
330
19A
102
}
330
1F
100
AcDbEntity
  8
Specialized_Fills
  6
Continuous
100
AcDbPolyline
 90
        4
 70
   129
 43
0.0
 10
226.9970278009659
 20
339.7555095869689
 10
207.9970278009604
 20
339.7555095869689
 10
207.9970278009604
 20
389.755509586966
 10
226.9970278009659
 20
389.755509586966
  0
HATCH
  5
19C
330
1F
100
AcDbEntity
  8
Specialized_Fills
  6
Continuous
 62
     9
370
    20
100
AcDbHatch
 10
0.0
 20
0.0
 30
0.0
210
0.0
220
0.0
230
1.0
  2
SOLID
 70
     1
 71
     1
 91
        1
 92
        1
 93
        4
 72
     1
 10
347.2789750139036
 20
82.34012848850147
 11
312.2789750139034
 21
82.34012848850147
 72
     1
 10
312.2789750139034
 20
82.34012848850147
 11
312.2789750139044
 21
237.237829791253
 72
     1
 10
312.2789750139044
 20
237.237829791253
 11
347.2789750139045
 21
237.237829791253
 72
     1
 10
347.2789750139045
 20
237.237829791253
 11
347.2789750139036
 21
82.34012848850147
 97
        1
330
19D
 75
     0
 76
     1
 98
        0
450
        0
451
        0
460
0.0
461
0.0
452
        1
462
0.0
453
        0
470

  0
LWPOLYLINE
  5
19D
102
{ACAD_REACTORS
330
19C
102
}
330
1F
100
AcDbEntity
  8
Specialized_Fills
  6
Continuous
100
AcDbPolyline
 90
        4
 70
   129
 43
0.0
 10
347.2789750139036
 20
82.34012848850147
 10
312.2789750139034
 20
82.34012848850147
 10
312.2789750139044
 20
237.237829791253
 10
347.2789750139045
 20
237.237829791253
  0
HATCH
  5
19E
330
1F
100
AcDbEntity
  8
Specialized_Fills
  6
Continuous
 62
     9
370
    20
100
AcDbHatch
 10
0.0
 20
0.0
 30
0.0
210
0.0
220
0.0
230
1.0
  2
SOLID
 70
     1
 71
     1
 91
        1
 92
        1
 93
        4
 72
     1
 10
157.2789750139032
 20
82.34012848850191
 11
157.2789750139041
 21
235.8951302034768
 72
     1
 10
157.2789750139041
 20
235.8951302034768
 11
192.2789750139033
 21
235.8951302034772
 72
     1
 10
192.2789750139033
 20
235.8951302034772
 11
192.2789750139042
 21
82.34012848850147
 72
     1
 10
192.2789750139042
 20
82.34012848850147
 11
157.2789750139032
 21
82.34012848850191
 97
        1
330
19F
 75
     0
 76
     1
 98
        0
450
        0
451
        0
460
0.0
461
0.0
452
        1
462
0.0
453
        0
470

  0
LWPOLYLINE
  5
19F
102
{ACAD_REACTORS
330
19E
102
}
330
1F
100
AcDbEntity
  8
Specialized_Fills
  6
Continuous
100
AcDbPolyline
 90
        4
 70
   129
 43
0.0
 10
157.2789750139032
 20
82.34012848850191
 10
157.2789750139041
 20
235.8951302034768
 10
192.2789750139033
 20
235.8951302034772
 10
192.2789750139042
 20
82.34012848850147
  0
HATCH
  5
1A4
330
1F
100
AcDbEntity
  8
Specialized_Fills
  6
Continuous
 62
   254
420
 14671839
370
    13
100
AcDbHatch
 10
0.0
 20
0.0
 30
0.0
210
0.0
220
0.0
230
1.0
  2
SOLID
 70
     1
 71
     1
 91
        1
 92
        2
 72
     1
 73
     1
 93
        4
 10
70.22696323100063
 20
218.2295540900192
 42
0.0
 10
70.22696323100152
 20
243.6400167439783
 42
0.2168775765803716
 10
36.27655594266965
 20
238.5664382090673
 42
0.0
 10
36.27655594266876
 20
218.2295540900192
 42
0.0
 97
        1
330
1A5
 75
     0
 76
     1
 98
        0
450
        0
451
        0
460
0.0
461
0.0
452
        1
462
0.0
453
        0
470

  0
LWPOLYLINE
  5
1A5
102
{ACAD_REACTORS
330
1A4
102
}
330
1F
100
AcDbEntity
  8
Specialized_Fills
  6
Continuous
100
AcDbPolyline
 90
        4
 70
   129
 43
0.0
 10
70.22696323100063
 20
218.2295540900192
 10
70.22696323100152
 20
243.6400167439783
 42
0.2168775765803716
 10
36.27655594266965
 20
238.5664382090673
 10
36.27655594266876
 20
218.2295540900192
  0
INSERT
  5
2F2
330
1F
100
AcDbEntity
  8
Specialized_Fills
  6
Continuous
 62
    30
420
 16742400
370
    20
100
AcDbBlockReference
  2
Fill_2
 10
0.0
 20
0.0
 30
0.0
  0
HATCH
  5
2F3
330
1F
100
AcDbEntity
  8
Specialized_Fills
  6
Continuous
 62
    30
420
 16742400
370
    20
100
AcDbHatch
 10
0.0
 20
0.0
 30
0.0
210
0.0
220
0.0
230
1.0
  2
SOLID
 70
     1
 71
     1
 91
        1
 92
        2
 72
     1
 73
     1
 93
        7
 10
175.8319625235405
 20
286.7804326554118
 42
-0.9999999999999998
 10
175.8319625235405
 20
285.4804326554112
 42
0.0
 10
156.3819625235414
 20
285.4804326554112
 42
-0.414213562373566
 10
155.8319625235444
 20
286.0304326554153
 42
0.0
 10
155.8319625235444
 20
305.4804326554144
 42
-0.9999999999999998
 10
157.131962523545
 20
305.4804326554144
 42
0.0
 10
157.131962523545
 20
286.7804326554118
 42
0.0
 97
        1
330
2F4
 75
     0
 76
     1
 98
        0
450
        0
451
        0
460
0.0
461
0.0
452
        1
462
0.0
453
        0
470

  0
LWPOLYLINE
  5
2F4
102
{ACAD_REACTORS
330
2F3
102
}
330
1F
100
AcDbEntity
  8
Specialized_Fills
  6
Continuous
100
AcDbPolyline
 90
        7
 70
   129
 43
0.0
 10
175.8319625235405
 20
286.7804326554118
 42
-0.9999999999999998
 10
175.8319625235405
 20
285.4804326554112
 10
156.3819625235414
 20
285.4804326554112
 42
-0.414213562373566
 10
155.8319625235444
 20
286.0304326554153
 10
155.8319625235444
 20
305.4804326554144
 42
-0.9999999999999998
 10
157.131962523545
 20
305.4804326554144
 10
157.131962523545
 20
286.7804326554118
  0
HATCH
  5
2F5
330
1F
100
AcDbEntity
  8
Specialized_Fills
  6
Continuous
100
AcDbHatch
 10
0.0
 20
0.0
 30
0.0
210
0.0
220
0.0
230
1.0
  2
ANSI31
 70
     0
 71
     1
 91
        1
 92
        1
 93
        5
 72
     2
 10
160.7598362860388
 20
284.1540723286459
 40
2.288700347943103
 50
112.8365298989275
 51
221.3227038724081
 73
     0
 72
     1
 10
159.041016502206
 20
285.6652995893119
 11
151.9395806279885
 21
285.6652995893119
 72
     2
 10
145.7871910874692
 20
283.3328849680907
 40
6.579669826334592
 50
339.2379258374473
 51
376.7532291735755
 73
     0
 72
     1
 10
152.0875875953831
 20
281.4362935870482
 11
156.3451864016959
 21
282.1363888753478
 72
     1
 10
156.3451864016959
 20
282.1363888753478
 11
159.8715842262791
 21
282.0447697043154
 97
        1
330
2F6
 75
     0
 76
     2
 52
0.0
 41
1.0
 77
     0
 78
     1
 53
45.0
 43
0.0
 44
0.0
 45
-0.4419417382415923
 46
0.4419417382415923
 79
     0
 98
        0
  0
LWPOLYLINE
  5
2F6
102
{ACAD_REACTORS
330
2F5
102
}
330
1F
100
AcDbEntity
  8
Specialized_Fills
  6
Continuous
100
AcDbPolyline
 90
        5
 70
   129
 43
0.0
 10
159.8715842262791
 20
282.0447697043154
 42
-0.5122004116216081
 10
159.041016502206
 20
285.6652995893119
 10
151.9395806279885
 20
285.6652995893119
 42
-0.1651692624737492
 10
152.0875875953831
 20
281.4362935870482
 10
156.3451864016959
 20
282.1363888753478
  0
HATCH
  5
2F7
330
1F
100
AcDbEntity
  8
Specialized_Fills
  6
ZIGZAG
100
AcDbHatch
 10
0.0
 20
0.0
 30
0.0
210
0.0
220
0.0
230
1.0
  2
RENDER
 70
     0
 71
     0
 91
        1
 92
        1
 93
        5
 72
     1
 10
152.0491992390741
 20
82.34012848850149
 11
152.0491992390741
 21
279.1213352905105
 72
     1
 10
152.0491992390741
 20
279.1213352905105
 11
150.7487678462302
 21
281.2161456959705
 72
     1
 10
150.7487678462302
 20
281.2161456959705
 11
155.76235430136
 21
282.0405512856929
 72
     1
 10
155.76235430136
 20
282.0405512856929
 11
155.7623543013599
 21
82.34012848850147
 72
     1
 10
155.7623543013599
 20
82.34012848850147
 11
152.0491992390741
 21
82.34012848850149
 97
        0
 75
     0
 76
     2
 52
0.0
 41
1.0
 77
     0
 78
     2
 53
45.0
 43
0.0
 44
10.0
 45
-3.181980515339463
 46
3.181980515339464
 79
     4
 49
0.0
 49
-3.0
 49
0.0
 49
-4.5
 53
110.0
 43
10.0
 44
10.0
 45
4.228616793536587
 46
1.539090644965511
 79
     4
 49
0.0
 49
-2.199999999999999
 49
0.0
 49
-3.799999999999999
 98
        0
  0
LINE
  5
2F8
330
1F
100
AcDbEntity
  8
Specialized_Lines
  6
Continuous
100
AcDbLine
 10
281.3345275208014
 20
395.0792857600978
 30
0.0
 11
281.3344337068422
 21
386.0792857600992
 31
0.0
  0
LINE
  5
2FA
330
1F
100
AcDbEntity
  8
Specialized_Lines
  6
Continuous
100
AcDbLine
 10
281.3344337068422
 20
386.0792857600992
 30
0.0
 11
265.5842290120951
 21
386.0792857600992
 31
0.0
  0
LINE
  5
2FB
330
1F
100
AcDbEntity
  8
Specialized_Lines
  6
Continuous
100
AcDbLine
 10
265.5842290120951
 20
386.0792857600992
 30
0.0
 11
265.5845275208044
 21
395.0792857600978
 31
0.0
  0
LINE
  5
2FC
330
1F
100
AcDbEntity
  8
Specialized_Lines
  6
Continuous
100
AcDbLine
 10
265.5845275208044
 20
395.0792857600978
 30
0.0
 11
281.3345275208014
 21
395.0792857600978
 31
0.0
  0
LINE
  5
2FD
330
1F
100
AcDbEntity
  8
Specialized_Lines
  6
Continuous
100
AcDbLine
 10
278.7095275207996
 20
387.2792857600982
 30
0.0
 11
278.7095275207996
 21
393.8792857600988
 31
0.0
  0
LINE
  5
2FE
330
1F
100
AcDbEntity
  8
Specialized_Lines
  6
Continuous
100
AcDbLine
 10
268.2095275208063
 20
393.8792857600988
 30
0.0
 11
268.2095275208063
 21
387.2792857600982
 31
0.0
  0
LINE
  5
2FF
330
1F
100
AcDbEntity
  8
Specialized_Lines
  6
Continuous
100
AcDbLine
 10
268.2095275208063
 20
393.8792857600988
 30
0.0
 11
268.2095275208063
 21
387.2792857600982
 31
0.0
  0
LINE
  5
300
330
1F
100
AcDbEntity
  8
Specialized_Lines
  6
Continuous
100
AcDbLine
 10
262.9595275208026
 20
387.2792857600982
 30
0.0
 11
262.9595275208026
 21
393.8792857600988
 31
0.0
  0
LINE
  5
301
330
1F
100
AcDbEntity
  8
Specialized_Lines
  6
Continuous
100
AcDbLine
 10
278.7095275207996
 20
393.8792857600988
 30
0.0
 11
278.7095275207996
 21
387.2792857600982
 31
0.0
  0
LINE
  5
302
330
1F
100
AcDbEntity
  8
Specialized_Lines
  6
Continuous
100
AcDbLine
 10
283.9595275208034
 20
387.2792857600982
 30
0.0
 11
283.9595275208034
 21
393.8792857600988
 31
0.0
  0
LINE
  5
303
330
1F
100
AcDbEntity
  8
Specialized_Lines
  6
Continuous
100
AcDbLine
 10
261.4595275208024
 20
384.0792857600985
 30
0.0
 11
285.4595275208033
 21
384.0792857600985
 31
0.0
  0
LINE
  5
304
330
1F
100
AcDbEntity
  8
Specialized_Lines
  6
Continuous
100
AcDbLine
 10
285.4595275208033
 20
384.0792857600985
 30
0.0
 11
285.4595275208033
 21
386.0792857600992
 31
0.0
  0
LINE
  5
305
330
1F
100
AcDbEntity
  8
Specialized_Lines
  6
Continuous
100
AcDbLine
 10
285.4595275208033
 20
386.0792857600992
 30
0.0
 11
261.4595275208024
 21
386.0792857600992
 31
0.0
  0
LINE
  5
306
330
1F
100
AcDbEntity
  8
Specialized_Lines
  6
Continuous
100
AcDbLine
 10
261.4595275208024
 20
386.0792857600992
 30
0.0
 11
261.4595275208024
 21
384.0792857600985
 31
0.0
  0
LINE
  5
307
330
1F
100
AcDbEntity
  8
Specialized_Lines
  6
Continuous
100
AcDbLine
 10
267.4595275208027
 20
294.0792857600987
 30
0.0
 11
267.4595275208027
 21
286.0792857600978
 31
0.0
  0
LINE
  5
308
330
1F
100
AcDbEntity
  8
Specialized_Lines
  6
Continuous
100
AcDbLine
 10
267.4595275208027
 20
286.0792857600978
 30
0.0
 11
269.4595275208052
 21
284.0792857600989
 31
0.0
  0
LINE
  5
309
330
1F
100
AcDbEntity
  8
Specialized_Lines
  6
Continuous
100
AcDbLine
 10
269.4595275208052
 20
284.0792857600989
 30
0.0
 11
277.4595275208008
 21
284.0792857600989
 31
0.0
  0
LINE
  5
30A
330
1F
100
AcDbEntity
  8
Specialized_Lines
  6
Continuous
100
AcDbLine
 10
277.4595275208008
 20
284.0792857600989
 30
0.0
 11
279.4595275208031
 21
286.0792857600978
 31
0.0
  0
LINE
  5
30B
330
1F
100
AcDbEntity
  8
Specialized_Lines
  6
Continuous
100
AcDbLine
 10
279.4595275208031
 20
286.0792857600978
 30
0.0
 11
279.4595275208031
 21
294.0792857600987
 31
0.0
  0
LINE
  5
30C
330
1F
100
AcDbEntity
  8
Specialized_Lines
  6
Continuous
100
AcDbLine
 10
279.4595275208031
 20
294.0792857600987
 30
0.0
 11
267.4595275208027
 21
294.0792857600987
 31
0.0
  0
LINE
  5
30D
330
1F
100
AcDbEntity
  8
Specialized_Lines
  6
Continuous
100
AcDbLine
 10
269.4595275208052
 20
294.0792857600987
 30
0.0
 11
269.4595275208052
 21
284.0792857600989
 31
0.0
  0
LINE
  5
30E
330
1F
100
AcDbEntity
  8
Specialized_Lines
  6
Continuous
100
AcDbLine
 10
277.4595275208008
 20
294.0792857600987
 30
0.0
 11
277.4595275208008
 21
284.0792857600989
 31
0.0
  0
LINE
  5
30F
330
1F
100
AcDbEntity
  8
Specialized_Lines
  6
Continuous
100
AcDbLine
 10
267.4595275208027
 20
286.0792857600978
 30
0.0
 11
279.4595275208031
 21
286.0792857600978
 31
0.0
  0
LINE
  5
310
330
1F
100
AcDbEntity
  8
Specialized_Lines
  6
Continuous
100
AcDbLine
 10
267.4595275208027
 20
384.0792857600985
 30
0.0
 11
267.4595275208027
 21
294.0792857600987
 31
0.0
  0
LINE
  5
311
330
1F
100
AcDbEntity
  8
Specialized_Lines
  6
Continuous
100
AcDbLine
 10
267.4595275208027
 20
294.0792857600987
 30
0.0
 11
279.4595275208031
 21
294.0792857600987
 31
0.0
  0
LINE
  5
312
330
1F
100
AcDbEntity
  8
Specialized_Lines
  6
Continuous
100
AcDbLine
 10
279.4595275208031
 20
294.0792857600987
 30
0.0
 11
279.4595275208031
 21
384.0792857600985
 31
0.0
  0
LINE
  5
313
330
1F
100
AcDbEntity
  8
Specialized_Lines
  6
Continuous
100
AcDbLine
 10
279.4595275208031
 20
384.0792857600985
 30
0.0
 11
267.4595275208027
 21
384.0792857600985
 31
0.0
  0
LINE
  5
314
330
1F
100
AcDbEntity
  8
Specialized_Lines
  6
Continuous
100
AcDbLine
 10
269.4595275208052
 20
327.0792857600982
 30
0.0
 11
277.4595275208008
 21
327.0792857600982
 31
0.0
  0
LINE
  5
315
330
1F
100
AcDbEntity
  8
Specialized_Lines
  6
Continuous
100
AcDbLine
 10
277.4595275208008
 20
327.0792857600982
 30
0.0
 11
279.4595275208031
 21
329.0792857600988
 31
0.0
  0
LINE
  5
316
330
1F
100
AcDbEntity
  8
Specialized_Lines
  6
Continuous
100
AcDbLine
 10
279.4595275208031
 20
329.0792857600988
 30
0.0
 11
267.4595275208027
 21
329.0792857600988
 31
0.0
  0
LINE
  5
317
330
1F
100
AcDbEntity
  8
Specialized_Lines
  6
Continuous
100
AcDbLine
 10
267.4595275208027
 20
329.0792857600988
 30
0.0
 11
269.4595275208052
 21
327.0792857600982
 31
0.0
  0
LINE
  5
318
330
1F
100
AcDbEntity
  8
Specialized_Lines
  6
Continuous
100
AcDbLine
 10
269.4595275208052
 20
327.0792857600982
 30
0.0
 11
269.4595275208052
 21
294.0792857600987
 31
0.0
  0
LINE
  5
319
330
1F
100
AcDbEntity
  8
Specialized_Lines
  6
Continuous
100
AcDbLine
 10
277.4595275208008
 20
327.0792857600982
 30
0.0
 11
277.4595275208008
 21
294.0792857600987
 31
0.0
  0
LINE
  5
31A
330
1F
100
AcDbEntity
  8
Specialized_Lines
  6
Continuous
100
AcDbLine
 10
273.4595275208029
 20
402.0792857600992
 30
0.0
 11
273.4595275208029
 21
266.0792857600982
 31
0.0
  0
ARC
  5
31B
330
1F
100
AcDbEntity
  8
Specialized_Lines
  6
Continuous
100
AcDbCircle
 10
273.4595275208029
 20
382.9949107601061
 30
0.0
 40
12.08437499999348
100
AcDbArc
 50
64.24999688077782
 51
115.7500031192222
  0
ARC
  5
31C
330
1F
100
AcDbEntity
  8
Specialized_Lines
  6
Continuous
100
AcDbCircle
 10
273.4595275208029
 20
398.1636607440575
 30
0.0
 40
12.08437498554815
100
AcDbArc
 50
244.2499968477445
 51
295.7500031522554
  0
ARC
  5
31D
330
1F
100
AcDbEntity
  8
Specialized_Lines
  6
Continuous
100
AcDbCircle
 10
265.5845275208044
 20
389.5503794729724
 30
0.0
 40
3.471093725707419
100
AcDbArc
 50
220.8656568953137
 51
319.1343431046863
  0
ARC
  5
31E
330
1F
100
AcDbEntity
  8
Specialized_Lines
  6
Continuous
100
AcDbCircle
 10
265.5845275208044
 20
391.6081920100969
 30
0.0
 40
3.471093750000875
100
AcDbArc
 50
40.86565735877854
 51
139.1343426412215
  0
ARC
  5
31F
330
1F
100
AcDbEntity
  8
Specialized_Lines
  6
Continuous
100
AcDbCircle
 10
281.3345275208014
 20
389.5503795064319
 30
0.0
 40
3.47109374759924
100
AcDbArc
 50
220.8656573129887
 51
319.1343426870113
  0
ARC
  5
320
330
1F
100
AcDbEntity
  8
Specialized_Lines
  6
Continuous
100
AcDbCircle
 10
281.3345275208014
 20
391.6081920100969
 30
0.0
 40
3.471093750000875
100
AcDbArc
 50
40.86565735877854
 51
139.1343426412215
  0
LINE
  5
322
330
1F
100
AcDbEntity
  8
Specialized_Lines
  6
DASHEDX2
100
AcDbLine
 10
228.5305783267582
 20
338.2080534554004
 30
0.0
 11
318.4595275208046
 21
338.2080534554004
 31
0.0
  0
LINE
  5
324
330
1F
100
AcDbEntity
  8
Specialized_Lines
  6
Hidden Line
100
AcDbLine
 10
209.8714848205656
 20
323.1032499026578
 30
0.0
 11
209.8714848205656
 21
285.1032499026576
 31
0.0
  0
LINE
  5
325
330
1F
100
AcDbEntity
  8
Specialized_Lines
  6
Hidden Line
100
AcDbLine
 10
87.58808610717316
 20
233.6286647716999
 30
0.0
 11
87.58808610717316
 21
189.4241687863527
 31
0.0
  0
LINE
  5
326
330
1F
100
AcDbEntity
  8
Specialized_Lines
  6
Continuous
100
AcDbLine
 10
88.05396228097173
 20
233.1721709646195
 30
0.0
 11
88.05396228097173
 21
188.9833576542172
 31
0.0
  0
LINE
  5
327
330
1F
100
AcDbEntity
  8
Specialized_Lines
  6
Continuous
100
AcDbLine
 10
347.2789750139045
 20
237.237829791253
 30
0.0
 11
347.2789750139045
 21
82.34012848850147
 31
0.0
  0
LINE
  5
32B
330
1F
100
AcDbEntity
  8
Specialized_Lines
  6
Continuous
100
AcDbLine
 10
318.4595275208046
 20
501.6188788397806
 30
0.0
 11
318.4595275208046
 21
339.0792857600968
 31
0.0
  0
LINE
  5
32C
330
1F
100
AcDbEntity
  8
Specialized_Lines
  6
Continuous
100
AcDbLine
 10
228.4595275208012
 20
501.6188788397806
 30
0.0
 11
228.4595275208012
 21
339.0792857600968
 31
0.0
  0
LINE
  5
32D
330
1F
100
AcDbEntity
  8
Specialized_Lines
  6
Continuous
100
AcDbLine
 10
243.9704490654329
 20
337.237829791253
 30
0.0
 11
271.1033796271671
 21
337.237829791253
 31
0.0
  0
LINE
  5
32E
330
1F
100
AcDbEntity
  8
Specialized_Lines
  6
Continuous
100
AcDbLine
 10
318.4595275208046
 20
384.0792857600985
 30
0.0
 11
228.4595275208012
 21
339.0792857600968
 31
0.0
  0
LINE
  5
32F
330
1F
100
AcDbEntity
  8
Specialized_Lines
  6
Continuous
100
AcDbLine
 10
228.4595275208012
 20
384.0792858601003
 30
0.0
 11
318.4595275208046
 21
339.0792858600986
 31
0.0
  0
LINE
  5
333
330
1F
100
AcDbEntity
  8
Specialized_Lines
  6
Continuous
100
AcDbLine
 10
312.2789750139044
 20
237.237829791253
 30
0.0
 11
355.6985662840395
 21
237.237829791253
 31
0.0
  0
LINE
  5
334
330
1F
100
AcDbEntity
  8
Specialized_Lines
  6
Continuous
100
AcDbLine
 10
32.98126878730834
 20
188.9833576542172
 30
0.0
 11
32.98126878730834
 21
171.4257707090771
 31
0.0
  0
LINE
  5
335
330
1F
100
AcDbEntity
  8
Specialized_Lines
  6
Hidden Line
100
AcDbLine
 10
147.2686382210361
 20
323.1600214223435
 30
0.0
 11
147.2686382210361
 21
285.1600214223433
 31
0.0
  0
LINE
  5
336
330
1F
100
AcDbEntity
  8
Specialized_Lines
  6
Hidden Line
100
AcDbLine
 10
35.01845588319163
 20
188.8780921229234
 30
0.0
 11
35.01845588319163
 21
169.8999707035753
 31
0.0
  0
LINE
  5
337
330
1F
100
AcDbEntity
  8
Specialized_Lines
  6
Continuous
100
AcDbLine
 10
37.56275057544478
 20
188.9833576542172
 30
0.0
 11
37.56275057544478
 21
168.2492951032253
 31
0.0
  0
LINE
  5
338
330
1F
100
AcDbEntity
  8
Specialized_Lines
  6
Continuous
100
AcDbLine
 10
88.05396228097173
 20
188.9833576542172
 30
0.0
 11
32.98126878730834
 21
188.9833576542172
 31
0.0
  0
LINE
  5
339
330
1F
100
AcDbEntity
  8
Specialized_Lines
  6
Hidden Line
100
AcDbLine
 10
87.58808610717316
 20
189.4241687863527
 30
0.0
 11
35.01845588319163
 21
189.4241687863527
 31
0.0
  0
LINE
  5
33A
330
1F
100
AcDbEntity
  8
Specialized_Lines
  6
Continuous
100
AcDbLine
 10
155.76235430136
 20
282.0405512856929
 30
0.0
 11
155.76235430136
 21
214.5205841642306
 31
0.0
  0
LINE
  5
33B
330
1F
100
AcDbEntity
  8
Specialized_Lines
  6
DASHEDX2
100
AcDbLine
 10
227.2439924807941
 20
281.0488071378234
 30
0.0
 11
156.3803910970511
 21
281.356507712561
 31
0.0
  0
LINE
  5
33C
330
1F
100
AcDbEntity
  8
Specialized_Lines
  6
DASHEDX2
100
AcDbLine
 10
227.9595275207988
 20
501.6188788397815
 30
0.0
 11
227.9595275207988
 21
281.0997473335877
 31
0.0
  0
LINE
  5
33D
330
1F
100
AcDbEntity
  8
Specialized_Lines
  6
Continuous
100
AcDbLine
 10
226.6240605645811
 20
337.2054049146667
 30
0.0
 11
226.6240605645811
 21
282.1132958988643
 31
0.0
  0
LINE
  5
33E
330
1F
100
AcDbEntity
  8
Specialized_Lines
  6
Continuous
100
AcDbLine
 10
226.6240605645811
 20
282.1132958988643
 30
0.0
 11
155.76235430136
 21
282.0405512856929
 31
0.0
  0
LINE
  5
33F
330
1F
100
AcDbEntity
  8
Specialized_Lines
  6
Hidden Line
100
AcDbLine
 10
156.5852078953128
 20
321.9729545720184
 30
0.0
 11
147.9783026036966
 21
318.3701557725218
 31
0.0
  0
LINE
  5
340
330
1F
100
AcDbEntity
  8
Specialized_Lines
  6
Hidden Line
100
AcDbLine
 10
157.3176616377255
 20
320.0948554249212
 30
0.0
 11
148.7107563461075
 21
316.4920566254227
 31
0.0
  0
LINE
  5
341
330
1F
100
AcDbEntity
  8
Specialized_Lines
  6
Hidden Line
100
AcDbLine
 10
147.9783026036966
 20
318.3701557725218
 30
0.0
 11
148.7107563461075
 21
316.4920566254227
 31
0.0
  0
LINE
  5
342
330
1F
100
AcDbEntity
  8
Specialized_Lines
  6
Hidden Line
100
AcDbLine
 10
147.9783026036966
 20
308.4767468989468
 30
0.0
 11
148.7107563461075
 21
306.5986477518487
 31
0.0
  0
LINE
  5
343
330
1F
100
AcDbEntity
  8
Specialized_Lines
  6
Hidden Line
100
AcDbLine
 10
147.9783026036966
 20
298.4240090757106
 30
0.0
 11
148.7107563461075
 21
296.5459099286116
 31
0.0
  0
LINE
  5
344
330
1F
100
AcDbEntity
  8
Specialized_Lines
  6
Hidden Line
100
AcDbLine
 10
156.5852078953128
 20
312.0795456984435
 30
0.0
 11
147.9783026036966
 21
308.4767468989468
 31
0.0
  0
LINE
  5
345
330
1F
100
AcDbEntity
  8
Specialized_Lines
  6
Hidden Line
100
AcDbLine
 10
156.5852078953128
 20
291.5468971916448
 30
0.0
 11
147.9783026036966
 21
287.9440983921481
 31
0.0
  0
LINE
  5
346
330
1F
100
AcDbEntity
  8
Specialized_Lines
  6
Hidden Line
100
AcDbLine
 10
156.5852078953128
 20
302.0268078752072
 30
0.0
 11
147.9783026036966
 21
298.4240090757106
 31
0.0
  0
LINE
  5
347
330
1F
100
AcDbEntity
  8
Specialized_Lines
  6
Hidden Line
100
AcDbLine
 10
156.5852078953128
 20
321.9729545720184
 30
0.0
 11
157.3176616377255
 21
320.0948554249212
 31
0.0
  0
LINE
  5
348
330
1F
100
AcDbEntity
  8
Specialized_Lines
  6
Continuous
100
AcDbLine
 10
36.27655594266876
 20
218.2295540900192
 30
0.0
 11
36.27655594266876
 21
238.5664382090673
 31
0.0
  0
LINE
  5
349
330
1F
100
AcDbEntity
  8
Specialized_Lines
  6
Hidden Line
100
AcDbLine
 10
72.19789399678155
 20
216.9075712664545
 30
0.0
 11
72.19789399678155
 21
191.789897618722
 31
0.0
  0
LINE
  5
34A
330
1F
100
AcDbEntity
  8
Specialized_Lines
  6
Hidden Line
100
AcDbLine
 10
157.3176616377255
 20
310.2014465513462
 30
0.0
 11
148.7107563461075
 21
306.5986477518487
 31
0.0
  0
LINE
  5
34B
330
1F
100
AcDbEntity
  8
Specialized_Lines
  6
Hidden Line
100
AcDbLine
 10
156.5852078953128
 20
312.0795456984435
 30
0.0
 11
157.3176616377255
 21
310.2014465513462
 31
0.0
  0
LINE
  5
34C
330
1F
100
AcDbEntity
  8
Specialized_Lines
  6
Hidden Line
100
AcDbLine
 10
157.3176616377255
 20
289.6687980445475
 30
0.0
 11
148.7107563461075
 21
286.0659992450491
 31
0.0
  0
LINE
  5
34D
330
1F
100
AcDbEntity
  8
Specialized_Lines
  6
Hidden Line
100
AcDbLine
 10
156.5852078953128
 20
291.5468971916448
 30
0.0
 11
157.3176616377255
 21
289.6687980445475
 31
0.0
  0
LINE
  5
34E
330
1F
100
AcDbEntity
  8
Specialized_Lines
  6
Hidden Line
100
AcDbLine
 10
157.3176616377255
 20
300.14870872811
 30
0.0
 11
148.7107563461075
 21
296.5459099286116
 31
0.0
  0
LINE
  5
34F
330
1F
100
AcDbEntity
  8
Specialized_Lines
  6
Hidden Line
100
AcDbLine
 10
156.5852078953128
 20
302.0268078752072
 30
0.0
 11
157.3176616377255
 21
300.14870872811
 31
0.0
  0
LINE
  5
350
330
1F
100
AcDbEntity
  8
Specialized_Lines
  6
Hidden Line
100
AcDbLine
 10
147.9783026036966
 20
287.9440983921481
 30
0.0
 11
148.7107563461075
 21
286.0659992450491
 31
0.0
  0
LINE
  5
351
330
1F
100
AcDbEntity
  8
Specialized_Lines
  6
Hidden
100
AcDbLine
 10
209.8714848205656
 20
325.1032499026576
 30
0.0
 11
209.8714848205656
 21
323.1032499026578
 31
0.0
  0
LINE
  5
352
330
1F
100
AcDbEntity
  8
Specialized_Lines
  6
Hidden
100
AcDbLine
 10
149.7626282514487
 20
325.1600214223433
 30
0.0
 11
150.8739141665064
 21
330.1125070582111
 31
0.0
  0
LINE
  5
353
330
1F
100
AcDbEntity
  8
Specialized_Lines
  6
Hidden
100
AcDbLine
 10
148.9558132495127
 20
330.678977597806
 30
0.0
 11
150.8739141665064
 21
330.1125070582111
 31
0.0
  0
LINE
  5
354
330
1F
100
AcDbEntity
  8
Specialized_Lines
  6
Hidden
100
AcDbLine
 10
147.2686382210352
 20
323.1600214223435
 30
0.0
 11
148.9558132495127
 21
330.678977597806
 31
0.0
  0
LINE
  5
355
330
1F
100
AcDbEntity
  8
Specialized_Lines
  6
Hidden
100
AcDbLine
 10
209.8714848205656
 20
323.1032499026578
 30
0.0
 11
147.2686382210361
 21
323.1600214223435
 31
0.0
  0
LINE
  5
356
330
1F
100
AcDbEntity
  8
Specialized_Lines
  6
Hidden
100
AcDbLine
 10
209.8714848205656
 20
325.1032499026576
 30
0.0
 11
149.7626282514487
 21
325.1600214223433
 31
0.0
  0
LINE
  5
357
330
1F
100
AcDbEntity
  8
Specialized_Lines
  6
Hidden Line
100
AcDbLine
 10
209.8714848205656
 20
283.1032499026578
 30
0.0
 11
209.8714848205656
 21
285.1032499026576
 31
0.0
  0
LINE
  5
358
330
1F
100
AcDbEntity
  8
Specialized_Lines
  6
Hidden Line
100
AcDbLine
 10
149.7626282514487
 20
283.1600214223435
 30
0.0
 11
150.8739141665064
 21
278.2075357864757
 31
0.0
  0
LINE
  5
359
330
1F
100
AcDbEntity
  8
Specialized_Lines
  6
Hidden Line
100
AcDbLine
 10
148.9558132495127
 20
277.6410652468808
 30
0.0
 11
150.8739141665064
 21
278.2075357864757
 31
0.0
  0
LINE
  5
35A
330
1F
100
AcDbEntity
  8
Specialized_Lines
  6
Hidden Line
100
AcDbLine
 10
209.8714848205656
 20
283.1600214223435
 30
0.0
 11
149.7626282514487
 21
283.1600214223435
 31
0.0
  0
LINE
  5
35B
330
1F
100
AcDbEntity
  8
Specialized_Lines
  6
Hidden Line
100
AcDbLine
 10
147.2686382210352
 20
285.1600214223433
 30
0.0
 11
148.9558132495127
 21
277.6410652468808
 31
0.0
  0
LINE
  5
35C
330
1F
100
AcDbEntity
  8
Specialized_Lines
  6
Hidden Line
100
AcDbLine
 10
209.8714848205656
 20
285.1032499026576
 30
0.0
 11
147.2686382210361
 21
285.1600214223433
 31
0.0
  0
LINE
  5
35D
330
1F
100
AcDbEntity
  8
Specialized_Lines
  6
DASHEDX2
100
AcDbLine
 10
153.8886430768707
 20
283.0830627301836
 30
0.0
 11
153.8886430768707
 21
501.5986916673064
 31
0.0
  0
LINE
  5
35E
330
1F
100
AcDbEntity
  8
Specialized_Lines
  6
Continuous
100
AcDbLine
 10
32.98126878730834
 20
236.1913228035934
 30
0.0
 11
32.98126878730834
 21
218.2295540900192
 31
0.0
  0
LINE
  5
35F
330
1F
100
AcDbEntity
  8
Specialized_Lines
  6
Hidden Line
100
AcDbLine
 10
35.01845588319163
 20
237.7171228090953
 30
0.0
 11
35.01845588319163
 21
218.2295540900192
 31
0.0
  0
LINE
  5
360
330
1F
100
AcDbEntity
  8
Specialized_Lines
  6
Continuous
100
AcDbLine
 10
72.19789399678155
 20
218.2295540900192
 30
0.0
 11
72.19789399678155
 21
216.9075712664545
 31
0.0
  0
LINE
  5
361
330
1F
100
AcDbEntity
  8
Specialized_Lines
  6
Hidden Line
100
AcDbLine
 10
29.63423776743568
 20
216.9075712664545
 30
0.0
 11
29.63423776743568
 21
191.789897618722
 31
0.0
  0
LINE
  5
362
330
1F
100
AcDbEntity
  8
Specialized_Lines
  6
Continuous
100
AcDbLine
 10
31.2827437586094
 20
218.2295540900192
 30
0.0
 11
32.01729420449695
 21
221.5031045623039
 31
0.0
  0
LINE
  5
363
330
1F
100
AcDbEntity
  8
Specialized_Lines
  6
Continuous
100
AcDbLine
 10
30.74944597143236
 20
221.877536724004
 30
0.0
 11
32.01729420449695
 21
221.5031045623039
 31
0.0
  0
LINE
  5
364
330
1F
100
AcDbEntity
  8
Specialized_Lines
  6
Continuous
100
AcDbLine
 10
72.19789399678155
 20
218.2295540900192
 30
0.0
 11
31.2827437586094
 21
218.2295540900192
 31
0.0
  0
LINE
  5
365
330
1F
100
AcDbEntity
  8
Specialized_Lines
  6
Continuous
100
AcDbLine
 10
29.63423776743568
 20
216.9075712664545
 30
0.0
 11
30.74944597143236
 21
221.877536724004
 31
0.0
  0
LINE
  5
366
330
1F
100
AcDbEntity
  8
Specialized_Lines
  6
Continuous
100
AcDbLine
 10
72.19789399678155
 20
216.9075712664545
 30
0.0
 11
29.63423776743568
 21
216.9075712664545
 31
0.0
  0
LINE
  5
367
330
1F
100
AcDbEntity
  8
Specialized_Lines
  6
Continuous
100
AcDbLine
 10
72.19789399678155
 20
190.4679147951573
 30
0.0
 11
72.19789399678155
 21
191.789897618722
 31
0.0
  0
LINE
  5
368
330
1F
100
AcDbEntity
  8
Specialized_Lines
  6
Continuous
100
AcDbLine
 10
31.2827437586094
 20
190.4679147951573
 30
0.0
 11
32.01729420449695
 21
187.1943643228726
 31
0.0
  0
LINE
  5
369
330
1F
100
AcDbEntity
  8
Specialized_Lines
  6
Continuous
100
AcDbLine
 10
30.74944597143236
 20
186.8199321611725
 30
0.0
 11
32.01729420449695
 21
187.1943643228726
 31
0.0
  0
LINE
  5
36A
330
1F
100
AcDbEntity
  8
Specialized_Lines
  6
Continuous
100
AcDbLine
 10
72.19789399678155
 20
190.4679147951573
 30
0.0
 11
31.2827437586094
 21
190.4679147951573
 31
0.0
  0
LINE
  5
36B
330
1F
100
AcDbEntity
  8
Specialized_Lines
  6
Continuous
100
AcDbLine
 10
72.19789399678155
 20
191.789897618722
 30
0.0
 11
29.63423776743568
 21
191.789897618722
 31
0.0
  0
LINE
  5
36C
330
1F
100
AcDbEntity
  8
Specialized_Lines
  6
Continuous
100
AcDbLine
 10
29.63423776743568
 20
191.789897618722
 30
0.0
 11
30.74944597143236
 21
186.8199321611725
 31
0.0
  0
LINE
  5
36D
330
1F
100
AcDbEntity
  8
Specialized_Lines
  6
Continuous
100
AcDbLine
 10
35.79241030940494
 20
216.122930273178
 30
0.0
 11
30.10331982962278
 21
213.741511208331
 31
0.0
  0
LINE
  5
36E
330
1F
100
AcDbEntity
  8
Specialized_Lines
  6
Continuous
100
AcDbLine
 10
35.79241030940494
 20
209.5834719744931
 30
0.0
 11
30.10331982962278
 21
207.2020529096457
 31
0.0
  0
LINE
  5
36F
330
1F
100
AcDbEntity
  8
Specialized_Lines
  6
Continuous
100
AcDbLine
 10
35.79241030940494
 20
196.0115676503515
 30
0.0
 11
30.10331982962278
 21
193.6301485855041
 31
0.0
  0
LINE
  5
370
330
1F
100
AcDbEntity
  8
Specialized_Lines
  6
Continuous
100
AcDbLine
 10
35.79241030940494
 20
202.9386986084334
 30
0.0
 11
30.10331982962278
 21
200.5572795435859
 31
0.0
  0
LINE
  5
371
330
1F
100
AcDbEntity
  8
Specialized_Lines
  6
Continuous
100
AcDbLine
 10
30.10331982962278
 20
213.741511208331
 30
0.0
 11
30.58746546288482
 21
212.5001038016223
 31
0.0
  0
LINE
  5
372
330
1F
100
AcDbEntity
  8
Specialized_Lines
  6
Continuous
100
AcDbLine
 10
36.27655594266876
 20
214.8815228664711
 30
0.0
 11
30.58746546288482
 21
212.5001038016223
 31
0.0
  0
LINE
  5
373
330
1F
100
AcDbEntity
  8
Specialized_Lines
  6
Continuous
100
AcDbLine
 10
35.79241030940494
 20
216.122930273178
 30
0.0
 11
36.27655594266876
 21
214.8815228664711
 31
0.0
  0
LINE
  5
374
330
1F
100
AcDbEntity
  8
Specialized_Lines
  6
Continuous
100
AcDbLine
 10
30.10331982962278
 20
207.2020529096457
 30
0.0
 11
30.58746546288482
 21
205.9606455029379
 31
0.0
  0
LINE
  5
375
330
1F
100
AcDbEntity
  8
Specialized_Lines
  6
Continuous
100
AcDbLine
 10
36.27655594266876
 20
208.3420645677858
 30
0.0
 11
30.58746546288482
 21
205.9606455029379
 31
0.0
  0
LINE
  5
376
330
1F
100
AcDbEntity
  8
Specialized_Lines
  6
Continuous
100
AcDbLine
 10
35.79241030940494
 20
209.5834719744931
 30
0.0
 11
36.27655594266876
 21
208.3420645677858
 31
0.0
  0
LINE
  5
377
330
1F
100
AcDbEntity
  8
Specialized_Lines
  6
Continuous
100
AcDbLine
 10
30.10331982962278
 20
193.6301485855041
 30
0.0
 11
30.58746546288482
 21
192.3887411787959
 31
0.0
  0
LINE
  5
378
330
1F
100
AcDbEntity
  8
Specialized_Lines
  6
Continuous
100
AcDbLine
 10
36.27655594266876
 20
194.7701602436442
 30
0.0
 11
30.58746546288482
 21
192.3887411787959
 31
0.0
  0
LINE
  5
379
330
1F
100
AcDbEntity
  8
Specialized_Lines
  6
Continuous
100
AcDbLine
 10
35.79241030940494
 20
196.0115676503515
 30
0.0
 11
36.27655594266876
 21
194.7701602436442
 31
0.0
  0
LINE
  5
37A
330
1F
100
AcDbEntity
  8
Specialized_Lines
  6
Continuous
100
AcDbLine
 10
30.10331982962278
 20
200.5572795435859
 30
0.0
 11
30.58746546288482
 21
199.3158721368777
 31
0.0
  0
LINE
  5
37B
330
1F
100
AcDbEntity
  8
Specialized_Lines
  6
Continuous
100
AcDbLine
 10
36.27655594266876
 20
201.6972912017261
 30
0.0
 11
30.58746546288482
 21
199.3158721368777
 31
0.0
  0
LINE
  5
37C
330
1F
100
AcDbEntity
  8
Specialized_Lines
  6
Continuous
100
AcDbLine
 10
35.79241030940494
 20
202.9386986084334
 30
0.0
 11
36.27655594266876
 21
201.6972912017261
 31
0.0
  0
LINE
  5
384
330
1F
100
AcDbEntity
  8
Specialized_Lines
  6
Continuous
100
AcDbLine
 10
143.2981937950616
 20
270.3036362487423
 30
0.0
 11
91.6127197997163
 21
229.1368090478061
 31
0.0
  0
LINE
  5
385
330
1F
100
AcDbEntity
  8
Specialized_Text
  6
Continuous
100
AcDbLine
 10
157.2789750139041
 20
280.1261558667423
 30
0.0
 11
120.3564051372156
 21
280.1261558667423
 31
0.0
  0
INSERT
  5
38E
330
1F
100
AcDbEntity
  8
Specialized_Text
  6
Continuous
100
AcDbBlockReference
  2
Line_2
 10
134.1024312981069
 20
219.5444747479613
 30
0.0
  0
LINE
  5
392
330
1F
100
AcDbEntity
  8
Specialized_Lines
  6
Continuous
100
AcDbLine
 10
157.2789750139041
 20
82.34012848850147
 30
0.0
 11
192.2789750328492
 21
82.34012848850147
 31
0.0
  0
LINE
  5
393
330
1F
100
AcDbEntity
  8
Specialized_Lines
  6
Continuous
100
AcDbLine
 10
312.2789738735523
 20
82.34012848850147
 30
0.0
 11
347.2789750139045
 21
82.34012848850147
 31
0.0
  0
LWPOLYLINE
  5
394
330
1F
100
AcDbEntity
  8
Specialized_Lines
  6
Continuous
100
AcDbPolyline
 90
        4
 70
   129
 43
0.0
 10
318.4595275208046
 20
384.0792857600985
 10
228.4595275208012
 20
384.0792857600985
 10
228.4595275208012
 20
339.0792857600968
 10
318.4595275208046
 20
339.0792857600968
  0
LWPOLYLINE
  5
395
330
1F
100
AcDbEntity
  8
Specialized_Lines
  6
Continuous
100
AcDbPolyline
 90
        4
 70
   129
 43
0.0
 10
226.9970278009659
 20
339.7555095869689
 10
207.9970278009604
 20
339.7555095869689
 10
207.9970278009604
 20
389.755509586966
 10
226.9970278009659
 20
389.755509586966
  0
LWPOLYLINE
  5
397
330
1F
100
AcDbEntity
  8
Specialized_Fills
  6
DASHEDX2
 62
   253
420
 10461087
370
    20
100
AcDbPolyline
 90
        4
 70
   128
 43
0.0
 10
228.4595275208012
 20
429.0792858600949
 42
0.6180339902741404
 10
264.4595279228987
 20
411.0792857584644
 10
282.4595278632955
 20
424.5792858378591
 42
-2.000000011029643
 10
282.4595278632955
 20
388.5792858378587
  0
LWPOLYLINE
  5
398
330
1F
100
AcDbEntity
  8
Specialized_Fills
  6
DASHEDX2
 62
   253
420
 10461087
370
    20
100
AcDbPolyline
 90
        6
 70
   128
 43
0.0
 10
228.4595275208012
 20
429.0792858600949
 42
-0.6180339902741404
 10
264.4595279228987
 20
447.0792859617254
 10
282.4595278632955
 20
433.5792858823306
 42
2.000000011029643
 10
282.4595278632955
 20
469.5792858823311
 10
264.4595278847159
 20
456.0792858536921
 42
-1.156387574659788
 10
243.1616115766246
 20
495.1847946880829
  0
LWPOLYLINE
  5
399
330
1F
100
AcDbEntity
  8
Specialized_Fills
  6
DASHEDX2
 62
   253
420
 10461087
370
    20
100
AcDbPolyline
 90
        4
 70
   128
 43
0.0
 10
249.0465718661463
 20
496.4978183803929
 42
-0.1841978337518792
 10
264.4595278847159
 20
492.0792858536917
 10
282.459527825111
 20
478.5792857742969
 42
0.6989916976983091
 10
317.8878772962062
 20
501.6188788397806
  0
LWPOLYLINE
  5
39A
330
1F
100
AcDbEntity
  8
Specialized_Fills
  6
DASHEDX2
 62
   253
420
 10461087
370
    20
100
AcDbPolyline
 90
        2
 70
   128
 43
0.0
 10
243.1616115766246
 20
497.9737768971594
 42
-0.0823233002576234
 10
236.7685379881732
 20
501.6188788397806
 42
-0.0823233002576234
  0
LWPOLYLINE
  5
39B
330
1F
100
AcDbEntity
  8
Specialized_Fills
  6
DASHEDX2
 62
   253
420
 10461087
370
    20
100
AcDbPolyline
 90
        3
 70
   128
 43
0.0
 10
265.1789853029776
 20
501.6188788397806
 10
264.4595278465314
 20
501.0792857456594
 42
-0.1831451680250087
 10
249.1379037452193
 20
496.6531472683128
  0
LWPOLYLINE
  5
39C
330
1F
100
AcDbEntity
  8
Specialized_Lines
  6
Continuous
100
AcDbPolyline
 90
        5
 70
   128
 43
0.0
 10
355.6985662840395
 20
337.237829791253
 10
228.4595275208012
 20
337.237829791253
 10
228.4595275208012
 20
280.1261558667423
 10
157.2789750139041
 20
280.1261558667423
 10
157.2789750139041
 20
82.34012848850147
  0
LWPOLYLINE
  5
39D
330
1F
100
AcDbEntity
  8
Specialized_Fills
  6
DASHEDX2
 62
   253
420
 10461087
370
    20
100
AcDbPolyline
 90
        3
 70
   128
 43
0.0
 10
273.4595275208028
 20
395.0792857600978
 10
264.4595278847159
 20
402.0792858664976
 42
0.6180339892997294
 10
228.4595278131007
 20
384.0792858664979
  0
LWPOLYLINE
  5
39F
330
1F
100
AcDbEntity
  8
0
  6
Continuous
100
AcDbPolyline
 90
        6
 70
   128
 43
0.0
 10
329.4243657792126
 20
501.6188788397806
 10
279.6753802144421
 20
501.6188788397806
 10
277.6753802144467
 20
507.1138336786895
 10
273.6753802144419
 20
496.1239240008716
 10
271.6753802144465
 20
501.6188788397806
 10
139.6211708527511
 20
501.6188788397806
  0
LWPOLYLINE
  5
3A0
330
1F
100
AcDbEntity
  8
0
  6
Continuous
100
AcDbPolyline
 90
        6
 70
   128
 43
0.0
 10
355.6985662840378
 20
223.0281076369383
 10
355.6985662840378
 20
287.6585288836924
 10
361.1935211229467
 20
289.6585288836913
 10
350.2036114451288
 20
293.6585288836926
 10
355.6985662840378
 20
295.6585288836915
 10
355.6985662840378
 20
352.240059360415
  0
LWPOLYLINE
  5
3A1
330
1F
100
AcDbEntity
  8
0
  6
Continuous
100
AcDbPolyline
 90
        6
 70
   128
 43
0.0
 10
355.8326907965538
 20
82.34012848850147
 10
255.503563124849
 20
82.34012848850147
 10
253.5035631248536
 20
87.83508332741041
 10
249.5035631248487
 20
76.84517364959254
 10
247.5035631248534
 20
82.34012848850147
 10
142.3446527425167
 20
82.34012848850147
  0
CIRCLE
  5
3A2
330
1F
100
AcDbEntity
  8
Specialized_Lines
  6
Continuous
100
AcDbCircle
 10
58.82510926601103
 20
203.8085467563353
 30
0.0
 40
41.43124757010703
  0
CIRCLE
  5
3A3
330
1F
100
AcDbEntity
  8
Specialized_Lines
  6
Continuous
100
AcDbCircle
 10
181.3805396548389
 20
300.6357437100559
 30
0.0
 40
48.68574544184742
  0
DIMENSION
  5
3B4
330
1F
100
AcDbEntity
  8
Specialized_Text
  6
Continuous
100
AcDbDimension
280
     0
  2
*D6
 10
243.878977502883
 20
337.237829791253
 30
0.0
 11
238.8134931918324
 21
308.6819936693284
 31
0.0
 70
    32
  1
50mm min.
 71
     5
 42
57.11167224384957
 73
     0
 74
     0
 75
     0
  3
GENERATED_STYLE__1
100
AcDbAlignedDimension
 13
228.4595284485448
 23
280.1261575474035
 33
0.0
 14
250.3513548964307
 24
337.237829791253
 34
0.0
 50
90.0
100
AcDbRotatedDimension
1001
ACAD
1000
DSTYLE
1002
{
1070
   147
1040
2.0
1002
}
  0
MTEXT
  5
3BB
102
{ACAD_REACTORS
330
3BC
102
}
330
1F
100
AcDbEntity
  8
Specialized_Text
  6
Continuous
100
AcDbMText
 10
117.0956453948828
 20
443.2996207452019
 30
0.0
 40
5.5
 41
77.24104517056693
 46
16.3507270566408
 71
     6
 72
     1
  1
{20mm cavity}
  7
GENERATED_STYLE_1
 73
     1
 44
1.0
  0
LEADER
  5
3BC
330
1F
100
AcDbEntity
  8
Specialized_Text
  6
Continuous
 62
   251
420
  6250335
370
    13
100
AcDbLeader
  3
GENERATED_STYLE__2
 73
     0
 40
7.139495225102319
 41
42.82571623465211
 76
     2
 10
216.7180433026957
 20
443.277338162766
 30
0.0
 10
117.1856453948828
 20
443.2996207452019
 30
0.0
340
3BB
  0
MTEXT
  5
3C3
102
{ACAD_REACTORS
330
3C4
102
}
330
1F
100
AcDbEntity
  8
Specialized_Text
  6
Continuous
100
AcDbMText
 10
117.1156288911943
 20
482.9898443762552
 30
0.0
 40
5.5
 41
127.1458348009208
 46
14.87530744708636
 71
     6
 72
     1
  1
{cavity insulation minimum R=0.9}
  7
GENERATED_STYLE_1
 73
     1
 44
1.0
  0
LEADER
  5
3C4
330
1F
100
AcDbEntity
  8
Specialized_Text
  6
Continuous
 62
   251
420
  6250335
370
    13
100
AcDbLeader
  3
GENERATED_STYLE__2
 73
     0
 40
7.139495225102319
 41
109.756139154161
 76
     2
 10
276.0982782227028
 20
482.9455512711748
 30
0.0
 10
117.2056288911943
 20
482.9898443762552
 30
0.0
340
3C3
  0
MTEXT
  5
3C5
102
{ACAD_REACTORS
330
3C6
102
}
330
1F
100
AcDbEntity
  8
Specialized_Text
  6
Continuous
100
AcDbMText
 10
117.0878383888827
 20
110.1306124745042
 30
0.0
 40
5.5
 41
130.0177183003488
 46
17.54383188675521
 71
     6
 72
     1
  1
{Specialized Masonry Leveling Compound with selected finish}
  7
GENERATED_STYLE_1
 73
     1
 44
1.125350851486466
  0
LEADER
  5
3C6
330
1F
100
AcDbEntity
  8
Specialized_Text
  6
Continuous
 62
   251
420
  6250335
370
    13
100
AcDbLeader
  3
GENERATED_STYLE__2
 73
     0
 40
17.54575416187246
 41
103.3144611186903
 76
     2
 10
151.0297920430431
 20
110.1967901490658
 30
0.0
 10
117.1778383888827
 20
110.1306124745042
 30
0.0
340
3C5
  0
MTEXT
  5
3C7
102
{ACAD_REACTORS
330
3C8
102
}
330
1F
100
AcDbEntity
  8
Specialized_Text
  6
Continuous
100
AcDbMText
 10
117.0732697441197
 20
89.60108230584538
 30
0.0
 40
5.5
 41
129.2318389466287
 46
17.4994831408988
 71
     6
 72
     1
  1
{concrete block wall (NZS 4229:1999)}
  7
GENERATED_STYLE_1
 73
     1
 44
1.127312891095029
  0
LEADER
  5
3C8
330
1F
100
AcDbEntity
  8
Specialized_Text
  6
Continuous
 62
   251
420
  6250335
370
    13
100
AcDbLeader
  3
GENERATED_STYLE__2
 73
     0
 40
7.207025920873125
 41
125.2244201909959
 76
     2
 10
213.0932152524412
 20
90.17832004861686
 30
0.0
 10
117.1632697441197
 20
89.60108230584538
 30
0.0
340
3C7
  0
MTEXT
  5
3C9
102
{ACAD_REACTORS
330
3CA
102
}
330
1F
100
AcDbEntity
  8
Specialized_Text
  6
Continuous
100
AcDbMText
 10
116.9476398110651
 20
141.8327952323733
 30
0.0
 40
5.5
 41
131.4028858399734
 46
38.19675554840575
 71
     6
 72
     1
  1
{rebate in slab must be completely waterproofed with a proprietary tanking membrane as specified by the designer}
  7
GENERATED_STYLE_1
 73
     1
 44
1.12256121350079
  0
LEADER
  5
3CA
330
1F
100
AcDbEntity
  8
Specialized_Text
  6
Continuous
 62
   251
420
  6250335
370
    13
100
AcDbLeader
  3
GENERATED_STYLE__2
 73
     0
 40
38.19424260299939
 41
128.9798772169167
 76
     3
 10
182.7717073324235
 20
282.0431474588157
 30
0.0
 10
182.7717073324235
 20
142.016240469919
 30
0.0
 10
117.0376398110651
 20
141.8327952323733
 30
0.0
340
3C9
  0
MTEXT
  5
3CB
102
{ACAD_REACTORS
330
3CC
102
}
330
1F
100
AcDbEntity
  8
Specialized_Text
  6
Continuous
100
AcDbMText
 10
117.0160414722419
 20
292.2836585033995
 30
0.0
 40
5.5
 41
127.4037643385523
 46
26.56680484730798
 71
     6
 72
     1
  1
20 x 20 PVC bead
  7
GENERATED_STYLE_1
 73
     1
 44
1.136917277563246
  0
LEADER
  5
3CC
330
1F
100
AcDbEntity
  8
Specialized_Text
  6
Continuous
 62
   251
420
  6250335
370
    13
100
AcDbLeader
  3
GENERATED_STYLE__2
 73
     0
 40
5.687585266030014
 41
61.58799454297408
 76
     2
 10
156.6372552578073
 20
292.2722113397409
 30
0.0
 10
117.1060414722419
 20
292.2836585033995
 30
0.0
340
3CB
  0
MTEXT
  5
3CD
102
{ACAD_REACTORS
330
3CE
102
}
330
1F
100
AcDbEntity
  8
Specialized_Text
  6
Continuous
100
AcDbMText
 10
116.9643216979174
 20
373.2400924993804
 30
0.0
 40
5.5
 41
129.4936065210204
 46
20.34246637158869
 71
     6
 72
     1
  1
{discontinuous horizontal 45mm x 20mm ventilated EPS battens on 15° slope and no longer than 100mm as required for fixing}
  7
GENERATED_STYLE_1
 73
     1
 44
1.0
  0
LEADER
  5
3CE
330
1F
100
AcDbEntity
  8
Specialized_Text
  6
Continuous
 62
   251
420
  6250335
370
    13
100
AcDbLeader
  3
GENERATED_STYLE__2
 73
     0
 40
34.82708049113234
 41
124.9205320600273
 76
     2
 10
218.1552014473147
 20
373.2662263875124
 30
0.0
 10
117.0543216979174
 20
373.2400924993804
 30
0.0
340
3CD
  0
MTEXT
  5
3CF
102
{ACAD_REACTORS
330
3D0
102
}
330
1F
100
AcDbEntity
  8
Specialized_Text
  6
Continuous
100
AcDbMText
 10
117.0858271065421
 20
406.0468053306665
 30
0.0
 40
5.5
 41
128.0796620491265
 46
17.52841281376036
 71
     6
 72
     1
  1
{reinforcing mesh and selected plaster finish }
  7
GENERATED_STYLE_1
 73
     1
 44
1.127211339394292
  0
LEADER
  5
3D0
330
1F
100
AcDbEntity
  8
Specialized_Text
  6
Continuous
 62
   251
420
  6250335
370
    13
100
AcDbLeader
  3
GENERATED_STYLE__2
 73
     0
 40
16.12607999663053
 41
127.3103683492496
 76
     2
 10
153.229573452398
 20
406.0640904909966
 30
0.0
 10
117.1758271065421
 20
406.0468053306665
 30
0.0
340
3CF
  0
MTEXT
  5
3D1
102
{ACAD_REACTORS
330
3D2
102
}
330
1F
100
AcDbEntity
  8
Specialized_Text
  6
Continuous
100
AcDbMText
 10
117.0791921373915
 20
463.7987227373632
 30
0.0
 40
5.5
 41
128.8632495709909
 46
28.01727550155216
 71
     6
 72
     1
  1
{approved breather type building wrap as installed by builder}
  7
GENERATED_STYLE_1
 73
     1
 44
1.138766967802711
  0
LEADER
  5
3D2
330
1F
100
AcDbEntity
  8
Specialized_Text
  6
Continuous
 62
   251
420
  6250335
370
    13
100
AcDbLeader
  3
GENERATED_STYLE__2
 73
     0
 40
17.55193049271631
 41
126.274897680764
 76
     2
 10
227.563023971417
 20
463.7853988353744
 30
0.0
 10
117.1691921373915
 20
463.7987227373632
 30
0.0
340
3D1
  0
MTEXT
  5
3D3
330
1F
100
AcDbEntity
  8
Specialized_Text
  6
Continuous
100
AcDbMText
 10
116.648788823137
 20
326.6116468941508
 30
0.0
 40
5.5
 41
129.6997401959115
 46
27.89448410081884
 71
     6
 72
     1
  1
{proprietary subfloor vents to be installed at 1200mm max. centres.  Vents to sit hard on rebate and to remain unsealed on bottom edge, refer detail adjacent}
  7
GENERATED_STYLE_1
 73
     1
 44
1.0
  0
MTEXT
  5
3D5
102
{ACAD_REACTORS
330
3D6
102
}
330
1F
100
AcDbEntity
  8
Specialized_Text
  6
Continuous
100
AcDbMText
 10
84.2721997122461
 20
260.7537462941593
 30
0.0
 40
5.5
 41
96.75770678149469
 46
47.14730581993616
 71
     6
 72
     1
  1
{6mm bead of MS sealent \Pagainst pef backing rod between vents}
  7
GENERATED_STYLE_1
 73
     1
 44
1.127377651166602
  0
LEADER
  5
3D6
330
1F
100
AcDbEntity
  8
Specialized_Text
  6
Continuous
 62
   251
420
  6250335
370
    13
100
AcDbLeader
  3
GENERATED_STYLE__2
 73
     0
 40
26.4738623410131
 41
85.02489768076399
 76
     3
 10
149.6621813607932
 20
283.1032499026578
 30
0.0
 10
92.89403505115904
 20
260.1592718066759
 30
0.0
 10
85.59803505115906
 20
260.1592718066759
 30
0.0
340
3D5
213
-31.29417545100049
223
-10.15336778455901
233
0.0
  0
MTEXT
  5
3D7
102
{ACAD_REACTORS
330
3D8
102
}
330
1F
100
AcDbEntity
  8
Specialized_Text
  6
Continuous
100
AcDbMText
 10
328.8717635519051
 20
361.3651575389406
 30
0.0
 40
5.5
 41
15.05462166178423
 46
0.0
 71
     4
 72
     1
  1
{DPC}
  7
GENERATED_STYLE_1
 73
     1
 44
1.0
  0
LEADER
  5
3D8
330
1F
100
AcDbEntity
  8
Specialized_Text
  6
Continuous
 62
   251
420
  6250335
370
    13
100
AcDbLeader
  3
GENERATED_STYLE__2
 73
     0
 40
5.687585266030014
 41
15.30695770804911
 76
     3
 10
292.5279273011952
 20
338.2080534554004
 30
0.0
 10
292.5279273011952
 20
361.3651575389406
 30
0.0
 10
328.7817635519052
 20
361.3651575389406
 30
0.0
340
3D7
  0
WIPEOUT
  5
3D9
330
1F
100
AcDbEntity
  8
Specialized_Text
  6
Wipeout_Contour
 48
754.0397770098726
160
               140
310
8C0000000100000084000000060000000500000040EA9E8F05A52E40761B175C735D6640000000000000000024B53C7CFC945940761B175C735D6640000000000000000024B53C7CFC945940B295102946306540000000000000000040EA9E8F05A52E40B295102946306540000000000000000040EA9E8F05A52E40761B17
310
5C735D66400000000000000000
100
AcDbWipeout
 90
        0
 10
15.32230805220491
 20
169.50856450309
 30
0.0
 11
87.00560242761223
 21
0.0
 31
0.0
 12
0.0
 22
9.411767494906712
 32
0.0
 13
1.0
 23
1.0
340
0
 70
    15
280
     1
281
    50
282
    50
283
     0
290
     0
360
0
 71
     2
 91
        5
 14
-0.5000000000000001
 24
-0.5
 14
0.5
 24
-0.5
 14
0.5
 24
0.5
 14
-0.5000000000000001
 24
0.5
 14
-0.5000000000000001
 24
-0.5
  0
MTEXT
  5
3DA
330
1F
100
AcDbEntity
  8
Specialized_Text
  6
Continuous
100
AcDbMText
 10
58.82510926601104
 20
171.334192324091
 30
0.0
 40
5.0
 41
0.0
 46
0.0
 71
     8
 72
     1
  1
{TYPICAL VENT DETAIL}
  7
GENERATED_STYLE_1
 73
     1
 44
1.0
  0
MTEXT
  5
3DB
330
1F
100
AcDbEntity
  8
Specialized_Text
  6
Continuous
100
AcDbMText
 10
135.0990829057004
 20
169.3459766355548
 30
0.0
 40
5.0
 41
0.0
 46
0.0
 71
     4
 72
     1
  1
{>100 to paved ground\P>175 to unpaved ground}
  7
GENERATED_STYLE_1
 11
0.0000000000000001
 21
1.0
 31
0.0
 73
     1
 44
1.135210107484259
  0
HATCH
  5
3DC
330
1F
100
AcDbEntity
  8
Specialized_Fills
  6
Continuous
100
AcDbHatch
 10
0.0
 20
0.0
 30
0.0
210
0.0
220
0.0
230
1.0
  2
APDCONC
 70
     0
 71
     1
 91
        1
 92
        2
 72
     1
 73
     1
 93
        2
 10
158.546130341263
 20
284.1486769049171
 42
0.999999999999958
 10
161.7113017463932
 20
283.6661325279479
 42
1.000000000000041
 97
        1
330
3DD
 75
     0
 76
     2
 52
0.0
 41
1.0
 77
     0
 78
     5
 53
0.0
 43
0.0
 44
0.0
 45
0.5
 46
0.5
 79
     2
 49
0.1
 49
-0.9000000000000001
 53
90.0
 43
0.0999999999999091
 44
0.0
 45
-0.5
 46
0.5
 79
     2
 49
0.1
 49
-0.9000000000000001
 53
44.99999999999999
 43
0.0
 44
0.0
 45
0.0
 46
0.9999999997361818
 79
     2
 49
0.1414235625
 49
-0.5656854240000002
 53
7.600000000000001
 43
0.3000000000001819
 44
0.0
 45
0.2147397874986048
 46
0.280867982627166
 79
     2
 49
0.0
 49
-0.4999999999999993
 53
-7.60000000000005
 43
0.3000000000001819
 44
0.0
 45
0.2808679826271661
 46
0.2147397874986046
 79
     2
 49
0.0
 49
-0.4999999999999993
 98
        0
  0
LWPOLYLINE
  5
3DD
102
{ACAD_REACTORS
330
3DC
102
}
330
1F
100
AcDbEntity
  8
Specialized_Fills
  6
Continuous
100
AcDbPolyline
 90
        2
 70
   129
 43
0.0
 10
158.546130341263
 20
284.1486769049171
 42
0.999999999999958
 10
161.7113017463932
 20
283.6661325279479
 42
1.000000000000041
  0
MTEXT
  5
3DE
102
{ACAD_REACTORS
330
3DF
102
}
330
1F
100
AcDbEntity
  8
Specialized_Text
  6
Continuous
100
AcDbMText
 10
117.083142489906
 20
427.5688437049876
 30
0.0
 40
5.5
 41
129.9593562126679
 46
17.55639951908703
 71
     6
 72
     1
  1
50mm EPS or {\C30;\c30975;75mm Neopor® EPS}
  7
GENERATED_STYLE_1
 73
     1
 44
1.127211339394292
  0
LEADER
  5
3DF
330
1F
100
AcDbEntity
  8
Specialized_Text
  6
Continuous
 62
   251
420
  6250335
370
    13
100
AcDbLeader
  3
GENERATED_STYLE__2
 73
     0
 40
7.124488403819918
 41
121.0900409276944
 76
     2
 10
179.883808435378
 20
427.5721355126543
 30
0.0
 10
117.173142489906
 20
427.5688437049876
 30
0.0
340
3DE
  0
LINE
  5
448
330
1F
100
AcDbEntity
  8
Viewport
 62
     7
420
 16777215
100
AcDbLine
 10
358.788523332757
 20
548.9471245374224
 30
0.0
 11
358.788523332757
 21
8.897508898626256
 31
0.0
  0
LINE
  5
449
330
1F
100
AcDbEntity
  8
Viewport
 62
     7
420
 16777215
100
AcDbLine
 10
358.788523332757
 20
8.897508898626256
 30
0.0
 11
-14.35320375322681
 21
8.897508898626256
 31
0.0
  0
MTEXT
  5
44C
330
1F
100
AcDbEntity
  8
Specialized_Lines
 62
    30
420
 16742400
100
AcDbMText
 10
63.94316103725123
 20
50.23037695868064
 30
0.0
 40
7.0
 41
63.23088711380842
 46
0.0
 71
     1
 72
     5
  1
CAVITECLAD
  7
GENERATED_STYLE_2
 73
     1
 44
1.0
1001
ACAD
1000
ACAD_MTEXT_COLUMN_INFO_BEGIN
1070
    75
1070
     2
1070
    79
1070
     0
1070
    76
1070
     1
1070
    78
1070
     0
1070
    48
1040
63.23088711380842
1070
    49
1040
12.5
1070
    50
1070
     1
1040
0.0
1000
ACAD_MTEXT_COLUMN_INFO_END
  0
LINE
  5
44D
330
1F
100
AcDbEntity
  8
Viewport
 62
     7
420
 16777215
100
AcDbLine
 10
-14.35320375322681
 20
8.897508898626256
 30
0.0
 11
-14.35320375322681
 21
548.9471245374224
 31
0.0
  0
LINE
  5
44E
330
1F
100
AcDbEntity
  8
Viewport
 62
     7
420
 16777215
100
AcDbLine
 10
358.788523332757
 20
548.9471245374224
 30
0.0
 11
-14.35320375322681
 21
548.9471245374224
 31
0.0
  0
MTEXT
  5
44F
330
1F
100
AcDbEntity
  8
Specialized_Lines
100
AcDbMText
 10
62.47619605170166
 20
65.82566393785149
 30
0.0
 40
7.7
 41
451.0513981058536
 46
0.0
 71
     1
 72
     5
  1
{\fArial|b1|i0|c0|p34;Wall / Floor: REBATED CONCRETE SLAB (Sealed at Base)}
 73
     1
 44
1.0
1001
ACAD
1000
ACAD_MTEXT_COLUMN_INFO_BEGIN
1070
    75
1070
     2
1070
    79
1070
     0
1070
    76
1070
     1
1070
    78
1070
     0
1070
    48
1040
451.0513981058536
1070
    49
1040
12.5
1070
    50
1070
     1
1040
0.0
1000
ACAD_MTEXT_COLUMN_INFO_END
  0
MTEXT
  5
450
330
1F
100
AcDbEntity
  8
Specialized_Lines
 62
    30
420
 16742400
100
AcDbMText
 10
33.69134057033353
 20
46.28269241819637
 30
0.0
 40
4.0
 41
34.37092666967328
 46
0.0
 71
     5
 72
     5
  1
SCALE: 1:2
  7
GENERATED_STYLE_2
 73
     1
 44
1.0
1001
ACAD
1000
ACAD_MTEXT_COLUMN_INFO_BEGIN
1070
    75
1070
     2
1070
    79
1070
     0
1070
    76
1070
     1
1070
    78
1070
     0
1070
    48
1040
34.37092666967328
1070
    49
1040
12.5
1070
    50
1070
     1
1040
0.0
1000
ACAD_MTEXT_COLUMN_INFO_END
  0
HATCH
  5
451
330
1F
100
AcDbEntity
  8
0
 62
    30
420
 16742400
370
     5
100
AcDbHatch
 10
0.0
 20
0.0
 30
0.0
210
0.0
220
0.0
230
1.0
  2
SOLID
 70
     1
 71
     0
 91
        1
 92
        1
 93
        4
 72
     1
 10
56.84532595184919
 20
51.30565191858753
 11
56.84532595184919
 21
71.30565191858753
 72
     1
 10
56.84532595184919
 20
71.30565191858753
 11
11.84532595184919
 21
71.30565191858753
 72
     1
 10
11.84532595184919
 20
71.30565191858753
 11
11.84532595184919
 21
51.30565191858753
 72
     1
 10
11.84532595184919
 20
51.30565191858753
 11
56.84532595184919
 21
51.30565191858753
 97
        0
 75
     1
 76
     1
 98
        1
 10
42.2604991413782
 20
57.43933242171173
450
        0
451
        0
460
0.0
461
0.0
452
        0
462
1.0
453
        2
463
0.0
 63
     5
421
      255
463
1.0
 63
     2
421
 16776960
470
LINEAR
1001
GradientColor1ACI
1070
     5
1001
GradientColor2ACI
1070
     2
1001
ACAD
1010
0.0
1020
0.0
1030
0.0
  0
LWPOLYLINE
  5
452
330
1F
100
AcDbEntity
  8
0
370
     5
100
AcDbPolyline
 90
        5
 70
     0
 43
0.0
 10
11.84532595184919
 20
71.30565191858753
 10
11.84532595184919
 20
51.30565191858753
 10
56.84532595184919
 20
51.30565191858753
 10
56.84532595184919
 20
71.30565191858753
 10
11.84532595184919
 20
71.30565191858753
  0
MTEXT
  5
453
330
1F
100
AcDbEntity
  8
Specialized_Lines
100
AcDbMText
 10
34.55014104073689
 20
61.11080727219908
 30
0.0
 40
10.0
 41
90.34063603881987
 46
0.0
 71
     5
 72
     5
  1
{\fArial|b1|i0|c0|p34;06E}
 73
     1
 44
1.0
1001
ACAD
1000
ACAD_MTEXT_COLUMN_INFO_BEGIN
1070
    75
1070
     2
1070
    79
1070
     0
1070
    76
1070
     1
1070
    78
1070
     0
1070
    48
1040
90.34063603881987
1070
    49
1040
12.5
1070
    50
1070
     1
1040
0.0
1000
ACAD_MTEXT_COLUMN_INFO_END
  0
LWPOLYLINE
  5
454
330
1F
100
AcDbEntity
  8
0
370
     5
100
AcDbPolyline
 90
        4
 70
     0
 43
0.0
 10
11.84532595184919
 20
51.30565191858753
 10
11.84532595184919
 20
41.30565191858752
 10
56.84532595184919
 20
41.30565191858752
 10
56.84532595184919
 20
51.30565191858753
  0
LEADER
  5
4B4
330
1F
100
AcDbEntity
  8
Specialized_Text
  6
Continuous
 62
   251
420
  6250335
370
    13
100
AcDbLeader
  3
GENERATED_STYLE__2
 73
     0
 40
16.12607999663053
 41
127.3103683492496
 76
     2
 10
146.6207494920111
 20
326.6250343502203
 30
0.0
 10
116.738788823137
 20
326.6116468941508
 30
0.0
340
3CF
  0
MTEXT
  5
563
330
1F
100
AcDbEntity
  8
Specialized_Text
  6
Continuous
100
AcDbMText
 10
14.67646455433896
 20
497.8717993469358
 30
0.0
 40
3.0
 41
48.87340123734884
 46
0.0
 71
     4
 72
     1
  1
Appraisal No.510 [2013]
  7
GENERATED_STYLE_2
 73
     1
 44
1.0
  0
IMAGE
  5
564
330
1F
100
AcDbEntity
  8
0
 62
     7
420
 16777215
160
               140
310
8C00000001000000840000000600000005000000004E2B90CEB02740B87F8E1BBF527F400000000000000000024E2B90CEB0274063FE8CB59327814000000000000000000261EF24793F4F4063FE8CB59327814000000000000000000161EF24793F4F40B87F8E1BBF527F400000000000000000004E2B90CEB02740B87F8E
310
1BBF527F400000000000000000
100
AcDbRasterImage
 90
        0
 10
11.84532595184919
 20
501.1716571394313
 30
0.0
 11
0.0611721721957824
 21
0.0
 31
0.0
 12
0.0
 22
0.0611721721957824
 32
0.0
 13
828.0
 23
781.0
340
54D
 70
     7
280
     0
281
    50
282
    50
283
     0
290
     0
360
565
 71
     1
 91
        2
 14
-0.5
 24
-0.5
 14
827.5
 24
780.5
  0
IMAGE
  5
568
330
1F
100
AcDbEntity
  8
0
 62
     7
420
 16777215
160
               140
310
8C00000001000000840000000600000005000000429944DD46256F4018A8D24636B27F400000000000000000429944DD46256F402310FE3C8A12814000000000000000003465A4CA9D6C76402310FE3C8A12814000000000000000003465A4CA9D6C764018A8D24636B27F400000000000000000429944DD46256F4018A8D2
310
4636B27F400000000000000000
100
AcDbRasterImage
 90
        0
 10
249.1649004306619
 20
507.1382511357092
 30
0.0
 11
0.0434841820317712
 21
0.0
 31
0.0
 12
0.0
 22
0.0434841820317712
 32
0.0
 13
2521.0
 23
901.0
340
54E
 70
     7
280
     0
281
    50
282
    50
283
     0
290
     0
360
569
 71
     1
 91
        2
 14
-0.5
 24
-0.5
 14
2520.5
 24
900.5
  0
LINE
  5
6A4
330
1F
100
AcDbEntity
  8
Specialized_Fills
  6
Continuous
100
AcDbLine
 10
227.9050928574382
 20
172.6873644749846
 30
0.0
 11
231.5786240467967
 21
177.0653084674095
 31
0.0
  0
LINE
  5
6A5
330
1F
100
AcDbEntity
  8
Specialized_Fills
  6
Continuous
100
AcDbLine
 10
228.4595284485448
 20
300.1806733922777
 30
0.0
 11
231.5786240467967
 21
303.8978667771393
 31
0.0
  0
LINE
  5
6A6
330
1F
100
AcDbEntity
  8
Specialized_Fills
  6
Continuous
100
AcDbLine
 10
338.8864356933124
 20
299.5199227847143
 30
0.0
 11
342.5599668826709
 21
303.8978667771393
 31
0.0
  0
LINE
  5
6A7
330
1F
100
AcDbEntity
  8
Specialized_Fills
  6
Continuous
100
AcDbLine
 10
271.987467129741
 20
98.39013407435444
 30
0.0
 11
275.6609983190996
 21
102.7680780667794
 31
0.0
  0
LINE
  5
6A8
330
1F
100
AcDbEntity
  8
Specialized_Fills
  6
Continuous
100
AcDbLine
 10
271.987467129741
 20
225.2226923840841
 30
0.0
 11
275.6609983190996
 21
229.6006363765091
 31
0.0
  0
LINE
  5
6A9
330
1F
100
AcDbEntity
  8
Specialized_Fills
  6
Continuous
100
AcDbLine
 10
282.5604935562394
 20
167.9056388133136
 30
0.0
 11
286.2340247455979
 21
172.2835828057386
 31
0.0
  0
LINE
  5
6AA
330
1F
100
AcDbEntity
  8
Specialized_Fills
  6
Continuous
100
AcDbLine
 10
282.5604935562394
 20
294.7381971230433
 30
0.0
 11
286.2340247455979
 21
299.1161411154683
 31
0.0
  0
LINE
  5
6AB
330
1F
100
AcDbEntity
  8
Specialized_Fills
  6
Continuous
100
AcDbLine
 10
215.6615249926681
 20
93.6084084126835
 30
0.0
 11
219.3350561820267
 21
97.98635240510847
 31
0.0
  0
LINE
  5
6AC
330
1F
100
AcDbEntity
  8
Specialized_Fills
  6
Continuous
100
AcDbLine
 10
215.6615249926681
 20
220.4409667224132
 30
0.0
 11
219.3350561820267
 21
224.8189107148381
 31
0.0
  0
LINE
  5
6AD
330
1F
100
AcDbEntity
  8
Specialized_Fills
  6
Continuous
100
AcDbLine
 10
271.9874709808436
 20
98.39008635980139
 30
0.0
 11
276.542073140519
 21
97.99161030395911
 31
0.0
  0
LINE
  5
6AE
330
1F
100
AcDbEntity
  8
Specialized_Fills
  6
Continuous
100
AcDbLine
 10
271.9874709808436
 20
225.2226446695311
 30
0.0
 11
276.542073140519
 21
224.8241686136887
 31
0.0
  0
LINE
  5
6AF
330
1F
100
AcDbEntity
  8
Specialized_Fills
  6
Continuous
100
AcDbLine
 10
215.661354061075
 20
93.60837368969386
 30
0.0
 11
220.2159562207504
 21
93.20989763385156
 31
0.0
  0
LINE
  5
6B0
330
1F
100
AcDbEntity
  8
Specialized_Fills
  6
Continuous
100
AcDbLine
 10
215.661354061075
 20
220.4409319994236
 30
0.0
 11
220.2159562207504
 21
220.0424559435813
 31
0.0
  0
LINE
  5
6B1
330
1F
100
AcDbEntity
  8
Specialized_Fills
  6
Continuous
100
AcDbLine
 10
227.9050928574382
 20
172.6873644749846
 30
0.0
 11
232.4596950171136
 21
172.2888884191423
 31
0.0
  0
LINE
  5
6B2
330
1F
100
AcDbEntity
  8
Specialized_Fills
  6
Continuous
100
AcDbLine
 10
228.4595284485448
 20
299.4714159558371
 30
0.0
 11
232.4596950171136
 21
299.121446728872
 31
0.0
  0
LINE
  5
6B3
330
1F
100
AcDbEntity
  8
Specialized_Fills
  6
Continuous
100
AcDbLine
 10
338.8864356933123
 20
299.5199227847143
 30
0.0
 11
343.4410378529877
 21
299.121446728872
 31
0.0
  0
LINE
  5
6B4
330
1F
100
AcDbEntity
  8
Specialized_Fills
  6
Continuous
100
AcDbLine
 10
282.5603187735437
 20
167.905651804877
 30
0.0
 11
287.1149209332191
 21
167.5071757490348
 31
0.0
  0
LINE
  5
6B5
330
1F
100
AcDbEntity
  8
Specialized_Fills
  6
Continuous
100
AcDbLine
 10
282.5603187735437
 20
294.7382101146068
 30
0.0
 11
287.1149209332191
 21
294.3397340587645
 31
0.0
  0
LINE
  5
6B7
330
1F
100
AcDbEntity
  8
Specialized_Fills
  6
Continuous
100
AcDbLine
 10
232.4596928574381
 20
172.2888894749846
 30
0.0
 11
231.5786594396338
 21
177.0653137774008
 31
0.0
  0
LINE
  5
6B8
330
1F
100
AcDbEntity
  8
Specialized_Fills
  6
Continuous
100
AcDbLine
 10
232.4596928574382
 20
299.1214477847143
 30
0.0
 11
231.5786594396339
 21
303.8978720871305
 31
0.0
  0
LINE
  5
6B9
330
1F
100
AcDbEntity
  8
Specialized_Fills
  6
Continuous
100
AcDbLine
 10
343.4410356933123
 20
299.1214477847143
 30
0.0
 11
342.5600022755081
 21
303.8978720871305
 31
0.0
  0
LINE
  5
6BA
330
1F
100
AcDbEntity
  8
Specialized_Fills
  6
Continuous
100
AcDbLine
 10
287.1148443708774
 20
167.5068041920777
 30
0.0
 11
286.2338109530731
 21
172.283228494494
 31
0.0
  0
LINE
  5
6BB
330
1F
100
AcDbEntity
  8
Specialized_Fills
  6
Continuous
100
AcDbLine
 10
287.1148443708774
 20
294.3393625018074
 30
0.0
 11
286.2338109530731
 21
299.1157868042236
 31
0.0
  0
LINE
  5
6BC
330
1F
100
AcDbEntity
  8
Specialized_Fills
  6
Continuous
100
AcDbLine
 10
276.5424433572259
 20
97.99133751134249
 30
0.0
 11
275.6614099394217
 21
102.7677618137587
 31
0.0
  0
LINE
  5
6BD
330
1F
100
AcDbEntity
  8
Specialized_Fills
  6
Continuous
100
AcDbLine
 10
276.5424433572259
 20
224.8238958210722
 30
0.0
 11
275.6614099394217
 21
229.6003201234884
 31
0.0
  0
LINE
  5
6BE
330
1F
100
AcDbEntity
  8
Specialized_Fills
  6
Continuous
100
AcDbLine
 10
220.2162520347911
 20
93.20925222843564
 30
0.0
 11
219.3352186169868
 21
97.98567653085187
 31
0.0
  0
LINE
  5
6BF
330
1F
100
AcDbEntity
  8
Specialized_Fills
  6
Continuous
100
AcDbLine
 10
220.2162520347911
 20
220.0418105381653
 30
0.0
 11
219.3352186169868
 21
224.8182348405816
 31
0.0
  0
LINE
  5
6C1
330
1F
100
AcDbEntity
  8
Specialized_Fills
  6
Continuous
100
AcDbLine
 10
227.9050928574382
 20
187.9273644749846
 30
0.0
 11
233.8401962092962
 21
194.1130175894716
 31
0.0
  0
LINE
  5
6C2
330
1F
100
AcDbEntity
  8
Specialized_Fills
  6
Continuous
100
AcDbLine
 10
228.4595284485448
 20
315.3377638158797
 30
0.0
 11
233.8401962092963
 21
320.9455758992012
 31
0.0
  0
LINE
  5
6C3
330
1F
100
AcDbEntity
  8
Specialized_Fills
  6
Continuous
100
AcDbLine
 10
338.8864356933124
 20
314.7599227847142
 30
0.0
 11
344.8215390451704
 21
320.9455758992012
 31
0.0
  0
LINE
  5
6C6
330
1F
100
AcDbEntity
  8
Specialized_Fills
  6
Continuous
100
AcDbLine
 10
198.247462289203
 20
175.3146660951665
 30
0.0
 11
204.1825656410611
 21
181.5003192096535
 31
0.0
  0
LINE
  5
6C7
330
1F
100
AcDbEntity
  8
Specialized_Fills
  6
Continuous
100
AcDbLine
 10
309.2288051250771
 20
175.3146660951665
 30
0.0
 11
312.2789738735523
 21
178.4935973959684
 31
0.0
  0
LINE
  5
6C8
330
1F
100
AcDbEntity
  8
Specialized_Fills
  6
Continuous
100
AcDbLine
 10
309.2288051250771
 20
302.1472244048961
 30
0.0
 11
315.1639084769353
 21
308.3328775193832
 31
0.0
  0
LINE
  5
6CA
330
1F
100
AcDbEntity
  8
Specialized_Fills
  6
Continuous
100
AcDbLine
 10
234.6820628574382
 20
186.8763144749846
 30
0.0
 11
233.840191657028
 21
194.113010069793
 31
0.0
  0
LINE
  5
6CB
330
1F
100
AcDbEntity
  8
Specialized_Fills
  6
Continuous
100
AcDbLine
 10
234.6820628574382
 20
313.7088727847143
 30
0.0
 11
233.840191657028
 21
320.9455683795227
 31
0.0
  0
LINE
  5
6CC
330
1F
100
AcDbEntity
  8
Specialized_Fills
  6
Continuous
100
AcDbLine
 10
345.6634056933123
 20
313.7088727847143
 30
0.0
 11
344.8215344929022
 21
320.9455683795227
 31
0.0
  0
LINE
  5
6CE
330
1F
100
AcDbEntity
  8
Specialized_Fills
  6
Continuous
100
AcDbLine
 10
205.0244447663573
 20
174.263634104298
 30
0.0
 11
204.1825735659471
 21
181.5003296991065
 31
0.0
  0
LINE
  5
6CF
330
1F
100
AcDbEntity
  8
Specialized_Fills
  6
Continuous
100
AcDbLine
 10
316.0057876022314
 20
301.0961924140277
 30
0.0
 11
315.1639164018212
 21
308.3328880088361
 31
0.0
  0
LINE
  5
6D1
330
1F
100
AcDbEntity
  8
Specialized_Fills
  6
Continuous
100
AcDbLine
 10
227.9050928574382
 20
187.9273644749846
 30
0.0
 11
234.6820698476979
 21
186.876295079802
 31
0.0
  0
LINE
  5
6D2
330
1F
100
AcDbEntity
  8
Specialized_Fills
  6
Continuous
100
AcDbLine
 10
228.4595284485448
 20
314.6739330754014
 30
0.0
 11
234.6820698476979
 21
313.7088533895317
 31
0.0
  0
LINE
  5
6D3
330
1F
100
AcDbEntity
  8
Specialized_Fills
  6
Continuous
100
AcDbLine
 10
338.8864356933123
 20
314.7599227847142
 30
0.0
 11
345.6634126835721
 21
313.7088533895317
 31
0.0
  0
LINE
  5
6D4
330
1F
100
AcDbEntity
  8
Specialized_Fills
  6
Continuous
100
AcDbLine
 10
198.2474739046813
 20
175.3145317327933
 30
0.0
 11
205.0244508949411
 21
174.2634623376107
 31
0.0
  0
LINE
  5
6D5
330
1F
100
AcDbEntity
  8
Specialized_Fills
  6
Continuous
100
AcDbLine
 10
309.2288167405555
 20
175.3145317327933
 30
0.0
 11
312.2789738735523
 21
174.8414702457028
 31
0.0
  0
LINE
  5
6D6
330
1F
100
AcDbEntity
  8
Specialized_Fills
  6
Continuous
100
AcDbLine
 10
309.2288167405556
 20
302.1470900425231
 30
0.0
 11
316.0057937308153
 21
301.0960206473404
 31
0.0
  0
LINE
  5
6D7
330
1F
100
AcDbEntity
  8
Specialized_Fills
  6
Continuous
100
AcDbLine
 10
254.0655745560012
 20
112.5413357001003
 30
0.0
 11
259.4009866934328
 21
114.5894085317517
 31
0.0
  0
LINE
  5
6D8
330
1F
100
AcDbEntity
  8
Specialized_Fills
  6
Continuous
100
AcDbLine
 10
254.0655745560012
 20
239.37389400983
 30
0.0
 11
259.4009866934328
 21
241.4219668414814
 31
0.0
  0
LINE
  5
6D9
330
1F
100
AcDbEntity
  8
Specialized_Fills
  6
Continuous
100
AcDbLine
 10
192.2789750328492
 20
83.28592295211869
 30
0.0
 11
193.9041078081736
 21
83.90975297672301
 31
0.0
  0
LINE
  5
6DA
330
1F
100
AcDbEntity
  8
Specialized_Fills
  6
Continuous
100
AcDbLine
 10
300.7964390541062
 20
82.34012848850147
 30
0.0
 11
304.8854506440477
 21
83.90975297672301
 31
0.0
  0
LINE
  5
6DB
330
1F
100
AcDbEntity
  8
Specialized_Fills
  6
Continuous
100
AcDbLine
 10
192.2789750328492
 20
210.1184812618483
 30
0.0
 11
193.9041078081736
 21
210.7423112864527
 31
0.0
  0
LINE
  5
6DC
330
1F
100
AcDbEntity
  8
Specialized_Fills
  6
Continuous
100
AcDbLine
 10
299.5500385066163
 20
208.6942384548013
 30
0.0
 11
304.8854506440477
 21
210.7423112864527
 31
0.0
  0
LINE
  5
6DD
330
1F
100
AcDbEntity
  8
Specialized_Fills
  6
Continuous
100
AcDbLine
 10
299.5500385066163
 20
335.526796764531
 30
0.0
 11
304.0074319338601
 21
337.237829791253
 31
0.0
  0
LINE
  5
6DE
330
1F
100
AcDbEntity
  8
Specialized_Fills
  6
Continuous
100
AcDbLine
 10
221.9626856717483
 20
130.7717387093576
 30
0.0
 11
222.3200232963066
 21
130.9089077717905
 31
0.0
  0
LINE
  5
6DF
330
1F
100
AcDbEntity
  8
Specialized_Fills
  6
Continuous
100
AcDbLine
 10
221.9626856717483
 20
257.6042970190873
 30
0.0
 11
222.3200232963066
 21
257.7414660815202
 31
0.0
  0
LINE
  5
6E0
330
1F
100
AcDbEntity
  8
Specialized_Fills
  6
Continuous
100
AcDbLine
 10
332.9440285076224
 20
257.6042970190873
 30
0.0
 11
333.3013661321807
 21
257.7414660815202
 31
0.0
  0
LINE
  5
6E1
330
1F
100
AcDbEntity
  8
Specialized_Fills
  6
Continuous
100
AcDbLine
 10
281.0095568080531
 20
153.4377089199558
 30
0.0
 11
286.3449689454847
 21
155.4857817516072
 31
0.0
  0
LINE
  5
6E2
330
1F
100
AcDbEntity
  8
Specialized_Fills
  6
Continuous
100
AcDbLine
 10
281.0095568080532
 20
280.2702672296855
 30
0.0
 11
286.3449689454847
 21
282.3183400613369
 31
0.0
  0
LINE
  5
6E3
330
1F
100
AcDbEntity
  8
Specialized_Fills
  6
Continuous
100
AcDbLine
 10
254.0657013617322
 20
112.5411960019507
 30
0.0
 11
257.8560611434539
 21
109.9845660472824
 31
0.0
  0
LINE
  5
6E4
330
1F
100
AcDbEntity
  8
Specialized_Fills
  6
Continuous
100
AcDbLine
 10
254.0657013617322
 20
239.3737543116804
 30
0.0
 11
257.8560611434539
 21
236.8171243570121
 31
0.0
  0
LINE
  5
6E7
330
1F
100
AcDbEntity
  8
Specialized_Fills
  6
Continuous
100
AcDbLine
 10
192.2789750328492
 20
206.1915664949178
 30
0.0
 11
192.3590356882396
 21
206.1375649009931
 31
0.0
  0
LINE
  5
6E8
330
1F
100
AcDbEntity
  8
Specialized_Fills
  6
Continuous
100
AcDbLine
 10
299.5500187423921
 20
208.6941948556613
 30
0.0
 11
303.3403785241137
 21
206.1375649009931
 31
0.0
  0
LINE
  5
6E9
330
1F
100
AcDbEntity
  8
Specialized_Fills
  6
Continuous
100
AcDbLine
 10
299.5500187423921
 20
335.526753165391
 30
0.0
 11
303.3403785241137
 21
332.9701232107227
 31
0.0
  0
LINE
  5
6EA
330
1F
100
AcDbEntity
  8
Specialized_Fills
  6
Continuous
100
AcDbLine
 10
281.0094102380979
 20
153.4378050189655
 30
0.0
 11
284.7997700198196
 21
150.8811750642973
 31
0.0
  0
LINE
  5
6EB
330
1F
100
AcDbEntity
  8
Specialized_Fills
  6
Continuous
100
AcDbLine
 10
170.2418612650009
 20
280.1261575474035
 30
0.0
 11
173.8184271839454
 21
277.713733374027
 31
0.0
  0
LINE
  5
6EC
330
1F
100
AcDbEntity
  8
Specialized_Fills
  6
Continuous
100
AcDbLine
 10
281.009410238098
 20
280.2703633286953
 30
0.0
 11
284.7997700198197
 21
277.713733374027
 31
0.0
  0
LINE
  5
6ED
330
1F
100
AcDbEntity
  8
Specialized_Fills
  6
Continuous
100
AcDbLine
 10
221.9626856717483
 20
129.8446342636532
 30
0.0
 11
222.3198365869013
 21
130.9090445081445
 31
0.0
  0
LINE
  5
6EE
330
1F
100
AcDbEntity
  8
Specialized_Fills
  6
Continuous
100
AcDbLine
 10
221.9626856717483
 20
256.6771925733828
 30
0.0
 11
222.3198365869013
 21
257.7416028178742
 31
0.0
  0
LINE
  5
6EF
330
1F
100
AcDbEntity
  8
Specialized_Fills
  6
Continuous
100
AcDbLine
 10
332.9440285076224
 20
256.6771925733828
 30
0.0
 11
333.3011794227754
 21
257.7416028178742
 31
0.0
  0
LINE
  5
6F0
330
1F
100
AcDbEntity
  8
Specialized_Fills
  6
Continuous
100
AcDbLine
 10
257.8561042434785
 20
109.9845652199895
 30
0.0
 11
259.4011593589818
 21
114.5892643078841
 31
0.0
  0
LINE
  5
6F1
330
1F
100
AcDbEntity
  8
Specialized_Fills
  6
Continuous
100
AcDbLine
 10
257.8561042434785
 20
236.8171235297192
 30
0.0
 11
259.4011593589818
 21
241.4218226176138
 31
0.0
  0
LINE
  5
6F2
330
1F
100
AcDbEntity
  8
Specialized_Fills
  6
Continuous
100
AcDbLine
 10
284.7997287024352
 20
150.8812027350672
 30
0.0
 11
286.3447838179386
 21
155.4859018229618
 31
0.0
  0
LINE
  5
6F3
330
1F
100
AcDbEntity
  8
Specialized_Fills
  6
Continuous
100
AcDbLine
 10
173.8183858665611
 20
277.7137610447969
 30
0.0
 11
174.6278384465947
 21
280.1261575474035
 31
0.0
  0
LINE
  5
6F4
330
1F
100
AcDbEntity
  8
Specialized_Fills
  6
Continuous
100
AcDbLine
 10
284.7997287024353
 20
277.7137610447969
 30
0.0
 11
286.3447838179386
 21
282.3184601326915
 31
0.0
  0
LINE
  5
6F5
330
1F
100
AcDbEntity
  8
Specialized_Fills
  6
Continuous
100
AcDbLine
 10
193.3774393297602
 20
82.34012848850147
 30
0.0
 11
193.9041023681047
 21
83.90973256796673
 31
0.0
  0
LINE
  5
6F6
330
1F
100
AcDbEntity
  8
Specialized_Fills
  6
Continuous
100
AcDbLine
 10
304.3587821656343
 20
82.34012848850147
 30
0.0
 11
304.8854452039789
 21
83.90973256796673
 31
0.0
  0
LINE
  5
6F7
330
1F
100
AcDbEntity
  8
Specialized_Fills
  6
Continuous
100
AcDbLine
 10
192.3590472526014
 20
206.1375917898018
 30
0.0
 11
193.9041023681047
 21
210.7422908776964
 31
0.0
  0
LINE
  5
6F8
330
1F
100
AcDbEntity
  8
Specialized_Fills
  6
Continuous
100
AcDbLine
 10
303.3403900884755
 20
206.1375917898018
 30
0.0
 11
304.8854452039789
 21
210.7422908776964
 31
0.0
  0
LINE
  5
6F9
330
1F
100
AcDbEntity
  8
Specialized_Fills
  6
Continuous
100
AcDbLine
 10
303.3403900884755
 20
332.9701500995315
 30
0.0
 11
304.7723621268567
 21
337.237829791253
 31
0.0
  0
POINT
  5
6FA
330
1F
100
AcDbEntity
  8
Specialized_Fills
  6
Continuous
100
AcDbPoint
 10
230.6848357829708
 20
121.9543411510927
 30
0.0
  0
POINT
  5
6FB
330
1F
100
AcDbEntity
  8
Specialized_Fills
  6
Continuous
100
AcDbPoint
 10
230.6848357829708
 20
248.7868994608224
 30
0.0
  0
POINT
  5
6FC
330
1F
100
AcDbEntity
  8
Specialized_Fills
  6
Continuous
100
AcDbPoint
 10
341.666178618845
 20
248.7868994608224
 30
0.0
  0
POINT
  5
6FD
330
1F
100
AcDbEntity
  8
Specialized_Fills
  6
Continuous
100
AcDbPoint
 10
229.7582548077933
 20
96.58782948914684
 30
0.0
  0
POINT
  5
6FE
330
1F
100
AcDbEntity
  8
Specialized_Fills
  6
Continuous
100
AcDbPoint
 10
229.7582548077933
 20
223.4203877988765
 30
0.0
  0
POINT
  5
6FF
330
1F
100
AcDbEntity
  8
Specialized_Fills
  6
Continuous
100
AcDbPoint
 10
269.1739528014785
 20
126.8325583097297
 30
0.0
  0
POINT
  5
700
330
1F
100
AcDbEntity
  8
Specialized_Fills
  6
Continuous
100
AcDbPoint
 10
158.1926099656044
 20
253.6651166194594
 30
0.0
  0
POINT
  5
701
330
1F
100
AcDbEntity
  8
Specialized_Fills
  6
Continuous
100
AcDbPoint
 10
269.1739528014785
 20
253.6651166194594
 30
0.0
  0
POINT
  5
703
330
1F
100
AcDbEntity
  8
Specialized_Fills
  6
Continuous
100
AcDbPoint
 10
228.8316738326157
 20
198.0538761369305
 30
0.0
  0
POINT
  5
704
330
1F
100
AcDbEntity
  8
Specialized_Fills
  6
Continuous
100
AcDbPoint
 10
228.8316738326158
 20
324.8864344466602
 30
0.0
  0
POINT
  5
705
330
1F
100
AcDbEntity
  8
Specialized_Fills
  6
Continuous
100
AcDbPoint
 10
339.8130166684899
 20
324.8864344466602
 30
0.0
  0
POINT
  5
706
330
1F
100
AcDbEntity
  8
Specialized_Fills
  6
Continuous
100
AcDbPoint
 10
268.247371826301
 20
101.4660466477837
 30
0.0
  0
POINT
  5
707
330
1F
100
AcDbEntity
  8
Specialized_Fills
  6
Continuous
100
AcDbPoint
 10
268.247371826301
 20
228.2986049575134
 30
0.0
  0
POINT
  5
708
330
1F
100
AcDbEntity
  8
Specialized_Fills
  6
Continuous
100
AcDbPoint
 10
227.9050928574382
 20
172.6873644749846
 30
0.0
  0
POINT
  5
709
330
1F
100
AcDbEntity
  8
Specialized_Fills
  6
Continuous
100
AcDbPoint
 10
338.8864356933124
 20
299.5199227847143
 30
0.0
  0
POINT
  5
70B
330
1F
100
AcDbEntity
  8
Specialized_Fills
  6
Continuous
100
AcDbPoint
 10
267.3207908511234
 20
202.9320932955675
 30
0.0
  0
POINT
  5
70C
330
1F
100
AcDbEntity
  8
Specialized_Fills
  6
Continuous
100
AcDbPoint
 10
267.3207908511235
 20
329.7646516052971
 30
0.0
  0
POINT
  5
70D
330
1F
100
AcDbEntity
  8
Specialized_Fills
  6
Continuous
100
AcDbPoint
 10
196.843309450478
 20
107.179240982449
 30
0.0
  0
POINT
  5
70E
330
1F
100
AcDbEntity
  8
Specialized_Fills
  6
Continuous
100
AcDbPoint
 10
307.8246522863521
 20
107.179240982449
 30
0.0
  0
POINT
  5
70F
330
1F
100
AcDbEntity
  8
Specialized_Fills
  6
Continuous
100
AcDbPoint
 10
196.843309450478
 20
234.0117992921787
 30
0.0
  0
POINT
  5
710
330
1F
100
AcDbEntity
  8
Specialized_Fills
  6
Continuous
100
AcDbPoint
 10
307.8246522863521
 20
234.0117992921787
 30
0.0
  0
POINT
  5
711
330
1F
100
AcDbEntity
  8
Specialized_Fills
  6
Continuous
100
AcDbPoint
 10
226.9785118822606
 20
147.3208528130387
 30
0.0
  0
POINT
  5
712
330
1F
100
AcDbEntity
  8
Specialized_Fills
  6
Continuous
100
AcDbPoint
 10
226.9785118822607
 20
274.1534111227684
 30
0.0
  0
POINT
  5
713
330
1F
100
AcDbEntity
  8
Specialized_Fills
  6
Continuous
100
AcDbPoint
 10
337.9598547181347
 20
274.1534111227684
 30
0.0
  0
POINT
  5
715
330
1F
100
AcDbEntity
  8
Specialized_Fills
  6
Continuous
100
AcDbPoint
 10
266.3942098759459
 20
177.5655816336215
 30
0.0
  0
POINT
  5
716
330
1F
100
AcDbEntity
  8
Specialized_Fills
  6
Continuous
100
AcDbPoint
 10
266.3942098759459
 20
304.3981399433512
 30
0.0
  0
POINT
  5
719
330
1F
100
AcDbEntity
  8
Specialized_Fills
  6
Continuous
100
AcDbPoint
 10
195.9167284753004
 20
208.6452876302328
 30
0.0
  0
POINT
  5
71A
330
1F
100
AcDbEntity
  8
Specialized_Fills
  6
Continuous
100
AcDbPoint
 10
306.8980713111746
 20
208.6452876302328
 30
0.0
  0
POINT
  5
71B
330
1F
100
AcDbEntity
  8
Specialized_Fills
  6
Continuous
100
AcDbPoint
 10
306.8980713111746
 20
335.4778459399625
 30
0.0
  0
POINT
  5
71C
330
1F
100
AcDbEntity
  8
Specialized_Fills
  6
Continuous
100
AcDbPoint
 10
265.4676289007683
 20
152.1990699716756
 30
0.0
  0
POINT
  5
71D
330
1F
100
AcDbEntity
  8
Specialized_Fills
  6
Continuous
100
AcDbPoint
 10
265.4676289007684
 20
279.0316282814053
 30
0.0
  0
POINT
  5
720
330
1F
100
AcDbEntity
  8
Specialized_Fills
  6
Continuous
100
AcDbPoint
 10
194.9901475001229
 20
183.2787759682868
 30
0.0
  0
POINT
  5
721
330
1F
100
AcDbEntity
  8
Specialized_Fills
  6
Continuous
100
AcDbPoint
 10
305.971490335997
 20
183.2787759682868
 30
0.0
  0
POINT
  5
722
330
1F
100
AcDbEntity
  8
Specialized_Fills
  6
Continuous
100
AcDbPoint
 10
305.9714903359971
 20
310.1113342780165
 30
0.0
  0
POINT
  5
723
330
1F
100
AcDbEntity
  8
Specialized_Fills
  6
Continuous
100
AcDbPoint
 10
264.5410479255908
 20
126.8325583097297
 30
0.0
  0
POINT
  5
724
330
1F
100
AcDbEntity
  8
Specialized_Fills
  6
Continuous
100
AcDbPoint
 10
264.5410479255908
 20
253.6651166194594
 30
0.0
  0
POINT
  5
725
330
1F
100
AcDbEntity
  8
Specialized_Fills
  6
Continuous
100
AcDbPoint
 10
194.0635665249454
 20
157.9122643063409
 30
0.0
  0
POINT
  5
726
330
1F
100
AcDbEntity
  8
Specialized_Fills
  6
Continuous
100
AcDbPoint
 10
305.0449093608195
 20
157.9122643063409
 30
0.0
  0
POINT
  5
727
330
1F
100
AcDbEntity
  8
Specialized_Fills
  6
Continuous
100
AcDbPoint
 10
305.0449093608195
 20
284.7448226160706
 30
0.0
  0
POINT
  5
728
330
1F
100
AcDbEntity
  8
Specialized_Fills
  6
Continuous
100
AcDbPoint
 10
193.1369855497678
 20
132.5457526443949
 30
0.0
  0
POINT
  5
729
330
1F
100
AcDbEntity
  8
Specialized_Fills
  6
Continuous
100
AcDbPoint
 10
304.118328385642
 20
132.5457526443949
 30
0.0
  0
POINT
  5
72A
330
1F
100
AcDbEntity
  8
Specialized_Fills
  6
Continuous
100
AcDbPoint
 10
193.1369855497678
 20
259.3783109541246
 30
0.0
  0
POINT
  5
72B
330
1F
100
AcDbEntity
  8
Specialized_Fills
  6
Continuous
100
AcDbPoint
 10
304.118328385642
 20
259.3783109541246
 30
0.0
  0
POINT
  5
72C
330
1F
100
AcDbEntity
  8
Specialized_Fills
  6
Continuous
100
AcDbPoint
 10
248.9209955083587
 20
103.4517618547167
 30
0.0
  0
POINT
  5
72D
330
1F
100
AcDbEntity
  8
Specialized_Fills
  6
Continuous
100
AcDbPoint
 10
248.9209955083587
 20
230.2843201644464
 30
0.0
  0
POINT
  5
72E
330
1F
100
AcDbEntity
  8
Specialized_Fills
  6
Continuous
100
AcDbPoint
 10
267.9968903636216
 20
105.9631510561266
 30
0.0
  0
POINT
  5
72F
330
1F
100
AcDbEntity
  8
Specialized_Fills
  6
Continuous
100
AcDbPoint
 10
267.9968903636216
 20
232.7957093658563
 30
0.0
  0
POINT
  5
730
330
1F
100
AcDbEntity
  8
Specialized_Fills
  6
Continuous
100
AcDbPoint
 10
296.856263966435
 20
109.7625596697448
 30
0.0
  0
POINT
  5
731
330
1F
100
AcDbEntity
  8
Specialized_Fills
  6
Continuous
100
AcDbPoint
 10
185.8749211305608
 20
236.5951179794745
 30
0.0
  0
POINT
  5
732
330
1F
100
AcDbEntity
  8
Specialized_Fills
  6
Continuous
100
AcDbPoint
 10
296.856263966435
 20
236.5951179794745
 30
0.0
  0
POINT
  5
734
330
1F
100
AcDbEntity
  8
Specialized_Fills
  6
Continuous
100
AcDbPoint
 10
228.8750967552671
 20
200.2301477190105
 30
0.0
  0
POINT
  5
735
330
1F
100
AcDbEntity
  8
Specialized_Fills
  6
Continuous
100
AcDbPoint
 10
228.8750967552671
 20
327.0627060287402
 30
0.0
  0
POINT
  5
736
330
1F
100
AcDbEntity
  8
Specialized_Fills
  6
Continuous
100
AcDbPoint
 10
339.8564395911413
 20
327.0627060287402
 30
0.0
  0
POINT
  5
738
330
1F
100
AcDbEntity
  8
Specialized_Fills
  6
Continuous
100
AcDbPoint
 10
247.9509916105298
 20
202.7415369204204
 30
0.0
  0
POINT
  5
739
330
1F
100
AcDbEntity
  8
Specialized_Fills
  6
Continuous
100
AcDbPoint
 10
247.9509916105299
 20
329.5740952301501
 30
0.0
  0
POINT
  5
73B
330
1F
100
AcDbEntity
  8
Specialized_Fills
  6
Continuous
100
AcDbPoint
 10
276.8103652133433
 20
206.5409455340386
 30
0.0
  0
POINT
  5
73D
330
1F
100
AcDbEntity
  8
Specialized_Fills
  6
Continuous
100
AcDbPoint
 10
213.9531610816371
 20
86.04405027895488
 30
0.0
  0
POINT
  5
73E
330
1F
100
AcDbEntity
  8
Specialized_Fills
  6
Continuous
100
AcDbPoint
 10
213.9531610816371
 20
212.8766085886846
 30
0.0
  0
POINT
  5
73F
330
1F
100
AcDbEntity
  8
Specialized_Fills
  6
Continuous
100
AcDbPoint
 10
227.9050928574382
 20
172.6873644749846
 30
0.0
  0
POINT
  5
740
330
1F
100
AcDbEntity
  8
Specialized_Fills
  6
Continuous
100
AcDbPoint
 10
338.8864356933123
 20
299.5199227847143
 30
0.0
  0
POINT
  5
741
330
1F
100
AcDbEntity
  8
Specialized_Fills
  6
Continuous
100
AcDbPoint
 10
256.7644664602516
 20
176.4867730886027
 30
0.0
  0
POINT
  5
742
330
1F
100
AcDbEntity
  8
Specialized_Fills
  6
Continuous
100
AcDbPoint
 10
256.7644664602516
 20
303.3193313983324
 30
0.0
  0
POINT
  5
745
330
1F
100
AcDbEntity
  8
Specialized_Fills
  6
Continuous
100
AcDbPoint
 10
193.9072623285454
 20
182.8224361432487
 30
0.0
  0
POINT
  5
746
330
1F
100
AcDbEntity
  8
Specialized_Fills
  6
Continuous
100
AcDbPoint
 10
304.8886051644195
 20
182.8224361432487
 30
0.0
  0
POINT
  5
747
330
1F
100
AcDbEntity
  8
Specialized_Fills
  6
Continuous
100
AcDbPoint
 10
304.8886051644195
 20
309.6549944529784
 30
0.0
  0
POINT
  5
749
330
1F
100
AcDbEntity
  8
Specialized_Fills
  6
Continuous
100
AcDbPoint
 10
212.9831571838082
 20
185.3338253446586
 30
0.0
  0
POINT
  5
74A
330
1F
100
AcDbEntity
  8
Specialized_Fills
  6
Continuous
100
AcDbPoint
 10
323.9645000196824
 20
312.1663836543883
 30
0.0
  0
POINT
  5
74B
330
1F
100
AcDbEntity
  8
Specialized_Fills
  6
Continuous
100
AcDbPoint
 10
236.7185677071598
 20
146.4326006431669
 30
0.0
  0
POINT
  5
74C
330
1F
100
AcDbEntity
  8
Specialized_Fills
  6
Continuous
100
AcDbPoint
 10
236.7185677071599
 20
273.2651589528966
 30
0.0
  0
POINT
  5
74D
330
1F
100
AcDbEntity
  8
Specialized_Fills
  6
Continuous
100
AcDbPoint
 10
347.699910543034
 20
273.2651589528966
 30
0.0
  0
POINT
  5
74E
330
1F
100
AcDbEntity
  8
Specialized_Fills
  6
Continuous
100
AcDbPoint
 10
284.8427064113278
 20
152.7682636978128
 30
0.0
  0
POINT
  5
74F
330
1F
100
AcDbEntity
  8
Specialized_Fills
  6
Continuous
100
AcDbPoint
 10
173.8613635754536
 20
279.6008220075425
 30
0.0
  0
POINT
  5
750
330
1F
100
AcDbEntity
  8
Specialized_Fills
  6
Continuous
100
AcDbPoint
 10
284.8427064113278
 20
279.6008220075425
 30
0.0
  0
POINT
  5
751
330
1F
100
AcDbEntity
  8
Specialized_Fills
  6
Continuous
100
AcDbPoint
 10
192.9372584307165
 20
155.2796528992228
 30
0.0
  0
POINT
  5
752
330
1F
100
AcDbEntity
  8
Specialized_Fills
  6
Continuous
100
AcDbPoint
 10
303.9186012665906
 20
155.2796528992228
 30
0.0
  0
POINT
  5
753
330
1F
100
AcDbEntity
  8
Specialized_Fills
  6
Continuous
100
AcDbPoint
 10
303.9186012665906
 20
282.1122112089525
 30
0.0
  0
POINT
  5
754
330
1F
100
AcDbEntity
  8
Specialized_Fills
  6
Continuous
100
AcDbPoint
 10
221.7966320335299
 20
159.0790615128409
 30
0.0
  0
POINT
  5
755
330
1F
100
AcDbEntity
  8
Specialized_Fills
  6
Continuous
100
AcDbPoint
 10
332.7779748694041
 20
285.9116198225706
 30
0.0
  0
POINT
  5
756
330
1F
100
AcDbEntity
  8
Specialized_Fills
  6
Continuous
100
AcDbPoint
 10
201.7507332804381
 20
129.0248890674051
 30
0.0
  0
POINT
  5
757
330
1F
100
AcDbEntity
  8
Specialized_Fills
  6
Continuous
100
AcDbPoint
 10
201.7507332804381
 20
255.8574473771347
 30
0.0
  0
POINT
  5
758
330
1F
100
AcDbEntity
  8
Specialized_Fills
  6
Continuous
100
AcDbPoint
 10
312.7320761163123
 20
255.8574473771347
 30
0.0
  0
POINT
  5
759
330
1F
100
AcDbEntity
  8
Specialized_Fills
  6
Continuous
100
AcDbPoint
 10
211.2840471489376
 20
120.0887722506405
 30
0.0
  0
POINT
  5
75A
330
1F
100
AcDbEntity
  8
Specialized_Fills
  6
Continuous
100
AcDbPoint
 10
211.2840471489376
 20
246.9213305603702
 30
0.0
  0
POINT
  5
75B
330
1F
100
AcDbEntity
  8
Specialized_Fills
  6
Continuous
100
AcDbPoint
 10
322.2653899848117
 20
246.9213305603702
 30
0.0
  0
POINT
  5
75C
330
1F
100
AcDbEntity
  8
Specialized_Fills
  6
Continuous
100
AcDbPoint
 10
281.5882114347503
 20
121.8073954484426
 30
0.0
  0
POINT
  5
75D
330
1F
100
AcDbEntity
  8
Specialized_Fills
  6
Continuous
100
AcDbPoint
 10
170.6068685988761
 20
248.6399537581723
 30
0.0
  0
POINT
  5
75E
330
1F
100
AcDbEntity
  8
Specialized_Fills
  6
Continuous
100
AcDbPoint
 10
281.5882114347503
 20
248.6399537581723
 30
0.0
  0
POINT
  5
75F
330
1F
100
AcDbEntity
  8
Specialized_Fills
  6
Continuous
100
AcDbPoint
 10
297.6548184774858
 20
111.5718379094355
 30
0.0
  0
POINT
  5
760
330
1F
100
AcDbEntity
  8
Specialized_Fills
  6
Continuous
100
AcDbPoint
 10
186.6734756416116
 20
238.4043962191653
 30
0.0
  0
POINT
  5
761
330
1F
100
AcDbEntity
  8
Specialized_Fills
  6
Continuous
100
AcDbPoint
 10
297.6548184774858
 20
238.4043962191653
 30
0.0
  0
POINT
  5
762
330
1F
100
AcDbEntity
  8
Specialized_Fills
  6
Continuous
100
AcDbPoint
 10
240.9110328846889
 20
123.5260186462446
 30
0.0
  0
POINT
  5
763
330
1F
100
AcDbEntity
  8
Specialized_Fills
  6
Continuous
100
AcDbPoint
 10
240.9110328846889
 20
250.3585769559743
 30
0.0
  0
POINT
  5
764
330
1F
100
AcDbEntity
  8
Specialized_Fills
  6
Continuous
100
AcDbPoint
 10
351.8923757205631
 20
250.3585769559743
 30
0.0
  0
POINT
  5
765
330
1F
100
AcDbEntity
  8
Specialized_Fills
  6
Continuous
100
AcDbPoint
 10
256.9776399274243
 20
113.2904611072376
 30
0.0
  0
POINT
  5
766
330
1F
100
AcDbEntity
  8
Specialized_Fills
  6
Continuous
100
AcDbPoint
 10
256.9776399274243
 20
240.1230194169673
 30
0.0
  0
POINT
  5
769
330
1F
100
AcDbEntity
  8
Specialized_Fills
  6
Continuous
100
AcDbPoint
 10
196.1241110648848
 20
208.1880798952655
 30
0.0
  0
POINT
  5
76A
330
1F
100
AcDbEntity
  8
Specialized_Fills
  6
Continuous
100
AcDbPoint
 10
307.105453900759
 20
208.1880798952655
 30
0.0
  0
POINT
  5
76B
330
1F
100
AcDbEntity
  8
Specialized_Fills
  6
Continuous
100
AcDbPoint
 10
307.105453900759
 20
335.0206382049951
 30
0.0
  0
POINT
  5
76C
330
1F
100
AcDbEntity
  8
Specialized_Fills
  6
Continuous
100
AcDbPoint
 10
266.4282753506976
 20
83.07414478333777
 30
0.0
  0
POINT
  5
76D
330
1F
100
AcDbEntity
  8
Specialized_Fills
  6
Continuous
100
AcDbPoint
 10
266.4282753506976
 20
209.9067030930675
 30
0.0
  0
POINT
  5
76E
330
1F
100
AcDbEntity
  8
Specialized_Fills
  6
Continuous
100
AcDbPoint
 10
266.4282753506976
 20
336.7392614027971
 30
0.0
  0
POINT
  5
76F
330
1F
100
AcDbEntity
  8
Specialized_Fills
  6
Continuous
100
AcDbPoint
 10
221.9626856717483
 20
167.5314948815784
 30
0.0
  0
POINT
  5
770
330
1F
100
AcDbEntity
  8
Specialized_Fills
  6
Continuous
100
AcDbPoint
 10
332.9440285076224
 20
294.3640531913081
 30
0.0
  0
POINT
  5
771
330
1F
100
AcDbEntity
  8
Specialized_Fills
  6
Continuous
100
AcDbPoint
 10
225.7510968006362
 20
84.79276798113984
 30
0.0
  0
POINT
  5
772
330
1F
100
AcDbEntity
  8
Specialized_Fills
  6
Continuous
100
AcDbPoint
 10
225.7510968006362
 20
211.6253262908695
 30
0.0
  0
POINT
  5
773
330
1F
100
AcDbEntity
  8
Specialized_Fills
  6
Continuous
100
AcDbPoint
 10
292.266849957561
 20
169.2501180793805
 30
0.0
  0
POINT
  5
774
330
1F
100
AcDbEntity
  8
Specialized_Fills
  6
Continuous
100
AcDbPoint
 10
292.266849957561
 20
296.0826763891102
 30
0.0
  0
POINT
  5
775
330
1F
100
AcDbEntity
  8
Specialized_Fills
  6
Continuous
100
AcDbPoint
 10
197.3521141644223
 20
159.0145605403735
 30
0.0
  0
POINT
  5
776
330
1F
100
AcDbEntity
  8
Specialized_Fills
  6
Continuous
100
AcDbPoint
 10
308.3334570002965
 20
159.0145605403735
 30
0.0
  0
POINT
  5
777
330
1F
100
AcDbEntity
  8
Specialized_Fills
  6
Continuous
100
AcDbPoint
 10
308.3334570002965
 20
285.8471188501032
 30
0.0
  0
POINT
  5
778
330
1F
100
AcDbEntity
  8
Specialized_Fills
  6
Continuous
100
AcDbPoint
 10
251.5896714074996
 20
170.9687412771826
 30
0.0
  0
POINT
  5
779
330
1F
100
AcDbEntity
  8
Specialized_Fills
  6
Continuous
100
AcDbPoint
 10
251.5896714074996
 20
297.8012995869122
 30
0.0
  0
POINT
  5
77A
330
1F
100
AcDbEntity
  8
Specialized_Fills
  6
Continuous
100
AcDbPoint
 10
267.6562784502351
 20
160.7331837381755
 30
0.0
  0
POINT
  5
77C
330
1F
100
AcDbEntity
  8
Specialized_Fills
  6
Continuous
100
AcDbPoint
 10
206.8027495876956
 20
128.7982442164737
 30
0.0
  0
POINT
  5
77D
330
1F
100
AcDbEntity
  8
Specialized_Fills
  6
Continuous
100
AcDbPoint
 10
206.8027495876956
 20
255.6308025262034
 30
0.0
  0
POINT
  5
77E
330
1F
100
AcDbEntity
  8
Specialized_Fills
  6
Continuous
100
AcDbPoint
 10
317.7840924235697
 20
255.6308025262034
 30
0.0
  0
POINT
  5
77F
330
1F
100
AcDbEntity
  8
Specialized_Fills
  6
Continuous
100
AcDbPoint
 10
226.9790999001736
 20
162.4518069359776
 30
0.0
  0
POINT
  5
780
330
1F
100
AcDbEntity
  8
Specialized_Fills
  6
Continuous
100
AcDbPoint
 10
337.9604427360478
 20
289.2843652457072
 30
0.0
  0
POINT
  5
781
330
1F
100
AcDbEntity
  8
Specialized_Fills
  6
Continuous
100
AcDbPoint
 10
277.1069138735083
 20
130.5168674142757
 30
0.0
  0
POINT
  5
782
330
1F
100
AcDbEntity
  8
Specialized_Fills
  6
Continuous
100
AcDbPoint
 10
166.1255710376341
 20
257.3494257240054
 30
0.0
  0
POINT
  5
783
330
1F
100
AcDbEntity
  8
Specialized_Fills
  6
Continuous
100
AcDbPoint
 10
277.1069138735084
 20
257.3494257240054
 30
0.0
  0
POINT
  5
784
330
1F
100
AcDbEntity
  8
Specialized_Fills
  6
Continuous
100
AcDbPoint
 10
236.4297353234469
 20
132.2354906120778
 30
0.0
  0
POINT
  5
785
330
1F
100
AcDbEntity
  8
Specialized_Fills
  6
Continuous
100
AcDbPoint
 10
236.4297353234469
 20
259.0680489218075
 30
0.0
  0
POINT
  5
786
330
1F
100
AcDbEntity
  8
Specialized_Fills
  6
Continuous
100
AcDbPoint
 10
347.4110781593211
 20
259.0680489218075
 30
0.0
  0
POINT
  5
787
330
1F
100
AcDbEntity
  8
Specialized_Fills
  6
Continuous
100
AcDbPoint
 10
295.3160643021297
 20
106.5764288531849
 30
0.0
  0
POINT
  5
788
330
1F
100
AcDbEntity
  8
Specialized_Fills
  6
Continuous
100
AcDbPoint
 10
295.3160643021297
 20
233.4089871629146
 30
0.0
  0
POINT
  5
789
330
1F
100
AcDbEntity
  8
Specialized_Fills
  6
Continuous
100
AcDbPoint
 10
250.8773098863244
 20
98.94848154318502
 30
0.0
  0
POINT
  5
78A
330
1F
100
AcDbEntity
  8
Specialized_Fills
  6
Continuous
100
AcDbPoint
 10
250.8773098863244
 20
225.7810398529147
 30
0.0
  0
POINT
  5
78C
330
1F
100
AcDbEntity
  8
Specialized_Fills
  6
Continuous
100
AcDbPoint
 10
292.170001689049
 20
187.9432590949844
 30
0.0
  0
POINT
  5
78D
330
1F
100
AcDbEntity
  8
Specialized_Fills
  6
Continuous
100
AcDbPoint
 10
292.1700016890491
 20
314.7758174047141
 30
0.0
  0
POINT
  5
78E
330
1F
100
AcDbEntity
  8
Specialized_Fills
  6
Continuous
100
AcDbPoint
 10
199.4473320992775
 20
171.2122676033825
 30
0.0
  0
POINT
  5
78F
330
1F
100
AcDbEntity
  8
Specialized_Fills
  6
Continuous
100
AcDbPoint
 10
310.4286749351517
 20
171.2122676033825
 30
0.0
  0
POINT
  5
790
330
1F
100
AcDbEntity
  8
Specialized_Fills
  6
Continuous
100
AcDbPoint
 10
310.4286749351517
 20
298.0448259131123
 30
0.0
  0
POINT
  5
792
330
1F
100
AcDbEntity
  8
Specialized_Fills
  6
Continuous
100
AcDbPoint
 10
247.7312472732436
 20
180.3153117849845
 30
0.0
  0
POINT
  5
793
330
1F
100
AcDbEntity
  8
Specialized_Fills
  6
Continuous
100
AcDbPoint
 10
247.7312472732436
 20
307.1478700947142
 30
0.0
  0
POINT
  5
794
330
1F
100
AcDbEntity
  8
Specialized_Fills
  6
Continuous
100
AcDbPoint
 10
265.9899205193463
 20
163.5843202933827
 30
0.0
  0
POINT
  5
795
330
1F
100
AcDbEntity
  8
Specialized_Fills
  6
Continuous
100
AcDbPoint
 10
265.9899205193463
 20
290.4168786031123
 30
0.0
  0
POINT
  5
796
330
1F
100
AcDbEntity
  8
Specialized_Fills
  6
Continuous
100
AcDbPoint
 10
295.0914366469808
 20
136.9176938544603
 30
0.0
  0
POINT
  5
797
330
1F
100
AcDbEntity
  8
Specialized_Fills
  6
Continuous
100
AcDbPoint
 10
184.1100938111066
 20
263.75025216419
 30
0.0
  0
POINT
  5
798
330
1F
100
AcDbEntity
  8
Specialized_Fills
  6
Continuous
100
AcDbPoint
 10
295.0914366469808
 20
263.75025216419
 30
0.0
  0
POINT
  5
799
330
1F
100
AcDbEntity
  8
Specialized_Fills
  6
Continuous
100
AcDbPoint
 10
250.6526822311754
 20
129.2897465444604
 30
0.0
  0
POINT
  5
79A
330
1F
100
AcDbEntity
  8
Specialized_Fills
  6
Continuous
100
AcDbPoint
 10
250.6526822311754
 20
256.1223048541901
 30
0.0
  0
LINE
  5
79B
330
1F
100
AcDbEntity
  8
Specialized_Fills
  6
Continuous
100
AcDbLine
 10
247.3785779928967
 20
155.7636114847007
 30
0.0
 11
253.0576026537612
 21
155.1233741058385
 31
0.0
  0
LINE
  5
79C
330
1F
100
AcDbEntity
  8
Specialized_Fills
  6
Continuous
100
AcDbLine
 10
247.3785779928967
 20
282.5961697944304
 30
0.0
 11
253.0576026537613
 21
281.9559324155683
 31
0.0
  0
LINE
  5
79D
330
1F
100
AcDbEntity
  8
Specialized_Fills
  6
Continuous
100
AcDbLine
 10
247.3785779928967
 20
155.7636114847007
 30
0.0
 11
249.5649003682593
 21
151.7482436969397
 31
0.0
  0
LINE
  5
79E
330
1F
100
AcDbEntity
  8
Specialized_Fills
  6
Continuous
100
AcDbLine
 10
247.3785779928967
 20
282.5961697944304
 30
0.0
 11
249.5649003682594
 21
278.5808020066693
 31
0.0
  0
LINE
  5
79F
330
1F
100
AcDbEntity
  8
Specialized_Fills
  6
Continuous
100
AcDbLine
 10
249.5649000538863
 20
151.7482460802505
 30
0.0
 11
253.0576266477396
 21
155.1233475514052
 31
0.0
  0
LINE
  5
7A0
330
1F
100
AcDbEntity
  8
Specialized_Fills
  6
Continuous
100
AcDbLine
 10
249.5649000538863
 20
278.5808043899802
 30
0.0
 11
253.0576266477396
 21
281.9559058611348
 31
0.0
  0
LINE
  5
7A2
330
1F
100
AcDbEntity
  8
Specialized_Fills
  6
Continuous
100
AcDbLine
 10
269.0129329745088
 20
190.4056609040639
 30
0.0
 11
270.9769194382573
 21
195.7725950540431
 31
0.0
  0
LINE
  5
7A5
330
1F
100
AcDbEntity
  8
Specialized_Fills
  6
Continuous
100
AcDbLine
 10
269.0127840690424
 20
190.4055700720342
 30
0.0
 11
273.4310492189932
 21
191.5812048217464
 31
0.0
  0
LINE
  5
7A8
330
1F
100
AcDbEntity
  8
Specialized_Fills
  6
Continuous
100
AcDbLine
 10
273.4315470549345
 20
191.5806986464082
 30
0.0
 11
270.9773022307989
 21
195.7720148290893
 31
0.0
  0
LINE
  5
7AA
330
1F
100
AcDbEntity
  8
Specialized_Fills
  6
Continuous
100
AcDbLine
 10
196.5838914619031
 20
115.8585085562282
 30
0.0
 11
201.9193035993346
 21
117.9065813878796
 31
0.0
  0
LINE
  5
7AB
330
1F
100
AcDbEntity
  8
Specialized_Fills
  6
Continuous
100
AcDbLine
 10
307.5652342977772
 20
115.8585085562282
 30
0.0
 11
312.2789738735523
 21
117.6679436498914
 31
0.0
  0
LINE
  5
7AC
330
1F
100
AcDbEntity
  8
Specialized_Fills
  6
Continuous
100
AcDbLine
 10
196.5838914619031
 20
242.691066865958
 30
0.0
 11
201.9193035993346
 21
244.7391396976093
 31
0.0
  0
LINE
  5
7AD
330
1F
100
AcDbEntity
  8
Specialized_Fills
  6
Continuous
100
AcDbLine
 10
307.5652342977772
 20
242.691066865958
 30
0.0
 11
312.9006464352088
 21
244.7391396976093
 31
0.0
  0
LINE
  5
7AE
330
1F
100
AcDbEntity
  8
Specialized_Fills
  6
Continuous
100
AcDbLine
 10
196.5838716976789
 20
115.8584649570882
 30
0.0
 11
200.3742314794005
 21
113.30183500242
 31
0.0
  0
LINE
  5
7AF
330
1F
100
AcDbEntity
  8
Specialized_Fills
  6
Continuous
100
AcDbLine
 10
307.565214533553
 20
115.8584649570882
 30
0.0
 11
311.3555743152747
 21
113.30183500242
 31
0.0
  0
LINE
  5
7B0
330
1F
100
AcDbEntity
  8
Specialized_Fills
  6
Continuous
100
AcDbLine
 10
196.5838716976789
 20
242.691023266818
 30
0.0
 11
200.3742314794005
 21
240.1343933121497
 31
0.0
  0
LINE
  5
7B1
330
1F
100
AcDbEntity
  8
Specialized_Fills
  6
Continuous
100
AcDbLine
 10
307.565214533553
 20
242.691023266818
 30
0.0
 11
311.3555743152747
 21
240.1343933121497
 31
0.0
  0
LINE
  5
7B2
330
1F
100
AcDbEntity
  8
Specialized_Fills
  6
Continuous
100
AcDbLine
 10
200.3742430437623
 20
113.3018618912288
 30
0.0
 11
201.9192981592657
 21
117.9065609791233
 31
0.0
  0
LINE
  5
7B3
330
1F
100
AcDbEntity
  8
Specialized_Fills
  6
Continuous
100
AcDbLine
 10
311.3555858796364
 20
113.3018618912288
 30
0.0
 11
312.2789738735523
 21
116.0538179934369
 31
0.0
  0
LINE
  5
7B4
330
1F
100
AcDbEntity
  8
Specialized_Fills
  6
Continuous
100
AcDbLine
 10
200.3742430437623
 20
240.1344202009584
 30
0.0
 11
201.9192981592657
 21
244.739119288853
 31
0.0
  0
LINE
  5
7B5
330
1F
100
AcDbEntity
  8
Specialized_Fills
  6
Continuous
100
AcDbLine
 10
311.3555858796364
 20
240.1344202009584
 30
0.0
 11
312.9006409951399
 21
244.739119288853
 31
0.0
  0
LINE
  5
7B6
330
1F
100
AcDbEntity
  8
Specialized_Fills
  6
Continuous
100
AcDbLine
 10
197.2832563046317
 20
143.6105377725467
 30
0.0
 11
202.6186684420633
 21
145.6586106041981
 31
0.0
  0
LINE
  5
7B7
330
1F
100
AcDbEntity
  8
Specialized_Fills
  6
Continuous
100
AcDbLine
 10
308.2645991405059
 20
143.6105377725467
 30
0.0
 11
312.2789738735523
 21
145.1515118557181
 31
0.0
  0
LINE
  5
7B8
330
1F
100
AcDbEntity
  8
Specialized_Fills
  6
Continuous
100
AcDbLine
 10
197.2832563046317
 20
270.4430960822764
 30
0.0
 11
202.6186684420633
 21
272.4911689139278
 31
0.0
  0
LINE
  5
7B9
330
1F
100
AcDbEntity
  8
Specialized_Fills
  6
Continuous
100
AcDbLine
 10
308.2645991405059
 20
270.4430960822764
 30
0.0
 11
313.6000112779375
 21
272.4911689139278
 31
0.0
  0
LINE
  5
7BA
330
1F
100
AcDbEntity
  8
Specialized_Fills
  6
Continuous
100
AcDbLine
 10
197.2832365404076
 20
143.6104941734067
 30
0.0
 11
201.0735963221292
 21
141.0538642187385
 31
0.0
  0
LINE
  5
7BB
330
1F
100
AcDbEntity
  8
Specialized_Fills
  6
Continuous
100
AcDbLine
 10
308.2645793762817
 20
143.6104941734067
 30
0.0
 11
312.0549391580034
 21
141.0538642187385
 31
0.0
  0
LINE
  5
7BC
330
1F
100
AcDbEntity
  8
Specialized_Fills
  6
Continuous
100
AcDbLine
 10
197.2832365404076
 20
270.4430524831364
 30
0.0
 11
201.0735963221292
 21
267.8864225284682
 31
0.0
  0
LINE
  5
7BD
330
1F
100
AcDbEntity
  8
Specialized_Fills
  6
Continuous
100
AcDbLine
 10
308.2645793762817
 20
270.4430524831364
 30
0.0
 11
312.0549391580034
 21
267.8864225284682
 31
0.0
  0
LINE
  5
7BE
330
1F
100
AcDbEntity
  8
Specialized_Fills
  6
Continuous
100
AcDbLine
 10
201.073607886491
 20
141.0538911075472
 30
0.0
 11
202.6186630019944
 21
145.6585901954418
 31
0.0
  0
LINE
  5
7BF
330
1F
100
AcDbEntity
  8
Specialized_Fills
  6
Continuous
100
AcDbLine
 10
312.0549507223651
 20
141.0538911075472
 30
0.0
 11
312.2789738735523
 21
141.7215431476512
 31
0.0
  0
LINE
  5
7C0
330
1F
100
AcDbEntity
  8
Specialized_Fills
  6
Continuous
100
AcDbLine
 10
201.073607886491
 20
267.8864494172769
 30
0.0
 11
202.6186630019944
 21
272.4911485051714
 31
0.0
  0
LINE
  5
7C1
330
1F
100
AcDbEntity
  8
Specialized_Fills
  6
Continuous
100
AcDbLine
 10
312.0549507223651
 20
267.8864494172769
 30
0.0
 11
313.6000058378686
 21
272.4911485051714
 31
0.0
  0
LINE
  5
7C2
330
1F
100
AcDbEntity
  8
Specialized_Fills
  6
Continuous
100
AcDbLine
 10
241.0050920584518
 20
87.64053189632127
 30
0.0
 11
246.3405041958833
 21
89.68860472797265
 31
0.0
  0
LINE
  5
7C3
330
1F
100
AcDbEntity
  8
Specialized_Fills
  6
Continuous
100
AcDbLine
 10
241.0050920584518
 20
214.4730902060509
 30
0.0
 11
246.3405041958833
 21
216.5211630377023
 31
0.0
  0
LINE
  5
7C4
330
1F
100
AcDbEntity
  8
Specialized_Fills
  6
Continuous
100
AcDbLine
 10
241.0050722942276
 20
87.64048829718131
 30
0.0
 11
244.7954320759493
 21
85.08385834251305
 31
0.0
  0
LINE
  5
7C5
330
1F
100
AcDbEntity
  8
Specialized_Fills
  6
Continuous
100
AcDbLine
 10
241.0050722942276
 20
214.4730466069109
 30
0.0
 11
244.7954320759493
 21
211.9164166522427
 31
0.0
  0
LINE
  5
7C6
330
1F
100
AcDbEntity
  8
Specialized_Fills
  6
Continuous
100
AcDbLine
 10
244.7954436403111
 20
85.08388523132181
 30
0.0
 11
246.3404987558144
 21
89.68858431921637
 31
0.0
  0
LINE
  5
7C7
330
1F
100
AcDbEntity
  8
Specialized_Fills
  6
Continuous
100
AcDbLine
 10
244.7954436403111
 20
211.9164435410515
 30
0.0
 11
246.3404987558144
 21
216.521142628946
 31
0.0
  0
LINE
  5
7C9
330
1F
100
AcDbEntity
  8
Specialized_Fills
  6
Continuous
100
AcDbLine
 10
248.9726812206469
 20
184.7185531699454
 30
0.0
 11
254.3080933580785
 21
186.7666260015968
 31
0.0
  0
LINE
  5
7CA
330
1F
100
AcDbEntity
  8
Specialized_Fills
  6
Continuous
100
AcDbLine
 10
248.972681220647
 20
311.5511114796751
 30
0.0
 11
254.3080933580785
 21
313.5991843113266
 31
0.0
  0
LINE
  5
7CC
330
1F
100
AcDbEntity
  8
Specialized_Fills
  6
Continuous
100
AcDbLine
 10
248.9726812206469
 20
184.7185531699454
 30
0.0
 11
252.7630410023686
 21
182.1619232152772
 31
0.0
  0
LINE
  5
7CD
330
1F
100
AcDbEntity
  8
Specialized_Fills
  6
Continuous
100
AcDbLine
 10
248.972681220647
 20
311.5511114796751
 30
0.0
 11
252.7630410023686
 21
308.9944815250068
 31
0.0
  0
LINE
  5
7CF
330
1F
100
AcDbEntity
  8
Specialized_Fills
  6
Continuous
100
AcDbLine
 10
252.7630312206469
 20
182.1619231699455
 30
0.0
 11
254.3080863361503
 21
186.76662225784
 31
0.0
  0
LINE
  5
7D0
330
1F
100
AcDbEntity
  8
Specialized_Fills
  6
Continuous
100
AcDbLine
 10
252.763031220647
 20
308.9944814796751
 30
0.0
 11
254.3080863361503
 21
313.5991805675697
 31
0.0
  0
LWPOLYLINE
  5
7D7
330
1F
100
AcDbEntity
  8
Specialized_Lines
  6
PLASTER
 48
3.0
100
AcDbPolyline
 90
        4
 70
     0
 43
0.0
 10
152.0491992390741
 20
82.34012848850147
 10
152.0491992390741
 20
279.1957883361809
 10
152.0875875953831
 20
281.4362935870482
 10
155.7623543013606
 20
282.0405512856929
  0
LINE
  5
7D8
330
1F
100
AcDbEntity
  8
Specialized_Lines
  6
PLASTER
 48
3.0
100
AcDbLine
 10
151.9621813607932
 20
501.6188788397806
 30
0.0
 11
151.9395806279885
 21
285.6652995893119
 31
0.0
  0
HATCH
  5
7DB
330
1F
100
AcDbEntity
  8
0
 62
    30
420
 16742400
100
AcDbHatch
 10
0.0
 20
0.0
 30
0.0
210
0.0
220
0.0
230
1.0
  2
SOLID
 70
     1
 71
     1
 91
        1
 92
        7
 72
     0
 73
     1
 93
        4
 10
11.76640291169315
 20
27.4840484779088
 10
11.76640291169315
 20
22.4840484779088
 10
16.76640291169678
 20
22.48404847790926
 10
16.76640291168951
 20
27.48404847790926
 97
        1
330
7DC
 75
     1
 76
     1
 47
0.0321901215665183
 98
        1
 10
13.55585104039437
 20
26.06106788766556
450
        0
451
        0
460
0.0
461
0.0
452
        0
462
1.0
453
        2
463
0.0
 63
     5
421
      255
463
1.0
 63
     2
421
 16776960
470
LINEAR
1001
GradientColor1ACI
1070
     5
1001
GradientColor2ACI
1070
     2
1001
ACAD
1010
0.0
1020
0.0
1030
0.0
  0
LWPOLYLINE
  5
7DC
102
{ACAD_REACTORS
330
7DB
102
}
330
1F
100
AcDbEntity
  8
0
 62
    30
420
 16742400
100
AcDbPolyline
 90
        4
 70
     1
 43
0.0
 10
11.76640291169315
 20
27.4840484779088
 10
16.76640291168951
 20
27.48404847790926
 10
16.76640291169678
 20
22.48404847790926
 10
11.76640291169315
 20
22.4840484779088
  0
LINE
  5
7DD
330
1F
100
AcDbEntity
  8
0
 62
    30
420
 16742400
100
AcDbLine
 10
11.76640291169315
 20
27.4840484779088
 30
0.0
 11
16.76640291169315
 21
27.4840484779088
 31
0.0
  0
LWPOLYLINE
  5
7DE
330
1F
100
AcDbEntity
  8
0
370
     5
100
AcDbPolyline
 90
        2
 70
     0
 43
0.0
 10
16.76640291169315
 20
24.9840484779088
 10
337.9204608353731
 20
24.9840484779088
  0
MTEXT
  5
7DF
330
1F
100
AcDbEntity
  8
Specialized_Text
  6
Continuous
100
AcDbMText
 10
20.33008222682747
 20
27.51051551150067
 30
0.0
 40
3.0
 41
163.0041735515597
 46
0.0
 71
     4
 72
     1
  1
© copyright 2013 Specialized Building Products Ltd
  7
GENERATED_STYLE_2
 73
     1
 44
1.0
  0
MTEXT
  5
7E0
330
1F
100
AcDbEntity
  8
Specialized_Text
  6
Continuous
100
AcDbMText
 10
198.2310829005083
 20
27.51051551150067
 30
0.0
 40
3.0
 41
163.0041735515597
 46
0.0
 71
     4
 72
     1
  1
All Dimensions to be site checked before construction & installation
  7
GENERATED_STYLE_2
 73
     1
 44
1.0
  0
MTEXT
  5
7E1
330
1F
100
AcDbEntity
  8
Specialized_Text
  6
Continuous
 62
    30
420
 16742400
370
    20
100
AcDbMText
 10
236.7864566897179
 20
14.38661169138731
 30
0.0
 40
5.5
 41
111.9228601720179
 46
0.0
 71
     7
 72
     1
  1
{\fArial Unicode MS|b1|i0|c0|p34;web \fArial Unicode MS|b0|i0|c0|p34;\C256;www.specialized.co.nz}
  7
GENERATED_STYLE_2
 73
     1
 44
1.12662050634974
  0
LINE
  5
846
330
1F
100
AcDbEntity
  8
Specialized_Text
  6
Continuous
100
AcDbLine
 10
134.1024312981069
 20
280.1261558667423
 30
0.0
 11
134.1024312981069
 21
219.5444747479613
 31
0.0
  0
LINE
  5
847
330
1F
100
AcDbEntity
  8
Specialized_Text
  6
Continuous
 62
     7
370
    20
100
AcDbLine
 10
136.1024312981069
 20
278.1261558667423
 30
0.0
 11
132.1024312981069
 21
282.1261558667423
 31
0.0
  0
ENDSEC
  0
SECTION
  2
OBJECTS
  0
DICTIONARY
  5
C
330
0
100
AcDbDictionary
281
     1
  3
ACAD_CIP_PREVIOUS_PRODUCT_INFO
350
421
  3
ACAD_COLOR
350
415
  3
ACAD_DETAILVIEWSTYLE
350
41A
  3
ACAD_GROUP
350
D
  3
ACAD_IMAGE_DICT
350
443
  3
ACAD_IMAGE_VARS
350
447
  3
ACAD_LAYOUT
350
1A
  3
ACAD_MATERIAL
350
3B
  3
ACAD_MLEADERSTYLE
350
408
  3
ACAD_MLINESTYLE
350
17
  3
ACAD_PLOTSETTINGS
350
19
  3
ACAD_PLOTSTYLENAME
350
E
  3
ACAD_SCALELIST
350
175
  3
ACAD_SECTIONVIEWSTYLE
350
418
  3
ACAD_TABLESTYLE
350
407
  3
ACAD_VISUALSTYLE
350
2A
  3
ACAD_WIPEOUT_VARS
350
422
  3
ACDB_RECOMPOSE_DATA
350
96E
  3
AcDbVariableDictionary
350
3E5
  3
AcDsDecomposeData
350
974
  3
WATERMARKS
350
3E3
  0
DICTIONARY
  5
42F
330
2
100
AcDbDictionary
280
     1
281
     1
  3
ACAD_LAYERSTATES
360
430
  0
DICTIONARY
  5
480
330
10
100
AcDbDictionary
280
     1
281
     1
  3
ADSK_XREC_LAYER_RECONCILED
360
481
  0
DICTIONARY
  5
482
330
46
100
AcDbDictionary
280
     1
281
     1
  3
ADSK_XREC_LAYER_RECONCILED
360
483
  0
DICTIONARY
  5
484
330
2F9
100
AcDbDictionary
280
     1
281
     1
  3
ADSK_XREC_LAYER_RECONCILED
360
485
  0
DICTIONARY
  5
486
330
381
100
AcDbDictionary
280
     1
281
     1
  3
ADSK_XREC_LAYER_RECONCILED
360
487
  0
DICTIONARY
  5
427
330
426
100
AcDbDictionary
280
     1
281
     1
  3
ADSK_XREC_LAYER_RECONCILED
360
488
  0
DICTIONARY
  5
6A1
330
1F
100
AcDbDictionary
280
     1
281
     1
  3
ACAD_SORTENTS
360
6A2
  0
DICTIONARY
  5
463
330
1A6
100
AcDbDictionary
280
     1
281
     1
  3
ACAD_SORTENTS
360
469
  0
DICTIONARY
  5
4CF
330
386
100
AcDbDictionary
280
     1
281
     1
  0
IMAGEDEF_REACTOR
  5
565
330
564
100
AcDbRasterImageDefReactor
 90
        2
330
564
  0
IMAGEDEF_REACTOR
  5
569
330
568
100
AcDbRasterImageDefReactor
 90
        2
330
568
  0
XRECORD
  5
421
102
{ACAD_REACTORS
330
C
102
}
330
C
100
AcDbXrecord
280
     1
300
ACD
300
2014
300
BDSPRM_F_S
  0
DICTIONARY
  5
415
102
{ACAD_REACTORS
330
C
102
}
330
C
100
AcDbDictionary
281
     1
  0
DICTIONARY
  5
41A
102
{ACAD_REACTORS
330
C
102
}
330
C
100
AcDbDictionary
281
     1
  3
Imperial24
350
41B
  0
DICTIONARY
  5
D
102
{ACAD_REACTORS
330
C
102
}
330
C
100
AcDbDictionary
281
     1
  0
DICTIONARY
  5
443
102
{ACAD_REACTORS
330
C
102
}
330
C
100
AcDbDictionary
281
     1
  3
BRANZ logo. Do not place on drawing without number 510-
350
54D
  3
logo sharp
350
54E
  0
RASTERVARIABLES
  5
447
102
{ACAD_REACTORS
330
C
102
}
330
C
100
AcDbRasterVariables
 90
        0
 70
     1
 71
     1
 72
     0
  0
DICTIONARY
  5
1A
102
{ACAD_REACTORS
330
C
102
}
330
C
100
AcDbDictionary
281
     1
  3
Layout1
350
1E
  3
Layout2
350
26
  3
Model
350
22
  0
DICTIONARY
  5
3B
102
{ACAD_REACTORS
330
C
102
}
330
C
100
AcDbDictionary
281
     1
  3
ByBlock
350
3D
  3
ByLayer
350
3C
  3
Global
350
3E
  0
DICTIONARY
  5
408
102
{ACAD_REACTORS
330
C
102
}
330
C
100
AcDbDictionary
281
     1
  3
Standard
350
417
  0
DICTIONARY
  5
17
102
{ACAD_REACTORS
330
C
102
}
330
C
100
AcDbDictionary
281
     1
  3
Standard
350
18
  0
DICTIONARY
  5
19
102
{ACAD_REACTORS
330
C
102
}
330
C
100
AcDbDictionary
281
     1
  0
ACDBDICTIONARYWDFLT
  5
E
102
{ACAD_REACTORS
330
C
102
}
330
C
100
AcDbDictionary
281
     1
  3
Normal
350
F
100
AcDbDictionaryWithDefault
340
F
  0
DICTIONARY
  5
175
102
{ACAD_REACTORS
330
C
102
}
330
C
100
AcDbDictionary
281
     1
  3
A0
350
176
  3
A1
350
177
  3
A2
350
178
  3
A3
350
179
  3
A4
350
17A
  3
A5
350
17B
  3
A6
350
17C
  3
A7
350
17D
  3
A8
350
17E
  3
A9
350
17F
  3
B0
350
180
  3
B1
350
181
  3
B2
350
182
  3
B3
350
183
  3
B4
350
184
  3
B5
350
185
  3
B6
350
186
  3
B7
350
187
  3
B8
350
188
  3
B9
350
189
  3
C0
350
18A
  3
C1
350
18B
  3
C2
350
18C
  3
C3
350
18D
  3
C4
350
18E
  3
C5
350
18F
  3
C6
350
190
  3
C7
350
191
  3
C8
350
192
  3
C9
350
193
  3
D0
350
194
  3
D1
350
195
  3
D2
350
196
  0
DICTIONARY
  5
418
102
{ACAD_REACTORS
330
C
102
}
330
C
100
AcDbDictionary
281
     1
  3
Imperial24
350
419
  0
DICTIONARY
  5
407
102
{ACAD_REACTORS
330
C
102
}
330
C
100
AcDbDictionary
281
     1
  3
Standard
350
416
  0
DICTIONARY
  5
2A
102
{ACAD_REACTORS
330
C
102
}
330
C
100
AcDbDictionary
281
     1
  3
2dWireframe
350
2F
  3
3D Hidden
350
31
  3
3dWireframe
350
30
  3
Basic
350
32
  3
Brighten
350
36
  3
ColorChange
350
3A
  3
Conceptual
350
34
  3
Dim
350
35
  3
EdgeColorOff
350
414
  3
Facepattern
350
39
  3
Flat
350
2B
  3
FlatWithEdges
350
2C
  3
Gouraud
350
2D
  3
GouraudWithEdges
350
2E
  3
Hidden
350
40C
  3
JitterOff
350
412
  3
Linepattern
350
38
  3
OverhangOff
350
413
  3
Realistic
350
33
  3
Shaded
350
411
  3
Shaded with edges
350
410
  3
Shades of Gray
350
40D
  3
Sketchy
350
40E
  3
Thicken
350
37
  3
Wireframe
350
40B
  3
X-Ray
350
40F
  0
WIPEOUTVARIABLES
  5
422
102
{ACAD_REACTORS
330
C
102
}
330
C
100
AcDbWipeoutVariables
 70
     1
  0
XRECORD
  5
96E
102
{ACAD_REACTORS
330
C
102
}
330
C
100
AcDbXrecord
280
     1
 90
        1
330
416
330
44C
330
44F
330
450
330
453
  0
DICTIONARY
  5
3E5
102
{ACAD_REACTORS
330
C
102
}
330
C
100
AcDbDictionary
281
     1
  3
CANNOSCALE
350
3E6
  3
CMLEADERSTYLE
350
4F2
  3
CTABLESTYLE
350
4F1
  3
CVIEWDETAILSTYLE
350
4F3
  3
CVIEWSECTIONSTYLE
350
4F4
  3
HPCOLOR
350
46A
  3
LAYEREVAL
350
4F5
  3
LAYERNOTIFY
350
4F6
  0
DICTIONARY
  5
974
102
{ACAD_REACTORS
330
C
102
}
330
C
100
AcDbDictionary
281
     1
  3
AcDsRecords
350
976
  3
AcDsSchemas
350
975
1001
ACAD
1070
     2
  0
DICTIONARY
  5
3E3
102
{ACAD_REACTORS
330
C
102
}
330
C
100
AcDbDictionary
281
     1
  3
AC_WATERMARK
350
3E4
  0
DICTIONARY
  5
430
102
{ACAD_REACTORS
330
42F
102
}
330
42F
100
AcDbDictionary
281
     1
  0
XRECORD
  5
481
102
{ACAD_REACTORS
330
480
102
}
330
480
100
AcDbXrecord
280
     1
290
     1
  0
XRECORD
  5
483
102
{ACAD_REACTORS
330
482
102
}
330
482
100
AcDbXrecord
280
     1
290
     1
  0
XRECORD
  5
485
102
{ACAD_REACTORS
330
484
102
}
330
484
100
AcDbXrecord
280
     1
290
     1
  0
XRECORD
  5
487
102
{ACAD_REACTORS
330
486
102
}
330
486
100
AcDbXrecord
280
     1
290
     1
  0
XRECORD
  5
488
102
{ACAD_REACTORS
330
427
102
}
330
427
100
AcDbXrecord
280
     1
290
     1
  0
SORTENTSTABLE
  5
6A2
102
{ACAD_REACTORS
330
6A1
102
}
330
6A1
100
AcDbSortentsTable
330
1F
331
78E
  5
566
331
7CD
  5
6DE
331
796
  5
6A7
331
7DD
  5
7DF
331
79E
  5
6AF
331
3DA
  5
7AB
331
39B
  5
787
331
360
  5
759
331
734
  5
37B
331
3A3
  5
78F
331
6BE
  5
301
331
6F5
  5
33C
331
368
  5
761
331
2F2
  5
6F0
331
6C6
  5
309
331
6FD
  5
344
331
370
  5
769
331
2FA
  5
6F7
331
449
  5
7B2
331
6CE
  5
311
331
705
  5
34C
331
339
  5
732
331
302
  5
6FF
331
378
  5
771
331
6D6
  5
319
331
70D
  5
354
331
74C
  5
3A2
331
7AE
  5
6BF
331
76F
  5
448
331
7B6
  5
6C7
331
777
  5
452
331
77F
  5
556
331
7BE
  5
6CF
331
787
  5
55E
331
7C6
  5
6D7
331
451
  5
7B8
331
3BB
  5
793
331
30A
  5
707
331
341
  5
73A
331
754
  5
3C4
331
3C3
  5
795
331
6DE
  5
322
331
715
  5
35C
331
312
  5
70F
331
349
  5
742
331
71D
  5
364
331
3CB
  5
79D
331
6A7
  5
19D
331
75C
  5
3CC
331
351
  5
74A
331
19B
  5
6E5
331
31A
  5
717
331
725
  5
36C
331
3D3
  5
7A5
331
6AF
  5
1A5
331
6EE
  5
335
331
764
  5
3D5
331
359
  5
752
331
72D
  5
374
331
6B7
  5
2FA
331
78F
  5
567
331
797
  5
6A8
331
7DE
  5
7E0
331
79F
  5
6B0
331
3DB
  5
7AC
331
39C
  5
789
331
361
  5
75A
331
322
  5
71E
331
6BF
  5
302
331
6F6
  5
33D
331
735
  5
37C
331
2F3
  5
6F1
331
369
  5
762
331
73D
  5
392
331
6C7
  5
30A
331
6FE
  5
345
331
2FB
  5
6F8
331
371
  5
76A
331
745
  5
39B
331
3B4
  5
792
331
6CF
  5
312
331
706
  5
34D
331
379
  5
772
331
303
  5
700
331
33A
  5
733
331
70E
  5
355
331
6D7
  5
31A
331
74D
  5
3A3
331
770
  5
449
331
7AF
  5
6C0
331
778
  5
453
331
7B7
  5
6C8
331
7BF
  5
6D0
331
780
  5
557
331
846
  5
777
331
7C7
  5
6D8
331
568
  5
7D8
331
452
  5
7B9
331
3BC
  5
794
331
30B
  5
708
331
342
  5
73B
331
3C4
  5
796
331
6DF
  5
324
331
716
  5
35D
331
755
  5
3C5
331
34A
  5
743
331
313
  5
710
331
6E7
  5
32C
331
3CC
  5
79E
331
6A8
  5
19E
331
75D
  5
3CD
331
31B
  5
718
331
19C
  5
6E6
331
352
  5
74B
331
765
  5
3D6
331
6B0
  5
2F2
331
6EF
  5
336
331
726
  5
36D
331
1A4
  5
6EE
331
35A
  5
753
331
72E
  5
375
331
788
  5
55F
331
790
  5
568
331
7CF
  5
6E0
331
7D7
  5
7DB
331
798
  5
6A9
331
7DF
  5
7E1
331
7A0
  5
6B1
331
3DC
  5
7AD
331
39D
  5
78A
331
6B8
  5
2FB
331
362
  5
75B
331
736
  5
383
331
6F7
  5
33E
331
36A
  5
763
331
2F4
  5
6F2
331
32B
  5
726
331
73E
  5
393
331
6C8
  5
30B
331
6FF
  5
346
331
372
  5
76B
331
2FC
  5
6F9
331
333
  5
72C
331
707
  5
34E
331
746
  5
39C
331
304
  5
701
331
33B
  5
734
331
37A
  5
773
331
74E
  5
3A4
331
70F
  5
356
331
769
  5
3DA
331
7A8
  5
6B9
331
7B0
  5
6C1
331
771
  5
44C
331
779
  5
454
331
7B8
  5
6C9
331
781
  5
558
331
7C0
  5
6D1
331
847
  5
778
331
453
  5
7BA
331
6D8
  5
31B
331
30C
  5
709
331
343
  5
73C
331
756
  5
3C6
331
3C5
  5
797
331
6E0
  5
325
331
314
  5
711
331
34B
  5
744
331
75E
  5
3CE
331
3CD
  5
79F
331
6A9
  5
19F
331
6E8
  5
32D
331
353
  5
74C
331
19D
  5
6E7
331
31C
  5
719
331
392
  5
77F
331
727
  5
36E
331
3D5
  5
7A6
331
6B1
  5
2F3
331
766
  5
3D7
331
35B
  5
754
331
1A5
  5
6EF
331
72F
  5
376
331
789
  5
560
331
7D0
  5
6E1
331
7D8
  5
7DC
331
799
  5
6AA
331
6F0
  5
337
331
3DD
  5
7AE
331
6B9
  5
2FC
331
363
  5
75C
331
324
  5
71F
331
6C1
  5
304
331
6F8
  5
33F
331
2F5
  5
6F3
331
32C
  5
727
331
36B
  5
764
331
73F
  5
394
331
700
  5
347
331
373
  5
76C
331
2FD
  5
6FA
331
334
  5
72D
331
747
  5
39D
331
44C
  5
7B3
331
6D1
  5
314
331
708
  5
34F
331
37B
  5
774
331
305
  5
702
331
33C
  5
735
331
74F
  5
3A5
331
7E0
  5
846
331
76A
  5
3DB
331
772
  5
44D
331
7B1
  5
6C2
331
77A
  5
4B4
331
7B9
  5
6CA
331
7C1
  5
6D2
331
782
  5
559
331
710
  5
357
331
454
  5
7CC
331
6D9
  5
31C
331
30D
  5
70A
331
344
  5
73D
331
3C6
  5
798
331
6E1
  5
326
331
757
  5
3C7
331
315
  5
712
331
34C
  5
745
331
75F
  5
3CF
331
6E9
  5
32E
331
3CE
  5
7A0
331
6AA
  5
1A0
331
720
  5
367
331
393
  5
780
331
31D
  5
71A
331
19E
  5
6E8
331
354
  5
74D
331
3D6
  5
7A7
331
6B2
  5
2F4
331
728
  5
36F
331
35C
  5
755
331
78A
  5
561
331
7C9
  5
6DA
331
792
  5
6A3
331
79A
  5
6AB
331
7A2
  5
6B3
331
730
  5
377
331
3DE
  5
7AF
331
39F
  5
78B
331
6BA
  5
2FD
331
6F1
  5
338
331
364
  5
75D
331
738
  5
385
331
6C2
  5
305
331
6F9
  5
340
331
325
  5
720
331
36C
  5
765
331
701
  5
348
331
6CA
  5
30D
331
740
  5
395
331
2F6
  5
6F4
331
32D
  5
728
331
374
  5
76D
331
563
  5
7D0
331
4B4
  5
7CD
331
44D
  5
7B4
331
6D2
  5
315
331
709
  5
350
331
2FE
  5
6FB
331
335
  5
72E
331
306
  5
703
331
33D
  5
736
331
37C
  5
775
331
7E1
  5
847
331
76B
  5
3DC
331
7AA
  5
6BB
331
7B2
  5
6C3
331
773
  5
44E
331
7BA
  5
6CB
331
783
  5
55A
331
7C2
  5
6D3
331
750
  5
3B4
331
6DA
  5
31D
331
711
  5
358
331
384
  5
779
331
758
  5
3C8
331
3C7
  5
799
331
6E2
  5
327
331
719
  5
360
331
30E
  5
70B
331
345
  5
73E
331
721
  5
368
331
3CF
  5
7A1
331
6AB
  5
1A1
331
6EA
  5
32F
331
760
  5
3D0
331
316
  5
713
331
34D
  5
746
331
355
  5
74E
331
729
  5
370
331
3D7
  5
7A8
331
6B3
  5
2F5
331
19F
  5
6E9
331
31E
  5
71B
331
394
  5
781
331
35D
  5
756
331
7CA
  5
6DB
331
793
  5
6A4
331
79B
  5
6AC
331
398
  5
784
331
6F2
  5
339
331
3DF
  5
7B0
331
3A0
  5
78C
331
6BB
  5
2FE
331
731
  5
378
331
6C3
  5
306
331
6FA
  5
341
331
739
  5
38E
331
326
  5
721
331
365
  5
75E
331
741
  5
397
331
6CB
  5
30E
331
2F7
  5
6F5
331
32E
  5
729
331
36D
  5
766
331
375
  5
76E
331
564
  5
7D7
331
44E
  5
7B5
331
6D3
  5
316
331
749
  5
39F
331
2FF
  5
6FC
331
336
  5
72F
331
307
  5
704
331
33E
  5
737
331
7AB
  5
6BC
331
76C
  5
3DD
331
774
  5
44F
331
7B3
  5
6C4
331
77C
  5
553
331
7BB
  5
6CC
331
7C3
  5
6D4
331
784
  5
55B
331
712
  5
359
331
6DB
  5
31E
331
751
  5
3BB
331
385
  5
77A
331
6E3
  5
328
331
3C8
  5
79A
331
6A4
  5
19A
331
71A
  5
361
331
759
  5
3C9
331
30F
  5
70C
331
346
  5
73F
331
317
  5
714
331
761
  5
3D1
331
3D0
  5
7A2
331
6AC
  5
1A2
331
6EB
  5
332
331
722
  5
369
331
198
  5
6E2
331
34E
  5
747
331
395
  5
782
331
6B4
  5
2F6
331
72A
  5
371
331
31F
  5
71C
331
356
  5
74F
331
35E
  5
757
331
78C
  5
563
331
794
  5
6A5
331
7DB
  5
7DD
331
79C
  5
6AD
331
3D8
  5
7A9
331
399
  5
785
331
732
  5
379
331
3A1
  5
78D
331
6BC
  5
2FF
331
6F3
  5
33A
331
366
  5
75F
331
6FB
  5
342
331
327
  5
722
331
36E
  5
767
331
703
  5
34A
331
6CC
  5
30F
331
742
  5
398
331
2F8
  5
6F6
331
32F
  5
72A
331
337
  5
730
331
44F
  5
7B6
331
6D4
  5
317
331
70B
  5
352
331
74A
  5
3A0
331
300
  5
6FD
331
376
  5
76F
331
33F
  5
738
331
7AC
  5
6BD
331
76D
  5
3DE
331
7B4
  5
6C5
331
775
  5
450
331
77D
  5
554
331
7BC
  5
6CD
331
785
  5
55C
331
7C4
  5
6D5
331
752
  5
3BC
331
6DC
  5
31F
331
713
  5
35A
331
308
  5
705
331
71B
  5
362
331
3C9
  5
79B
331
6A5
  5
19B
331
6E4
  5
329
331
75A
  5
3CA
331
310
  5
70D
331
347
  5
740
331
38E
  5
77B
331
723
  5
36A
331
3D1
  5
7A3
331
6AD
  5
1A3
331
6EC
  5
333
331
762
  5
3D2
331
199
  5
6E3
331
318
  5
715
331
34F
  5
748
331
72B
  5
372
331
6B5
  5
2F7
331
357
  5
750
331
35F
  5
758
331
78D
  5
564
331
7CC
  5
6DD
331
795
  5
6A6
331
7DC
  5
7DE
331
79D
  5
6AE
331
7A5
  5
6B6
331
3D9
  5
7AA
331
39A
  5
786
331
3A2
  5
78E
331
6BD
  5
300
331
6F4
  5
33B
331
320
  5
71D
331
6FC
  5
343
331
73B
  5
390
331
367
  5
760
331
448
  5
7B1
331
704
  5
34B
331
36F
  5
768
331
377
  5
770
331
70C
  5
353
331
6D5
  5
318
331
74B
  5
3A1
331
301
  5
6FE
331
338
  5
731
331
7AD
  5
6BE
331
76E
  5
3DF
331
776
  5
451
331
7B5
  5
6C6
331
7BD
  5
6CE
331
77E
  5
555
331
7C5
  5
6D6
331
786
  5
55D
331
450
  5
7B7
331
753
  5
3C3
331
6DD
  5
320
331
309
  5
706
331
340
  5
739
331
348
  5
741
331
3CA
  5
79C
331
6A6
  5
19C
331
71C
  5
363
331
75B
  5
3CB
331
311
  5
70E
331
319
  5
716
331
763
  5
3D3
331
3D2
  5
7A4
331
6AE
  5
1A4
331
6ED
  5
334
331
724
  5
36B
331
19A
  5
6E4
331
350
  5
749
331
397
  5
783
331
72C
  5
373
331
358
  5
751
  0
SORTENTSTABLE
  5
469
102
{ACAD_REACTORS
330
463
102
}
330
463
100
AcDbSortentsTable
330
1A6
331
470
  5
460
331
45F
  5
467
331
460
  5
468
331
45E
  5
461
331
461
  5
46B
  0
ACDBDETAILVIEWSTYLE
  5
41B
102
{ACAD_XDICTIONARY
360
4EE
102
}
102
{ACAD_REACTORS
330
41A
102
}
330
41A
100
AcDbModelDocViewStyle
 70
     0
  3
Imperial24
290
     0
100
AcDbDetailViewStyle
 70
     0
 71
     0
 90
        3
 71
     1
340
11
 62
   256
 40
0.24
340
0
 62
   256
 40
0.24
300

 40
0.36
280
     3
 71
     2
340
16
 90
       25
 62
   256
 71
     3
340
11
 62
   256
 40
0.24
 90
        1
 40
0.75
 90
        1
300
%<\AcVar ViewType \f "%tc1">% %<\AcVar ViewDetailId>%\PSCALE %<\AcVar ViewScale \f "%sn">%
 71
     4
340
16
 90
       25
 62
   256
340
16
 90
       25
 62
   256
280
     0
  0
IMAGEDEF
  5
54D
102
{ACAD_REACTORS
330
443
330
565
102
}
330
443
100
AcDbRasterImageDef
 90
        0
  1
P:\VERT-X CONSULTING LTD\2013\10 Oct\1310-015- Specialized Construction Products - Contract draughting\Drawings\BRANZ logo. Do not place on drawing without number 510-.jpg
 10
828.0
 20
781.0
 11
0.0846666666666667
 21
0.0846666666666667
280
     1
281
     5
  0
IMAGEDEF
  5
54E
102
{ACAD_REACTORS
330
443
330
569
102
}
330
443
100
AcDbRasterImageDef
 90
        0
  1
P:\VERT-X CONSULTING LTD\2013\10 Oct\1310-015- Specialized Construction Products - Contract draughting\Drawings\logo sharp.JPG
 10
2521.0
 20
901.0
 11
0.2645833333333333
 21
0.2645833333333333
280
     1
281
     5
  0
LAYOUT
  5
1E
102
{ACAD_REACTORS
330
1A
102
}
330
1A
100
AcDbPlotSettings
  1

  2
none_device
  4

  6

 40
0.0
 41
0.0
 42
0.0
 43
0.0
 44
0.0
 45
0.0
 46
0.0
 47
0.0
 48
0.0
 49
0.0
140
0.0
141
0.0
142
1.0
143
1.0
 70
   688
 72
     0
 73
     0
 74
     5
  7

 75
    16
147
1.0
 76
     0
 77
     2
 78
   300
148
0.0
149
0.0
100
AcDbLayout
  1
Layout1
 70
     1
 71
     1
 10
0.0
 20
0.0
 11
12.0
 21
9.0
 12
0.0
 22
0.0
 32
0.0
 14
1.000000000000000E+20
 24
1.000000000000000E+20
 34
1.000000000000000E+20
 15
-1.000000000000000E+20
 25
-1.000000000000000E+20
 35
-1.000000000000000E+20
146
0.0
 13
0.0
 23
0.0
 33
0.0
 16
1.0
 26
0.0
 36
0.0
 17
0.0
 27
1.0
 37
0.0
 76
     0
330
1B
  0
LAYOUT
  5
26
102
{ACAD_REACTORS
330
1A
102
}
330
1A
100
AcDbPlotSettings
  1

  2
none_device
  4

  6

 40
0.0
 41
0.0
 42
0.0
 43
0.0
 44
0.0
 45
0.0
 46
0.0
 47
0.0
 48
0.0
 49
0.0
140
0.0
141
0.0
142
1.0
143
1.0
 70
   688
 72
     0
 73
     0
 74
     5
  7

 75
    16
147
1.0
 76
     0
 77
     2
 78
   300
148
0.0
149
0.0
100
AcDbLayout
  1
Layout2
 70
     1
 71
     2
 10
0.0
 20
0.0
 11
0.0
 21
0.0
 12
0.0
 22
0.0
 32
0.0
 14
0.0
 24
0.0
 34
0.0
 15
0.0
 25
0.0
 35
0.0
146
0.0
 13
0.0
 23
0.0
 33
0.0
 16
1.0
 26
0.0
 36
0.0
 17
0.0
 27
1.0
 37
0.0
 76
     0
330
23
  0
LAYOUT
  5
22
102
{ACAD_REACTORS
330
1A
102
}
330
1A
100
AcDbPlotSettings
  1

  2
none_device
  4

  6

 40
0.0
 41
0.0
 42
0.0
 43
0.0
 44
0.0
 45
0.0
 46
0.0
 47
0.0
 48
0.0
 49
0.0
140
0.0
141
0.0
142
1.0
143
1.0
 70
  1712
 72
     0
 73
     0
 74
     0
  7

 75
     0
147
1.0
 76
     0
 77
     2
 78
   300
148
0.0
149
0.0
100
AcDbLayout
  1
Model
 70
     1
 71
     0
 10
0.0
 20
0.0
 11
12.0
 21
9.0
 12
0.0
 22
0.0
 32
0.0
 14
1.000000000000000E+20
 24
1.000000000000000E+20
 34
1.000000000000000E+20
 15
-1.000000000000000E+20
 25
-1.000000000000000E+20
 35
-1.000000000000000E+20
146
0.0
 13
0.0
 23
0.0
 33
0.0
 16
1.0
 26
0.0
 36
0.0
 17
0.0
 27
1.0
 37
0.0
 76
     0
330
1F
331
29
  0
MATERIAL
  5
3D
102
{ACAD_REACTORS
330
3B
102
}
330
3B
100
AcDbMaterial
  1
ByBlock
 73
     1
 78
     1
172
     1
176
     1
270
     1
274
     1
  0
MATERIAL
  5
3C
102
{ACAD_REACTORS
330
3B
102
}
330
3B
100
AcDbMaterial
  1
ByLayer
 73
     1
 78
     1
172
     1
176
     1
270
     1
274
     1
  0
MATERIAL
  5
3E
102
{ACAD_REACTORS
330
3B
102
}
330
3B
100
AcDbMaterial
  1
Global
 73
     1
 78
     1
172
     1
176
     1
270
     1
274
     1
  0
MLEADERSTYLE
  5
417
102
{ACAD_XDICTIONARY
360
9AB
102
}
102
{ACAD_REACTORS
330
408
102
}
330
408
100
AcDbMLeaderStyle
179
     2
170
     2
171
     1
172
     0
 90
        2
 40
0.0
 41
0.0
173
     1
 91
-1056964608
340
14
 92
       -2
290
     1
 42
0.09
291
     1
 43
0.36
  3
Standard
 44
0.18
300

342
11
174
     1
178
     6
175
     1
176
     0
 93
-1056964608
 45
0.18
292
     0
297
     0
 46
0.18
 94
-1056964608
 47
1.0
 49
1.0
140
1.0
293
     1
141
0.0
294
     1
177
     0
142
1.0
295
     0
296
     0
143
0.125
271
     0
272
     9
273
     9
  0
MLINESTYLE
  5
18
102
{ACAD_REACTORS
330
17
102
}
330
17
100
AcDbMlineStyle
  2
STANDARD
 70
     0
  3

 62
   256
 51
90.0
 52
90.0
 71
     2
 49
0.5
 62
   256
  6
BYLAYER
 49
-0.5
 62
   256
  6
BYLAYER
  0
ACDBPLACEHOLDER
  5
F
102
{ACAD_REACTORS
330
E
102
}
330
E
  0
SCALE
  5
176
102
{ACAD_REACTORS
330
175
102
}
330
175
100
AcDbScale
 70
     0
300
1:1
140
1.0
141
1.0
290
     1
  0
SCALE
  5
177
102
{ACAD_REACTORS
330
175
102
}
330
175
100
AcDbScale
 70
     0
300
1:2
140
1.0
141
2.0
290
     0
  0
SCALE
  5
178
102
{ACAD_REACTORS
330
175
102
}
330
175
100
AcDbScale
 70
     0
300
1:4
140
1.0
141
4.0
290
     0
  0
SCALE
  5
179
102
{ACAD_REACTORS
330
175
102
}
330
175
100
AcDbScale
 70
     0
300
1:5
140
1.0
141
5.0
290
     0
  0
SCALE
  5
17A
102
{ACAD_REACTORS
330
175
102
}
330
175
100
AcDbScale
 70
     0
300
1:8
140
1.0
141
8.0
290
     0
  0
SCALE
  5
17B
102
{ACAD_REACTORS
330
175
102
}
330
175
100
AcDbScale
 70
     0
300
1:10
140
1.0
141
10.0
290
     0
  0
SCALE
  5
17C
102
{ACAD_REACTORS
330
175
102
}
330
175
100
AcDbScale
 70
     0
300
1:16
140
1.0
141
16.0
290
     0
  0
SCALE
  5
17D
102
{ACAD_REACTORS
330
175
102
}
330
175
100
AcDbScale
 70
     0
300
1:20
140
1.0
141
20.0
290
     0
  0
SCALE
  5
17E
102
{ACAD_REACTORS
330
175
102
}
330
175
100
AcDbScale
 70
     0
300
1:30
140
1.0
141
30.0
290
     0
  0
SCALE
  5
17F
102
{ACAD_REACTORS
330
175
102
}
330
175
100
AcDbScale
 70
     0
300
1:40
140
1.0
141
40.0
290
     0
  0
SCALE
  5
180
102
{ACAD_REACTORS
330
175
102
}
330
175
100
AcDbScale
 70
     0
300
1:50
140
1.0
141
50.0
290
     0
  0
SCALE
  5
181
102
{ACAD_REACTORS
330
175
102
}
330
175
100
AcDbScale
 70
     0
300
1:100
140
1.0
141
100.0
290
     0
  0
SCALE
  5
182
102
{ACAD_REACTORS
330
175
102
}
330
175
100
AcDbScale
 70
     0
300
2:1
140
2.0
141
1.0
290
     0
  0
SCALE
  5
183
102
{ACAD_REACTORS
330
175
102
}
330
175
100
AcDbScale
 70
     0
300
4:1
140
4.0
141
1.0
290
     0
  0
SCALE
  5
184
102
{ACAD_REACTORS
330
175
102
}
330
175
100
AcDbScale
 70
     0
300
8:1
140
8.0
141
1.0
290
     0
  0
SCALE
  5
185
102
{ACAD_REACTORS
330
175
102
}
330
175
100
AcDbScale
 70
     0
300
10:1
140
10.0
141
1.0
290
     0
  0
SCALE
  5
186
102
{ACAD_REACTORS
330
175
102
}
330
175
100
AcDbScale
 70
     0
300
100:1
140
100.0
141
1.0
290
     0
  0
SCALE
  5
187
102
{ACAD_REACTORS
330
175
102
}
330
175
100
AcDbScale
 70
     0
300
1/128" = 1'-0"
140
0.0078125
141
12.0
290
     0
  0
SCALE
  5
188
102
{ACAD_REACTORS
330
175
102
}
330
175
100
AcDbScale
 70
     0
300
1/64" = 1'-0"
140
0.015625
141
12.0
290
     0
  0
SCALE
  5
189
102
{ACAD_REACTORS
330
175
102
}
330
175
100
AcDbScale
 70
     0
300
1/32" = 1'-0"
140
0.03125
141
12.0
290
     0
  0
SCALE
  5
18A
102
{ACAD_REACTORS
330
175
102
}
330
175
100
AcDbScale
 70
     0
300
1/16" = 1'-0"
140
0.0625
141
12.0
290
     0
  0
SCALE
  5
18B
102
{ACAD_REACTORS
330
175
102
}
330
175
100
AcDbScale
 70
     0
300
3/32" = 1'-0"
140
0.09375
141
12.0
290
     0
  0
SCALE
  5
18C
102
{ACAD_REACTORS
330
175
102
}
330
175
100
AcDbScale
 70
     0
300
1/8" = 1'-0"
140
0.125
141
12.0
290
     0
  0
SCALE
  5
18D
102
{ACAD_REACTORS
330
175
102
}
330
175
100
AcDbScale
 70
     0
300
3/16" = 1'-0"
140
0.1875
141
12.0
290
     0
  0
SCALE
  5
18E
102
{ACAD_REACTORS
330
175
102
}
330
175
100
AcDbScale
 70
     0
300
1/4" = 1'-0"
140
0.25
141
12.0
290
     0
  0
SCALE
  5
18F
102
{ACAD_REACTORS
330
175
102
}
330
175
100
AcDbScale
 70
     0
300
3/8" = 1'-0"
140
0.375
141
12.0
290
     0
  0
SCALE
  5
190
102
{ACAD_REACTORS
330
175
102
}
330
175
100
AcDbScale
 70
     0
300
1/2" = 1'-0"
140
0.5
141
12.0
290
     0
  0
SCALE
  5
191
102
{ACAD_REACTORS
330
175
102
}
330
175
100
AcDbScale
 70
     0
300
3/4" = 1'-0"
140
0.75
141
12.0
290
     0
  0
SCALE
  5
192
102
{ACAD_REACTORS
330
175
102
}
330
175
100
AcDbScale
 70
     0
300
1" = 1'-0"
140
1.0
141
12.0
290
     0
  0
SCALE
  5
193
102
{ACAD_REACTORS
330
175
102
}
330
175
100
AcDbScale
 70
     0
300
1-1/2" = 1'-0"
140
1.5
141
12.0
290
     0
  0
SCALE
  5
194
102
{ACAD_REACTORS
330
175
102
}
330
175
100
AcDbScale
 70
     0
300
3" = 1'-0"
140
3.0
141
12.0
290
     0
  0
SCALE
  5
195
102
{ACAD_REACTORS
330
175
102
}
330
175
100
AcDbScale
 70
     0
300
6" = 1'-0"
140
6.0
141
12.0
290
     0
  0
SCALE
  5
196
102
{ACAD_REACTORS
330
175
102
}
330
175
100
AcDbScale
 70
     0
300
1'-0" = 1'-0"
140
12.0
141
12.0
290
     0
  0
ACDBSECTIONVIEWSTYLE
  5
419
102
{ACAD_XDICTIONARY
360
4EC
102
}
102
{ACAD_REACTORS
330
418
102
}
330
418
100
AcDbModelDocViewStyle
 70
     0
  3
Imperial24
290
     0
100
AcDbSectionViewStyle
 70
     0
 71
     0
 90
       78
 71
     1
340
11
 62
   256
 40
0.24
340
0
340
0
 62
   256
 40
0.24
300
I, O, Q, S, X, Z
 40
0.48
 90
        3
 40
0.18
 90
        1
 71
     2
340
16
 90
       25
 62
   256
340
16
 90
       50
 62
   256
 40
0.24
 40
0.0
 40
0.24
 71
     3
340
11
 62
   256
 40
0.24
 90
        1
 40
0.75
 90
        1
300
%<\AcVar ViewType \f "%tc1">% %<\AcVar ViewSectionStartId>%-%<\AcVar ViewSectionEndId>%\PSCALE %<\AcVar ViewScale \f "%sn">%
 71
     4
 62
   256
 62
   257
300
ANSI31
 40
1.0
 90
        0
290
     0
290
     0
 90
        6
 40
0.0
 40
1.570796326794896
 40
0.2617993877991494
 40
1.308996938995747
 40
-0.2617993877991494
 40
1.832595714594046
  0
TABLESTYLE
  5
416
102
{ACAD_XDICTIONARY
360
96C
102
}
102
{ACAD_REACTORS
330
407
102
}
330
407
100
AcDbTableStyle
280
     0
  3
Standard
 70
     0
 71
     0
 40
0.06
 41
0.06
280
     0
281
     0
  7
Standard
140
0.18
170
     2
 62
     0
 63
     7
283
     0
 90
      512
 91
        0
  1

274
    -2
284
     1
 64
     0
275
    -2
285
     1
 65
     0
276
    -2
286
     1
 66
     0
277
    -2
287
     1
 67
     0
278
    -2
288
     1
 68
     0
279
    -2
289
     1
 69
     0
  7
Standard
140
0.25
170
     5
 62
     0
 63
     7
283
     0
 90
      512
 91
        0
  1

274
    -2
284
     1
 64
     0
275
    -2
285
     1
 65
     0
276
    -2
286
     1
 66
     0
277
    -2
287
     1
 67
     0
278
    -2
288
     1
 68
     0
279
    -2
289
     1
 69
     0
  7
Standard
140
0.18
170
     5
 62
     0
 63
     7
283
     0
 90
      512
 91
        0
  1

274
    -2
284
     1
 64
     0
275
    -2
285
     1
 65
     0
276
    -2
286
     1
 66
     0
277
    -2
287
     1
 67
     0
278
    -2
288
     1
 68
     0
279
    -2
289
     1
 69
     0
  0
VISUALSTYLE
  5
2F
102
{ACAD_XDICTIONARY
360
97F
102
}
102
{ACAD_REACTORS
330
2A
102
}
330
2A
100
AcDbVisualStyle
  2
2dWireframe
 70
     4
177
     2
291
     0
 71
     0
176
     1
 72
     2
176
     1
 73
     0
176
     1
 90
        0
176
     1
 40
0.6
176
     1
 41
30.0
176
     1
 63
     7
421
 16777215
176
     1
 74
     1
176
     1
 91
        4
176
     1
 64
     7
176
     1
 65
   257
176
     1
 75
     1
176
     1
175
     1
176
     1
 42
1.0
176
     1
 92
        0
176
     1
 66
   257
176
     1
 43
1.0
176
     1
 76
     1
176
     1
 77
     6
176
     1
 78
     2
176
     1
 67
     7
176
     1
 79
     5
176
     1
170
     0
176
     1
171
     0
176
     1
290
     0
176
     1
 93
        1
176
     1
 44
0.0
176
     1
173
     0
176
     1
1001
ACAD
1000
AcDbSavedByObjectVersion
1070
     0
  0
VISUALSTYLE
  5
31
102
{ACAD_XDICTIONARY
360
983
102
}
102
{ACAD_REACTORS
330
2A
102
}
330
2A
100
AcDbVisualStyle
  2
3D Hidden
 70
     6
177
     2
291
     0
 71
     1
176
     1
 72
     2
176
     1
 73
     2
176
     1
 90
        0
176
     1
 40
0.6
176
     1
 41
30.0
176
     1
 63
     7
421
 16777215
176
     1
 74
     2
176
     1
 91
        2
176
     1
 64
     7
176
     1
 65
   257
176
     1
 75
     2
176
     1
175
     1
176
     1
 42
40.0
176
     1
 92
        0
176
     1
 66
   257
176
     1
 43
1.0
176
     1
 76
     1
176
     1
 77
     6
176
     1
 78
     2
176
     1
 67
     7
176
     1
 79
     3
176
     1
170
     0
176
     1
171
     0
176
     1
290
     0
176
     1
 93
        1
176
     1
 44
0.0
176
     1
173
     0
176
     1
1001
ACAD
1000
AcDbSavedByObjectVersion
1070
     0
  0
VISUALSTYLE
  5
30
102
{ACAD_XDICTIONARY
360
981
102
}
102
{ACAD_REACTORS
330
2A
102
}
330
2A
100
AcDbVisualStyle
  2
3dWireframe
 70
     5
177
     2
291
     0
 71
     0
176
     1
 72
     2
176
     1
 73
     0
176
     1
 90
        0
176
     1
 40
0.6
176
     1
 41
30.0
176
     1
 63
     7
421
 16777215
176
     1
 74
     1
176
     1
 91
        4
176
     1
 64
     7
176
     1
 65
   257
176
     1
 75
     1
176
     1
175
     1
176
     1
 42
1.0
176
     1
 92
        0
176
     1
 66
   257
176
     1
 43
1.0
176
     1
 76
     1
176
     1
 77
     6
176
     1
 78
     2
176
     1
 67
     7
176
     1
 79
     5
176
     1
170
     0
176
     1
171
     0
176
     1
290
     0
176
     1
 93
        1
176
     1
 44
0.0
176
     1
173
     0
176
     1
1001
ACAD
1000
AcDbSavedByObjectVersion
1070
     0
  0
VISUALSTYLE
  5
32
102
{ACAD_XDICTIONARY
360
985
102
}
102
{ACAD_REACTORS
330
2A
102
}
330
2A
100
AcDbVisualStyle
  2
Basic
 70
     7
177
     2
291
     1
 71
     1
176
     1
 72
     0
176
     1
 73
     1
176
     1
 90
        0
176
     1
 40
0.6
176
     1
 41
30.0
176
     1
 63
     7
421
 16777215
176
     1
 74
     0
176
     1
 91
        4
176
     1
 64
     7
176
     1
 65
   257
176
     1
 75
     1
176
     1
175
     1
176
     1
 42
1.0
176
     1
 92
        8
176
     1
 66
     7
176
     1
 43
1.0
176
     1
 76
     1
176
     1
 77
     6
176
     1
 78
     2
176
     1
 67
     7
176
     1
 79
     5
176
     1
170
     0
176
     1
171
     0
176
     1
290
     0
176
     1
 93
        1
176
     1
 44
0.0
176
     1
173
     0
176
     1
1001
ACAD
1000
AcDbSavedByObjectVersion
1070
     0
  0
VISUALSTYLE
  5
36
102
{ACAD_XDICTIONARY
360
98D
102
}
102
{ACAD_REACTORS
330
2A
102
}
330
2A
100
AcDbVisualStyle
  2
Brighten
 70
    12
177
     2
291
     1
 71
     2
176
     1
 72
     2
176
     1
 73
     0
176
     1
 90
        0
176
     1
 40
0.6
176
     1
 41
30.0
176
     1
 63
     7
421
 16777215
176
     1
 74
     1
176
     1
 91
        4
176
     1
 64
     7
176
     1
 65
   257
176
     1
 75
     1
176
     1
175
     1
176
     1
 42
1.0
176
     1
 92
        8
176
     1
 66
     7
176
     1
 43
1.0
176
     1
 76
     1
176
     1
 77
     6
176
     1
 78
     2
176
     1
 67
     7
176
     1
 79
     5
176
     1
170
     0
176
     1
171
     0
176
     1
290
     0
176
     1
 93
        1
176
     1
 44
50.0
176
     1
173
     0
176
     1
1001
ACAD
1000
AcDbSavedByObjectVersion
1070
     0
  0
VISUALSTYLE
  5
3A
102
{ACAD_XDICTIONARY
360
995
102
}
102
{ACAD_REACTORS
330
2A
102
}
330
2A
100
AcDbVisualStyle
  2
ColorChange
 70
    16
177
     2
291
     1
 71
     2
176
     1
 72
     2
176
     1
 73
     3
176
     1
 90
        0
176
     1
 40
0.6
176
     1
 41
30.0
176
     1
 63
     8
421
  8421504
176
     1
 74
     1
176
     1
 91
        4
176
     1
 64
     7
176
     1
 65
   257
176
     1
 75
     1
176
     1
175
     1
176
     1
 42
1.0
176
     1
 92
        8
176
     1
 66
     8
424
  8421504
176
     1
 43
1.0
176
     1
 76
     1
176
     1
 77
     6
176
     1
 78
     2
176
     1
 67
     7
176
     1
 79
     5
176
     1
170
     0
176
     1
171
     0
176
     1
290
     0
176
     1
 93
        1
176
     1
 44
0.0
176
     1
173
     0
176
     1
1001
ACAD
1000
AcDbSavedByObjectVersion
1070
     0
  0
VISUALSTYLE
  5
34
102
{ACAD_XDICTIONARY
360
989
102
}
102
{ACAD_REACTORS
330
2A
102
}
330
2A
100
AcDbVisualStyle
  2
Conceptual
 70
     9
177
     2
291
     0
 71
     3
176
     1
 72
     2
176
     1
 73
     0
176
     1
 90
        0
176
     1
 40
0.6
176
     1
 41
30.0
176
     1
 63
     7
421
 16777215
176
     1
 74
     2
176
     1
 91
        2
176
     1
 64
     7
176
     1
 65
   257
176
     1
 75
     1
176
     1
175
     1
176
     1
 42
40.0
176
     1
 92
        8
176
     1
 66
     7
176
     1
 43
1.0
176
     1
 76
     1
176
     1
 77
     6
176
     1
 78
     2
176
     1
 67
     7
176
     1
 79
     3
176
     1
170
     0
176
     1
171
     0
176
     1
290
     0
176
     1
 93
        1
176
     1
 44
0.0
176
     1
173
     0
176
     1
1001
ACAD
1000
AcDbSavedByObjectVersion
1070
     0
  0
VISUALSTYLE
  5
35
102
{ACAD_XDICTIONARY
360
98B
102
}
102
{ACAD_REACTORS
330
2A
102
}
330
2A
100
AcDbVisualStyle
  2
Dim
 70
    11
177
     2
291
     1
 71
     2
176
     1
 72
     2
176
     1
 73
     0
176
     1
 90
        0
176
     1
 40
0.6
176
     1
 41
30.0
176
     1
 63
     7
421
 16777215
176
     1
 74
     1
176
     1
 91
        4
176
     1
 64
     7
176
     1
 65
   257
176
     1
 75
     1
176
     1
175
     1
176
     1
 42
1.0
176
     1
 92
        8
176
     1
 66
     7
176
     1
 43
1.0
176
     1
 76
     1
176
     1
 77
     6
176
     1
 78
     2
176
     1
 67
     7
176
     1
 79
     5
176
     1
170
     0
176
     1
171
     0
176
     1
290
     0
176
     1
 93
        1
176
     1
 44
-50.0
176
     1
173
     0
176
     1
1001
ACAD
1000
AcDbSavedByObjectVersion
1070
     0
  0
VISUALSTYLE
  5
414
102
{ACAD_XDICTIONARY
360
9A9
102
}
102
{ACAD_REACTORS
330
2A
102
}
330
2A
100
AcDbVisualStyle
  2
EdgeColorOff
 70
    22
177
     2
291
     1
 71
     2
176
     0
 72
     2
176
     0
 73
     0
176
     0
 90
        0
176
     0
 40
0.6
176
     0
 41
30.0
176
     0
 63
     7
421
 16777215
176
     0
 74
     1
176
     0
 91
        4
176
     0
 64
     7
176
     0
 65
   257
176
     0
 75
     1
176
     0
175
     1
176
     0
 42
1.0
176
     0
 92
        8
176
     2
 66
     7
176
     0
 43
1.0
176
     0
 76
     1
176
     0
 77
     6
176
     0
 78
     2
176
     0
 67
     7
176
     0
 79
     5
176
     0
170
     0
176
     0
171
     0
176
     0
290
     0
176
     0
 93
        1
176
     0
 44
0.0
176
     0
173
     0
176
     0
1001
ACAD
1000
AcDbSavedByObjectVersion
1070
     0
  0
VISUALSTYLE
  5
39
102
{ACAD_XDICTIONARY
360
993
102
}
102
{ACAD_REACTORS
330
2A
102
}
330
2A
100
AcDbVisualStyle
  2
Facepattern
 70
    15
177
     2
291
     1
 71
     2
176
     1
 72
     2
176
     1
 73
     0
176
     1
 90
        0
176
     1
 40
0.6
176
     1
 41
30.0
176
     1
 63
     7
421
 16777215
176
     1
 74
     1
176
     1
 91
        4
176
     1
 64
     7
176
     1
 65
   257
176
     1
 75
     1
176
     1
175
     1
176
     1
 42
1.0
176
     1
 92
        8
176
     1
 66
     7
176
     1
 43
1.0
176
     1
 76
     1
176
     1
 77
     6
176
     1
 78
     2
176
     1
 67
     7
176
     1
 79
     5
176
     1
170
     0
176
     1
171
     0
176
     1
290
     0
176
     1
 93
        1
176
     1
 44
0.0
176
     1
173
     0
176
     1
1001
ACAD
1000
AcDbSavedByObjectVersion
1070
     0
  0
VISUALSTYLE
  5
2B
102
{ACAD_XDICTIONARY
360
977
102
}
102
{ACAD_REACTORS
330
2A
102
}
330
2A
100
AcDbVisualStyle
  2
Flat
 70
     0
177
     2
291
     1
 71
     2
176
     1
 72
     1
176
     1
 73
     1
176
     1
 90
        2
176
     1
 40
0.6
176
     1
 41
30.0
176
     1
 63
     7
421
 16777215
176
     1
 74
     0
176
     1
 91
        4
176
     1
 64
     7
176
     1
 65
   257
176
     1
 75
     1
176
     1
175
     1
176
     1
 42
1.0
176
     1
 92
        8
176
     1
 66
     7
176
     1
 43
1.0
176
     1
 76
     1
176
     1
 77
     6
176
     1
 78
     2
176
     1
 67
     7
176
     1
 79
     5
176
     1
170
     0
176
     1
171
     0
176
     1
290
     0
176
     1
 93
       13
176
     1
 44
0.0
176
     1
173
     0
176
     1
1001
ACAD
1000
AcDbSavedByObjectVersion
1070
     0
  0
VISUALSTYLE
  5
2C
102
{ACAD_XDICTIONARY
360
979
102
}
102
{ACAD_REACTORS
330
2A
102
}
330
2A
100
AcDbVisualStyle
  2
FlatWithEdges
 70
     1
177
     2
291
     1
 71
     2
176
     1
 72
     1
176
     1
 73
     1
176
     1
 90
        2
176
     1
 40
0.6
176
     1
 41
30.0
176
     1
 63
     7
421
 16777215
176
     1
 74
     1
176
     1
 91
        4
176
     1
 64
     7
176
     1
 65
   257
176
     1
 75
     1
176
     1
175
     1
176
     1
 42
1.0
176
     1
 92
        0
176
     1
 66
   257
176
     1
 43
1.0
176
     1
 76
     1
176
     1
 77
     6
176
     1
 78
     2
176
     1
 67
     7
176
     1
 79
     5
176
     1
170
     0
176
     1
171
     0
176
     1
290
     0
176
     1
 93
       13
176
     1
 44
0.0
176
     1
173
     0
176
     1
1001
ACAD
1000
AcDbSavedByObjectVersion
1070
     0
  0
VISUALSTYLE
  5
2D
102
{ACAD_XDICTIONARY
360
97B
102
}
102
{ACAD_REACTORS
330
2A
102
}
330
2A
100
AcDbVisualStyle
  2
Gouraud
 70
     2
177
     2
291
     1
 71
     2
176
     1
 72
     2
176
     1
 73
     1
176
     1
 90
        2
176
     1
 40
0.6
176
     1
 41
30.0
176
     1
 63
     7
421
 16777215
176
     1
 74
     0
176
     1
 91
        4
176
     1
 64
     7
176
     1
 65
   257
176
     1
 75
     1
176
     1
175
     1
176
     1
 42
1.0
176
     1
 92
        0
176
     1
 66
     7
176
     1
 43
1.0
176
     1
 76
     1
176
     1
 77
     6
176
     1
 78
     2
176
     1
 67
     7
176
     1
 79
     5
176
     1
170
     0
176
     1
171
     0
176
     1
290
     0
176
     1
 93
       13
176
     1
 44
0.0
176
     1
173
     0
176
     1
1001
ACAD
1000
AcDbSavedByObjectVersion
1070
     0
  0
VISUALSTYLE
  5
2E
102
{ACAD_XDICTIONARY
360
97D
102
}
102
{ACAD_REACTORS
330
2A
102
}
330
2A
100
AcDbVisualStyle
  2
GouraudWithEdges
 70
     3
177
     2
291
     1
 71
     2
176
     1
 72
     2
176
     1
 73
     1
176
     1
 90
        2
176
     1
 40
0.6
176
     1
 41
30.0
176
     1
 63
     7
421
 16777215
176
     1
 74
     1
176
     1
 91
        4
176
     1
 64
     7
176
     1
 65
   257
176
     1
 75
     1
176
     1
175
     1
176
     1
 42
1.0
176
     1
 92
        0
176
     1
 66
   257
176
     1
 43
1.0
176
     1
 76
     1
176
     1
 77
     6
176
     1
 78
     2
176
     1
 67
     7
176
     1
 79
     5
176
     1
170
     0
176
     1
171
     0
176
     1
290
     0
176
     1
 93
       13
176
     1
 44
0.0
176
     1
173
     0
176
     1
1001
ACAD
1000
AcDbSavedByObjectVersion
1070
     0
  0
VISUALSTYLE
  5
40C
102
{ACAD_XDICTIONARY
360
999
102
}
102
{ACAD_REACTORS
330
2A
102
}
330
2A
100
AcDbVisualStyle
  2
Hidden
 70
     6
177
     2
291
     0
 71
     1
176
     1
 72
     2
176
     1
 73
     2
176
     1
 90
        0
176
     1
 40
0.6
176
     1
 41
30.0
176
     1
 63
     7
421
 16777215
176
     1
 74
     2
176
     1
 91
        2
176
     1
 64
     7
176
     1
 65
   257
176
     1
 75
     2
176
     1
175
     1
176
     1
 42
40.0
176
     1
 92
        0
176
     1
 66
   257
176
     1
 43
1.0
176
     1
 76
     1
176
     1
 77
     6
176
     1
 78
     2
176
     1
 67
     7
176
     1
 79
     3
176
     1
170
     0
176
     1
171
     0
176
     1
290
     0
176
     1
 93
        1
176
     1
 44
0.0
176
     1
173
     0
176
     1
1001
ACAD
1000
AcDbSavedByObjectVersion
1070
     0
  0
VISUALSTYLE
  5
412
102
{ACAD_XDICTIONARY
360
9A5
102
}
102
{ACAD_REACTORS
330
2A
102
}
330
2A
100
AcDbVisualStyle
  2
JitterOff
 70
    20
177
     2
291
     1
 71
     2
176
     0
 72
     2
176
     0
 73
     0
176
     0
 90
        0
176
     0
 40
0.6
176
     0
 41
30.0
176
     0
 63
     7
421
 16777215
176
     0
 74
     1
176
     0
 91
        4
176
     0
 64
     7
176
     0
 65
   257
176
     0
 75
     1
176
     0
175
     1
176
     0
 42
1.0
176
     0
 92
       10
176
     2
 66
     7
176
     0
 43
1.0
176
     0
 76
     1
176
     0
 77
     6
176
     0
 78
     2
176
     0
 67
     7
176
     0
 79
     5
176
     0
170
     0
176
     0
171
     0
176
     0
290
     0
176
     0
 93
        1
176
     0
 44
0.0
176
     0
173
     0
176
     0
1001
ACAD
1000
AcDbSavedByObjectVersion
1070
     0
  0
VISUALSTYLE
  5
38
102
{ACAD_XDICTIONARY
360
991
102
}
102
{ACAD_REACTORS
330
2A
102
}
330
2A
100
AcDbVisualStyle
  2
Linepattern
 70
    14
177
     2
291
     1
 71
     2
176
     1
 72
     2
176
     1
 73
     0
176
     1
 90
        0
176
     1
 40
0.6
176
     1
 41
30.0
176
     1
 63
     7
421
 16777215
176
     1
 74
     1
176
     1
 91
        4
176
     1
 64
     7
176
     1
 65
   257
176
     1
 75
     7
176
     1
175
     7
176
     1
 42
1.0
176
     1
 92
        8
176
     1
 66
     7
176
     1
 43
1.0
176
     1
 76
     1
176
     1
 77
     6
176
     1
 78
     2
176
     1
 67
     7
176
     1
 79
     5
176
     1
170
     0
176
     1
171
     0
176
     1
290
     0
176
     1
 93
        1
176
     1
 44
0.0
176
     1
173
     0
176
     1
1001
ACAD
1000
AcDbSavedByObjectVersion
1070
     0
  0
VISUALSTYLE
  5
413
102
{ACAD_XDICTIONARY
360
9A7
102
}
102
{ACAD_REACTORS
330
2A
102
}
330
2A
100
AcDbVisualStyle
  2
OverhangOff
 70
    21
177
     2
291
     1
 71
     2
176
     0
 72
     2
176
     0
 73
     0
176
     0
 90
        0
176
     0
 40
0.6
176
     0
 41
30.0
176
     0
 63
     7
421
 16777215
176
     0
 74
     1
176
     0
 91
        4
176
     0
 64
     7
176
     0
 65
   257
176
     0
 75
     1
176
     0
175
     1
176
     0
 42
1.0
176
     0
 92
        9
176
     2
 66
     7
176
     0
 43
1.0
176
     0
 76
     1
176
     0
 77
     6
176
     0
 78
     2
176
     0
 67
     7
176
     0
 79
     5
176
     0
170
     0
176
     0
171
     0
176
     0
290
     0
176
     0
 93
        1
176
     0
 44
0.0
176
     0
173
     0
176
     0
1001
ACAD
1000
AcDbSavedByObjectVersion
1070
     0
  0
VISUALSTYLE
  5
33
102
{ACAD_XDICTIONARY
360
987
102
}
102
{ACAD_REACTORS
330
2A
102
}
330
2A
100
AcDbVisualStyle
  2
Realistic
 70
     8
177
     2
291
     0
 71
     2
176
     1
 72
     2
176
     1
 73
     0
176
     1
 90
        0
176
     1
 40
0.6
176
     1
 41
30.0
176
     1
 63
     7
421
 16777215
176
     1
 74
     1
176
     1
 91
        0
176
     1
 64
     7
176
     1
 65
   257
176
     1
 75
     1
176
     1
175
     1
176
     1
 42
1.0
176
     1
 92
        8
176
     1
 66
     8
424
  7895160
176
     1
 43
1.0
176
     1
 76
     1
176
     1
 77
     6
176
     1
 78
     2
176
     1
 67
     7
176
     1
 79
     5
176
     1
170
     0
176
     1
171
     0
176
     1
290
     0
176
     1
 93
       13
176
     1
 44
0.0
176
     1
173
     0
176
     1
1001
ACAD
1000
AcDbSavedByObjectVersion
1070
     0
  0
VISUALSTYLE
  5
411
102
{ACAD_XDICTIONARY
360
9A3
102
}
102
{ACAD_REACTORS
330
2A
102
}
330
2A
100
AcDbVisualStyle
  2
Shaded
 70
    27
177
     2
291
     0
 71
     2
176
     1
 72
     2
176
     1
 73
     1
176
     1
 90
        2
176
     1
 40
0.6
176
     1
 41
30.0
176
     1
 63
     7
421
 16777215
176
     1
 74
     0
176
     1
 91
        4
176
     1
 64
     7
176
     1
 65
   257
176
     1
 75
     1
176
     1
175
     1
176
     1
 42
1.0
176
     1
 92
        8
176
     1
 66
   257
176
     1
 43
1.0
176
     1
 76
     1
176
     1
 77
     6
176
     1
 78
     2
176
     1
 67
     8
425
  7895160
176
     1
 79
     3
176
     1
170
     0
176
     1
171
     0
176
     1
290
     0
176
     1
 93
        5
176
     1
 44
0.0
176
     1
173
     0
176
     1
1001
ACAD
1000
AcDbSavedByObjectVersion
1070
     0
  0
VISUALSTYLE
  5
410
102
{ACAD_XDICTIONARY
360
9A1
102
}
102
{ACAD_REACTORS
330
2A
102
}
330
2A
100
AcDbVisualStyle
  2
Shaded with edges
 70
    26
177
     2
291
     0
 71
     2
176
     1
 72
     2
176
     1
 73
     1
176
     1
 90
        2
176
     1
 40
0.6
176
     1
 41
30.0
176
     1
 63
     7
421
 16777215
176
     1
 74
     1
176
     1
 91
       10
176
     1
 64
     7
176
     1
 65
   257
176
     1
 75
     2
176
     1
175
     1
176
     1
 42
1.0
176
     1
 92
        8
176
     1
 66
   257
176
     1
 43
1.0
176
     1
 76
     1
176
     1
 77
     6
176
     1
 78
     2
176
     1
 67
     7
176
     1
 79
     3
176
     1
170
     0
176
     1
171
     0
176
     1
290
     0
176
     1
 93
        5
176
     1
 44
0.0
176
     1
173
     0
176
     1
1001
ACAD
1000
AcDbSavedByObjectVersion
1070
     0
  0
VISUALSTYLE
  5
40D
102
{ACAD_XDICTIONARY
360
99B
102
}
102
{ACAD_REACTORS
330
2A
102
}
330
2A
100
AcDbVisualStyle
  2
Shades of Gray
 70
    23
177
     2
291
     0
 71
     2
176
     1
 72
     2
176
     1
 73
     3
176
     1
 90
        0
176
     1
 40
0.6
176
     1
 41
30.0
176
     1
 63
     7
421
 16777215
176
     1
 74
     2
176
     1
 91
        2
176
     1
 64
     7
176
     1
 65
     7
176
     1
 75
     1
176
     1
175
     1
176
     1
 42
40.0
176
     1
 92
        8
176
     1
 66
     7
176
     1
 43
1.0
176
     1
 76
     1
176
     1
 77
     6
176
     1
 78
     2
176
     1
 67
     7
176
     1
 79
     3
176
     1
170
     0
176
     1
171
     0
176
     1
290
     0
176
     1
 93
        1
176
     1
 44
0.0
176
     1
173
     0
176
     1
1001
ACAD
1000
AcDbSavedByObjectVersion
1070
     0
  0
VISUALSTYLE
  5
40E
102
{ACAD_XDICTIONARY
360
99D
102
}
102
{ACAD_REACTORS
330
2A
102
}
330
2A
100
AcDbVisualStyle
  2
Sketchy
 70
    24
177
     2
291
     0
 71
     1
176
     1
 72
     2
176
     1
 73
     2
176
     1
 90
        0
176
     1
 40
0.6
176
     1
 41
30.0
176
     1
 63
     7
421
 16777215
176
     1
 74
     2
176
     1
 91
        2
176
     1
 64
     7
176
     1
 65
     7
176
     1
 75
     1
176
     1
175
     1
176
     1
 42
40.0
176
     1
 92
       11
176
     1
 66
     7
176
     1
 43
1.0
176
     1
 76
     1
176
     1
 77
     6
176
     1
 78
     2
176
     1
 67
     7
176
     1
 79
     6
176
     1
170
     0
176
     1
171
     0
176
     1
290
     0
176
     1
 93
        1
176
     1
 44
0.0
176
     1
173
     0
176
     1
1001
ACAD
1000
AcDbSavedByObjectVersion
1070
     0
  0
VISUALSTYLE
  5
37
102
{ACAD_XDICTIONARY
360
98F
102
}
102
{ACAD_REACTORS
330
2A
102
}
330
2A
100
AcDbVisualStyle
  2
Thicken
 70
    13
177
     2
291
     1
 71
     2
176
     1
 72
     2
176
     1
 73
     0
176
     1
 90
        0
176
     1
 40
0.6
176
     1
 41
30.0
176
     1
 63
     7
421
 16777215
176
     1
 74
     1
176
     1
 91
        4
176
     1
 64
     7
176
     1
 65
   257
176
     1
 75
     1
176
     1
175
     1
176
     1
 42
1.0
176
     1
 92
       12
176
     1
 66
     7
176
     1
 43
1.0
176
     1
 76
     1
176
     1
 77
     6
176
     1
 78
     2
176
     1
 67
     7
176
     1
 79
     5
176
     1
170
     0
176
     1
171
     0
176
     1
290
     0
176
     1
 93
        1
176
     1
 44
0.0
176
     1
173
     0
176
     1
1001
ACAD
1000
AcDbSavedByObjectVersion
1070
     0
  0
VISUALSTYLE
  5
40B
102
{ACAD_XDICTIONARY
360
997
102
}
102
{ACAD_REACTORS
330
2A
102
}
330
2A
100
AcDbVisualStyle
  2
Wireframe
 70
     5
177
     2
291
     0
 71
     0
176
     1
 72
     2
176
     1
 73
     0
176
     1
 90
        0
176
     1
 40
0.6
176
     1
 41
30.0
176
     1
 63
     7
421
 16777215
176
     1
 74
     1
176
     1
 91
        4
176
     1
 64
     7
176
     1
 65
   257
176
     1
 75
     1
176
     1
175
     1
176
     1
 42
1.0
176
     1
 92
        0
176
     1
 66
   257
176
     1
 43
1.0
176
     1
 76
     1
176
     1
 77
     6
176
     1
 78
     2
176
     1
 67
     7
176
     1
 79
     3
176
     1
170
     0
176
     1
171
     0
176
     1
290
     0
176
     1
 93
        1
176
     1
 44
0.0
176
     1
173
     0
176
     1
1001
ACAD
1000
AcDbSavedByObjectVersion
1070
     0
  0
VISUALSTYLE
  5
40F
102
{ACAD_XDICTIONARY
360
99F
102
}
102
{ACAD_REACTORS
330
2A
102
}
330
2A
100
AcDbVisualStyle
  2
X-Ray
 70
    25
177
     2
291
     0
 71
     2
176
     1
 72
     2
176
     1
 73
     1
176
     1
 90
        1
176
     1
 40
0.5
176
     1
 41
30.0
176
     1
 63
     7
421
 16777215
176
     1
 74
     1
176
     1
 91
        0
176
     1
 64
     7
176
     1
 65
   257
176
     1
 75
     1
176
     1
175
     1
176
     1
 42
1.0
176
     1
 92
        8
176
     1
 66
     7
176
     1
 43
1.0
176
     1
 76
     1
176
     1
 77
     6
176
     1
 78
     2
176
     1
 67
     7
176
     1
 79
     3
176
     1
170
     0
176
     1
171
     0
176
     1
290
     0
176
     1
 93
       13
176
     1
 44
0.0
176
     1
173
     0
176
     1
1001
ACAD
1000
AcDbSavedByObjectVersion
1070
     0
  0
DICTIONARYVAR
  5
3E6
102
{ACAD_REACTORS
330
3E5
102
}
330
3E5
100
DictionaryVariables
280
     0
  1
1:1
  0
DICTIONARYVAR
  5
4F2
102
{ACAD_REACTORS
330
3E5
102
}
330
3E5
100
DictionaryVariables
280
     0
  1
STANDARD
  0
DICTIONARYVAR
  5
4F1
102
{ACAD_REACTORS
330
3E5
102
}
330
3E5
100
DictionaryVariables
280
     0
  1
STANDARD
  0
DICTIONARYVAR
  5
4F3
102
{ACAD_REACTORS
330
3E5
102
}
330
3E5
100
DictionaryVariables
280
     0
  1
Imperial24
  0
DICTIONARYVAR
  5
4F4
102
{ACAD_REACTORS
330
3E5
102
}
330
3E5
100
DictionaryVariables
280
     0
  1
Imperial24
  0
DICTIONARYVAR
  5
46A
102
{ACAD_REACTORS
330
3E5
102
}
330
3E5
100
DictionaryVariables
280
     0
  1
RGB:95,95,95
  0
DICTIONARYVAR
  5
4F5
102
{ACAD_REACTORS
330
3E5
102
}
330
3E5
100
DictionaryVariables
280
     0
  1
1
  0
DICTIONARYVAR
  5
4F6
102
{ACAD_REACTORS
330
3E5
102
}
330
3E5
100
DictionaryVariables
280
     0
  1
15
  0
DICTIONARY
  5
976
102
{ACAD_REACTORS
330
974
102
}
330
974
100
AcDbDictionary
281
     1
  0
DICTIONARY
  5
975
102
{ACAD_REACTORS
330
974
102
}
330
974
100
AcDbDictionary
281
     1
  3
2127887288
350
96F
  3
2127887360
350
970
  3
2127887368
350
971
  3
2127887376
350
972
  3
2127887384
350
973
  0
XRECORD
  5
3E4
102
{ACAD_REACTORS
330
3E3
102
}
330
3E3
100
AcDbXrecord
280
     1
1000
This DWG file was created in ArchiCAD(TM)®
  0
DICTIONARY
  5
4EE
330
41B
100
AcDbDictionary
280
     1
281
     1
  3
ACAD_XREC_ROUNDTRIP
360
9AE
  0
DICTIONARY
  5
9AB
330
417
100
AcDbDictionary
280
     1
281
     1
  3
ACAD_XREC_ROUNDTRIP
360
9AC
  0
DICTIONARY
  5
4EC
330
419
100
AcDbDictionary
280
     1
281
     1
  3
ACAD_XREC_ROUNDTRIP
360
9AD
  0
DICTIONARY
  5
96C
330
416
100
AcDbDictionary
280
     1
281
     1
  3
ACAD_ROUNDTRIP_2008_TABLESTYLE_CELLSTYLEMAP
360
96D
  0
DICTIONARY
  5
97F
330
2F
100
AcDbDictionary
280
     1
281
     1
  3
ACAD_XREC_ROUNDTRIP
360
980
  0
DICTIONARY
  5
983
330
31
100
AcDbDictionary
280
     1
281
     1
  3
ACAD_XREC_ROUNDTRIP
360
984
  0
DICTIONARY
  5
981
330
30
100
AcDbDictionary
280
     1
281
     1
  3
ACAD_XREC_ROUNDTRIP
360
982
  0
DICTIONARY
  5
985
330
32
100
AcDbDictionary
280
     1
281
     1
  3
ACAD_XREC_ROUNDTRIP
360
986
  0
DICTIONARY
  5
98D
330
36
100
AcDbDictionary
280
     1
281
     1
  3
ACAD_XREC_ROUNDTRIP
360
98E
  0
DICTIONARY
  5
995
330
3A
100
AcDbDictionary
280
     1
281
     1
  3
ACAD_XREC_ROUNDTRIP
360
996
  0
DICTIONARY
  5
989
330
34
100
AcDbDictionary
280
     1
281
     1
  3
ACAD_XREC_ROUNDTRIP
360
98A
  0
DICTIONARY
  5
98B
330
35
100
AcDbDictionary
280
     1
281
     1
  3
ACAD_XREC_ROUNDTRIP
360
98C
  0
DICTIONARY
  5
9A9
330
414
100
AcDbDictionary
280
     1
281
     1
  3
ACAD_XREC_ROUNDTRIP
360
9AA
  0
DICTIONARY
  5
993
330
39
100
AcDbDictionary
280
     1
281
     1
  3
ACAD_XREC_ROUNDTRIP
360
994
  0
DICTIONARY
  5
977
330
2B
100
AcDbDictionary
280
     1
281
     1
  3
ACAD_XREC_ROUNDTRIP
360
978
  0
DICTIONARY
  5
979
330
2C
100
AcDbDictionary
280
     1
281
     1
  3
ACAD_XREC_ROUNDTRIP
360
97A
  0
DICTIONARY
  5
97B
330
2D
100
AcDbDictionary
280
     1
281
     1
  3
ACAD_XREC_ROUNDTRIP
360
97C
  0
DICTIONARY
  5
97D
330
2E
100
AcDbDictionary
280
     1
281
     1
  3
ACAD_XREC_ROUNDTRIP
360
97E
  0
DICTIONARY
  5
999
330
40C
100
AcDbDictionary
280
     1
281
     1
  3
ACAD_XREC_ROUNDTRIP
360
99A
  0
DICTIONARY
  5
9A5
330
412
100
AcDbDictionary
280
     1
281
     1
  3
ACAD_XREC_ROUNDTRIP
360
9A6
  0
DICTIONARY
  5
991
330
38
100
AcDbDictionary
280
     1
281
     1
  3
ACAD_XREC_ROUNDTRIP
360
992
  0
DICTIONARY
  5
9A7
330
413
100
AcDbDictionary
280
     1
281
     1
  3
ACAD_XREC_ROUNDTRIP
360
9A8
  0
DICTIONARY
  5
987
330
33
100
AcDbDictionary
280
     1
281
     1
  3
ACAD_XREC_ROUNDTRIP
360
988
  0
DICTIONARY
  5
9A3
330
411
100
AcDbDictionary
280
     1
281
     1
  3
ACAD_XREC_ROUNDTRIP
360
9A4
  0
DICTIONARY
  5
9A1
330
410
100
AcDbDictionary
280
     1
281
     1
  3
ACAD_XREC_ROUNDTRIP
360
9A2
  0
DICTIONARY
  5
99B
330
40D
100
AcDbDictionary
280
     1
281
     1
  3
ACAD_XREC_ROUNDTRIP
360
99C
  0
DICTIONARY
  5
99D
330
40E
100
AcDbDictionary
280
     1
281
     1
  3
ACAD_XREC_ROUNDTRIP
360
99E
  0
DICTIONARY
  5
98F
330
37
100
AcDbDictionary
280
     1
281
     1
  3
ACAD_XREC_ROUNDTRIP
360
990
  0
DICTIONARY
  5
997
330
40B
100
AcDbDictionary
280
     1
281
     1
  3
ACAD_XREC_ROUNDTRIP
360
998
  0
DICTIONARY
  5
99F
330
40F
100
AcDbDictionary
280
     1
281
     1
  3
ACAD_XREC_ROUNDTRIP
360
9A0
  0
XRECORD
  5
96F
102
{ACAD_REACTORS
330
975
102
}
330
975
100
AcDbXrecord
280
     1
  1
AcDb_Thumbnail_Schema
102
{ATTRRECORD
341
970
  2
AcDbDs::TreatedAsObjectData
280
     1
291
     1
102
ATTRRECORD}
102
{ATTRRECORD
341
971
  2
AcDbDs::Legacy
280
     1
291
     1
102
ATTRRECORD}
  2
AcDbDs::ID
280
    10
 91
        8
102
{ATTRRECORD
341
972
  2
AcDs:Indexable
280
     1
291
     1
102
ATTRRECORD}
102
{ATTRRECORD
341
973
  2
AcDbDs::HandleAttribute
280
     7
282
     1
102
ATTRRECORD}
  2
Thumbnail_Data
280
    15
 91
        0
  0
XRECORD
  5
970
102
{ACAD_REACTORS
330
975
102
}
330
975
100
AcDbXrecord
280
     1
  1
AcDbDs::TreatedAsObjectDataSchema
  2
AcDbDs::TreatedAsObjectData
280
     1
 91
        0
  0
XRECORD
  5
971
102
{ACAD_REACTORS
330
975
102
}
330
975
100
AcDbXrecord
280
     1
  1
AcDbDs::LegacySchema
  2
AcDbDs::Legacy
280
     1
 91
        0
  0
XRECORD
  5
972
102
{ACAD_REACTORS
330
975
102
}
330
975
100
AcDbXrecord
280
     1
  1
AcDbDs::IndexedPropertySchema
  2
AcDs:Indexable
280
     1
 91
        0
  0
XRECORD
  5
973
102
{ACAD_REACTORS
330
975
102
}
330
975
100
AcDbXrecord
280
     1
  1
AcDbDs::HandleAttributeSchema
  2
AcDbDs::HandleAttribute
280
     7
 91
        1
284
     1
  0
XRECORD
  5
9AE
102
{ACAD_REACTORS
330
4EE
102
}
330
4EE
100
AcDbXrecord
280
     1
102
DISPLAYNAME
  1
Imperial24
102
FLAGS
 90
        0
  0
XRECORD
  5
9AC
102
{ACAD_REACTORS
330
9AB
102
}
330
9AB
100
AcDbXrecord
280
     1
102
ACAD_ROUNDTRIP_2012_MLEADER_STYLE
298
     1
  0
XRECORD
  5
9AD
102
{ACAD_REACTORS
330
4EC
102
}
330
4EC
100
AcDbXrecord
280
     1
102
DISPLAYNAME
  1
Imperial24
102
FLAGS
 90
        0
  0
CELLSTYLEMAP
  5
96D
102
{ACAD_REACTORS
330
96C
102
}
330
96C
100
AcDbCellStyleMap
 90
        3
300
CELLSTYLE
  1
TABLEFORMAT_BEGIN
 90
        5
170
     1
 91
        0
 92
    32768
 62
   257
 93
        1
300
CONTENTFORMAT
  1
CONTENTFORMAT_BEGIN
 90
        0
 91
        0
 92
      512
 93
        0
300

 40
0.0
140
1.0
 94
        5
 62
     0
340
11
144
0.25
309
CONTENTFORMAT_END
171
     0
 94
        0
309
TABLEFORMAT_END
  1
CELLSTYLE_BEGIN
 90
        1
 91
        1
300
_TITLE
309
CELLSTYLE_END
300
CELLSTYLE
  1
TABLEFORMAT_BEGIN
 90
        5
170
     1
 91
        0
 92
        0
 62
   257
 93
        1
300
CONTENTFORMAT
  1
CONTENTFORMAT_BEGIN
 90
        0
 91
        0
 92
      512
 93
        0
300

 40
0.0
140
1.0
 94
        5
 62
     0
340
11
144
0.18
309
CONTENTFORMAT_END
171
     0
 94
        0
309
TABLEFORMAT_END
  1
CELLSTYLE_BEGIN
 90
        2
 91
        1
300
_HEADER
309
CELLSTYLE_END
300
CELLSTYLE
  1
TABLEFORMAT_BEGIN
 90
        5
170
     1
 91
        0
 92
        0
 62
   257
 93
        1
300
CONTENTFORMAT
  1
CONTENTFORMAT_BEGIN
 90
        0
 91
        0
 92
      512
 93
        0
300

 40
0.0
140
1.0
 94
        2
 62
     0
340
11
144
0.18
309
CONTENTFORMAT_END
171
     0
 94
        0
309
TABLEFORMAT_END
  1
CELLSTYLE_BEGIN
 90
        3
 91
        2
300
_DATA
309
CELLSTYLE_END
  0
XRECORD
  5
980
102
{ACAD_REACTORS
330
97F
102
}
330
97F
100
AcDbXrecord
280
     1
102
RTVSPost2010Prop28
280
     1
102
RTVSPost2010PropOp28
 70
     1
102
RTVSPost2010Prop29
280
     1
102
RTVSPost2010PropOp29
 70
     1
102
RTVSPost2010Prop30
280
     0
102
RTVSPost2010PropOp30
 70
     1
102
RTVSPost2010Prop31
280
     0
102
RTVSPost2010PropOp31
 70
     1
102
RTVSPost2010Prop32
280
     0
102
RTVSPost2010PropOp32
 70
     1
102
RTVSPost2010Prop33
280
     0
102
RTVSPost2010PropOp33
 70
     1
102
RTVSPost2010Prop34
280
     0
102
RTVSPost2010PropOp34
 70
     1
102
RTVSPost2010Prop35
280
     0
102
RTVSPost2010PropOp35
 70
     1
102
RTVSPost2010Prop36
280
     0
102
RTVSPost2010PropOp36
 70
     1
102
RTVSPost2010Prop37
 90
       50
102
RTVSPost2010PropOp37
 70
     1
102
RTVSPost2010Prop38
140
0.0
102
RTVSPost2010PropOp38
 70
     1
102
RTVSPost2010Prop39
140
1.0
102
RTVSPost2010PropOp39
 70
     1
102
RTVSPost2010Prop40
 90
        0
102
RTVSPost2010PropOp40
 70
     1
102
RTVSPost2010Prop41ColorIndex
 90
       18
102
RTVSPost2010Prop41ColorRGB
 90
        0
102
RTVSPost2010PropOp41
 70
     1
102
RTVSPost2010Prop42
 90
       50
102
RTVSPost2010PropOp42
 70
     1
102
RTVSPost2010Prop43
 90
        3
102
RTVSPost2010PropOp43
 70
     1
102
RTVSPost2010Prop44ColorIndex
 90
        5
102
RTVSPost2010Prop44ColorRGB
 90
      255
102
RTVSPost2010PropOp44
 70
     1
102
RTVSPost2010Prop45
280
     0
102
RTVSPost2010PropOp45
 70
     1
102
RTVSPost2010Prop46
 90
       50
102
RTVSPost2010PropOp46
 70
     1
102
RTVSPost2010Prop47
 90
       50
102
RTVSPost2010PropOp47
 70
     1
102
RTVSPost2010Prop48
 90
       50
102
RTVSPost2010PropOp48
 70
     1
102
RTVSPost2010Prop49
280
     0
102
RTVSPost2010PropOp49
 70
     1
102
RTVSPost2010Prop50
 90
       50
102
RTVSPost2010PropOp50
 70
     1
102
RTVSPost2010Prop51ColorIndex
 90
      256
102
RTVSPost2010Prop51ColorRGB
 90
-16777216
102
RTVSPost2010PropOp51
 70
     0
102
RTVSPost2010Prop52
140
1.0
102
RTVSPost2010PropOp52
 70
     0
102
RTVSPost2010Prop53
 90
        2
102
RTVSPost2010PropOp53
 70
     1
102
RTVSPost2010Prop54
  1
strokes_ogs.tif
102
RTVSPost2010PropOp54
 70
     1
102
RTVSPost2010Prop55
280
     0
102
RTVSPost2010PropOp55
 70
     1
102
RTVSPost2010Prop56
140
1.0
102
RTVSPost2010PropOp56
 70
     1
102
RTVSPost2010Prop57
140
1.0
102
RTVSPost2010PropOp57
 70
     1
  0
XRECORD
  5
984
102
{ACAD_REACTORS
330
983
102
}
330
983
100
AcDbXrecord
280
     1
102
RTVSPost2010Prop28
280
     0
102
RTVSPost2010PropOp28
 70
     1
102
RTVSPost2010Prop29
280
     1
102
RTVSPost2010PropOp29
 70
     1
102
RTVSPost2010Prop30
280
     1
102
RTVSPost2010PropOp30
 70
     1
102
RTVSPost2010Prop31
280
     0
102
RTVSPost2010PropOp31
 70
     1
102
RTVSPost2010Prop32
280
     0
102
RTVSPost2010PropOp32
 70
     1
102
RTVSPost2010Prop33
280
     0
102
RTVSPost2010PropOp33
 70
     1
102
RTVSPost2010Prop34
280
     0
102
RTVSPost2010PropOp34
 70
     1
102
RTVSPost2010Prop35
280
     0
102
RTVSPost2010PropOp35
 70
     1
102
RTVSPost2010Prop36
280
     0
102
RTVSPost2010PropOp36
 70
     1
102
RTVSPost2010Prop37
 90
       50
102
RTVSPost2010PropOp37
 70
     1
102
RTVSPost2010Prop38
140
0.0
102
RTVSPost2010PropOp38
 70
     1
102
RTVSPost2010Prop39
140
1.0
102
RTVSPost2010PropOp39
 70
     1
102
RTVSPost2010Prop40
 90
        0
102
RTVSPost2010PropOp40
 70
     1
102
RTVSPost2010Prop41ColorIndex
 90
       18
102
RTVSPost2010Prop41ColorRGB
 90
        0
102
RTVSPost2010PropOp41
 70
     1
102
RTVSPost2010Prop42
 90
       50
102
RTVSPost2010PropOp42
 70
     1
102
RTVSPost2010Prop43
 90
        3
102
RTVSPost2010PropOp43
 70
     1
102
RTVSPost2010Prop44ColorIndex
 90
        5
102
RTVSPost2010Prop44ColorRGB
 90
      255
102
RTVSPost2010PropOp44
 70
     1
102
RTVSPost2010Prop45
280
     0
102
RTVSPost2010PropOp45
 70
     1
102
RTVSPost2010Prop46
 90
       50
102
RTVSPost2010PropOp46
 70
     1
102
RTVSPost2010Prop47
 90
       50
102
RTVSPost2010PropOp47
 70
     1
102
RTVSPost2010Prop48
 90
       50
102
RTVSPost2010PropOp48
 70
     1
102
RTVSPost2010Prop49
280
     0
102
RTVSPost2010PropOp49
 70
     1
102
RTVSPost2010Prop50
 90
       50
102
RTVSPost2010PropOp50
 70
     1
102
RTVSPost2010Prop51ColorIndex
 90
      256
102
RTVSPost2010Prop51ColorRGB
 90
-16777216
102
RTVSPost2010PropOp51
 70
     0
102
RTVSPost2010Prop52
140
1.0
102
RTVSPost2010PropOp52
 70
     0
102
RTVSPost2010Prop53
 90
        2
102
RTVSPost2010PropOp53
 70
     1
102
RTVSPost2010Prop54
  1
strokes_ogs.tif
102
RTVSPost2010PropOp54
 70
     1
102
RTVSPost2010Prop55
280
     0
102
RTVSPost2010PropOp55
 70
     1
102
RTVSPost2010Prop56
140
1.0
102
RTVSPost2010PropOp56
 70
     1
102
RTVSPost2010Prop57
140
1.0
102
RTVSPost2010PropOp57
 70
     1
  0
XRECORD
  5
982
102
{ACAD_REACTORS
330
981
102
}
330
981
100
AcDbXrecord
280
     1
102
RTVSPost2010Prop28
280
     0
102
RTVSPost2010PropOp28
 70
     1
102
RTVSPost2010Prop29
280
     1
102
RTVSPost2010PropOp29
 70
     1
102
RTVSPost2010Prop30
280
     1
102
RTVSPost2010PropOp30
 70
     1
102
RTVSPost2010Prop31
280
     0
102
RTVSPost2010PropOp31
 70
     1
102
RTVSPost2010Prop32
280
     0
102
RTVSPost2010PropOp32
 70
     1
102
RTVSPost2010Prop33
280
     0
102
RTVSPost2010PropOp33
 70
     1
102
RTVSPost2010Prop34
280
     0
102
RTVSPost2010PropOp34
 70
     1
102
RTVSPost2010Prop35
280
     0
102
RTVSPost2010PropOp35
 70
     1
102
RTVSPost2010Prop36
280
     0
102
RTVSPost2010PropOp36
 70
     1
102
RTVSPost2010Prop37
 90
       50
102
RTVSPost2010PropOp37
 70
     1
102
RTVSPost2010Prop38
140
0.0
102
RTVSPost2010PropOp38
 70
     1
102
RTVSPost2010Prop39
140
1.0
102
RTVSPost2010PropOp39
 70
     1
102
RTVSPost2010Prop40
 90
        0
102
RTVSPost2010PropOp40
 70
     1
102
RTVSPost2010Prop41ColorIndex
 90
       18
102
RTVSPost2010Prop41ColorRGB
 90
        0
102
RTVSPost2010PropOp41
 70
     1
102
RTVSPost2010Prop42
 90
       50
102
RTVSPost2010PropOp42
 70
     1
102
RTVSPost2010Prop43
 90
        3
102
RTVSPost2010PropOp43
 70
     1
102
RTVSPost2010Prop44ColorIndex
 90
        5
102
RTVSPost2010Prop44ColorRGB
 90
      255
102
RTVSPost2010PropOp44
 70
     1
102
RTVSPost2010Prop45
280
     0
102
RTVSPost2010PropOp45
 70
     1
102
RTVSPost2010Prop46
 90
       50
102
RTVSPost2010PropOp46
 70
     1
102
RTVSPost2010Prop47
 90
       50
102
RTVSPost2010PropOp47
 70
     1
102
RTVSPost2010Prop48
 90
       50
102
RTVSPost2010PropOp48
 70
     1
102
RTVSPost2010Prop49
280
     0
102
RTVSPost2010PropOp49
 70
     1
102
RTVSPost2010Prop50
 90
       50
102
RTVSPost2010PropOp50
 70
     1
102
RTVSPost2010Prop51ColorIndex
 90
      256
102
RTVSPost2010Prop51ColorRGB
 90
-16777216
102
RTVSPost2010PropOp51
 70
     0
102
RTVSPost2010Prop52
140
1.0
102
RTVSPost2010PropOp52
 70
     0
102
RTVSPost2010Prop53
 90
        2
102
RTVSPost2010PropOp53
 70
     1
102
RTVSPost2010Prop54
  1
strokes_ogs.tif
102
RTVSPost2010PropOp54
 70
     1
102
RTVSPost2010Prop55
280
     0
102
RTVSPost2010PropOp55
 70
     1
102
RTVSPost2010Prop56
140
1.0
102
RTVSPost2010PropOp56
 70
     1
102
RTVSPost2010Prop57
140
1.0
102
RTVSPost2010PropOp57
 70
     1
  0
XRECORD
  5
986
102
{ACAD_REACTORS
330
985
102
}
330
985
100
AcDbXrecord
280
     1
102
RTVSPost2010Prop28
280
     0
102
RTVSPost2010PropOp28
 70
     1
102
RTVSPost2010Prop29
280
     1
102
RTVSPost2010PropOp29
 70
     1
102
RTVSPost2010Prop30
280
     1
102
RTVSPost2010PropOp30
 70
     1
102
RTVSPost2010Prop31
280
     0
102
RTVSPost2010PropOp31
 70
     1
102
RTVSPost2010Prop32
280
     0
102
RTVSPost2010PropOp32
 70
     1
102
RTVSPost2010Prop33
280
     0
102
RTVSPost2010PropOp33
 70
     1
102
RTVSPost2010Prop34
280
     0
102
RTVSPost2010PropOp34
 70
     1
102
RTVSPost2010Prop35
280
     0
102
RTVSPost2010PropOp35
 70
     1
102
RTVSPost2010Prop36
280
     0
102
RTVSPost2010PropOp36
 70
     1
102
RTVSPost2010Prop37
 90
       50
102
RTVSPost2010PropOp37
 70
     1
102
RTVSPost2010Prop38
140
0.0
102
RTVSPost2010PropOp38
 70
     1
102
RTVSPost2010Prop39
140
1.0
102
RTVSPost2010PropOp39
 70
     1
102
RTVSPost2010Prop40
 90
        0
102
RTVSPost2010PropOp40
 70
     1
102
RTVSPost2010Prop41ColorIndex
 90
       18
102
RTVSPost2010Prop41ColorRGB
 90
        0
102
RTVSPost2010PropOp41
 70
     1
102
RTVSPost2010Prop42
 90
       50
102
RTVSPost2010PropOp42
 70
     1
102
RTVSPost2010Prop43
 90
        3
102
RTVSPost2010PropOp43
 70
     1
102
RTVSPost2010Prop44ColorIndex
 90
        5
102
RTVSPost2010Prop44ColorRGB
 90
      255
102
RTVSPost2010PropOp44
 70
     1
102
RTVSPost2010Prop45
280
     0
102
RTVSPost2010PropOp45
 70
     1
102
RTVSPost2010Prop46
 90
       50
102
RTVSPost2010PropOp46
 70
     1
102
RTVSPost2010Prop47
 90
       50
102
RTVSPost2010PropOp47
 70
     1
102
RTVSPost2010Prop48
 90
       50
102
RTVSPost2010PropOp48
 70
     1
102
RTVSPost2010Prop49
280
     0
102
RTVSPost2010PropOp49
 70
     1
102
RTVSPost2010Prop50
 90
       50
102
RTVSPost2010PropOp50
 70
     1
102
RTVSPost2010Prop51ColorIndex
 90
      256
102
RTVSPost2010Prop51ColorRGB
 90
-16777216
102
RTVSPost2010PropOp51
 70
     0
102
RTVSPost2010Prop52
140
1.0
102
RTVSPost2010PropOp52
 70
     0
102
RTVSPost2010Prop53
 90
        2
102
RTVSPost2010PropOp53
 70
     1
102
RTVSPost2010Prop54
  1
strokes_ogs.tif
102
RTVSPost2010PropOp54
 70
     1
102
RTVSPost2010Prop55
280
     0
102
RTVSPost2010PropOp55
 70
     1
102
RTVSPost2010Prop56
140
1.0
102
RTVSPost2010PropOp56
 70
     1
102
RTVSPost2010Prop57
140
1.0
102
RTVSPost2010PropOp57
 70
     1
  0
XRECORD
  5
98E
102
{ACAD_REACTORS
330
98D
102
}
330
98D
100
AcDbXrecord
280
     1
102
RTVSPost2010Prop28
280
     0
102
RTVSPost2010PropOp28
 70
     1
102
RTVSPost2010Prop29
280
     1
102
RTVSPost2010PropOp29
 70
     1
102
RTVSPost2010Prop30
280
     1
102
RTVSPost2010PropOp30
 70
     1
102
RTVSPost2010Prop31
280
     0
102
RTVSPost2010PropOp31
 70
     1
102
RTVSPost2010Prop32
280
     0
102
RTVSPost2010PropOp32
 70
     1
102
RTVSPost2010Prop33
280
     0
102
RTVSPost2010PropOp33
 70
     1
102
RTVSPost2010Prop34
280
     0
102
RTVSPost2010PropOp34
 70
     1
102
RTVSPost2010Prop35
280
     0
102
RTVSPost2010PropOp35
 70
     1
102
RTVSPost2010Prop36
280
     0
102
RTVSPost2010PropOp36
 70
     1
102
RTVSPost2010Prop37
 90
       50
102
RTVSPost2010PropOp37
 70
     1
102
RTVSPost2010Prop38
140
0.0
102
RTVSPost2010PropOp38
 70
     1
102
RTVSPost2010Prop39
140
1.0
102
RTVSPost2010PropOp39
 70
     1
102
RTVSPost2010Prop40
 90
        0
102
RTVSPost2010PropOp40
 70
     1
102
RTVSPost2010Prop41ColorIndex
 90
       18
102
RTVSPost2010Prop41ColorRGB
 90
        0
102
RTVSPost2010PropOp41
 70
     1
102
RTVSPost2010Prop42
 90
       50
102
RTVSPost2010PropOp42
 70
     1
102
RTVSPost2010Prop43
 90
        3
102
RTVSPost2010PropOp43
 70
     1
102
RTVSPost2010Prop44ColorIndex
 90
        5
102
RTVSPost2010Prop44ColorRGB
 90
      255
102
RTVSPost2010PropOp44
 70
     1
102
RTVSPost2010Prop45
280
     0
102
RTVSPost2010PropOp45
 70
     1
102
RTVSPost2010Prop46
 90
       50
102
RTVSPost2010PropOp46
 70
     1
102
RTVSPost2010Prop47
 90
       50
102
RTVSPost2010PropOp47
 70
     1
102
RTVSPost2010Prop48
 90
       50
102
RTVSPost2010PropOp48
 70
     1
102
RTVSPost2010Prop49
280
     0
102
RTVSPost2010PropOp49
 70
     1
102
RTVSPost2010Prop50
 90
       50
102
RTVSPost2010PropOp50
 70
     1
102
RTVSPost2010Prop51ColorIndex
 90
      256
102
RTVSPost2010Prop51ColorRGB
 90
-16777216
102
RTVSPost2010PropOp51
 70
     0
102
RTVSPost2010Prop52
140
1.0
102
RTVSPost2010PropOp52
 70
     0
102
RTVSPost2010Prop53
 90
        2
102
RTVSPost2010PropOp53
 70
     1
102
RTVSPost2010Prop54
  1
strokes_ogs.tif
102
RTVSPost2010PropOp54
 70
     1
102
RTVSPost2010Prop55
280
     0
102
RTVSPost2010PropOp55
 70
     1
102
RTVSPost2010Prop56
140
1.0
102
RTVSPost2010PropOp56
 70
     1
102
RTVSPost2010Prop57
140
1.0
102
RTVSPost2010PropOp57
 70
     1
  0
XRECORD
  5
996
102
{ACAD_REACTORS
330
995
102
}
330
995
100
AcDbXrecord
280
     1
102
RTVSPost2010Prop28
280
     0
102
RTVSPost2010PropOp28
 70
     1
102
RTVSPost2010Prop29
280
     1
102
RTVSPost2010PropOp29
 70
     1
102
RTVSPost2010Prop30
280
     1
102
RTVSPost2010PropOp30
 70
     1
102
RTVSPost2010Prop31
280
     0
102
RTVSPost2010PropOp31
 70
     1
102
RTVSPost2010Prop32
280
     0
102
RTVSPost2010PropOp32
 70
     1
102
RTVSPost2010Prop33
280
     0
102
RTVSPost2010PropOp33
 70
     1
102
RTVSPost2010Prop34
280
     0
102
RTVSPost2010PropOp34
 70
     1
102
RTVSPost2010Prop35
280
     0
102
RTVSPost2010PropOp35
 70
     1
102
RTVSPost2010Prop36
280
     0
102
RTVSPost2010PropOp36
 70
     1
102
RTVSPost2010Prop37
 90
       50
102
RTVSPost2010PropOp37
 70
     1
102
RTVSPost2010Prop38
140
0.0
102
RTVSPost2010PropOp38
 70
     1
102
RTVSPost2010Prop39
140
1.0
102
RTVSPost2010PropOp39
 70
     1
102
RTVSPost2010Prop40
 90
        0
102
RTVSPost2010PropOp40
 70
     1
102
RTVSPost2010Prop41ColorIndex
 90
       18
102
RTVSPost2010Prop41ColorRGB
 90
        0
102
RTVSPost2010PropOp41
 70
     1
102
RTVSPost2010Prop42
 90
       50
102
RTVSPost2010PropOp42
 70
     1
102
RTVSPost2010Prop43
 90
        3
102
RTVSPost2010PropOp43
 70
     1
102
RTVSPost2010Prop44ColorIndex
 90
        5
102
RTVSPost2010Prop44ColorRGB
 90
      255
102
RTVSPost2010PropOp44
 70
     1
102
RTVSPost2010Prop45
280
     0
102
RTVSPost2010PropOp45
 70
     1
102
RTVSPost2010Prop46
 90
       50
102
RTVSPost2010PropOp46
 70
     1
102
RTVSPost2010Prop47
 90
       50
102
RTVSPost2010PropOp47
 70
     1
102
RTVSPost2010Prop48
 90
       50
102
RTVSPost2010PropOp48
 70
     1
102
RTVSPost2010Prop49
280
     0
102
RTVSPost2010PropOp49
 70
     1
102
RTVSPost2010Prop50
 90
       50
102
RTVSPost2010PropOp50
 70
     1
102
RTVSPost2010Prop51ColorIndex
 90
      256
102
RTVSPost2010Prop51ColorRGB
 90
-16777216
102
RTVSPost2010PropOp51
 70
     0
102
RTVSPost2010Prop52
140
1.0
102
RTVSPost2010PropOp52
 70
     0
102
RTVSPost2010Prop53
 90
        2
102
RTVSPost2010PropOp53
 70
     1
102
RTVSPost2010Prop54
  1
strokes_ogs.tif
102
RTVSPost2010PropOp54
 70
     1
102
RTVSPost2010Prop55
280
     0
102
RTVSPost2010PropOp55
 70
     1
102
RTVSPost2010Prop56
140
1.0
102
RTVSPost2010PropOp56
 70
     1
102
RTVSPost2010Prop57
140
1.0
102
RTVSPost2010PropOp57
 70
     1
  0
XRECORD
  5
98A
102
{ACAD_REACTORS
330
989
102
}
330
989
100
AcDbXrecord
280
     1
102
RTVSPost2010Prop28
280
     0
102
RTVSPost2010PropOp28
 70
     1
102
RTVSPost2010Prop29
280
     1
102
RTVSPost2010PropOp29
 70
     1
102
RTVSPost2010Prop30
280
     1
102
RTVSPost2010PropOp30
 70
     1
102
RTVSPost2010Prop31
280
     0
102
RTVSPost2010PropOp31
 70
     1
102
RTVSPost2010Prop32
280
     0
102
RTVSPost2010PropOp32
 70
     1
102
RTVSPost2010Prop33
280
     0
102
RTVSPost2010PropOp33
 70
     1
102
RTVSPost2010Prop34
280
     0
102
RTVSPost2010PropOp34
 70
     1
102
RTVSPost2010Prop35
280
     0
102
RTVSPost2010PropOp35
 70
     1
102
RTVSPost2010Prop36
280
     0
102
RTVSPost2010PropOp36
 70
     1
102
RTVSPost2010Prop37
 90
       50
102
RTVSPost2010PropOp37
 70
     1
102
RTVSPost2010Prop38
140
0.0
102
RTVSPost2010PropOp38
 70
     1
102
RTVSPost2010Prop39
140
1.0
102
RTVSPost2010PropOp39
 70
     1
102
RTVSPost2010Prop40
 90
        0
102
RTVSPost2010PropOp40
 70
     1
102
RTVSPost2010Prop41ColorIndex
 90
       18
102
RTVSPost2010Prop41ColorRGB
 90
        0
102
RTVSPost2010PropOp41
 70
     1
102
RTVSPost2010Prop42
 90
       50
102
RTVSPost2010PropOp42
 70
     1
102
RTVSPost2010Prop43
 90
        3
102
RTVSPost2010PropOp43
 70
     1
102
RTVSPost2010Prop44ColorIndex
 90
        5
102
RTVSPost2010Prop44ColorRGB
 90
      255
102
RTVSPost2010PropOp44
 70
     1
102
RTVSPost2010Prop45
280
     0
102
RTVSPost2010PropOp45
 70
     1
102
RTVSPost2010Prop46
 90
       50
102
RTVSPost2010PropOp46
 70
     1
102
RTVSPost2010Prop47
 90
       50
102
RTVSPost2010PropOp47
 70
     1
102
RTVSPost2010Prop48
 90
       50
102
RTVSPost2010PropOp48
 70
     1
102
RTVSPost2010Prop49
280
     0
102
RTVSPost2010PropOp49
 70
     1
102
RTVSPost2010Prop50
 90
       50
102
RTVSPost2010PropOp50
 70
     1
102
RTVSPost2010Prop51ColorIndex
 90
      256
102
RTVSPost2010Prop51ColorRGB
 90
-16777216
102
RTVSPost2010PropOp51
 70
     0
102
RTVSPost2010Prop52
140
1.0
102
RTVSPost2010PropOp52
 70
     0
102
RTVSPost2010Prop53
 90
        2
102
RTVSPost2010PropOp53
 70
     1
102
RTVSPost2010Prop54
  1
strokes_ogs.tif
102
RTVSPost2010PropOp54
 70
     1
102
RTVSPost2010Prop55
280
     0
102
RTVSPost2010PropOp55
 70
     1
102
RTVSPost2010Prop56
140
1.0
102
RTVSPost2010PropOp56
 70
     1
102
RTVSPost2010Prop57
140
1.0
102
RTVSPost2010PropOp57
 70
     1
  0
XRECORD
  5
98C
102
{ACAD_REACTORS
330
98B
102
}
330
98B
100
AcDbXrecord
280
     1
102
RTVSPost2010Prop28
280
     0
102
RTVSPost2010PropOp28
 70
     1
102
RTVSPost2010Prop29
280
     1
102
RTVSPost2010PropOp29
 70
     1
102
RTVSPost2010Prop30
280
     1
102
RTVSPost2010PropOp30
 70
     1
102
RTVSPost2010Prop31
280
     0
102
RTVSPost2010PropOp31
 70
     1
102
RTVSPost2010Prop32
280
     0
102
RTVSPost2010PropOp32
 70
     1
102
RTVSPost2010Prop33
280
     0
102
RTVSPost2010PropOp33
 70
     1
102
RTVSPost2010Prop34
280
     0
102
RTVSPost2010PropOp34
 70
     1
102
RTVSPost2010Prop35
280
     0
102
RTVSPost2010PropOp35
 70
     1
102
RTVSPost2010Prop36
280
     0
102
RTVSPost2010PropOp36
 70
     1
102
RTVSPost2010Prop37
 90
       50
102
RTVSPost2010PropOp37
 70
     1
102
RTVSPost2010Prop38
140
0.0
102
RTVSPost2010PropOp38
 70
     1
102
RTVSPost2010Prop39
140
1.0
102
RTVSPost2010PropOp39
 70
     1
102
RTVSPost2010Prop40
 90
        0
102
RTVSPost2010PropOp40
 70
     1
102
RTVSPost2010Prop41ColorIndex
 90
       18
102
RTVSPost2010Prop41ColorRGB
 90
        0
102
RTVSPost2010PropOp41
 70
     1
102
RTVSPost2010Prop42
 90
       50
102
RTVSPost2010PropOp42
 70
     1
102
RTVSPost2010Prop43
 90
        3
102
RTVSPost2010PropOp43
 70
     1
102
RTVSPost2010Prop44ColorIndex
 90
        5
102
RTVSPost2010Prop44ColorRGB
 90
      255
102
RTVSPost2010PropOp44
 70
     1
102
RTVSPost2010Prop45
280
     0
102
RTVSPost2010PropOp45
 70
     1
102
RTVSPost2010Prop46
 90
       50
102
RTVSPost2010PropOp46
 70
     1
102
RTVSPost2010Prop47
 90
       50
102
RTVSPost2010PropOp47
 70
     1
102
RTVSPost2010Prop48
 90
       50
102
RTVSPost2010PropOp48
 70
     1
102
RTVSPost2010Prop49
280
     0
102
RTVSPost2010PropOp49
 70
     1
102
RTVSPost2010Prop50
 90
       50
102
RTVSPost2010PropOp50
 70
     1
102
RTVSPost2010Prop51ColorIndex
 90
      256
102
RTVSPost2010Prop51ColorRGB
 90
-16777216
102
RTVSPost2010PropOp51
 70
     0
102
RTVSPost2010Prop52
140
1.0
102
RTVSPost2010PropOp52
 70
     0
102
RTVSPost2010Prop53
 90
        2
102
RTVSPost2010PropOp53
 70
     1
102
RTVSPost2010Prop54
  1
strokes_ogs.tif
102
RTVSPost2010PropOp54
 70
     1
102
RTVSPost2010Prop55
280
     0
102
RTVSPost2010PropOp55
 70
     1
102
RTVSPost2010Prop56
140
1.0
102
RTVSPost2010PropOp56
 70
     1
102
RTVSPost2010Prop57
140
1.0
102
RTVSPost2010PropOp57
 70
     1
  0
XRECORD
  5
9AA
102
{ACAD_REACTORS
330
9A9
102
}
330
9A9
100
AcDbXrecord
280
     1
102
RTVSPost2010Prop28
280
     0
102
RTVSPost2010PropOp28
 70
     0
102
RTVSPost2010Prop29
280
     1
102
RTVSPost2010PropOp29
 70
     0
102
RTVSPost2010Prop30
280
     1
102
RTVSPost2010PropOp30
 70
     0
102
RTVSPost2010Prop31
280
     0
102
RTVSPost2010PropOp31
 70
     0
102
RTVSPost2010Prop32
280
     0
102
RTVSPost2010PropOp32
 70
     0
102
RTVSPost2010Prop33
280
     0
102
RTVSPost2010PropOp33
 70
     0
102
RTVSPost2010Prop34
280
     0
102
RTVSPost2010PropOp34
 70
     0
102
RTVSPost2010Prop35
280
     0
102
RTVSPost2010PropOp35
 70
     0
102
RTVSPost2010Prop36
280
     0
102
RTVSPost2010PropOp36
 70
     0
102
RTVSPost2010Prop37
 90
       50
102
RTVSPost2010PropOp37
 70
     0
102
RTVSPost2010Prop38
140
0.0
102
RTVSPost2010PropOp38
 70
     0
102
RTVSPost2010Prop39
140
1.0
102
RTVSPost2010PropOp39
 70
     0
102
RTVSPost2010Prop40
 90
        0
102
RTVSPost2010PropOp40
 70
     0
102
RTVSPost2010Prop41ColorIndex
 90
       18
102
RTVSPost2010Prop41ColorRGB
 90
        0
102
RTVSPost2010PropOp41
 70
     0
102
RTVSPost2010Prop42
 90
       50
102
RTVSPost2010PropOp42
 70
     0
102
RTVSPost2010Prop43
 90
        3
102
RTVSPost2010PropOp43
 70
     0
102
RTVSPost2010Prop44ColorIndex
 90
        5
102
RTVSPost2010Prop44ColorRGB
 90
      255
102
RTVSPost2010PropOp44
 70
     0
102
RTVSPost2010Prop45
280
     0
102
RTVSPost2010PropOp45
 70
     0
102
RTVSPost2010Prop46
 90
       50
102
RTVSPost2010PropOp46
 70
     0
102
RTVSPost2010Prop47
 90
       50
102
RTVSPost2010PropOp47
 70
     0
102
RTVSPost2010Prop48
 90
       50
102
RTVSPost2010PropOp48
 70
     0
102
RTVSPost2010Prop49
280
     0
102
RTVSPost2010PropOp49
 70
     0
102
RTVSPost2010Prop50
 90
       50
102
RTVSPost2010PropOp50
 70
     0
102
RTVSPost2010Prop51ColorIndex
 90
      256
102
RTVSPost2010Prop51ColorRGB
 90
-16777216
102
RTVSPost2010PropOp51
 70
     0
102
RTVSPost2010Prop52
140
1.0
102
RTVSPost2010PropOp52
 70
     0
102
RTVSPost2010Prop53
 90
        2
102
RTVSPost2010PropOp53
 70
     0
102
RTVSPost2010Prop54
  1
strokes_ogs.tif
102
RTVSPost2010PropOp54
 70
     0
102
RTVSPost2010Prop55
280
     0
102
RTVSPost2010PropOp55
 70
     0
102
RTVSPost2010Prop56
140
1.0
102
RTVSPost2010PropOp56
 70
     0
102
RTVSPost2010Prop57
140
1.0
102
RTVSPost2010PropOp57
 70
     0
  0
XRECORD
  5
994
102
{ACAD_REACTORS
330
993
102
}
330
993
100
AcDbXrecord
280
     1
102
RTVSPost2010Prop28
280
     0
102
RTVSPost2010PropOp28
 70
     1
102
RTVSPost2010Prop29
280
     1
102
RTVSPost2010PropOp29
 70
     1
102
RTVSPost2010Prop30
280
     1
102
RTVSPost2010PropOp30
 70
     1
102
RTVSPost2010Prop31
280
     0
102
RTVSPost2010PropOp31
 70
     1
102
RTVSPost2010Prop32
280
     0
102
RTVSPost2010PropOp32
 70
     1
102
RTVSPost2010Prop33
280
     0
102
RTVSPost2010PropOp33
 70
     1
102
RTVSPost2010Prop34
280
     0
102
RTVSPost2010PropOp34
 70
     1
102
RTVSPost2010Prop35
280
     0
102
RTVSPost2010PropOp35
 70
     1
102
RTVSPost2010Prop36
280
     0
102
RTVSPost2010PropOp36
 70
     1
102
RTVSPost2010Prop37
 90
       50
102
RTVSPost2010PropOp37
 70
     1
102
RTVSPost2010Prop38
140
0.0
102
RTVSPost2010PropOp38
 70
     1
102
RTVSPost2010Prop39
140
1.0
102
RTVSPost2010PropOp39
 70
     1
102
RTVSPost2010Prop40
 90
        0
102
RTVSPost2010PropOp40
 70
     1
102
RTVSPost2010Prop41ColorIndex
 90
       18
102
RTVSPost2010Prop41ColorRGB
 90
        0
102
RTVSPost2010PropOp41
 70
     1
102
RTVSPost2010Prop42
 90
       50
102
RTVSPost2010PropOp42
 70
     1
102
RTVSPost2010Prop43
 90
        3
102
RTVSPost2010PropOp43
 70
     1
102
RTVSPost2010Prop44ColorIndex
 90
        5
102
RTVSPost2010Prop44ColorRGB
 90
      255
102
RTVSPost2010PropOp44
 70
     1
102
RTVSPost2010Prop45
280
     0
102
RTVSPost2010PropOp45
 70
     1
102
RTVSPost2010Prop46
 90
       50
102
RTVSPost2010PropOp46
 70
     1
102
RTVSPost2010Prop47
 90
       50
102
RTVSPost2010PropOp47
 70
     1
102
RTVSPost2010Prop48
 90
       50
102
RTVSPost2010PropOp48
 70
     1
102
RTVSPost2010Prop49
280
     0
102
RTVSPost2010PropOp49
 70
     1
102
RTVSPost2010Prop50
 90
       50
102
RTVSPost2010PropOp50
 70
     1
102
RTVSPost2010Prop51ColorIndex
 90
      256
102
RTVSPost2010Prop51ColorRGB
 90
-16777216
102
RTVSPost2010PropOp51
 70
     0
102
RTVSPost2010Prop52
140
1.0
102
RTVSPost2010PropOp52
 70
     0
102
RTVSPost2010Prop53
 90
        2
102
RTVSPost2010PropOp53
 70
     1
102
RTVSPost2010Prop54
  1
strokes_ogs.tif
102
RTVSPost2010PropOp54
 70
     1
102
RTVSPost2010Prop55
280
     0
102
RTVSPost2010PropOp55
 70
     1
102
RTVSPost2010Prop56
140
1.0
102
RTVSPost2010PropOp56
 70
     1
102
RTVSPost2010Prop57
140
1.0
102
RTVSPost2010PropOp57
 70
     1
  0
XRECORD
  5
978
102
{ACAD_REACTORS
330
977
102
}
330
977
100
AcDbXrecord
280
     1
102
RTVSPost2010Prop28
280
     0
102
RTVSPost2010PropOp28
 70
     1
102
RTVSPost2010Prop29
280
     1
102
RTVSPost2010PropOp29
 70
     1
102
RTVSPost2010Prop30
280
     1
102
RTVSPost2010PropOp30
 70
     1
102
RTVSPost2010Prop31
280
     0
102
RTVSPost2010PropOp31
 70
     1
102
RTVSPost2010Prop32
280
     0
102
RTVSPost2010PropOp32
 70
     1
102
RTVSPost2010Prop33
280
     0
102
RTVSPost2010PropOp33
 70
     1
102
RTVSPost2010Prop34
280
     0
102
RTVSPost2010PropOp34
 70
     1
102
RTVSPost2010Prop35
280
     0
102
RTVSPost2010PropOp35
 70
     1
102
RTVSPost2010Prop36
280
     0
102
RTVSPost2010PropOp36
 70
     1
102
RTVSPost2010Prop37
 90
       50
102
RTVSPost2010PropOp37
 70
     1
102
RTVSPost2010Prop38
140
0.0
102
RTVSPost2010PropOp38
 70
     1
102
RTVSPost2010Prop39
140
1.0
102
RTVSPost2010PropOp39
 70
     1
102
RTVSPost2010Prop40
 90
        0
102
RTVSPost2010PropOp40
 70
     1
102
RTVSPost2010Prop41ColorIndex
 90
       18
102
RTVSPost2010Prop41ColorRGB
 90
        0
102
RTVSPost2010PropOp41
 70
     1
102
RTVSPost2010Prop42
 90
       50
102
RTVSPost2010PropOp42
 70
     1
102
RTVSPost2010Prop43
 90
        3
102
RTVSPost2010PropOp43
 70
     1
102
RTVSPost2010Prop44ColorIndex
 90
        5
102
RTVSPost2010Prop44ColorRGB
 90
      255
102
RTVSPost2010PropOp44
 70
     1
102
RTVSPost2010Prop45
280
     0
102
RTVSPost2010PropOp45
 70
     1
102
RTVSPost2010Prop46
 90
       50
102
RTVSPost2010PropOp46
 70
     1
102
RTVSPost2010Prop47
 90
       50
102
RTVSPost2010PropOp47
 70
     1
102
RTVSPost2010Prop48
 90
       50
102
RTVSPost2010PropOp48
 70
     1
102
RTVSPost2010Prop49
280
     0
102
RTVSPost2010PropOp49
 70
     1
102
RTVSPost2010Prop50
 90
       50
102
RTVSPost2010PropOp50
 70
     1
102
RTVSPost2010Prop51ColorIndex
 90
      256
102
RTVSPost2010Prop51ColorRGB
 90
-16777216
102
RTVSPost2010PropOp51
 70
     0
102
RTVSPost2010Prop52
140
1.0
102
RTVSPost2010PropOp52
 70
     0
102
RTVSPost2010Prop53
 90
        2
102
RTVSPost2010PropOp53
 70
     1
102
RTVSPost2010Prop54
  1
strokes_ogs.tif
102
RTVSPost2010PropOp54
 70
     1
102
RTVSPost2010Prop55
280
     0
102
RTVSPost2010PropOp55
 70
     1
102
RTVSPost2010Prop56
140
1.0
102
RTVSPost2010PropOp56
 70
     1
102
RTVSPost2010Prop57
140
1.0
102
RTVSPost2010PropOp57
 70
     1
  0
XRECORD
  5
97A
102
{ACAD_REACTORS
330
979
102
}
330
979
100
AcDbXrecord
280
     1
102
RTVSPost2010Prop28
280
     0
102
RTVSPost2010PropOp28
 70
     1
102
RTVSPost2010Prop29
280
     1
102
RTVSPost2010PropOp29
 70
     1
102
RTVSPost2010Prop30
280
     1
102
RTVSPost2010PropOp30
 70
     1
102
RTVSPost2010Prop31
280
     0
102
RTVSPost2010PropOp31
 70
     1
102
RTVSPost2010Prop32
280
     0
102
RTVSPost2010PropOp32
 70
     1
102
RTVSPost2010Prop33
280
     0
102
RTVSPost2010PropOp33
 70
     1
102
RTVSPost2010Prop34
280
     0
102
RTVSPost2010PropOp34
 70
     1
102
RTVSPost2010Prop35
280
     0
102
RTVSPost2010PropOp35
 70
     1
102
RTVSPost2010Prop36
280
     0
102
RTVSPost2010PropOp36
 70
     1
102
RTVSPost2010Prop37
 90
       50
102
RTVSPost2010PropOp37
 70
     1
102
RTVSPost2010Prop38
140
0.0
102
RTVSPost2010PropOp38
 70
     1
102
RTVSPost2010Prop39
140
1.0
102
RTVSPost2010PropOp39
 70
     1
102
RTVSPost2010Prop40
 90
        0
102
RTVSPost2010PropOp40
 70
     1
102
RTVSPost2010Prop41ColorIndex
 90
       18
102
RTVSPost2010Prop41ColorRGB
 90
        0
102
RTVSPost2010PropOp41
 70
     1
102
RTVSPost2010Prop42
 90
       50
102
RTVSPost2010PropOp42
 70
     1
102
RTVSPost2010Prop43
 90
        3
102
RTVSPost2010PropOp43
 70
     1
102
RTVSPost2010Prop44ColorIndex
 90
        5
102
RTVSPost2010Prop44ColorRGB
 90
      255
102
RTVSPost2010PropOp44
 70
     1
102
RTVSPost2010Prop45
280
     0
102
RTVSPost2010PropOp45
 70
     1
102
RTVSPost2010Prop46
 90
       50
102
RTVSPost2010PropOp46
 70
     1
102
RTVSPost2010Prop47
 90
       50
102
RTVSPost2010PropOp47
 70
     1
102
RTVSPost2010Prop48
 90
       50
102
RTVSPost2010PropOp48
 70
     1
102
RTVSPost2010Prop49
280
     0
102
RTVSPost2010PropOp49
 70
     1
102
RTVSPost2010Prop50
 90
       50
102
RTVSPost2010PropOp50
 70
     1
102
RTVSPost2010Prop51ColorIndex
 90
      256
102
RTVSPost2010Prop51ColorRGB
 90
-16777216
102
RTVSPost2010PropOp51
 70
     0
102
RTVSPost2010Prop52
140
1.0
102
RTVSPost2010PropOp52
 70
     0
102
RTVSPost2010Prop53
 90
        2
102
RTVSPost2010PropOp53
 70
     1
102
RTVSPost2010Prop54
  1
strokes_ogs.tif
102
RTVSPost2010PropOp54
 70
     1
102
RTVSPost2010Prop55
280
     0
102
RTVSPost2010PropOp55
 70
     1
102
RTVSPost2010Prop56
140
1.0
102
RTVSPost2010PropOp56
 70
     1
102
RTVSPost2010Prop57
140
1.0
102
RTVSPost2010PropOp57
 70
     1
  0
XRECORD
  5
97C
102
{ACAD_REACTORS
330
97B
102
}
330
97B
100
AcDbXrecord
280
     1
102
RTVSPost2010Prop28
280
     0
102
RTVSPost2010PropOp28
 70
     1
102
RTVSPost2010Prop29
280
     1
102
RTVSPost2010PropOp29
 70
     1
102
RTVSPost2010Prop30
280
     1
102
RTVSPost2010PropOp30
 70
     1
102
RTVSPost2010Prop31
280
     0
102
RTVSPost2010PropOp31
 70
     1
102
RTVSPost2010Prop32
280
     0
102
RTVSPost2010PropOp32
 70
     1
102
RTVSPost2010Prop33
280
     0
102
RTVSPost2010PropOp33
 70
     1
102
RTVSPost2010Prop34
280
     0
102
RTVSPost2010PropOp34
 70
     1
102
RTVSPost2010Prop35
280
     0
102
RTVSPost2010PropOp35
 70
     1
102
RTVSPost2010Prop36
280
     0
102
RTVSPost2010PropOp36
 70
     1
102
RTVSPost2010Prop37
 90
       50
102
RTVSPost2010PropOp37
 70
     1
102
RTVSPost2010Prop38
140
0.0
102
RTVSPost2010PropOp38
 70
     1
102
RTVSPost2010Prop39
140
1.0
102
RTVSPost2010PropOp39
 70
     1
102
RTVSPost2010Prop40
 90
        0
102
RTVSPost2010PropOp40
 70
     1
102
RTVSPost2010Prop41ColorIndex
 90
       18
102
RTVSPost2010Prop41ColorRGB
 90
        0
102
RTVSPost2010PropOp41
 70
     1
102
RTVSPost2010Prop42
 90
       50
102
RTVSPost2010PropOp42
 70
     1
102
RTVSPost2010Prop43
 90
        3
102
RTVSPost2010PropOp43
 70
     1
102
RTVSPost2010Prop44ColorIndex
 90
        5
102
RTVSPost2010Prop44ColorRGB
 90
      255
102
RTVSPost2010PropOp44
 70
     1
102
RTVSPost2010Prop45
280
     0
102
RTVSPost2010PropOp45
 70
     1
102
RTVSPost2010Prop46
 90
       50
102
RTVSPost2010PropOp46
 70
     1
102
RTVSPost2010Prop47
 90
       50
102
RTVSPost2010PropOp47
 70
     1
102
RTVSPost2010Prop48
 90
       50
102
RTVSPost2010PropOp48
 70
     1
102
RTVSPost2010Prop49
280
     0
102
RTVSPost2010PropOp49
 70
     1
102
RTVSPost2010Prop50
 90
       50
102
RTVSPost2010PropOp50
 70
     1
102
RTVSPost2010Prop51ColorIndex
 90
      256
102
RTVSPost2010Prop51ColorRGB
 90
-16777216
102
RTVSPost2010PropOp51
 70
     0
102
RTVSPost2010Prop52
140
1.0
102
RTVSPost2010PropOp52
 70
     0
102
RTVSPost2010Prop53
 90
        2
102
RTVSPost2010PropOp53
 70
     1
102
RTVSPost2010Prop54
  1
strokes_ogs.tif
102
RTVSPost2010PropOp54
 70
     1
102
RTVSPost2010Prop55
280
     0
102
RTVSPost2010PropOp55
 70
     1
102
RTVSPost2010Prop56
140
1.0
102
RTVSPost2010PropOp56
 70
     1
102
RTVSPost2010Prop57
140
1.0
102
RTVSPost2010PropOp57
 70
     1
  0
XRECORD
  5
97E
102
{ACAD_REACTORS
330
97D
102
}
330
97D
100
AcDbXrecord
280
     1
102
RTVSPost2010Prop28
280
     0
102
RTVSPost2010PropOp28
 70
     1
102
RTVSPost2010Prop29
280
     1
102
RTVSPost2010PropOp29
 70
     1
102
RTVSPost2010Prop30
280
     1
102
RTVSPost2010PropOp30
 70
     1
102
RTVSPost2010Prop31
280
     0
102
RTVSPost2010PropOp31
 70
     1
102
RTVSPost2010Prop32
280
     0
102
RTVSPost2010PropOp32
 70
     1
102
RTVSPost2010Prop33
280
     0
102
RTVSPost2010PropOp33
 70
     1
102
RTVSPost2010Prop34
280
     0
102
RTVSPost2010PropOp34
 70
     1
102
RTVSPost2010Prop35
280
     0
102
RTVSPost2010PropOp35
 70
     1
102
RTVSPost2010Prop36
280
     0
102
RTVSPost2010PropOp36
 70
     1
102
RTVSPost2010Prop37
 90
       50
102
RTVSPost2010PropOp37
 70
     1
102
RTVSPost2010Prop38
140
0.0
102
RTVSPost2010PropOp38
 70
     1
102
RTVSPost2010Prop39
140
1.0
102
RTVSPost2010PropOp39
 70
     1
102
RTVSPost2010Prop40
 90
        0
102
RTVSPost2010PropOp40
 70
     1
102
RTVSPost2010Prop41ColorIndex
 90
       18
102
RTVSPost2010Prop41ColorRGB
 90
        0
102
RTVSPost2010PropOp41
 70
     1
102
RTVSPost2010Prop42
 90
       50
102
RTVSPost2010PropOp42
 70
     1
102
RTVSPost2010Prop43
 90
        3
102
RTVSPost2010PropOp43
 70
     1
102
RTVSPost2010Prop44ColorIndex
 90
        5
102
RTVSPost2010Prop44ColorRGB
 90
      255
102
RTVSPost2010PropOp44
 70
     1
102
RTVSPost2010Prop45
280
     0
102
RTVSPost2010PropOp45
 70
     1
102
RTVSPost2010Prop46
 90
       50
102
RTVSPost2010PropOp46
 70
     1
102
RTVSPost2010Prop47
 90
       50
102
RTVSPost2010PropOp47
 70
     1
102
RTVSPost2010Prop48
 90
       50
102
RTVSPost2010PropOp48
 70
     1
102
RTVSPost2010Prop49
280
     0
102
RTVSPost2010PropOp49
 70
     1
102
RTVSPost2010Prop50
 90
       50
102
RTVSPost2010PropOp50
 70
     1
102
RTVSPost2010Prop51ColorIndex
 90
      256
102
RTVSPost2010Prop51ColorRGB
 90
-16777216
102
RTVSPost2010PropOp51
 70
     0
102
RTVSPost2010Prop52
140
1.0
102
RTVSPost2010PropOp52
 70
     0
102
RTVSPost2010Prop53
 90
        2
102
RTVSPost2010PropOp53
 70
     1
102
RTVSPost2010Prop54
  1
strokes_ogs.tif
102
RTVSPost2010PropOp54
 70
     1
102
RTVSPost2010Prop55
280
     0
102
RTVSPost2010PropOp55
 70
     1
102
RTVSPost2010Prop56
140
1.0
102
RTVSPost2010PropOp56
 70
     1
102
RTVSPost2010Prop57
140
1.0
102
RTVSPost2010PropOp57
 70
     1
  0
XRECORD
  5
99A
102
{ACAD_REACTORS
330
999
102
}
330
999
100
AcDbXrecord
280
     1
102
RTVSPost2010Prop28
280
     0
102
RTVSPost2010PropOp28
 70
     1
102
RTVSPost2010Prop29
280
     1
102
RTVSPost2010PropOp29
 70
     1
102
RTVSPost2010Prop30
280
     1
102
RTVSPost2010PropOp30
 70
     1
102
RTVSPost2010Prop31
280
     0
102
RTVSPost2010PropOp31
 70
     1
102
RTVSPost2010Prop32
280
     0
102
RTVSPost2010PropOp32
 70
     1
102
RTVSPost2010Prop33
280
     0
102
RTVSPost2010PropOp33
 70
     1
102
RTVSPost2010Prop34
280
     0
102
RTVSPost2010PropOp34
 70
     1
102
RTVSPost2010Prop35
280
     0
102
RTVSPost2010PropOp35
 70
     1
102
RTVSPost2010Prop36
280
     0
102
RTVSPost2010PropOp36
 70
     1
102
RTVSPost2010Prop37
 90
       50
102
RTVSPost2010PropOp37
 70
     1
102
RTVSPost2010Prop38
140
0.0
102
RTVSPost2010PropOp38
 70
     1
102
RTVSPost2010Prop39
140
1.0
102
RTVSPost2010PropOp39
 70
     1
102
RTVSPost2010Prop40
 90
        0
102
RTVSPost2010PropOp40
 70
     1
102
RTVSPost2010Prop41ColorIndex
 90
       18
102
RTVSPost2010Prop41ColorRGB
 90
        0
102
RTVSPost2010PropOp41
 70
     1
102
RTVSPost2010Prop42
 90
       50
102
RTVSPost2010PropOp42
 70
     1
102
RTVSPost2010Prop43
 90
        3
102
RTVSPost2010PropOp43
 70
     1
102
RTVSPost2010Prop44ColorIndex
 90
        5
102
RTVSPost2010Prop44ColorRGB
 90
      255
102
RTVSPost2010PropOp44
 70
     1
102
RTVSPost2010Prop45
280
     0
102
RTVSPost2010PropOp45
 70
     1
102
RTVSPost2010Prop46
 90
       50
102
RTVSPost2010PropOp46
 70
     1
102
RTVSPost2010Prop47
 90
       50
102
RTVSPost2010PropOp47
 70
     1
102
RTVSPost2010Prop48
 90
       50
102
RTVSPost2010PropOp48
 70
     1
102
RTVSPost2010Prop49
280
     0
102
RTVSPost2010PropOp49
 70
     1
102
RTVSPost2010Prop50
 90
       50
102
RTVSPost2010PropOp50
 70
     1
102
RTVSPost2010Prop51ColorIndex
 90
      256
102
RTVSPost2010Prop51ColorRGB
 90
-16777216
102
RTVSPost2010PropOp51
 70
     0
102
RTVSPost2010Prop52
140
1.0
102
RTVSPost2010PropOp52
 70
     0
102
RTVSPost2010Prop53
 90
        2
102
RTVSPost2010PropOp53
 70
     1
102
RTVSPost2010Prop54
  1
strokes_ogs.tif
102
RTVSPost2010PropOp54
 70
     1
102
RTVSPost2010Prop55
280
     0
102
RTVSPost2010PropOp55
 70
     1
102
RTVSPost2010Prop56
140
1.0
102
RTVSPost2010PropOp56
 70
     1
102
RTVSPost2010Prop57
140
1.0
102
RTVSPost2010PropOp57
 70
     1
  0
XRECORD
  5
9A6
102
{ACAD_REACTORS
330
9A5
102
}
330
9A5
100
AcDbXrecord
280
     1
102
RTVSPost2010Prop28
280
     0
102
RTVSPost2010PropOp28
 70
     0
102
RTVSPost2010Prop29
280
     1
102
RTVSPost2010PropOp29
 70
     0
102
RTVSPost2010Prop30
280
     1
102
RTVSPost2010PropOp30
 70
     0
102
RTVSPost2010Prop31
280
     0
102
RTVSPost2010PropOp31
 70
     0
102
RTVSPost2010Prop32
280
     0
102
RTVSPost2010PropOp32
 70
     0
102
RTVSPost2010Prop33
280
     0
102
RTVSPost2010PropOp33
 70
     0
102
RTVSPost2010Prop34
280
     0
102
RTVSPost2010PropOp34
 70
     0
102
RTVSPost2010Prop35
280
     0
102
RTVSPost2010PropOp35
 70
     0
102
RTVSPost2010Prop36
280
     0
102
RTVSPost2010PropOp36
 70
     0
102
RTVSPost2010Prop37
 90
       50
102
RTVSPost2010PropOp37
 70
     0
102
RTVSPost2010Prop38
140
0.0
102
RTVSPost2010PropOp38
 70
     0
102
RTVSPost2010Prop39
140
1.0
102
RTVSPost2010PropOp39
 70
     0
102
RTVSPost2010Prop40
 90
        0
102
RTVSPost2010PropOp40
 70
     0
102
RTVSPost2010Prop41ColorIndex
 90
       18
102
RTVSPost2010Prop41ColorRGB
 90
        0
102
RTVSPost2010PropOp41
 70
     0
102
RTVSPost2010Prop42
 90
       50
102
RTVSPost2010PropOp42
 70
     0
102
RTVSPost2010Prop43
 90
        3
102
RTVSPost2010PropOp43
 70
     0
102
RTVSPost2010Prop44ColorIndex
 90
        5
102
RTVSPost2010Prop44ColorRGB
 90
      255
102
RTVSPost2010PropOp44
 70
     0
102
RTVSPost2010Prop45
280
     0
102
RTVSPost2010PropOp45
 70
     0
102
RTVSPost2010Prop46
 90
       50
102
RTVSPost2010PropOp46
 70
     0
102
RTVSPost2010Prop47
 90
       50
102
RTVSPost2010PropOp47
 70
     0
102
RTVSPost2010Prop48
 90
       50
102
RTVSPost2010PropOp48
 70
     0
102
RTVSPost2010Prop49
280
     0
102
RTVSPost2010PropOp49
 70
     0
102
RTVSPost2010Prop50
 90
       50
102
RTVSPost2010PropOp50
 70
     0
102
RTVSPost2010Prop51ColorIndex
 90
      256
102
RTVSPost2010Prop51ColorRGB
 90
-16777216
102
RTVSPost2010PropOp51
 70
     0
102
RTVSPost2010Prop52
140
1.0
102
RTVSPost2010PropOp52
 70
     0
102
RTVSPost2010Prop53
 90
        2
102
RTVSPost2010PropOp53
 70
     0
102
RTVSPost2010Prop54
  1
strokes_ogs.tif
102
RTVSPost2010PropOp54
 70
     0
102
RTVSPost2010Prop55
280
     0
102
RTVSPost2010PropOp55
 70
     0
102
RTVSPost2010Prop56
140
1.0
102
RTVSPost2010PropOp56
 70
     0
102
RTVSPost2010Prop57
140
1.0
102
RTVSPost2010PropOp57
 70
     0
  0
XRECORD
  5
992
102
{ACAD_REACTORS
330
991
102
}
330
991
100
AcDbXrecord
280
     1
102
RTVSPost2010Prop28
280
     0
102
RTVSPost2010PropOp28
 70
     1
102
RTVSPost2010Prop29
280
     1
102
RTVSPost2010PropOp29
 70
     1
102
RTVSPost2010Prop30
280
     1
102
RTVSPost2010PropOp30
 70
     1
102
RTVSPost2010Prop31
280
     0
102
RTVSPost2010PropOp31
 70
     1
102
RTVSPost2010Prop32
280
     0
102
RTVSPost2010PropOp32
 70
     1
102
RTVSPost2010Prop33
280
     0
102
RTVSPost2010PropOp33
 70
     1
102
RTVSPost2010Prop34
280
     0
102
RTVSPost2010PropOp34
 70
     1
102
RTVSPost2010Prop35
280
     0
102
RTVSPost2010PropOp35
 70
     1
102
RTVSPost2010Prop36
280
     0
102
RTVSPost2010PropOp36
 70
     1
102
RTVSPost2010Prop37
 90
       50
102
RTVSPost2010PropOp37
 70
     1
102
RTVSPost2010Prop38
140
0.0
102
RTVSPost2010PropOp38
 70
     1
102
RTVSPost2010Prop39
140
1.0
102
RTVSPost2010PropOp39
 70
     1
102
RTVSPost2010Prop40
 90
        0
102
RTVSPost2010PropOp40
 70
     1
102
RTVSPost2010Prop41ColorIndex
 90
       18
102
RTVSPost2010Prop41ColorRGB
 90
        0
102
RTVSPost2010PropOp41
 70
     1
102
RTVSPost2010Prop42
 90
       50
102
RTVSPost2010PropOp42
 70
     1
102
RTVSPost2010Prop43
 90
        3
102
RTVSPost2010PropOp43
 70
     1
102
RTVSPost2010Prop44ColorIndex
 90
        5
102
RTVSPost2010Prop44ColorRGB
 90
      255
102
RTVSPost2010PropOp44
 70
     1
102
RTVSPost2010Prop45
280
     0
102
RTVSPost2010PropOp45
 70
     1
102
RTVSPost2010Prop46
 90
       50
102
RTVSPost2010PropOp46
 70
     1
102
RTVSPost2010Prop47
 90
       50
102
RTVSPost2010PropOp47
 70
     1
102
RTVSPost2010Prop48
 90
       50
102
RTVSPost2010PropOp48
 70
     1
102
RTVSPost2010Prop49
280
     0
102
RTVSPost2010PropOp49
 70
     1
102
RTVSPost2010Prop50
 90
       50
102
RTVSPost2010PropOp50
 70
     1
102
RTVSPost2010Prop51ColorIndex
 90
      256
102
RTVSPost2010Prop51ColorRGB
 90
-16777216
102
RTVSPost2010PropOp51
 70
     0
102
RTVSPost2010Prop52
140
1.0
102
RTVSPost2010PropOp52
 70
     0
102
RTVSPost2010Prop53
 90
        2
102
RTVSPost2010PropOp53
 70
     1
102
RTVSPost2010Prop54
  1
strokes_ogs.tif
102
RTVSPost2010PropOp54
 70
     1
102
RTVSPost2010Prop55
280
     0
102
RTVSPost2010PropOp55
 70
     1
102
RTVSPost2010Prop56
140
1.0
102
RTVSPost2010PropOp56
 70
     1
102
RTVSPost2010Prop57
140
1.0
102
RTVSPost2010PropOp57
 70
     1
  0
XRECORD
  5
9A8
102
{ACAD_REACTORS
330
9A7
102
}
330
9A7
100
AcDbXrecord
280
     1
102
RTVSPost2010Prop28
280
     0
102
RTVSPost2010PropOp28
 70
     0
102
RTVSPost2010Prop29
280
     1
102
RTVSPost2010PropOp29
 70
     0
102
RTVSPost2010Prop30
280
     1
102
RTVSPost2010PropOp30
 70
     0
102
RTVSPost2010Prop31
280
     0
102
RTVSPost2010PropOp31
 70
     0
102
RTVSPost2010Prop32
280
     0
102
RTVSPost2010PropOp32
 70
     0
102
RTVSPost2010Prop33
280
     0
102
RTVSPost2010PropOp33
 70
     0
102
RTVSPost2010Prop34
280
     0
102
RTVSPost2010PropOp34
 70
     0
102
RTVSPost2010Prop35
280
     0
102
RTVSPost2010PropOp35
 70
     0
102
RTVSPost2010Prop36
280
     0
102
RTVSPost2010PropOp36
 70
     0
102
RTVSPost2010Prop37
 90
       50
102
RTVSPost2010PropOp37
 70
     0
102
RTVSPost2010Prop38
140
0.0
102
RTVSPost2010PropOp38
 70
     0
102
RTVSPost2010Prop39
140
1.0
102
RTVSPost2010PropOp39
 70
     0
102
RTVSPost2010Prop40
 90
        0
102
RTVSPost2010PropOp40
 70
     0
102
RTVSPost2010Prop41ColorIndex
 90
       18
102
RTVSPost2010Prop41ColorRGB
 90
        0
102
RTVSPost2010PropOp41
 70
     0
102
RTVSPost2010Prop42
 90
       50
102
RTVSPost2010PropOp42
 70
     0
102
RTVSPost2010Prop43
 90
        3
102
RTVSPost2010PropOp43
 70
     0
102
RTVSPost2010Prop44ColorIndex
 90
        5
102
RTVSPost2010Prop44ColorRGB
 90
      255
102
RTVSPost2010PropOp44
 70
     0
102
RTVSPost2010Prop45
280
     0
102
RTVSPost2010PropOp45
 70
     0
102
RTVSPost2010Prop46
 90
       50
102
RTVSPost2010PropOp46
 70
     0
102
RTVSPost2010Prop47
 90
       50
102
RTVSPost2010PropOp47
 70
     0
102
RTVSPost2010Prop48
 90
       50
102
RTVSPost2010PropOp48
 70
     0
102
RTVSPost2010Prop49
280
     0
102
RTVSPost2010PropOp49
 70
     0
102
RTVSPost2010Prop50
 90
       50
102
RTVSPost2010PropOp50
 70
     0
102
RTVSPost2010Prop51ColorIndex
 90
      256
102
RTVSPost2010Prop51ColorRGB
 90
-16777216
102
RTVSPost2010PropOp51
 70
     0
102
RTVSPost2010Prop52
140
1.0
102
RTVSPost2010PropOp52
 70
     0
102
RTVSPost2010Prop53
 90
        2
102
RTVSPost2010PropOp53
 70
     0
102
RTVSPost2010Prop54
  1
strokes_ogs.tif
102
RTVSPost2010PropOp54
 70
     0
102
RTVSPost2010Prop55
280
     0
102
RTVSPost2010PropOp55
 70
     0
102
RTVSPost2010Prop56
140
1.0
102
RTVSPost2010PropOp56
 70
     0
102
RTVSPost2010Prop57
140
1.0
102
RTVSPost2010PropOp57
 70
     0
  0
XRECORD
  5
988
102
{ACAD_REACTORS
330
987
102
}
330
987
100
AcDbXrecord
280
     1
102
RTVSPost2010Prop28
280
     0
102
RTVSPost2010PropOp28
 70
     1
102
RTVSPost2010Prop29
280
     1
102
RTVSPost2010PropOp29
 70
     1
102
RTVSPost2010Prop30
280
     1
102
RTVSPost2010PropOp30
 70
     1
102
RTVSPost2010Prop31
280
     0
102
RTVSPost2010PropOp31
 70
     1
102
RTVSPost2010Prop32
280
     0
102
RTVSPost2010PropOp32
 70
     1
102
RTVSPost2010Prop33
280
     0
102
RTVSPost2010PropOp33
 70
     1
102
RTVSPost2010Prop34
280
     0
102
RTVSPost2010PropOp34
 70
     1
102
RTVSPost2010Prop35
280
     0
102
RTVSPost2010PropOp35
 70
     1
102
RTVSPost2010Prop36
280
     0
102
RTVSPost2010PropOp36
 70
     1
102
RTVSPost2010Prop37
 90
       50
102
RTVSPost2010PropOp37
 70
     1
102
RTVSPost2010Prop38
140
0.0
102
RTVSPost2010PropOp38
 70
     1
102
RTVSPost2010Prop39
140
1.0
102
RTVSPost2010PropOp39
 70
     1
102
RTVSPost2010Prop40
 90
        0
102
RTVSPost2010PropOp40
 70
     1
102
RTVSPost2010Prop41ColorIndex
 90
       18
102
RTVSPost2010Prop41ColorRGB
 90
        0
102
RTVSPost2010PropOp41
 70
     1
102
RTVSPost2010Prop42
 90
       50
102
RTVSPost2010PropOp42
 70
     1
102
RTVSPost2010Prop43
 90
        3
102
RTVSPost2010PropOp43
 70
     1
102
RTVSPost2010Prop44ColorIndex
 90
        5
102
RTVSPost2010Prop44ColorRGB
 90
      255
102
RTVSPost2010PropOp44
 70
     1
102
RTVSPost2010Prop45
280
     0
102
RTVSPost2010PropOp45
 70
     1
102
RTVSPost2010Prop46
 90
       50
102
RTVSPost2010PropOp46
 70
     1
102
RTVSPost2010Prop47
 90
       50
102
RTVSPost2010PropOp47
 70
     1
102
RTVSPost2010Prop48
 90
       50
102
RTVSPost2010PropOp48
 70
     1
102
RTVSPost2010Prop49
280
     0
102
RTVSPost2010PropOp49
 70
     1
102
RTVSPost2010Prop50
 90
       50
102
RTVSPost2010PropOp50
 70
     1
102
RTVSPost2010Prop51ColorIndex
 90
      256
102
RTVSPost2010Prop51ColorRGB
 90
-16777216
102
RTVSPost2010PropOp51
 70
     0
102
RTVSPost2010Prop52
140
1.0
102
RTVSPost2010PropOp52
 70
     0
102
RTVSPost2010Prop53
 90
        2
102
RTVSPost2010PropOp53
 70
     1
102
RTVSPost2010Prop54
  1
strokes_ogs.tif
102
RTVSPost2010PropOp54
 70
     1
102
RTVSPost2010Prop55
280
     0
102
RTVSPost2010PropOp55
 70
     1
102
RTVSPost2010Prop56
140
1.0
102
RTVSPost2010PropOp56
 70
     1
102
RTVSPost2010Prop57
140
1.0
102
RTVSPost2010PropOp57
 70
     1
  0
XRECORD
  5
9A4
102
{ACAD_REACTORS
330
9A3
102
}
330
9A3
100
AcDbXrecord
280
     1
102
RTVSPost2010Prop28
280
     0
102
RTVSPost2010PropOp28
 70
     1
102
RTVSPost2010Prop29
280
     1
102
RTVSPost2010PropOp29
 70
     1
102
RTVSPost2010Prop30
280
     1
102
RTVSPost2010PropOp30
 70
     1
102
RTVSPost2010Prop31
280
     0
102
RTVSPost2010PropOp31
 70
     1
102
RTVSPost2010Prop32
280
     0
102
RTVSPost2010PropOp32
 70
     1
102
RTVSPost2010Prop33
280
     0
102
RTVSPost2010PropOp33
 70
     1
102
RTVSPost2010Prop34
280
     0
102
RTVSPost2010PropOp34
 70
     1
102
RTVSPost2010Prop35
280
     0
102
RTVSPost2010PropOp35
 70
     1
102
RTVSPost2010Prop36
280
     0
102
RTVSPost2010PropOp36
 70
     1
102
RTVSPost2010Prop37
 90
       50
102
RTVSPost2010PropOp37
 70
     1
102
RTVSPost2010Prop38
140
0.0
102
RTVSPost2010PropOp38
 70
     1
102
RTVSPost2010Prop39
140
1.0
102
RTVSPost2010PropOp39
 70
     1
102
RTVSPost2010Prop40
 90
        0
102
RTVSPost2010PropOp40
 70
     1
102
RTVSPost2010Prop41ColorIndex
 90
       18
102
RTVSPost2010Prop41ColorRGB
 90
        0
102
RTVSPost2010PropOp41
 70
     1
102
RTVSPost2010Prop42
 90
       50
102
RTVSPost2010PropOp42
 70
     1
102
RTVSPost2010Prop43
 90
        3
102
RTVSPost2010PropOp43
 70
     1
102
RTVSPost2010Prop44ColorIndex
 90
        5
102
RTVSPost2010Prop44ColorRGB
 90
      255
102
RTVSPost2010PropOp44
 70
     1
102
RTVSPost2010Prop45
280
     0
102
RTVSPost2010PropOp45
 70
     1
102
RTVSPost2010Prop46
 90
       50
102
RTVSPost2010PropOp46
 70
     1
102
RTVSPost2010Prop47
 90
       50
102
RTVSPost2010PropOp47
 70
     1
102
RTVSPost2010Prop48
 90
       50
102
RTVSPost2010PropOp48
 70
     1
102
RTVSPost2010Prop49
280
     0
102
RTVSPost2010PropOp49
 70
     1
102
RTVSPost2010Prop50
 90
       50
102
RTVSPost2010PropOp50
 70
     1
102
RTVSPost2010Prop51ColorIndex
 90
      256
102
RTVSPost2010Prop51ColorRGB
 90
-16777216
102
RTVSPost2010PropOp51
 70
     0
102
RTVSPost2010Prop52
140
1.0
102
RTVSPost2010PropOp52
 70
     0
102
RTVSPost2010Prop53
 90
        2
102
RTVSPost2010PropOp53
 70
     1
102
RTVSPost2010Prop54
  1
strokes_ogs.tif
102
RTVSPost2010PropOp54
 70
     1
102
RTVSPost2010Prop55
280
     0
102
RTVSPost2010PropOp55
 70
     1
102
RTVSPost2010Prop56
140
1.0
102
RTVSPost2010PropOp56
 70
     1
102
RTVSPost2010Prop57
140
1.0
102
RTVSPost2010PropOp57
 70
     1
  0
XRECORD
  5
9A2
102
{ACAD_REACTORS
330
9A1
102
}
330
9A1
100
AcDbXrecord
280
     1
102
RTVSPost2010Prop28
280
     0
102
RTVSPost2010PropOp28
 70
     1
102
RTVSPost2010Prop29
280
     1
102
RTVSPost2010PropOp29
 70
     1
102
RTVSPost2010Prop30
280
     1
102
RTVSPost2010PropOp30
 70
     1
102
RTVSPost2010Prop31
280
     0
102
RTVSPost2010PropOp31
 70
     1
102
RTVSPost2010Prop32
280
     0
102
RTVSPost2010PropOp32
 70
     1
102
RTVSPost2010Prop33
280
     0
102
RTVSPost2010PropOp33
 70
     1
102
RTVSPost2010Prop34
280
     0
102
RTVSPost2010PropOp34
 70
     1
102
RTVSPost2010Prop35
280
     0
102
RTVSPost2010PropOp35
 70
     1
102
RTVSPost2010Prop36
280
     0
102
RTVSPost2010PropOp36
 70
     1
102
RTVSPost2010Prop37
 90
       50
102
RTVSPost2010PropOp37
 70
     1
102
RTVSPost2010Prop38
140
0.0
102
RTVSPost2010PropOp38
 70
     1
102
RTVSPost2010Prop39
140
1.0
102
RTVSPost2010PropOp39
 70
     1
102
RTVSPost2010Prop40
 90
        0
102
RTVSPost2010PropOp40
 70
     1
102
RTVSPost2010Prop41ColorIndex
 90
       18
102
RTVSPost2010Prop41ColorRGB
 90
        0
102
RTVSPost2010PropOp41
 70
     1
102
RTVSPost2010Prop42
 90
       50
102
RTVSPost2010PropOp42
 70
     1
102
RTVSPost2010Prop43
 90
        3
102
RTVSPost2010PropOp43
 70
     1
102
RTVSPost2010Prop44ColorIndex
 90
        5
102
RTVSPost2010Prop44ColorRGB
 90
      255
102
RTVSPost2010PropOp44
 70
     1
102
RTVSPost2010Prop45
280
     0
102
RTVSPost2010PropOp45
 70
     1
102
RTVSPost2010Prop46
 90
       50
102
RTVSPost2010PropOp46
 70
     1
102
RTVSPost2010Prop47
 90
       50
102
RTVSPost2010PropOp47
 70
     1
102
RTVSPost2010Prop48
 90
       50
102
RTVSPost2010PropOp48
 70
     1
102
RTVSPost2010Prop49
280
     0
102
RTVSPost2010PropOp49
 70
     1
102
RTVSPost2010Prop50
 90
       50
102
RTVSPost2010PropOp50
 70
     1
102
RTVSPost2010Prop51ColorIndex
 90
      256
102
RTVSPost2010Prop51ColorRGB
 90
-16777216
102
RTVSPost2010PropOp51
 70
     0
102
RTVSPost2010Prop52
140
1.0
102
RTVSPost2010PropOp52
 70
     0
102
RTVSPost2010Prop53
 90
        2
102
RTVSPost2010PropOp53
 70
     1
102
RTVSPost2010Prop54
  1
strokes_ogs.tif
102
RTVSPost2010PropOp54
 70
     1
102
RTVSPost2010Prop55
280
     0
102
RTVSPost2010PropOp55
 70
     1
102
RTVSPost2010Prop56
140
1.0
102
RTVSPost2010PropOp56
 70
     1
102
RTVSPost2010Prop57
140
1.0
102
RTVSPost2010PropOp57
 70
     1
  0
XRECORD
  5
99C
102
{ACAD_REACTORS
330
99B
102
}
330
99B
100
AcDbXrecord
280
     1
102
RTVSPost2010Prop28
280
     0
102
RTVSPost2010PropOp28
 70
     1
102
RTVSPost2010Prop29
280
     1
102
RTVSPost2010PropOp29
 70
     1
102
RTVSPost2010Prop30
280
     1
102
RTVSPost2010PropOp30
 70
     1
102
RTVSPost2010Prop31
280
     0
102
RTVSPost2010PropOp31
 70
     1
102
RTVSPost2010Prop32
280
     0
102
RTVSPost2010PropOp32
 70
     1
102
RTVSPost2010Prop33
280
     0
102
RTVSPost2010PropOp33
 70
     1
102
RTVSPost2010Prop34
280
     0
102
RTVSPost2010PropOp34
 70
     1
102
RTVSPost2010Prop35
280
     0
102
RTVSPost2010PropOp35
 70
     1
102
RTVSPost2010Prop36
280
     0
102
RTVSPost2010PropOp36
 70
     1
102
RTVSPost2010Prop37
 90
       50
102
RTVSPost2010PropOp37
 70
     1
102
RTVSPost2010Prop38
140
0.0
102
RTVSPost2010PropOp38
 70
     1
102
RTVSPost2010Prop39
140
1.0
102
RTVSPost2010PropOp39
 70
     1
102
RTVSPost2010Prop40
 90
        0
102
RTVSPost2010PropOp40
 70
     1
102
RTVSPost2010Prop41ColorIndex
 90
       18
102
RTVSPost2010Prop41ColorRGB
 90
        0
102
RTVSPost2010PropOp41
 70
     1
102
RTVSPost2010Prop42
 90
       50
102
RTVSPost2010PropOp42
 70
     1
102
RTVSPost2010Prop43
 90
        3
102
RTVSPost2010PropOp43
 70
     1
102
RTVSPost2010Prop44ColorIndex
 90
        5
102
RTVSPost2010Prop44ColorRGB
 90
      255
102
RTVSPost2010PropOp44
 70
     1
102
RTVSPost2010Prop45
280
     0
102
RTVSPost2010PropOp45
 70
     1
102
RTVSPost2010Prop46
 90
       50
102
RTVSPost2010PropOp46
 70
     1
102
RTVSPost2010Prop47
 90
       50
102
RTVSPost2010PropOp47
 70
     1
102
RTVSPost2010Prop48
 90
       50
102
RTVSPost2010PropOp48
 70
     1
102
RTVSPost2010Prop49
280
     0
102
RTVSPost2010PropOp49
 70
     1
102
RTVSPost2010Prop50
 90
       50
102
RTVSPost2010PropOp50
 70
     1
102
RTVSPost2010Prop51ColorIndex
 90
      256
102
RTVSPost2010Prop51ColorRGB
 90
-16777216
102
RTVSPost2010PropOp51
 70
     0
102
RTVSPost2010Prop52
140
1.0
102
RTVSPost2010PropOp52
 70
     0
102
RTVSPost2010Prop53
 90
        2
102
RTVSPost2010PropOp53
 70
     1
102
RTVSPost2010Prop54
  1
strokes_ogs.tif
102
RTVSPost2010PropOp54
 70
     1
102
RTVSPost2010Prop55
280
     0
102
RTVSPost2010PropOp55
 70
     1
102
RTVSPost2010Prop56
140
1.0
102
RTVSPost2010PropOp56
 70
     1
102
RTVSPost2010Prop57
140
1.0
102
RTVSPost2010PropOp57
 70
     1
  0
XRECORD
  5
99E
102
{ACAD_REACTORS
330
99D
102
}
330
99D
100
AcDbXrecord
280
     1
102
RTVSPost2010Prop28
280
     0
102
RTVSPost2010PropOp28
 70
     1
102
RTVSPost2010Prop29
280
     1
102
RTVSPost2010PropOp29
 70
     1
102
RTVSPost2010Prop30
280
     1
102
RTVSPost2010PropOp30
 70
     1
102
RTVSPost2010Prop31
280
     0
102
RTVSPost2010PropOp31
 70
     1
102
RTVSPost2010Prop32
280
     0
102
RTVSPost2010PropOp32
 70
     1
102
RTVSPost2010Prop33
280
     0
102
RTVSPost2010PropOp33
 70
     1
102
RTVSPost2010Prop34
280
     0
102
RTVSPost2010PropOp34
 70
     1
102
RTVSPost2010Prop35
280
     0
102
RTVSPost2010PropOp35
 70
     1
102
RTVSPost2010Prop36
280
     0
102
RTVSPost2010PropOp36
 70
     1
102
RTVSPost2010Prop37
 90
       50
102
RTVSPost2010PropOp37
 70
     1
102
RTVSPost2010Prop38
140
0.0
102
RTVSPost2010PropOp38
 70
     1
102
RTVSPost2010Prop39
140
1.0
102
RTVSPost2010PropOp39
 70
     1
102
RTVSPost2010Prop40
 90
        0
102
RTVSPost2010PropOp40
 70
     1
102
RTVSPost2010Prop41ColorIndex
 90
       18
102
RTVSPost2010Prop41ColorRGB
 90
        0
102
RTVSPost2010PropOp41
 70
     1
102
RTVSPost2010Prop42
 90
       50
102
RTVSPost2010PropOp42
 70
     1
102
RTVSPost2010Prop43
 90
        3
102
RTVSPost2010PropOp43
 70
     1
102
RTVSPost2010Prop44ColorIndex
 90
        5
102
RTVSPost2010Prop44ColorRGB
 90
      255
102
RTVSPost2010PropOp44
 70
     1
102
RTVSPost2010Prop45
280
     0
102
RTVSPost2010PropOp45
 70
     1
102
RTVSPost2010Prop46
 90
       50
102
RTVSPost2010PropOp46
 70
     1
102
RTVSPost2010Prop47
 90
       50
102
RTVSPost2010PropOp47
 70
     1
102
RTVSPost2010Prop48
 90
       50
102
RTVSPost2010PropOp48
 70
     1
102
RTVSPost2010Prop49
280
     0
102
RTVSPost2010PropOp49
 70
     1
102
RTVSPost2010Prop50
 90
       50
102
RTVSPost2010PropOp50
 70
     1
102
RTVSPost2010Prop51ColorIndex
 90
      256
102
RTVSPost2010Prop51ColorRGB
 90
-16777216
102
RTVSPost2010PropOp51
 70
     0
102
RTVSPost2010Prop52
140
1.0
102
RTVSPost2010PropOp52
 70
     0
102
RTVSPost2010Prop53
 90
        2
102
RTVSPost2010PropOp53
 70
     1
102
RTVSPost2010Prop54
  1
strokes_ogs.tif
102
RTVSPost2010PropOp54
 70
     1
102
RTVSPost2010Prop55
280
     0
102
RTVSPost2010PropOp55
 70
     1
102
RTVSPost2010Prop56
140
1.0
102
RTVSPost2010PropOp56
 70
     1
102
RTVSPost2010Prop57
140
1.0
102
RTVSPost2010PropOp57
 70
     1
  0
XRECORD
  5
990
102
{ACAD_REACTORS
330
98F
102
}
330
98F
100
AcDbXrecord
280
     1
102
RTVSPost2010Prop28
280
     0
102
RTVSPost2010PropOp28
 70
     1
102
RTVSPost2010Prop29
280
     1
102
RTVSPost2010PropOp29
 70
     1
102
RTVSPost2010Prop30
280
     1
102
RTVSPost2010PropOp30
 70
     1
102
RTVSPost2010Prop31
280
     0
102
RTVSPost2010PropOp31
 70
     1
102
RTVSPost2010Prop32
280
     0
102
RTVSPost2010PropOp32
 70
     1
102
RTVSPost2010Prop33
280
     0
102
RTVSPost2010PropOp33
 70
     1
102
RTVSPost2010Prop34
280
     0
102
RTVSPost2010PropOp34
 70
     1
102
RTVSPost2010Prop35
280
     0
102
RTVSPost2010PropOp35
 70
     1
102
RTVSPost2010Prop36
280
     0
102
RTVSPost2010PropOp36
 70
     1
102
RTVSPost2010Prop37
 90
       50
102
RTVSPost2010PropOp37
 70
     1
102
RTVSPost2010Prop38
140
0.0
102
RTVSPost2010PropOp38
 70
     1
102
RTVSPost2010Prop39
140
1.0
102
RTVSPost2010PropOp39
 70
     1
102
RTVSPost2010Prop40
 90
        0
102
RTVSPost2010PropOp40
 70
     1
102
RTVSPost2010Prop41ColorIndex
 90
       18
102
RTVSPost2010Prop41ColorRGB
 90
        0
102
RTVSPost2010PropOp41
 70
     1
102
RTVSPost2010Prop42
 90
       50
102
RTVSPost2010PropOp42
 70
     1
102
RTVSPost2010Prop43
 90
        3
102
RTVSPost2010PropOp43
 70
     1
102
RTVSPost2010Prop44ColorIndex
 90
        5
102
RTVSPost2010Prop44ColorRGB
 90
      255
102
RTVSPost2010PropOp44
 70
     1
102
RTVSPost2010Prop45
280
     0
102
RTVSPost2010PropOp45
 70
     1
102
RTVSPost2010Prop46
 90
       50
102
RTVSPost2010PropOp46
 70
     1
102
RTVSPost2010Prop47
 90
       50
102
RTVSPost2010PropOp47
 70
     1
102
RTVSPost2010Prop48
 90
       50
102
RTVSPost2010PropOp48
 70
     1
102
RTVSPost2010Prop49
280
     0
102
RTVSPost2010PropOp49
 70
     1
102
RTVSPost2010Prop50
 90
       50
102
RTVSPost2010PropOp50
 70
     1
102
RTVSPost2010Prop51ColorIndex
 90
      256
102
RTVSPost2010Prop51ColorRGB
 90
-16777216
102
RTVSPost2010PropOp51
 70
     0
102
RTVSPost2010Prop52
140
1.0
102
RTVSPost2010PropOp52
 70
     0
102
RTVSPost2010Prop53
 90
        2
102
RTVSPost2010PropOp53
 70
     1
102
RTVSPost2010Prop54
  1
strokes_ogs.tif
102
RTVSPost2010PropOp54
 70
     1
102
RTVSPost2010Prop55
280
     0
102
RTVSPost2010PropOp55
 70
     1
102
RTVSPost2010Prop56
140
1.0
102
RTVSPost2010PropOp56
 70
     1
102
RTVSPost2010Prop57
140
1.0
102
RTVSPost2010PropOp57
 70
     1
  0
XRECORD
  5
998
102
{ACAD_REACTORS
330
997
102
}
330
997
100
AcDbXrecord
280
     1
102
RTVSPost2010Prop28
280
     0
102
RTVSPost2010PropOp28
 70
     1
102
RTVSPost2010Prop29
280
     1
102
RTVSPost2010PropOp29
 70
     1
102
RTVSPost2010Prop30
280
     1
102
RTVSPost2010PropOp30
 70
     1
102
RTVSPost2010Prop31
280
     0
102
RTVSPost2010PropOp31
 70
     1
102
RTVSPost2010Prop32
280
     0
102
RTVSPost2010PropOp32
 70
     1
102
RTVSPost2010Prop33
280
     0
102
RTVSPost2010PropOp33
 70
     1
102
RTVSPost2010Prop34
280
     0
102
RTVSPost2010PropOp34
 70
     1
102
RTVSPost2010Prop35
280
     0
102
RTVSPost2010PropOp35
 70
     1
102
RTVSPost2010Prop36
280
     0
102
RTVSPost2010PropOp36
 70
     1
102
RTVSPost2010Prop37
 90
       50
102
RTVSPost2010PropOp37
 70
     1
102
RTVSPost2010Prop38
140
0.0
102
RTVSPost2010PropOp38
 70
     1
102
RTVSPost2010Prop39
140
1.0
102
RTVSPost2010PropOp39
 70
     1
102
RTVSPost2010Prop40
 90
        0
102
RTVSPost2010PropOp40
 70
     1
102
RTVSPost2010Prop41ColorIndex
 90
       18
102
RTVSPost2010Prop41ColorRGB
 90
        0
102
RTVSPost2010PropOp41
 70
     1
102
RTVSPost2010Prop42
 90
       50
102
RTVSPost2010PropOp42
 70
     1
102
RTVSPost2010Prop43
 90
        3
102
RTVSPost2010PropOp43
 70
     1
102
RTVSPost2010Prop44ColorIndex
 90
        5
102
RTVSPost2010Prop44ColorRGB
 90
      255
102
RTVSPost2010PropOp44
 70
     1
102
RTVSPost2010Prop45
280
     0
102
RTVSPost2010PropOp45
 70
     1
102
RTVSPost2010Prop46
 90
       50
102
RTVSPost2010PropOp46
 70
     1
102
RTVSPost2010Prop47
 90
       50
102
RTVSPost2010PropOp47
 70
     1
102
RTVSPost2010Prop48
 90
       50
102
RTVSPost2010PropOp48
 70
     1
102
RTVSPost2010Prop49
280
     0
102
RTVSPost2010PropOp49
 70
     1
102
RTVSPost2010Prop50
 90
       50
102
RTVSPost2010PropOp50
 70
     1
102
RTVSPost2010Prop51ColorIndex
 90
      256
102
RTVSPost2010Prop51ColorRGB
 90
-16777216
102
RTVSPost2010PropOp51
 70
     0
102
RTVSPost2010Prop52
140
1.0
102
RTVSPost2010PropOp52
 70
     0
102
RTVSPost2010Prop53
 90
        2
102
RTVSPost2010PropOp53
 70
     1
102
RTVSPost2010Prop54
  1
strokes_ogs.tif
102
RTVSPost2010PropOp54
 70
     1
102
RTVSPost2010Prop55
280
     0
102
RTVSPost2010PropOp55
 70
     1
102
RTVSPost2010Prop56
140
1.0
102
RTVSPost2010PropOp56
 70
     1
102
RTVSPost2010Prop57
140
1.0
102
RTVSPost2010PropOp57
 70
     1
  0
XRECORD
  5
9A0
102
{ACAD_REACTORS
330
99F
102
}
330
99F
100
AcDbXrecord
280
     1
102
RTVSPost2010Prop28
280
     0
102
RTVSPost2010PropOp28
 70
     1
102
RTVSPost2010Prop29
280
     1
102
RTVSPost2010PropOp29
 70
     1
102
RTVSPost2010Prop30
280
     1
102
RTVSPost2010PropOp30
 70
     1
102
RTVSPost2010Prop31
280
     0
102
RTVSPost2010PropOp31
 70
     1
102
RTVSPost2010Prop32
280
     0
102
RTVSPost2010PropOp32
 70
     1
102
RTVSPost2010Prop33
280
     0
102
RTVSPost2010PropOp33
 70
     1
102
RTVSPost2010Prop34
280
     0
102
RTVSPost2010PropOp34
 70
     1
102
RTVSPost2010Prop35
280
     0
102
RTVSPost2010PropOp35
 70
     1
102
RTVSPost2010Prop36
280
     0
102
RTVSPost2010PropOp36
 70
     1
102
RTVSPost2010Prop37
 90
       50
102
RTVSPost2010PropOp37
 70
     1
102
RTVSPost2010Prop38
140
0.0
102
RTVSPost2010PropOp38
 70
     1
102
RTVSPost2010Prop39
140
1.0
102
RTVSPost2010PropOp39
 70
     1
102
RTVSPost2010Prop40
 90
        0
102
RTVSPost2010PropOp40
 70
     1
102
RTVSPost2010Prop41ColorIndex
 90
       18
102
RTVSPost2010Prop41ColorRGB
 90
        0
102
RTVSPost2010PropOp41
 70
     1
102
RTVSPost2010Prop42
 90
       50
102
RTVSPost2010PropOp42
 70
     1
102
RTVSPost2010Prop43
 90
        3
102
RTVSPost2010PropOp43
 70
     1
102
RTVSPost2010Prop44ColorIndex
 90
        5
102
RTVSPost2010Prop44ColorRGB
 90
      255
102
RTVSPost2010PropOp44
 70
     1
102
RTVSPost2010Prop45
280
     0
102
RTVSPost2010PropOp45
 70
     1
102
RTVSPost2010Prop46
 90
       50
102
RTVSPost2010PropOp46
 70
     1
102
RTVSPost2010Prop47
 90
       50
102
RTVSPost2010PropOp47
 70
     1
102
RTVSPost2010Prop48
 90
       50
102
RTVSPost2010PropOp48
 70
     1
102
RTVSPost2010Prop49
280
     0
102
RTVSPost2010PropOp49
 70
     1
102
RTVSPost2010Prop50
 90
       50
102
RTVSPost2010PropOp50
 70
     1
102
RTVSPost2010Prop51ColorIndex
 90
      256
102
RTVSPost2010Prop51ColorRGB
 90
-16777216
102
RTVSPost2010PropOp51
 70
     0
102
RTVSPost2010Prop52
140
1.0
102
RTVSPost2010PropOp52
 70
     0
102
RTVSPost2010Prop53
 90
        2
102
RTVSPost2010PropOp53
 70
     1
102
RTVSPost2010Prop54
  1
strokes_ogs.tif
102
RTVSPost2010PropOp54
 70
     1
102
RTVSPost2010Prop55
280
     0
102
RTVSPost2010PropOp55
 70
     1
102
RTVSPost2010Prop56
140
1.0
102
RTVSPost2010PropOp56
 70
     1
102
RTVSPost2010Prop57
140
1.0
102
RTVSPost2010PropOp57
 70
     1
  0
ENDSEC
  0
EOF
