999
DXF file: 104-100-45_plain_junction.dxf
999
Pro/ENGINEER 2006320 by Parametric Technology Corporation
  0
SECTION
  2
HEADER
  9
$EXTMAX
 10
420.0
 20
297.0
 30
0.0
  9
$EXTMIN
 10
0.0
 20
0.0
 30
0.0
  9
$LIMMIN
 10
0.0
 20
0.0
  9
$LIMMAX
 10
420.0
 20
297.0
  9
$VIEWCTR
 10
210.0
 20
148.5
  9
$VIEWSIZE
 40
297.0
  9
$CLAYER
  8
0
  9
$LTSCALE
 40
23.1
  9
$CELTYPE
  6
BYLAYER
  9
$DIMSCALE
 40
1.0
  9
$DIMASZ
 40
3.0
  9
$DIMEXO
 40
2.625
  9
$DIMDLI
 40
15.96
  9
$DIMEXE
 40
7.56
  9
$DIMCEN
 40
3.78
  9
$DIMLFAC
 40
1.0
  9
$DIMBLK
  1
_FILLED
  9
$DIMTXT
 40
3.0
  9
$PDMODE
 70
3
  9
$PDSIZE
 40
0.3125
  0
ENDSEC
  0
SECTION
  2
TABLES
  0
TABLE
  2
LTYPE
 70
6
  0
LTYPE
  2
BYBLOCK
 70
0
  3

 72
65
 73
0
 40
0.0
  0
LTYPE
  2
BYLAYER
 70
0
  3

 72
65
 73
0
 40
0.0
  0
LTYPE
  2
CONTINUOUS
 70
64
  3
Solid line
 72
65
 73
0
 40
0.0
  0
LTYPE
  2
CENTER
 70
64
  3
____ _ ____ _ ____ _ ____ _ ____ _ ____ _ ____
 72
65
 73
4
 40
0.6
 49
0.375
 49
-0.075
 49
0.075
 49
-0.075
  0
LTYPE
  2
HIDDEN
 70
64
  3
- - - - - - - - - - - - - - - - - - - -
 72
65
 73
2
 40
0.2
 49
0.1
 49
-0.1
  0
LTYPE
  2
PHANTOM
 70
64
  3
_____ _ _ _____ _ _ _____ _ _ _____
 72
65
 73
6
 40
0.8
 49
0.45
 49
-0.05
 49
0.1
 49
-0.05
 49
0.1
 49
-0.05
  0
LTYPE
  2
DOT
 70
64
  3
. . . . . . . . . . . . . . . . . . . .
 72
65
 73
2
 40
0.2
 49
0.1
 49
-0.1
  0
LTYPE
  2
DASHED
 70
64
  3
- - - - - - - - - - - - - - - - - - - -
 72
65
 73
2
 40
0.2
 49
0.1
 49
-0.1
  0
ENDTAB
  0
TABLE
  2
LAYER
 70
36
  0
LAYER
  2
0
 70
0
 62
7
  6
CONTINUOUS
  0
LAYER
  2
DEFAULT_1
 70
0
 62
7
  6
CENTER
  0
LAYER
  2
DEFAULT_2
 70
0
 62
8
  6
HIDDEN
  0
LAYER
  2
DEFAULT_3
 70
0
 62
7
  6
PHANTOM
  0
LAYER
  2
_2D_DELETED_OBJS
 70
0
 62
7
  6
CONTINUOUS
  0
LAYER
  2
01___PRT_ALL_DTM_PLN
 70
0
 62
7
  6
CONTINUOUS
  0
LAYER
  2
01___PRT_DEF_DTM_PLN
 70
0
 62
7
  6
CONTINUOUS
  0
LAYER
  2
02___PRT_ALL_AXES
 70
0
 62
7
  6
CONTINUOUS
  0
LAYER
  2
03___PRT_ALL_CURVES
 70
0
 62
7
  6
CONTINUOUS
  0
LAYER
  2
04___PRT_ALL_DTM_PNT
 70
0
 62
7
  6
CONTINUOUS
  0
LAYER
  2
05___PRT_ALL_DTM_CSYS
 70
0
 62
7
  6
CONTINUOUS
  0
LAYER
  2
05___PRT_DEF_DTM_CSYS
 70
0
 62
7
  6
CONTINUOUS
  0
LAYER
  2
06___PRT_ALL_SURFS
 70
0
 62
7
  6
CONTINUOUS
  0
ENDTAB
  0
TABLE
  2
STYLE
 70
1
  0
STYLE
  2
STANDARD
 70
0
 40
0.0
 41
0.6
 50
0.0
 71
0
 42
0.2
  3
txt
  4

  0
ENDTAB
  0
ENDSEC
  0
SECTION
  2
BLOCKS
  0
BLOCK
  8
0
 62
7
  6
CONTINUOUS
  2
*D0
 70
65
 10
0.0
 20
0.0
  0
TEXT
  8
0
 62
7
  6
CONTINUOUS
 10
350.6896439779
 20
150.4614003447
  7
STANDARD
 40
3.0
  1
265
 41
0.6
 72
0
  0
LINE
  8
0
 62
7
  6
CONTINUOUS
 10
307.2171412584
 20
284.4614003447
 11
356.3896439779
 21
284.4614003447
  0
LINE
  8
0
 62
7
  6
CONTINUOUS
 10
306.1916235417
 20
19.4614003447
 11
356.3896439779
 21
19.4614003447
  0
LINE
  8
0
 62
7
  6
CONTINUOUS
 10
353.3896439779
 20
284.4614003447
 11
353.3896439779
 21
154.9614003447
  0
LINE
  8
0
 62
7
  6
CONTINUOUS
 10
353.3896439779
 20
19.4614003447
 11
353.3896439779
 21
148.9614003447
  0
INSERT
  8
0
 62
7
  6
CONTINUOUS
  2
_FILLED
 10
353.3896439779
 20
284.4614003447
 41
3.0
 42
3.0
 43
3.0
 50
90.0
  0
INSERT
  8
0
 62
7
  6
CONTINUOUS
  2
_FILLED
 10
353.3896439779
 20
19.4614003447
 41
3.0
 42
3.0
 43
3.0
 50
270.0
  0
ENDBLK
  8
0
  6
BYBLOCK
 62
0
  0
BLOCK
  8
0
 62
7
  6
CONTINUOUS
  2
*D1
 70
65
 10
0.0
 20
0.0
  0
TEXT
  8
0
 62
7
  6
CONTINUOUS
 10
186.0174894584
 20
6.5750937438
  7
STANDARD
 40
3.0
  1
233
 41
0.6
 72
0
  0
LINE
  8
0
 62
7
  6
CONTINUOUS
 10
305.1916235443
 20
18.4614003447
 11
305.1916235443
 21
5.0750937438
  0
LINE
  8
0
 62
7
  6
CONTINUOUS
 10
72.2433553724
 20
185.9710683366
 11
72.2433553724
 21
5.0750937438
  0
LINE
  8
0
 62
7
  6
CONTINUOUS
 10
305.1916235443
 20
8.0750937438
 11
192.9174894584
 21
8.0750937438
  0
LINE
  8
0
 62
7
  6
CONTINUOUS
 10
72.2433553724
 20
8.0750937438
 11
184.5174894584
 21
8.0750937438
  0
INSERT
  8
0
 62
7
  6
CONTINUOUS
  2
_FILLED
 10
305.1916235443
 20
8.0750937438
 41
3.0
 42
3.0
 43
3.0
  0
INSERT
  8
0
 62
7
  6
CONTINUOUS
  2
_FILLED
 10
72.2433553724
 20
8.0750937438
 41
3.0
 42
3.0
 43
3.0
 50
180.0
  0
ENDBLK
  8
0
  6
BYBLOCK
 62
0
  0
BLOCK
  8
0
 62
7
  6
CONTINUOUS
  2
*D2
 70
65
 10
0.0
 20
0.0
  0
TEXT
  8
0
 62
7
  6
CONTINUOUS
 10
40.2394701169
 20
122.8258843857
  7
STANDARD
 40
3.0
  1
210
 41
0.6
 72
0
  0
LINE
  8
0
 62
7
  6
CONTINUOUS
 10
186.1916235469
 20
19.4614003447
 11
39.9394701169
 21
19.4614003447
  0
LINE
  8
0
 62
7
  6
CONTINUOUS
 10
112.4626554624
 20
229.1903684266
 11
39.9394701169
 21
229.1903684266
  0
LINE
  8
0
 62
7
  6
CONTINUOUS
 10
42.9394701169
 20
19.4614003447
 11
42.9394701169
 21
121.3258843857
  0
LINE
  8
0
 62
7
  6
CONTINUOUS
 10
42.9394701169
 20
229.1903684266
 11
42.9394701169
 21
127.3258843857
  0
INSERT
  8
0
 62
7
  6
CONTINUOUS
  2
_FILLED
 10
42.9394701169
 20
19.4614003447
 41
3.0
 42
3.0
 43
3.0
 50
270.0
  0
INSERT
  8
0
 62
7
  6
CONTINUOUS
  2
_FILLED
 10
42.9394701169
 20
229.1903684266
 41
3.0
 42
3.0
 43
3.0
 50
90.0
  0
ENDBLK
  8
0
  6
BYBLOCK
 62
0
  0
BLOCK
  8
0
 62
7
  6
CONTINUOUS
  2
*D3
 70
65
 10
0.0
 20
0.0
  0
TEXT
  8
0
 62
7
  6
CONTINUOUS
 10
243.4916235443
 20
12.3175912921
  7
STANDARD
 40
3.0
  1
118
 41
0.6
 72
0
  0
LINE
  8
0
 62
7
  6
CONTINUOUS
 10
187.1916235443
 20
18.4614003447
 11
187.1916235443
 21
10.8175912921
  0
LINE
  8
0
 62
7
  6
CONTINUOUS
 10
305.1916235443
 20
18.4614003447
 11
305.1916235443
 21
10.8175912921
  0
LINE
  8
0
 62
7
  6
CONTINUOUS
 10
187.1916235443
 20
13.8175912921
 11
241.9916235443
 21
13.8175912921
  0
LINE
  8
0
 62
7
  6
CONTINUOUS
 10
305.1916235443
 20
13.8175912921
 11
250.3916235443
 21
13.8175912921
  0
INSERT
  8
0
 62
7
  6
CONTINUOUS
  2
_FILLED
 10
187.1916235443
 20
13.8175912921
 41
3.0
 42
3.0
 43
3.0
 50
180.0
  0
INSERT
  8
0
 62
7
  6
CONTINUOUS
  2
_FILLED
 10
305.1916235443
 20
13.8175912921
 41
3.0
 42
3.0
 43
3.0
 50
360.0
  0
ENDBLK
  8
0
  6
BYBLOCK
 62
0
  0
BLOCK
  8
0
 62
7
  6
CONTINUOUS
  2
*D4
 70
65
 10
0.0
 20
0.0
  0
TEXT
  8
0
 62
7
  6
CONTINUOUS
 10
222.6446061555
 20
195.4317331613
  7
STANDARD
 40
3.0
  1
45%%d
 41
0.6222222222
 72
0
  0
LINE
  8
0
 62
7
  6
CONTINUOUS
 10
246.1916235443
 20
150.9614003447
 11
246.1916235443
 21
202.061871323
  0
LINE
  8
0
 62
7
  6
CONTINUOUS
 10
201.7224636491
 20
141.43056024
 11
171.8743678097
 21
171.2786560794
  0
ARC
  8
0
 62
7
  6
CONTINUOUS
 10
246.1916235443
 20
96.9614003447
 40
102.1004709782
 50
90.0
 51
99.2699717942
  0
ARC
  8
0
 62
7
  6
CONTINUOUS
 10
246.1916235443
 20
96.9614003447
 40
102.1004709782
 50
104.2005891364
 51
135.0
  0
SOLID
  8
0
 62
7
  6
CONTINUOUS
 10
243.2029654568
 20
198.2678796126
 11
246.1916235443
 21
199.061871323
 12
243.1809291328
 22
199.7677177373
 13
243.1809291328
 23
199.7677177373
  0
SOLID
  8
0
 62
7
  6
CONTINUOUS
 10
175.6254618017
 20
171.7853269563
 11
173.9956881533
 21
169.1573357358
 12
176.6704254762
 22
170.7091992134
 13
176.6704254762
 23
170.7091992134
  0
ENDBLK
  8
0
  6
BYBLOCK
 62
0
  0
BLOCK
  8
0
  2
_FILLED
 70
64
 10
0.0
 20
0.0
  0
SOLID
  8
0
  6
BYBLOCK
 62
0
 10
0.0
 20
0.0
 11
-1.0
 21
0.25
 12
-1.0
 22
-0.25
 13
-1.0
 23
-0.25
  0
ENDBLK
  8
0
  6
BYBLOCK
 62
0
  0
ENDSEC
  0
SECTION
  2
ENTITIES
  0
DIMENSION
  8
0
 62
7
  6
CONTINUOUS
  2
*D0
 10
353.3896439779
 20
19.4614003447
 11
353.3896439779
 21
151.9614003447
 70
128
 13
307.2171412584
 23
284.4614003447
 14
306.1916235417
 24
19.4614003447
 50
270.0
  0
DIMENSION
  8
0
 62
7
  6
CONTINUOUS
  2
*D1
 10
72.2433553724
 20
8.0750937438
 11
188.7174894584
 21
8.0750937438
 70
128
 13
305.1916235443
 23
18.4614003447
 14
72.2433553724
 24
185.9710683366
 50
180.0
  0
DIMENSION
  8
0
 62
7
  6
CONTINUOUS
  2
*D2
 10
42.9394701169
 20
229.1903684266
 11
42.9394701169
 21
124.3258843857
 70
128
 13
186.1916235469
 23
19.4614003447
 14
112.4626554624
 24
229.1903684266
 50
90.0
  0
DIMENSION
  8
0
 62
7
  6
CONTINUOUS
  2
*D3
 10
305.1916235443
 20
13.8175912921
 11
246.1916235443
 21
13.8175912921
 70
128
 13
187.1916235443
 23
18.4614003447
 14
305.1916235443
 24
18.4614003447
 50
360.0
  0
DIMENSION
  8
0
 62
7
  6
CONTINUOUS
  2
*D4
 10
201.7224636491
 20
141.43056024
 11
225.4446061555
 21
196.9317331613
 70
130
 13
246.1916235443
 23
150.9614003447
 14
246.1916235443
 24
202.061871323
 15
171.8743678097
 25
171.2786560794
 16
207.1194648643
 26
191.2899357413
  0
LINE
  8
0
 62
7
  6
CONTINUOUS
 10
0.0
 20
0.0
 11
0.0
 21
297.0
  0
LINE
  8
0
 62
7
  6
CONTINUOUS
 10
0.0
 20
0.0
 11
420.0
 21
0.0
  0
LINE
  8
0
 62
7
  6
CONTINUOUS
 10
0.0
 20
297.0
 11
420.0
 21
297.0
  0
LINE
  8
0
 62
7
  6
CONTINUOUS
 10
420.0
 20
0.0
 11
420.0
 21
297.0
  0
LINE
  8
0
 62
7
  6
CONTINUOUS
 10
304.6916235443
 20
19.4614003447
 11
187.6916235443
 21
19.4614003447
  0
LINE
  8
0
 62
9
  6
CONTINUOUS
 10
305.1916235443
 20
19.9614003447
 11
187.1916235443
 21
19.9614003447
  0
LINE
  8
0
 62
7
  6
CONTINUOUS
 10
72.596908763
 20
187.8246217272
 11
155.3284021618
 21
270.556115126
  0
LINE
  8
0
 62
9
  6
CONTINUOUS
 10
72.596908763
 20
187.117514946
 11
156.035508943
 21
270.556115126
  0
LINE
  8
0
 62
9
  6
CONTINUOUS
 10
305.1916235443
 20
70.8066998064
 11
187.1916235443
 21
70.8066998064
  0
LINE
  8
02___PRT_ALL_AXES
 62
7
  6
CONTINUOUS
 10
191.1338386572
 20
74.2374393014
 11
191.4116718855
 21
74.2708014215
  0
LINE
  8
0
 62
9
  6
CONTINUOUS
 10
304.1916235443
 20
72.5387506139
 11
188.1916235443
 21
72.5387506139
  0
LINE
  8
02___PRT_ALL_AXES
 62
7
  6
CONTINUOUS
 10
191.4116718855
 20
74.2708014215
 11
301.1916235443
 21
74.2708014215
  0
LINE
  8
02___PRT_ALL_AXES
 62
7
  6
CONTINUOUS
 10
72.596908763
 20
187.117514946
 11
108.1964114132
 21
151.5180122958
  0
LINE
  8
0
 62
9
  6
CONTINUOUS
 10
108.1964114132
 20
151.5180122958
 11
188.486997183
 21
231.8086033937
  0
LINE
  8
0
 62
9
  6
CONTINUOUS
 10
189.3459183449
 20
230.2180288367
 11
110.1282630658
 21
151.0003742056
  0
LINE
  8
0
 62
9
  6
CONTINUOUS
 10
189.8070313144
 20
229.0461492857
 11
112.3589751716
 21
151.5980917129
  0
LINE
  8
0
 62
9
  6
CONTINUOUS
 10
190.3558829622
 20
227.1455103641
 11
114.2908248617
 21
151.0804530969
  0
LINE
  8
02___PRT_ALL_AXES
 62
7
  6
CONTINUOUS
 10
114.2908248617
 20
151.0804530969
 11
191.1338386572
 21
74.2374393014
  0
POLYLINE
  8
0
 62
9
  6
CONTINUOUS
 66
1
 70
0
  0
VERTEX
  8
0
 62
9
  6
CONTINUOUS
 10
192.1609414635
 20
231.3840502391
  0
VERTEX
  8
0
 62
9
  6
CONTINUOUS
 10
192.1914989143
 20
231.430010753
  0
VERTEX
  8
0
 62
9
  6
CONTINUOUS
 10
192.2155119055
 20
231.4755455594
  0
VERTEX
  8
0
 62
9
  6
CONTINUOUS
 10
192.2346171503
 20
231.5217355412
  0
VERTEX
  8
0
 62
9
  6
CONTINUOUS
 10
192.2500097248
 20
231.5707437492
  0
VERTEX
  8
0
 62
9
  6
CONTINUOUS
 10
192.2622179074
 20
231.6259508155
  0
VERTEX
  8
0
 62
9
  6
CONTINUOUS
 10
192.27047151
 20
231.6890723681
  0
VERTEX
  8
0
 62
9
  6
CONTINUOUS
 10
192.2735154242
 20
231.7593890441
  0
VERTEX
  8
0
 62
9
  6
CONTINUOUS
 10
192.2705466632
 20
231.8350373702
  0
VERTEX
  8
0
 62
9
  6
CONTINUOUS
 10
192.2615264196
 20
231.913406217
  0
VERTEX
  8
0
 62
9
  6
CONTINUOUS
 10
192.2470286932
 20
231.9924085747
  0
VERTEX
  8
0
 62
9
  6
CONTINUOUS
 10
192.2278694943
 20
232.0706894827
  0
VERTEX
  8
0
 62
9
  6
CONTINUOUS
 10
192.2049169278
 20
232.1473144517
  0
VERTEX
  8
0
 62
9
  6
CONTINUOUS
 10
192.1787519016
 20
232.2223076147
  0
VERTEX
  8
0
 62
9
  6
CONTINUOUS
 10
192.1497775463
 20
232.2958664619
  0
VERTEX
  8
0
 62
9
  6
CONTINUOUS
 10
192.1170251482
 20
232.3709518473
  0
VERTEX
  8
0
 62
9
  6
CONTINUOUS
 10
192.0786641489
 20
232.4512044906
  0
VERTEX
  8
0
 62
9
  6
CONTINUOUS
 10
192.0340695903
 20
232.5368868031
  0
VERTEX
  8
0
 62
9
  6
CONTINUOUS
 10
191.9828386379
 20
232.6277823931
  0
VERTEX
  8
0
 62
9
  6
CONTINUOUS
 10
191.9248148521
 20
232.7233120553
  0
VERTEX
  8
0
 62
9
  6
CONTINUOUS
 10
191.860428343
 20
232.8221373749
  0
VERTEX
  8
0
 62
9
  6
CONTINUOUS
 10
191.7908945373
 20
232.9221102634
  0
VERTEX
  8
0
 62
9
  6
CONTINUOUS
 10
191.7179394873
 20
233.0208586274
  0
VERTEX
  8
0
 62
9
  6
CONTINUOUS
 10
191.6435852789
 20
233.1161018618
  0
SEQEND
  0
POLYLINE
  8
0
 62
9
  6
CONTINUOUS
 66
1
 70
0
  0
VERTEX
  8
0
 62
9
  6
CONTINUOUS
 10
191.6435859886
 20
233.1161008831
  0
VERTEX
  8
0
 62
9
  6
CONTINUOUS
 10
191.5486246538
 20
232.9015672461
  0
VERTEX
  8
0
 62
9
  6
CONTINUOUS
 10
191.4161967805
 20
232.6916158591
  0
VERTEX
  8
0
 62
9
  6
CONTINUOUS
 10
191.249130909
 20
232.4907310922
  0
VERTEX
  8
0
 62
9
  6
CONTINUOUS
 10
191.0509954199
 20
232.3032036703
  0
VERTEX
  8
0
 62
9
  6
CONTINUOUS
 10
190.826022307
 20
232.1330390052
  0
VERTEX
  8
0
 62
9
  6
CONTINUOUS
 10
190.5790167983
 20
231.9838716694
  0
VERTEX
  8
0
 62
9
  6
CONTINUOUS
 10
190.3152547097
 20
231.8588877372
  0
VERTEX
  8
0
 62
9
  6
CONTINUOUS
 10
190.0403697635
 20
231.7607567604
  0
VERTEX
  8
0
 62
9
  6
CONTINUOUS
 10
189.7602332608
 20
231.6915747238
  0
VERTEX
  8
0
 62
9
  6
CONTINUOUS
 10
189.4808286612
 20
231.6528192983
  0
VERTEX
  8
0
 62
9
  6
CONTINUOUS
 10
189.2081238057
 20
231.6453182618
  0
VERTEX
  8
0
 62
9
  6
CONTINUOUS
 10
188.9479434185
 20
231.6692318325
  0
VERTEX
  8
0
 62
9
  6
CONTINUOUS
 10
188.7058447272
 20
231.7240492355
  0
VERTEX
  8
0
 62
9
  6
CONTINUOUS
 10
188.4869987397
 20
231.8085996224
  0
SEQEND
  0
LINE
  8
0
 62
7
  6
CONTINUOUS
 10
186.1667910603
 20
283.9875683229
 11
185.3750779858
 21
268.8807829319
  0
POLYLINE
  8
0
 62
9
  6
CONTINUOUS
 66
1
 70
0
  0
VERTEX
  8
0
 62
9
  6
CONTINUOUS
 10
189.807031371
 20
229.0461493423
  0
VERTEX
  8
0
 62
9
  6
CONTINUOUS
 10
189.762784033
 20
228.7963633158
  0
VERTEX
  8
0
 62
9
  6
CONTINUOUS
 10
189.7518116475
 20
228.5414499626
  0
VERTEX
  8
0
 62
9
  6
CONTINUOUS
 10
189.7743049124
 20
228.2857793377
  0
VERTEX
  8
0
 62
9
  6
CONTINUOUS
 10
189.829879183
 20
228.0337278346
  0
VERTEX
  8
0
 62
9
  6
CONTINUOUS
 10
189.9175835745
 20
227.7896082419
  0
VERTEX
  8
0
 62
9
  6
CONTINUOUS
 10
190.0359173112
 20
227.5575978073
  0
VERTEX
  8
0
 62
9
  6
CONTINUOUS
 10
190.1828553406
 20
227.3416666317
  0
VERTEX
  8
0
 62
9
  6
CONTINUOUS
 10
190.3558822489
 20
227.1455104842
  0
SEQEND
  0
POLYLINE
  8
0
 62
9
  6
CONTINUOUS
 66
1
 70
0
  0
VERTEX
  8
0
 62
9
  6
CONTINUOUS
 10
193.619388256
 20
228.497298487
  0
VERTEX
  8
0
 62
9
  6
CONTINUOUS
 10
193.5506085571
 20
228.2626763088
  0
VERTEX
  8
0
 62
9
  6
CONTINUOUS
 10
193.4435026691
 20
228.0329274216
  0
VERTEX
  8
0
 62
9
  6
CONTINUOUS
 10
193.3002959203
 20
227.8128318447
  0
VERTEX
  8
0
 62
9
  6
CONTINUOUS
 10
193.1239757005
 20
227.6069786824
  0
VERTEX
  8
0
 62
9
  6
CONTINUOUS
 10
192.9182548794
 20
227.4196810237
  0
VERTEX
  8
0
 62
9
  6
CONTINUOUS
 10
192.6874543229
 20
227.2548338445
  0
VERTEX
  8
0
 62
9
  6
CONTINUOUS
 10
192.4361605537
 20
227.1157254898
  0
VERTEX
  8
0
 62
9
  6
CONTINUOUS
 10
192.1694703796
 20
227.0052583929
  0
VERTEX
  8
0
 62
9
  6
CONTINUOUS
 10
191.8934146739
 20
226.9259306559
  0
VERTEX
  8
0
 62
9
  6
CONTINUOUS
 10
191.613649717
 20
226.8792939852
  0
VERTEX
  8
0
 62
9
  6
CONTINUOUS
 10
191.3357438579
 20
226.8662663789
  0
VERTEX
  8
0
 62
9
  6
CONTINUOUS
 10
191.0655065675
 20
226.8871490247
  0
VERTEX
  8
0
 62
9
  6
CONTINUOUS
 10
190.8086130501
 20
226.9415175265
  0
VERTEX
  8
0
 62
9
  6
CONTINUOUS
 10
190.570420693
 20
227.028239308
  0
VERTEX
  8
0
 62
9
  6
CONTINUOUS
 10
190.3558822898
 20
227.1455097053
  0
SEQEND
  0
LINE
  8
02___PRT_ALL_AXES
 62
7
  6
CONTINUOUS
 10
304.1916235443
 20
231.3840500755
 11
302.1916218258
 21
230.229348545
  0
LINE
  8
02___PRT_ALL_AXES
 62
7
  6
CONTINUOUS
 10
301.1916235443
 20
74.2708014215
 11
304.1916235443
 21
72.5387506139
  0
LINE
  8
02___PRT_ALL_AXES
 62
7
  6
CONTINUOUS
 10
187.1916235443
 20
268.4614003447
 11
187.1916235443
 21
244.2284276495
  0
LINE
  8
02___PRT_ALL_AXES
 62
7
  6
CONTINUOUS
 10
187.1916235443
 20
70.8066998064
 11
187.1916235443
 21
19.9614003447
  0
LINE
  8
02___PRT_ALL_AXES
 62
7
  6
CENTER
 10
259.2026212244
 20
83.9504026646
 11
100.5274065117
 21
242.6256173774
  0
LINE
  8
0
 62
7
  6
CONTINUOUS
 10
197.9964042481
 20
240.9614003447
 11
197.9964042481
 21
237.4614003447
  0
LINE
  8
0
 62
7
  6
CONTINUOUS
 10
207.1887924036
 20
240.9614003447
 11
207.1887924036
 21
237.4614003447
  0
LINE
  8
0
 62
7
  6
CONTINUOUS
 10
212.1589798475
 20
240.9614003447
 11
212.1589798475
 21
237.4614003447
  0
LINE
  8
02___PRT_ALL_AXES
 62
7
  6
CONTINUOUS
 10
110.1282630658
 20
151.0003742056
 11
112.3589751715
 21
151.5980917129
  0
LINE
  8
0
 62
9
  6
CONTINUOUS
 10
192.6635294301
 20
230.2293495245
 11
192.160941296
 21
231.3840502391
  0
LINE
  8
0
 62
9
  6
CONTINUOUS
 10
246.1916235443
 20
96.9614003447
 11
190.3558829622
 21
227.1455103641
  0
LINE
  8
0
 62
9
  6
CONTINUOUS
 10
188.486997183
 20
231.8086033937
 11
183.7774099819
 21
242.8142140871
  0
LINE
  8
0
 62
9
  6
CONTINUOUS
 10
191.6435860455
 20
233.1161008179
 11
187.1916235443
 21
244.2284276495
  0
LINE
  8
0
 62
9
  6
CONTINUOUS
 10
246.1916235443
 20
96.9614003447
 11
193.6193881646
 21
228.4972989122
  0
LINE
  8
0
 62
9
  6
CONTINUOUS
 10
189.8070313144
 20
229.0461492857
 11
189.3459183449
 21
230.2180288367
  0
LINE
  8
02___PRT_ALL_AXES
 62
7
  6
CENTER
 10
246.1916235443
 20
16.9614003447
 11
246.1916235443
 21
299.5618456333
  0
LINE
  8
02___PRT_ALL_AXES
 62
7
  6
CONTINUOUS
 10
156.035508943
 20
270.556115126
 11
183.7774099819
 21
242.8142140871
  0
LINE
  8
02___PRT_ALL_AXES
 62
7
  6
CONTINUOUS
 10
191.1338386572
 20
74.2374393014
 11
188.1916235443
 21
72.5387506139
  0
POLYLINE
  8
0
 62
9
  6
CONTINUOUS
 66
1
 70
0
  0
VERTEX
  8
0
 62
9
  6
CONTINUOUS
 10
192.6635294265
 20
230.229349294
  0
VERTEX
  8
0
 62
9
  6
CONTINUOUS
 10
192.8714422635
 20
230.0840118357
  0
VERTEX
  8
0
 62
9
  6
CONTINUOUS
 10
193.0594518592
 20
229.9115196419
  0
VERTEX
  8
0
 62
9
  6
CONTINUOUS
 10
193.2243331956
 20
229.7148281502
  0
VERTEX
  8
0
 62
9
  6
CONTINUOUS
 10
193.3632636462
 20
229.4973039376
  0
VERTEX
  8
0
 62
9
  6
CONTINUOUS
 10
193.4738659666
 20
229.262669007
  0
VERTEX
  8
0
 62
9
  6
CONTINUOUS
 10
193.5542476163
 20
229.0149382949
  0
VERTEX
  8
0
 62
9
  6
CONTINUOUS
 10
193.6030332359
 20
228.7583509544
  0
VERTEX
  8
0
 62
9
  6
CONTINUOUS
 10
193.619388256
 20
228.497298487
  0
SEQEND
  0
LINE
  8
0
 62
7
  6
CONTINUOUS
 10
191.4116718855
 20
74.2708014215
 11
246.1916235443
 21
96.9614003447
  0
LINE
  8
0
 62
9
  6
CONTINUOUS
 10
301.1916235443
 20
228.4972987296
 11
193.6193881646
 21
228.4972989122
  0
LINE
  8
0
 62
9
  6
CONTINUOUS
 10
302.1916218258
 20
230.229348545
 11
192.6635294301
 21
230.2293495245
  0
LINE
  8
0
 62
9
  6
CONTINUOUS
 10
304.1916235443
 20
231.3840500755
 11
192.160941296
 21
231.3840502391
  0
LINE
  8
0
 62
9
  6
CONTINUOUS
 10
191.6435860455
 20
233.1161008179
 11
305.1916235443
 21
233.1161008831
  0
POLYLINE
  8
0
 62
9
  6
CONTINUOUS
 66
1
 70
0
  0
VERTEX
  8
0
 62
9
  6
CONTINUOUS
 10
189.3459186769
 20
230.2180291687
  0
VERTEX
  8
0
 62
9
  6
CONTINUOUS
 10
189.2918100225
 20
230.2289148369
  0
VERTEX
  8
0
 62
9
  6
CONTINUOUS
 10
189.2426323851
 20
230.244132472
  0
VERTEX
  8
0
 62
9
  6
CONTINUOUS
 10
189.1964616286
 20
230.2632828642
  0
VERTEX
  8
0
 62
9
  6
CONTINUOUS
 10
189.1509231391
 20
230.2870496082
  0
VERTEX
  8
0
 62
9
  6
CONTINUOUS
 10
189.1032526304
 20
230.3174464151
  0
VERTEX
  8
0
 62
9
  6
CONTINUOUS
 10
189.0527820153
 20
230.3562315911
  0
VERTEX
  8
0
 62
9
  6
CONTINUOUS
 10
189.0009080257
 20
230.4037887934
  0
VERTEX
  8
0
 62
9
  6
CONTINUOUS
 10
188.9495163452
 20
230.4593772599
  0
VERTEX
  8
0
 62
9
  6
CONTINUOUS
 10
188.9004806708
 20
230.5211878864
  0
VERTEX
  8
0
 62
9
  6
CONTINUOUS
 10
188.8548707834
 20
230.5873306827
  0
VERTEX
  8
0
 62
9
  6
CONTINUOUS
 10
188.8130676707
 20
230.656248593
  0
VERTEX
  8
0
 62
9
  6
CONTINUOUS
 10
188.7751158199
 20
230.7266539159
  0
VERTEX
  8
0
 62
9
  6
CONTINUOUS
 10
188.7405852516
 20
230.7981699924
  0
VERTEX
  8
0
 62
9
  6
CONTINUOUS
 10
188.7090572626
 20
230.8706716002
  0
VERTEX
  8
0
 62
9
  6
CONTINUOUS
 10
188.679127144
 20
230.9469278058
  0
VERTEX
  8
0
 62
9
  6
CONTINUOUS
 10
188.6495155893
 20
231.03079811
  0
VERTEX
  8
0
 62
9
  6
CONTINUOUS
 10
188.6204613483
 20
231.1229151878
  0
VERTEX
  8
0
 62
9
  6
CONTINUOUS
 10
188.5923966477
 20
231.2234232216
  0
VERTEX
  8
0
 62
9
  6
CONTINUOUS
 10
188.5658558524
 20
231.3320167323
  0
VERTEX
  8
0
 62
9
  6
CONTINUOUS
 10
188.5414948995
 20
231.447432468
  0
VERTEX
  8
0
 62
9
  6
CONTINUOUS
 10
188.5199743144
 20
231.5672895379
  0
VERTEX
  8
0
 62
9
  6
CONTINUOUS
 10
188.501743468
 20
231.6886959835
  0
VERTEX
  8
0
 62
9
  6
CONTINUOUS
 10
188.4869980125
 20
231.8086048387
  0
SEQEND
  0
POLYLINE
  8
0
 62
9
  6
CONTINUOUS
 66
1
 70
0
  0
VERTEX
  8
0
 62
9
  6
CONTINUOUS
 10
192.1609412924
 20
231.3840499557
  0
VERTEX
  8
0
 62
9
  6
CONTINUOUS
 10
191.8985796258
 20
231.4890228991
  0
VERTEX
  8
0
 62
9
  6
CONTINUOUS
 10
191.6223055394
 20
231.5558012176
  0
VERTEX
  8
0
 62
9
  6
CONTINUOUS
 10
191.3378607718
 20
231.5829975293
  0
VERTEX
  8
0
 62
9
  6
CONTINUOUS
 10
191.0511590746
 20
231.5700197349
  0
VERTEX
  8
0
 62
9
  6
CONTINUOUS
 10
190.7681641616
 20
231.5171640636
  0
VERTEX
  8
0
 62
9
  6
CONTINUOUS
 10
190.4947572546
 20
231.4255291291
  0
VERTEX
  8
0
 62
9
  6
CONTINUOUS
 10
190.2366340376
 20
231.2969964108
  0
VERTEX
  8
0
 62
9
  6
CONTINUOUS
 10
189.9991522677
 20
231.1342630998
  0
VERTEX
  8
0
 62
9
  6
CONTINUOUS
 10
189.787247269
 20
230.9407110825
  0
VERTEX
  8
0
 62
9
  6
CONTINUOUS
 10
189.60534531
 20
230.7203478586
  0
VERTEX
  8
0
 62
9
  6
CONTINUOUS
 10
189.4572092159
 20
230.4777736558
  0
VERTEX
  8
0
 62
9
  6
CONTINUOUS
 10
189.3459179058
 20
230.2180293521
  0
SEQEND
  0
POLYLINE
  8
0
 62
9
  6
CONTINUOUS
 66
1
 70
0
  0
VERTEX
  8
0
 62
9
  6
CONTINUOUS
 10
192.6635294265
 20
230.229349294
  0
VERTEX
  8
0
 62
9
  6
CONTINUOUS
 10
192.3967539544
 20
230.3432130831
  0
VERTEX
  8
0
 62
9
  6
CONTINUOUS
 10
192.1150262981
 20
230.4171345776
  0
VERTEX
  8
0
 62
9
  6
CONTINUOUS
 10
191.8243481256
 20
230.4495005266
  0
VERTEX
  8
0
 62
9
  6
CONTINUOUS
 10
191.5309108358
 20
230.439542558
  0
VERTEX
  8
0
 62
9
  6
CONTINUOUS
 10
191.2414839559
 20
230.3874791077
  0
VERTEX
  8
0
 62
9
  6
CONTINUOUS
 10
190.9631058228
 20
230.2948368454
  0
VERTEX
  8
0
 62
9
  6
CONTINUOUS
 10
190.7007547848
 20
230.1635017528
  0
VERTEX
  8
0
 62
9
  6
CONTINUOUS
 10
190.4592846566
 20
229.9956604632
  0
VERTEX
  8
0
 62
9
  6
CONTINUOUS
 10
190.2447518121
 20
229.7952103137
  0
VERTEX
  8
0
 62
9
  6
CONTINUOUS
 10
190.0620974878
 20
229.5667836252
  0
VERTEX
  8
0
 62
9
  6
CONTINUOUS
 10
189.9151563426
 20
229.3153016989
  0
VERTEX
  8
0
 62
9
  6
CONTINUOUS
 10
189.8070314591
 20
229.0461490883
  0
SEQEND
  0
LINE
  8
0
 62
7
  6
CONTINUOUS
 10
280.2242672411
 20
240.9614003447
 11
280.2242672411
 21
237.4614003447
  0
LINE
  8
0
 62
7
  6
CONTINUOUS
 10
285.1944546851
 20
240.9614003447
 11
285.1944546851
 21
237.4614003447
  0
LINE
  8
0
 62
7
  6
CONTINUOUS
 10
307.0081691028
 20
268.8807829319
 11
305.1916235443
 21
268.4614003447
  0
LINE
  8
0
 62
7
  6
CONTINUOUS
 10
197.9964042481
 20
237.4614003447
 11
212.1589798475
 21
237.4614003447
  0
LINE
  8
0
 62
7
  6
CONTINUOUS
 10
280.2242672411
 20
237.4614003447
 11
294.3868428405
 21
237.4614003447
  0
LINE
  8
0
 62
7
  6
CONTINUOUS
 10
197.9964042481
 20
240.9614003447
 11
212.1589798475
 21
240.9614003447
  0
LINE
  8
0
 62
7
  6
CONTINUOUS
 10
280.2242672411
 20
240.9614003447
 11
294.3868428405
 21
240.9614003447
  0
LINE
  8
0
 62
7
  6
CONTINUOUS
 10
294.3868428405
 20
240.9614003447
 11
294.3868428405
 21
237.4614003447
  0
LINE
  8
02___PRT_ALL_AXES
 62
7
  6
CONTINUOUS
 10
301.1916235443
 20
228.4972987296
 11
301.1916235443
 21
74.2708014215
  0
LINE
  8
02___PRT_ALL_AXES
 62
7
  6
CONTINUOUS
 10
305.1916235443
 20
268.4614003447
 11
305.1916235443
 21
233.1161008831
  0
LINE
  8
02___PRT_ALL_AXES
 62
7
  6
CONTINUOUS
 10
305.1916235443
 20
70.8066998064
 11
305.1916235443
 21
19.9614003447
  0
LINE
  8
0
 62
7
  6
CONTINUOUS
 10
305.1916235443
 20
268.4614003447
 11
187.1916235443
 21
268.4614003447
  0
LINE
  8
0
 62
7
  6
CONTINUOUS
 10
307.0081691028
 20
268.8807829319
 11
185.3750779858
 21
268.8807829319
  0
LINE
  8
0
 62
7
  6
CONTINUOUS
 10
185.3750779858
 20
268.8807829319
 11
187.1916235443
 21
268.4614003447
  0
LINE
  8
0
 62
7
  6
CONTINUOUS
 10
306.2164560283
 20
283.9875683229
 11
307.0081691028
 21
268.8807829319
  0
LINE
  8
0
 62
9
  6
CONTINUOUS
 10
186.1667910603
 20
283.9875683229
 11
306.2164560283
 21
283.9875683229
  0
LINE
  8
0
 62
7
  6
CONTINUOUS
 10
186.6661058277
 20
284.4614003447
 11
305.717141261
 21
284.4614003447
  0
ARC
  8
0
 62
7
  6
CONTINUOUS
 10
303.1916235443
 20
228.4972987296
 40
2.0
 50
120.000056849
 51
180.0
  0
ARC
  8
0
 62
7
  6
CONTINUOUS
 10
112.8766112993
 20
149.6662395345
 40
2.0
 50
45.0
 51
104.9999417979
  0
ARC
  8
0
 62
7
  6
CONTINUOUS
 10
109.6106249756
 20
152.9322258582
 40
2.0
 50
225.0
 51
285.0
  0
ARC
  8
0
 62
7
  6
CONTINUOUS
 10
303.1916235443
 20
233.1161008831
 40
2.0
 50
300.0
 51
360.0
  0
ARC
  8
0
 62
7
  6
CONTINUOUS
 10
303.1916235443
 20
70.8066998064
 40
2.0
 50
0.0
 51
60.0
  0
ARC
  8
0
 62
7
  6
CONTINUOUS
 10
189.1916235443
 20
70.8066998064
 40
2.0
 50
120.0
 51
180.0
  0
ARC
  8
0
 62
7
  6
CONTINUOUS
 10
185.1916237146
 20
244.2284272385
 40
1.9999999944
 50
224.9999881726
 51
0.0000118118
  0
ARC
  8
0
 62
7
  6
CONTINUOUS
 10
304.6916235443
 20
19.9614003447
 40
0.5
 50
270.0
 51
360.0
  0
ARC
  8
0
 62
7
  6
CONTINUOUS
 10
187.6916235443
 20
19.9614003447
 40
0.5
 50
180.0
 51
270.0
  0
ARC
  8
0
 62
7
  6
CONTINUOUS
 10
155.6819555524
 20
270.2025617354
 40
0.5
 50
45.0
 51
135.0
  0
ARC
  8
0
 62
7
  6
CONTINUOUS
 10
72.9504621536
 20
187.4710683366
 40
0.5
 50
135.0
 51
225.0
  0
ARC
  8
0
 62
7
  6
CONTINUOUS
 10
305.717141261
 20
283.9614003447
 40
0.5
 50
3.0
 51
90.0
  0
ARC
  8
0
 62
7
  6
CONTINUOUS
 10
186.6661058277
 20
283.9614003447
 40
0.5
 50
90.0
 51
177.0
  0
ENDSEC
  0
EOF
