  0
SECTION
  2
HEADER
  9
$ACADVER
  1
AC1024
  9
$ACADMAINTVER
 70
   155
  9
$DWGCODEPAGE
  3
ANSI_1252
  9
$LASTSAVEDBY
  1
Jason
  9
$INSBASE
 10
0.0
 20
0.0
 30
0.0
  9
$EXTMIN
 10
10535.21133610469
 20
324.5532548294534
 30
0.0
  9
$EXTMAX
 10
10908.35306348838
 20
864.6028709658038
 30
0.0
  9
$LIMMIN
 10
0.0
 20
0.0
  9
$LIMMAX
 10
12.0
 20
9.0
  9
$ORTHOMODE
 70
     0
  9
$REGENMODE
 70
     1
  9
$FILLMODE
 70
     1
  9
$QTEXTMODE
 70
     0
  9
$MIRRTEXT
 70
     1
  9
$LTSCALE
 40
5.0
  9
$ATTMODE
 70
     1
  9
$TEXTSIZE
 40
0.2
  9
$TRACEWID
 40
0.05
  9
$TEXTSTYLE
  7
Standard
  9
$CLAYER
  8
Specialized_Lines
  9
$CELTYPE
  6
ByLayer
  9
$CECOLOR
 62
   256
  9
$CELTSCALE
 40
1.0
  9
$DISPSILH
 70
     0
  9
$DIMSCALE
 40
1.0
  9
$DIMASZ
 40
0.18
  9
$DIMEXO
 40
0.0625
  9
$DIMDLI
 40
0.38
  9
$DIMRND
 40
0.0
  9
$DIMDLE
 40
0.0
  9
$DIMEXE
 40
0.18
  9
$DIMTP
 40
0.0
  9
$DIMTM
 40
0.0
  9
$DIMTXT
 40
0.18
  9
$DIMCEN
 40
0.09
  9
$DIMTSZ
 40
0.0
  9
$DIMTOL
 70
     0
  9
$DIMLIM
 70
     0
  9
$DIMTIH
 70
     1
  9
$DIMTOH
 70
     1
  9
$DIMSE1
 70
     0
  9
$DIMSE2
 70
     0
  9
$DIMTAD
 70
     0
  9
$DIMZIN
 70
     0
  9
$DIMBLK
  1

  9
$DIMASO
 70
     1
  9
$DIMSHO
 70
     1
  9
$DIMPOST
  1

  9
$DIMAPOST
  1

  9
$DIMALT
 70
     0
  9
$DIMALTD
 70
     2
  9
$DIMALTF
 40
25.4
  9
$DIMLFAC
 40
1.0
  9
$DIMTOFL
 70
     0
  9
$DIMTVP
 40
0.0
  9
$DIMTIX
 70
     0
  9
$DIMSOXD
 70
     0
  9
$DIMSAH
 70
     0
  9
$DIMBLK1
  1

  9
$DIMBLK2
  1

  9
$DIMSTYLE
  2
Standard
  9
$DIMCLRD
 70
     0
  9
$DIMCLRE
 70
     0
  9
$DIMCLRT
 70
     0
  9
$DIMTFAC
 40
1.0
  9
$DIMGAP
 40
0.09
  9
$DIMJUST
 70
     0
  9
$DIMSD1
 70
     0
  9
$DIMSD2
 70
     0
  9
$DIMTOLJ
 70
     1
  9
$DIMTZIN
 70
     0
  9
$DIMALTZ
 70
     0
  9
$DIMALTTZ
 70
     0
  9
$DIMUPT
 70
     0
  9
$DIMDEC
 70
     4
  9
$DIMTDEC
 70
     4
  9
$DIMALTU
 70
     2
  9
$DIMALTTD
 70
     2
  9
$DIMTXSTY
  7
Standard
  9
$DIMAUNIT
 70
     0
  9
$DIMADEC
 70
     0
  9
$DIMALTRND
 40
0.0
  9
$DIMAZIN
 70
     0
  9
$DIMDSEP
 70
    46
  9
$DIMATFIT
 70
     3
  9
$DIMFRAC
 70
     0
  9
$DIMLDRBLK
  1

  9
$DIMLUNIT
 70
     2
  9
$DIMLWD
 70
    -2
  9
$DIMLWE
 70
    -2
  9
$DIMTMOVE
 70
     0
  9
$DIMFXL
 40
1.0
  9
$DIMFXLON
 70
     0
  9
$DIMJOGANG
 40
0.7853981633974483
  9
$DIMTFILL
 70
     0
  9
$DIMTFILLCLR
 70
     0
  9
$DIMARCSYM
 70
     0
  9
$DIMLTYPE
  6

  9
$DIMLTEX1
  6

  9
$DIMLTEX2
  6

  9
$DIMTXTDIRECTION
 70
     0
  9
$LUNITS
 70
     2
  9
$LUPREC
 70
     4
  9
$SKETCHINC
 40
0.1
  9
$FILLETRAD
 40
0.5
  9
$AUNITS
 70
     0
  9
$AUPREC
 70
     0
  9
$MENU
  1
.
  9
$ELEVATION
 40
0.0
  9
$PELEVATION
 40
0.0
  9
$THICKNESS
 40
0.0
  9
$LIMCHECK
 70
     0
  9
$CHAMFERA
 40
0.5
  9
$CHAMFERB
 40
0.5
  9
$CHAMFERC
 40
1.0
  9
$CHAMFERD
 40
0.0
  9
$SKPOLY
 70
     0
  9
$TDCREATE
 40
2456216.551974537
  9
$TDUCREATE
 40
2456216.010307870
  9
$TDUPDATE
 40
2456636.566505683
  9
$TDUUPDATE
 40
2456636.024839016
  9
$TDINDWG
 40
0.0923900231
  9
$TDUSRTIMER
 40
0.0923900231
  9
$USRTIMER
 70
     1
  9
$ANGBASE
 50
0.0
  9
$ANGDIR
 70
     0
  9
$PDMODE
 70
     0
  9
$PDSIZE
 40
0.0
  9
$PLINEWID
 40
0.0
  9
$SPLFRAME
 70
     0
  9
$SPLINETYPE
 70
     6
  9
$SPLINESEGS
 70
     8
  9
$HANDSEED
  5
8FE
  9
$SURFTAB1
 70
     6
  9
$SURFTAB2
 70
     6
  9
$SURFTYPE
 70
     6
  9
$SURFU
 70
     6
  9
$SURFV
 70
     6
  9
$UCSBASE
  2

  9
$UCSNAME
  2

  9
$UCSORG
 10
0.0
 20
0.0
 30
0.0
  9
$UCSXDIR
 10
1.0
 20
0.0
 30
0.0
  9
$UCSYDIR
 10
0.0
 20
1.0
 30
0.0
  9
$UCSORTHOREF
  2

  9
$UCSORTHOVIEW
 70
     0
  9
$UCSORGTOP
 10
0.0
 20
0.0
 30
0.0
  9
$UCSORGBOTTOM
 10
0.0
 20
0.0
 30
0.0
  9
$UCSORGLEFT
 10
0.0
 20
0.0
 30
0.0
  9
$UCSORGRIGHT
 10
0.0
 20
0.0
 30
0.0
  9
$UCSORGFRONT
 10
0.0
 20
0.0
 30
0.0
  9
$UCSORGBACK
 10
0.0
 20
0.0
 30
0.0
  9
$PUCSBASE
  2

  9
$PUCSNAME
  2

  9
$PUCSORG
 10
0.0
 20
0.0
 30
0.0
  9
$PUCSXDIR
 10
1.0
 20
0.0
 30
0.0
  9
$PUCSYDIR
 10
0.0
 20
1.0
 30
0.0
  9
$PUCSORTHOREF
  2

  9
$PUCSORTHOVIEW
 70
     0
  9
$PUCSORGTOP
 10
0.0
 20
0.0
 30
0.0
  9
$PUCSORGBOTTOM
 10
0.0
 20
0.0
 30
0.0
  9
$PUCSORGLEFT
 10
0.0
 20
0.0
 30
0.0
  9
$PUCSORGRIGHT
 10
0.0
 20
0.0
 30
0.0
  9
$PUCSORGFRONT
 10
0.0
 20
0.0
 30
0.0
  9
$PUCSORGBACK
 10
0.0
 20
0.0
 30
0.0
  9
$USERI1
 70
     0
  9
$USERI2
 70
     0
  9
$USERI3
 70
     0
  9
$USERI4
 70
     0
  9
$USERI5
 70
     0
  9
$USERR1
 40
0.0
  9
$USERR2
 40
0.0
  9
$USERR3
 40
0.0
  9
$USERR4
 40
0.0
  9
$USERR5
 40
0.0
  9
$WORLDVIEW
 70
     1
  9
$SHADEDGE
 70
     3
  9
$SHADEDIF
 70
    70
  9
$TILEMODE
 70
     1
  9
$MAXACTVP
 70
    64
  9
$PINSBASE
 10
0.0
 20
0.0
 30
0.0
  9
$PLIMCHECK
 70
     0
  9
$PEXTMIN
 10
1.000000000000000E+20
 20
1.000000000000000E+20
 30
1.000000000000000E+20
  9
$PEXTMAX
 10
-1.000000000000000E+20
 20
-1.000000000000000E+20
 30
-1.000000000000000E+20
  9
$PLIMMIN
 10
0.0
 20
0.0
  9
$PLIMMAX
 10
12.0
 20
9.0
  9
$UNITMODE
 70
     0
  9
$VISRETAIN
 70
     1
  9
$PLINEGEN
 70
     0
  9
$PSLTSCALE
 70
     1
  9
$TREEDEPTH
 70
  3020
  9
$CMLSTYLE
  2
Standard
  9
$CMLJUST
 70
     0
  9
$CMLSCALE
 40
1.0
  9
$PROXYGRAPHICS
 70
     1
  9
$MEASUREMENT
 70
     0
  9
$CELWEIGHT
370
    -1
  9
$ENDCAPS
280
     0
  9
$JOINSTYLE
280
     0
  9
$LWDISPLAY
290
     1
  9
$INSUNITS
 70
     0
  9
$HYPERLINKBASE
  1

  9
$STYLESHEET
  1

  9
$XEDIT
290
     1
  9
$CEPSNTYPE
380
     0
  9
$PSTYLEMODE
290
     1
  9
$FINGERPRINTGUID
  2
{42D1B174-7827-4B78-98C8-A9339EC18FBB}
  9
$VERSIONGUID
  2
{EEC99741-4F67-446D-8512-51F8C5117311}
  9
$EXTNAMES
290
     1
  9
$PSVPSCALE
 40
0.0
  9
$OLESTARTUP
290
     0
  9
$SORTENTS
280
   127
  9
$INDEXCTL
280
     0
  9
$HIDETEXT
280
     1
  9
$XCLIPFRAME
280
     0
  9
$HALOGAP
280
     0
  9
$OBSCOLOR
 70
   257
  9
$OBSLTYPE
280
     0
  9
$INTERSECTIONDISPLAY
280
     0
  9
$INTERSECTIONCOLOR
 70
   257
  9
$DIMASSOC
280
     2
  9
$PROJECTNAME
  1

  9
$CAMERADISPLAY
290
     0
  9
$LENSLENGTH
 40
50.0
  9
$CAMERAHEIGHT
 40
0.0
  9
$STEPSPERSEC
 40
2.0
  9
$STEPSIZE
 40
6.0
  9
$3DDWFPREC
 40
2.0
  9
$PSOLWIDTH
 40
0.25
  9
$PSOLHEIGHT
 40
4.0
  9
$LOFTANG1
 40
1.570796326794896
  9
$LOFTANG2
 40
1.570796326794896
  9
$LOFTMAG1
 40
0.0
  9
$LOFTMAG2
 40
0.0
  9
$LOFTPARAM
 70
     7
  9
$LOFTNORMALS
280
     1
  9
$LATITUDE
 40
37.795
  9
$LONGITUDE
 40
-122.394
  9
$NORTHDIRECTION
 40
0.0
  9
$TIMEZONE
 70
 -8000
  9
$LIGHTGLYPHDISPLAY
280
     1
  9
$TILEMODELIGHTSYNCH
280
     1
  9
$CMATERIAL
347
3C
  9
$SOLIDHIST
280
     1
  9
$SHOWHIST
280
     1
  9
$DWFFRAME
280
     2
  9
$DGNFRAME
280
     2
  9
$REALWORLDSCALE
290
     1
  9
$INTERFERECOLOR
 62
   256
  9
$INTERFEREOBJVS
345
33
  9
$INTERFEREVPVS
346
27A
  9
$CSHADOW
280
     0
  9
$SHADOWPLANELOCATION
 40
0.0
  0
ENDSEC
  0
SECTION
  2
CLASSES
  0
CLASS
  1
ACDBDICTIONARYWDFLT
  2
AcDbDictionaryWithDefault
  3
ObjectDBX Classes
 90
        0
 91
        1
280
     0
281
     0
  0
CLASS
  1
VISUALSTYLE
  2
AcDbVisualStyle
  3
ObjectDBX Classes
 90
     4095
 91
       26
280
     0
281
     0
  0
CLASS
  1
MATERIAL
  2
AcDbMaterial
  3
ObjectDBX Classes
 90
     1153
 91
        3
280
     0
281
     0
  0
CLASS
  1
SCALE
  2
AcDbScale
  3
ObjectDBX Classes
 90
     1153
 91
       33
280
     0
281
     0
  0
CLASS
  1
WIPEOUT
  2
AcDbWipeout
  3
WipeOut|Product Desc: Object Enabler for WipeOut entity | Company: Autodesk, Inc. | WEB Address: www.autodesk.com
 90
     2175
 91
        0
280
     0
281
     1
  0
CLASS
  1
DICTIONARYVAR
  2
AcDbDictionaryVar
  3
ObjectDBX Classes
 90
        0
 91
       17
280
     0
281
     0
  0
CLASS
  1
TABLESTYLE
  2
AcDbTableStyle
  3
ObjectDBX Classes
 90
     4095
 91
        1
280
     0
281
     0
  0
CLASS
  1
MLEADERSTYLE
  2
AcDbMLeaderStyle
  3
ACDB_MLEADERSTYLE_CLASS
 90
     4095
 91
        1
280
     0
281
     0
  0
CLASS
  1
ACDBSECTIONVIEWSTYLE
  2
AcDbSectionViewStyle
  3
ObjectDBX Classes
 90
     1025
 91
        1
280
     0
281
     0
  0
CLASS
  1
ACDBDETAILVIEWSTYLE
  2
AcDbDetailViewStyle
  3
ObjectDBX Classes
 90
     1025
 91
        1
280
     0
281
     0
  0
CLASS
  1
WIPEOUTVARIABLES
  2
AcDbWipeoutVariables
  3
"WipeOut|Product Desc:     WipeOut Dbx Application|Company:          Autodesk, Inc.|WEB Address:      www.autodesk.com"
 90
        0
 91
        1
280
     0
281
     0
  0
CLASS
  1
EXACXREFPANELOBJECT
  2
ExAcXREFPanelObject
  3
EXAC_ESW
 90
     1025
 91
        1
280
     0
281
     0
  0
CLASS
  1
NPOCOLLECTION
  2
AcDbImpNonPersistentObjectsCollection
  3
ObjectDBX Classes
 90
     1153
 91
        1
280
     0
281
     0
  0
CLASS
  1
SORTENTSTABLE
  2
AcDbSortentsTable
  3
ObjectDBX Classes
 90
        0
 91
        1
280
     0
281
     0
  0
CLASS
  1
ACDBASSOCNETWORK
  2
AcDbAssocNetwork
  3
ObjectDBX Classes
 90
     1025
 91
        2
280
     0
281
     0
  0
CLASS
  1
ACDBASSOC2DCONSTRAINTGROUP
  2
AcDbAssoc2dConstraintGroup
  3
ObjectDBX Classes
 90
     1025
 91
        1
280
     0
281
     0
  0
CLASS
  1
ACDBASSOCGEOMDEPENDENCY
  2
AcDbAssocGeomDependency
  3
ObjectDBX Classes
 90
     1025
 91
        7
280
     0
281
     0
  0
CLASS
  1
IMAGE
  2
AcDbRasterImage
  3
ISM
 90
     2175
 91
        2
280
     0
281
     1
  0
CLASS
  1
IMAGEDEF_REACTOR
  2
AcDbRasterImageDefReactor
  3
ISM
 90
        1
 91
        2
280
     0
281
     0
  0
CLASS
  1
IMAGEDEF
  2
AcDbRasterImageDef
  3
ISM
 90
        0
 91
        2
280
     0
281
     0
  0
CLASS
  1
RASTERVARIABLES
  2
AcDbRasterVariables
  3
ISM
 90
        0
 91
        1
280
     0
281
     0
  0
CLASS
  1
ACAD_EVALUATION_GRAPH
  2
AcDbEvalGraph
  3
ObjectDBX Classes
 90
     1153
 91
        0
280
     0
281
     0
  0
CLASS
  1
ACAECUSTOBJ
  2
AcAeEditorObj
  3
AcAeEditorObj
 90
     1024
 91
        0
280
     0
281
     0
  0
CLASS
  1
ACDB_DYNAMICBLOCKPURGEPREVENTER_VERSION
  2
AcDbDynamicBlockPurgePreventer
  3
ObjectDBX Classes
 90
     1153
 91
        0
280
     0
281
     0
  0
CLASS
  1
CELLSTYLEMAP
  2
AcDbCellStyleMap
  3
ObjectDBX Classes
 90
     1152
 91
        2
280
     0
281
     0
  0
ENDSEC
  0
SECTION
  2
TABLES
  0
TABLE
  2
VPORT
  5
8
330
0
100
AcDbSymbolTable
 70
     1
  0
VPORT
  5
29
330
8
100
AcDbSymbolTableRecord
100
AcDbViewportTableRecord
  2
*Active
 70
     0
 10
0.0
 20
0.0
 11
1.0
 21
1.0
 12
10967.71914812935
 22
403.7638953444001
 13
0.0
 23
0.0
 14
0.5
 24
0.5
 15
0.5
 25
0.5
 16
0.0
 26
0.0
 36
1.0
 17
0.0
 27
0.0
 37
0.0
 40
761.7521234598527
 41
1.816348195329086
 42
50.0
 43
0.0
 44
0.0
 50
0.0
 51
0.0
 71
     0
 72
   100
 73
     1
 74
     3
 75
     0
 76
     0
 77
     0
 78
     0
281
     0
 65
     1
110
0.0
120
0.0
130
0.0
111
1.0
121
0.0
131
0.0
112
0.0
122
1.0
132
0.0
 79
     0
146
0.0
348
2F
 60
     3
 61
     5
292
     1
282
     1
141
0.0
142
0.0
 63
   250
1001
ACAD_NAV_VCDISPLAY
1070
     3
  0
ENDTAB
  0
TABLE
  2
LTYPE
  5
5
330
0
100
AcDbSymbolTable
 70
     8
  0
LTYPE
  5
14
330
5
100
AcDbSymbolTableRecord
100
AcDbLinetypeTableRecord
  2
ByBlock
 70
     0
  3

 72
    65
 73
     0
 40
0.0
  0
LTYPE
  5
15
330
5
100
AcDbSymbolTableRecord
100
AcDbLinetypeTableRecord
  2
ByLayer
 70
     0
  3

 72
    65
 73
     0
 40
0.0
  0
LTYPE
  5
16
330
5
100
AcDbSymbolTableRecord
100
AcDbLinetypeTableRecord
  2
Continuous
 70
     0
  3
Solid line
 72
    65
 73
     0
 40
0.0
  0
LTYPE
  5
1B5
330
5
100
AcDbSymbolTableRecord
100
AcDbLinetypeTableRecord
  2
Hidden
 70
     0
  3
- - - - - 
 72
    65
 73
     2
 40
4.938889980316162
 49
2.822222709655761
 74
     0
 49
-2.1166672706604
 74
     0
  0
LTYPE
  5
1E4
330
5
100
AcDbSymbolTableRecord
100
AcDbLinetypeTableRecord
  2
Above
 70
     0
  3
- - - - - 
 72
    65
 73
     2
 40
9.599999999999999
 49
6.0
 74
     0
 49
-3.6
 74
     0
  0
LTYPE
  5
1EC
330
5
100
AcDbSymbolTableRecord
100
AcDbLinetypeTableRecord
  2
Sketch
 70
     0
  3
??????????
 72
    65
 73
     3
 40
40.0
 49
0.0
 74
     4
 75
     1
340
1ED
 46
0.3174603174603174
 50
0.0
 44
0.0
 45
0.0
 49
-40.0
 74
     0
 49
0.0
 74
     0
  0
LTYPE
  5
225
330
5
100
AcDbSymbolTableRecord
100
AcDbLinetypeTableRecord
  2
Wipeout_Contour
 70
     0
  3
- - - - - 
 72
    65
 73
     2
 40
1000.0
 49
0.0
 74
     0
 49
-1000.0
 74
     0
  0
LTYPE
  5
55E
330
5
100
AcDbSymbolTableRecord
100
AcDbLinetypeTableRecord
  2
ZIGZAG
 70
     0
  3
Zig zag /\/\/\/\/\/\/\/\/\/\/\/\/\/\/\/\/\/\/\/
 72
    65
 73
     4
 40
0.8001000000000001
 49
0.0001
 74
     0
 49
-0.2
 74
     4
 75
   131
340
55D
 46
0.2
 50
0.0
 44
-0.2
 45
0.0
 49
-0.4
 74
     4
 75
   131
340
55D
 46
0.2
 50
180.0
 44
0.2
 45
0.0
 49
-0.2
 74
     0
  0
LTYPE
  5
5AF
330
5
100
AcDbSymbolTableRecord
100
AcDbLinetypeTableRecord
  2
DASHEDX2
 70
     0
  3
Dashed (2x) ____  ____  ____  ____  ____  ___
 72
    65
 73
     2
 40
1.5
 49
1.0
 74
     0
 49
-0.5
 74
     0
  0
LTYPE
  5
5DB
330
5
100
AcDbSymbolTableRecord
100
AcDbLinetypeTableRecord
  2
PLASTER
 70
     0
  3
PLASTER
 72
    65
 73
     2
 40
2.379214999999999
 49
0.000024
 74
     4
 75
     1
340
5DC
 46
0.2
 50
0.0
 44
0.0
 45
0.0
 49
-2.379191
 74
     0
  0
ENDTAB
  0
TABLE
  2
LAYER
  5
2
102
{ACAD_XDICTIONARY
360
3E3
102
}
330
0
100
AcDbSymbolTable
 70
     6
  0
LAYER
  5
10
102
{ACAD_XDICTIONARY
360
3D8
102
}
330
2
100
AcDbSymbolTableRecord
100
AcDbLayerTableRecord
  2
0
 70
     0
 62
     7
  6
Continuous
370
    -3
390
F
347
3E
  0
LAYER
  5
40
102
{ACAD_XDICTIONARY
360
3DA
102
}
330
2
100
AcDbSymbolTableRecord
100
AcDbLayerTableRecord
  2
Specialized_Fills
 70
     0
 62
     7
  6
Continuous
370
    -3
390
F
347
3E
  0
LAYER
  5
1A7
102
{ACAD_XDICTIONARY
360
3DC
102
}
330
2
100
AcDbSymbolTableRecord
100
AcDbLayerTableRecord
  2
Specialized_Lines
 70
     0
 62
     7
  6
Continuous
370
    -3
390
F
347
3E
  0
LAYER
  5
236
102
{ACAD_XDICTIONARY
360
3DE
102
}
330
2
100
AcDbSymbolTableRecord
100
AcDbLayerTableRecord
  2
Specialized_Text
 70
     0
 62
     7
  6
Continuous
370
    -3
390
F
347
3E
  0
LAYER
  5
480
102
{ACAD_XDICTIONARY
360
481
102
}
330
2
100
AcDbSymbolTableRecord
100
AcDbLayerTableRecord
  2
Viewport
 70
     0
 62
     7
  6
Continuous
370
    -3
390
F
347
3E
1001
AcAecLayerStandard
1000

1000

1001
AcCmTransparency
1071
        0
  0
LAYER
  5
4C0
330
2
100
AcDbSymbolTableRecord
100
AcDbLayerTableRecord
  2
Defpoints
 70
     0
 62
     7
  6
Continuous
290
     0
370
    -3
390
F
347
3E
  0
ENDTAB
  0
TABLE
  2
STYLE
  5
3
330
0
100
AcDbSymbolTable
 70
     6
  0
STYLE
  5
11
330
3
100
AcDbSymbolTableRecord
100
AcDbTextStyleTableRecord
  2
Standard
 70
     0
 40
0.0
 41
1.0
 50
0.0
 71
     0
 42
0.2
  3
txt
  4
BIGFONT.SHX
  0
STYLE
  5
1ED
330
3
100
AcDbSymbolTableRecord
100
AcDbTextStyleTableRecord
  2

 70
     1
 40
0.2
 41
1.0
 50
0.0
 71
     0
 42
0.2
  3
01C Window Head_ BRICK1.Shx
  4

  0
STYLE
  5
205
330
3
100
AcDbSymbolTableRecord
100
AcDbTextStyleTableRecord
  2
GENERATED_STYLE_1
 70
     0
 40
0.0
 41
1.0
 50
0.0
 71
     0
 42
0.2
  3
ARIALUNI.TTF
  4

1001
ACAD
1000
Arial Unicode MS
1071
       34
  0
STYLE
  5
482
330
3
100
AcDbSymbolTableRecord
100
AcDbTextStyleTableRecord
  2
GENERATED_STYLE_2
 70
     0
 40
0.0
 41
1.0
 50
0.0
 71
     0
 42
0.2
  3
ARIALUNI.TTF
  4

1001
ACAD
1000
Arial Unicode MS
1071
       34
  0
STYLE
  5
55D
330
3
100
AcDbSymbolTableRecord
100
AcDbTextStyleTableRecord
  2

 70
     1
 40
0.0
 41
1.0
 50
0.0
 71
     0
 42
0.2
  3
ltypeshp.shx
  4

  0
STYLE
  5
5DC
330
3
100
AcDbSymbolTableRecord
100
AcDbTextStyleTableRecord
  2

 70
     1
 40
0.0
 41
1.0
 50
0.0
 71
     0
 42
0.2
  3
P:\VERT-X CONSULTING LTD\2013\10 OCT\1310-015- SPECIALIZED CONSTRUCTION PRODUCTS - CONTRACT DRAUGHTING\DRAWINGS\PLASTER.SHX
  4

  0
ENDTAB
  0
TABLE
  2
VIEW
  5
6
330
0
100
AcDbSymbolTable
 70
     0
  0
ENDTAB
  0
TABLE
  2
UCS
  5
7
330
0
100
AcDbSymbolTable
 70
     0
  0
ENDTAB
  0
TABLE
  2
APPID
  5
9
330
0
100
AcDbSymbolTable
 70
    11
  0
APPID
  5
12
330
9
100
AcDbSymbolTableRecord
100
AcDbRegAppTableRecord
  2
ACAD
 70
     0
  0
APPID
  5
296
330
9
100
AcDbSymbolTableRecord
100
AcDbRegAppTableRecord
  2
ACAD_EXEMPT_FROM_CAD_STANDARDS
 70
     0
  0
APPID
  5
2CE
330
9
100
AcDbSymbolTableRecord
100
AcDbRegAppTableRecord
  2
ACAD_NAV_VCDISPLAY
 70
     0
  0
APPID
  5
427
330
9
100
AcDbSymbolTableRecord
100
AcDbRegAppTableRecord
  2
GradientColor1ACI
 70
     0
  0
APPID
  5
428
330
9
100
AcDbSymbolTableRecord
100
AcDbRegAppTableRecord
  2
GradientColor2ACI
 70
     0
  0
APPID
  5
483
330
9
100
AcDbSymbolTableRecord
100
AcDbRegAppTableRecord
  2
ACAD_PSEXT
 70
     0
  0
APPID
  5
484
330
9
100
AcDbSymbolTableRecord
100
AcDbRegAppTableRecord
  2
AcAecLayerStandard
 70
     0
  0
APPID
  5
485
330
9
100
AcDbSymbolTableRecord
100
AcDbRegAppTableRecord
  2
AcCmTransparency
 70
     0
  0
APPID
  5
587
330
9
100
AcDbSymbolTableRecord
100
AcDbRegAppTableRecord
  2
ACAUTHENVIRON
 70
     0
  0
APPID
  5
58B
330
9
100
AcDbSymbolTableRecord
100
AcDbRegAppTableRecord
  2
AcDbDynamicBlockTrueName
 70
     0
  0
APPID
  5
58C
330
9
100
AcDbSymbolTableRecord
100
AcDbRegAppTableRecord
  2
AcDbDynamicBlockGUID
 70
     0
  0
ENDTAB
  0
TABLE
  2
DIMSTYLE
  5
A
330
0
100
AcDbSymbolTable
 70
     4
100
AcDbDimStyleTable
 71
     1
340
27
  0
DIMSTYLE
105
27
330
A
100
AcDbSymbolTableRecord
100
AcDbDimStyleTableRecord
  2
Standard
 70
     0
340
11
  0
DIMSTYLE
105
208
102
{ACAD_REACTORS
330
207
330
219
330
234
102
}
330
A
100
AcDbSymbolTableRecord
100
AcDbDimStyleTableRecord
  2
GENERATED_STYLE__1
 70
     0
 41
3.799999999999999
 42
15.0
 73
     0
 74
     0
 77
     1
140
5.0
172
     1
176
     7
177
     7
178
     7
179
     2
271
     0
279
     2
340
205
342
209
343
209
344
209
  0
DIMSTYLE
105
228
102
{ACAD_REACTORS
330
227
102
}
330
A
100
AcDbSymbolTableRecord
100
AcDbDimStyleTableRecord
  2
GENERATED_STYLE__2
 70
     0
 41
3.799999999999999
 42
4.162936936330297
 73
     0
 74
     0
 77
     1
140
5.0
172
     1
176
     7
177
     7
178
     7
179
     2
271
     0
279
     2
340
205
342
209
343
209
344
209
  0
DIMSTYLE
105
238
330
A
100
AcDbSymbolTableRecord
100
AcDbDimStyleTableRecord
  2
GENERATED_STYLE__3
 70
     0
 41
7.295999999999999
172
     1
341
239
  0
ENDTAB
  0
TABLE
  2
BLOCK_RECORD
  5
1
330
0
100
AcDbSymbolTable
 70
    11
  0
BLOCK_RECORD
  5
1F
102
{ACAD_XDICTIONARY
360
2A2
102
}
330
1
100
AcDbSymbolTableRecord
100
AcDbBlockTableRecord
  2
*Model_Space
340
22
 70
     0
280
     1
281
     0
  0
BLOCK_RECORD
  5
1B
330
1
100
AcDbSymbolTableRecord
100
AcDbBlockTableRecord
  2
*Paper_Space
340
1E
 70
     0
280
     1
281
     0
  0
BLOCK_RECORD
  5
23
330
1
100
AcDbSymbolTableRecord
100
AcDbBlockTableRecord
  2
*Paper_Space0
340
26
 70
     0
280
     1
281
     0
  0
BLOCK_RECORD
  5
50
330
1
100
AcDbSymbolTableRecord
100
AcDbBlockTableRecord
  2
Fill_1
340
0
 70
     0
280
     1
281
     0
  0
BLOCK_RECORD
  5
53
330
1
100
AcDbSymbolTableRecord
100
AcDbBlockTableRecord
  2
*X2
340
0
102
{BLKREFS
331
17B
102
}
 70
     0
280
     1
281
     0
  0
BLOCK_RECORD
  5
1CC
102
{ACAD_XDICTIONARY
360
596
102
}
330
1
100
AcDbSymbolTableRecord
100
AcDbBlockTableRecord
  2
Line_1
340
0
102
{BLKREFS
331
1D4
102
}
 70
     0
280
     1
281
     0
1001
AcDbDynamicBlockGUID
1000
{A055464C-BAA3-4A6A-913F-5EA27822FDF8}
  0
BLOCK_RECORD
  5
1FB
330
1
100
AcDbSymbolTableRecord
100
AcDbBlockTableRecord
  2
*D4
340
0
 70
     0
280
     1
281
     0
  0
BLOCK_RECORD
  5
209
330
1
100
AcDbSymbolTableRecord
100
AcDbBlockTableRecord
  2
ARROWHEAD_6
340
0
102
{BLKREFS
331
4C7
331
4C8
331
4D9
331
4DA
331
4E3
331
4E4
331
82E
331
82F
102
}
 70
     0
280
     1
281
     0
  0
BLOCK_RECORD
  5
20E
330
1
100
AcDbSymbolTableRecord
100
AcDbBlockTableRecord
  2
*D6
340
0
 70
     0
280
     1
281
     0
  0
BLOCK_RECORD
  5
21A
330
1
100
AcDbSymbolTableRecord
100
AcDbBlockTableRecord
  2
*D7
340
0
 70
     0
280
     1
281
     0
  0
BLOCK_RECORD
  5
229
330
1
100
AcDbSymbolTableRecord
100
AcDbBlockTableRecord
  2
*D8
340
0
 70
     0
280
     1
281
     0
  0
BLOCK_RECORD
  5
239
330
1
100
AcDbSymbolTableRecord
100
AcDbBlockTableRecord
  2
ARROWHEAD_5
340
0
 70
     0
280
     1
281
     0
  0
BLOCK_RECORD
  5
24F
330
1
100
AcDbSymbolTableRecord
100
AcDbBlockTableRecord
  2
01C Window Head_ BRICK_STORY_MARKER
340
0
 70
     0
280
     1
281
     0
  0
ENDTAB
  0
ENDSEC
  0
SECTION
  2
BLOCKS
  0
BLOCK
  5
20
330
1F
100
AcDbEntity
  8
0
100
AcDbBlockBegin
  2
*Model_Space
 70
     0
 10
0.0
 20
0.0
 30
0.0
  3
*Model_Space
  1

  0
ENDBLK
  5
21
330
1F
100
AcDbEntity
  8
0
100
AcDbBlockEnd
  0
BLOCK
  5
1C
330
1B
100
AcDbEntity
 67
     1
  8
0
100
AcDbBlockBegin
  2
*Paper_Space
 70
     0
 10
0.0
 20
0.0
 30
0.0
  3
*Paper_Space
  1

  0
ENDBLK
  5
1D
330
1B
100
AcDbEntity
 67
     1
  8
0
100
AcDbBlockEnd
  0
BLOCK
  5
24
330
23
100
AcDbEntity
 67
     1
  8
0
100
AcDbBlockBegin
  2
*Paper_Space0
 70
     0
 10
0.0
 20
0.0
 30
0.0
  3
*Paper_Space0
  1

  0
ENDBLK
  5
25
330
23
100
AcDbEntity
 67
     1
  8
0
100
AcDbBlockEnd
  0
BLOCK
  5
51
330
50
100
AcDbEntity
  8
0
100
AcDbBlockBegin
  2
Fill_1
 70
     0
 10
0.0
 20
0.0
 30
0.0
  3
Fill_1
  1

  0
INSERT
  5
17B
330
50
100
AcDbEntity
  8
Specialized_Fills
  6
Continuous
 62
    30
420
 16742400
370
    20
100
AcDbBlockReference
  2
*X2
 10
0.0
 20
0.0
 30
0.0
  0
LINE
  5
19E
330
50
100
AcDbEntity
  8
Specialized_Fills
  6
Continuous
100
AcDbLine
 10
10625.29852494676
 20
522.5738019202329
 30
0.0
 11
10638.51069532375
 21
530.2064005013273
 31
0.0
  0
LINE
  5
19F
330
50
100
AcDbEntity
  8
Specialized_Fills
  6
Continuous
100
AcDbLine
 10
10638.51069532375
 20
530.2064005013273
 30
0.0
 11
10638.51069532375
 21
715.2800042040609
 31
0.0
  0
LINE
  5
1A0
330
50
100
AcDbEntity
  8
Specialized_Fills
  6
Continuous
100
AcDbLine
 10
10638.51069532375
 20
715.2800042040609
 30
0.0
 11
10588.51069532373
 21
715.2800042040609
 31
0.0
  0
LINE
  5
1A1
330
50
100
AcDbEntity
  8
Specialized_Fills
  6
Continuous
100
AcDbLine
 10
10588.51069532373
 20
715.2800042040609
 30
0.0
 11
10588.51069532373
 21
522.3622311397613
 31
0.0
  0
LINE
  5
1A2
330
50
100
AcDbEntity
  8
Specialized_Fills
  6
Continuous
100
AcDbLine
 10
10588.51069532373
 20
522.3622311397613
 30
0.0
 11
10625.29852494676
 21
522.5738019202329
 31
0.0
  0
ENDBLK
  5
52
330
50
100
AcDbEntity
  8
0
100
AcDbBlockEnd
  0
BLOCK
  5
54
330
53
100
AcDbEntity
  8
0
100
AcDbBlockBegin
  2
*X2
 70
     1
 10
0.0
 20
0.0
 30
0.0
  3
*X2
  1

  0
CIRCLE
  5
56
330
53
100
AcDbEntity
  8
Specialized_Fills
  6
Continuous
 62
    30
420
 16742400
370
    20
100
AcDbCircle
 10
10606.31069757247
 20
550.5834174500093
 30
0.0
 40
2.467047418139856
  0
ARC
  5
57
330
53
100
AcDbEntity
  8
Specialized_Fills
  6
Continuous
 62
    30
420
 16742400
370
    20
100
AcDbCircle
 10
10637.69212054004
 20
562.0053213191234
 30
0.0
 40
2.467047418139856
100
AcDbArc
 50
70.62172732985776
 51
289.3782726701423
  0
CIRCLE
  5
58
330
53
100
AcDbEntity
  8
Specialized_Fills
  6
Continuous
 62
    30
420
 16742400
370
    20
100
AcDbCircle
 10
10594.88679435451
 20
581.9703335833763
 30
0.0
 40
2.467047418139856
  0
CIRCLE
  5
59
330
53
100
AcDbEntity
  8
Specialized_Fills
  6
Continuous
 62
    30
420
 16742400
370
    20
100
AcDbCircle
 10
10626.26821732209
 20
593.3922374524903
 30
0.0
 40
2.467047418139856
  0
CIRCLE
  5
5A
330
53
100
AcDbEntity
  8
Specialized_Fills
  6
Continuous
 62
    30
420
 16742400
370
    20
100
AcDbCircle
 10
10614.84431410413
 20
624.7791535858572
 30
0.0
 40
2.467047418139856
  0
CIRCLE
  5
5B
330
53
100
AcDbEntity
  8
Specialized_Fills
  6
Continuous
 62
    30
420
 16742400
370
    20
100
AcDbCircle
 10
10603.42041088617
 20
656.166069719224
 30
0.0
 40
2.467047418139856
  0
CIRCLE
  5
5C
330
53
100
AcDbEntity
  8
Specialized_Fills
  6
Continuous
 62
    30
420
 16742400
370
    20
100
AcDbCircle
 10
10634.80183385375
 20
667.5879735883377
 30
0.0
 40
2.467047418139856
  0
CIRCLE
  5
5D
330
53
100
AcDbEntity
  8
Specialized_Fills
  6
Continuous
 62
    30
420
 16742400
370
    20
100
AcDbCircle
 10
10591.99650766822
 20
687.5529858525909
 30
0.0
 40
2.467047418139856
  0
CIRCLE
  5
5E
330
53
100
AcDbEntity
  8
Specialized_Fills
  6
Continuous
 62
    30
420
 16742400
370
    20
100
AcDbCircle
 10
10623.37793063579
 20
698.9748897217046
 30
0.0
 40
2.467047418139856
  0
CIRCLE
  5
5F
330
53
100
AcDbEntity
  8
Specialized_Fills
  6
Continuous
 62
    30
420
 16742400
370
    20
100
AcDbCircle
 10
10608.9282356546
 20
546.2277122798202
 30
0.0
 40
1.884663110930518
  0
ARC
  5
60
330
53
100
AcDbEntity
  8
Specialized_Fills
  6
Continuous
 62
    30
420
 16742400
370
    20
100
AcDbCircle
 10
10640.30965862217
 20
557.6496161489343
 30
0.0
 40
1.884663110930518
100
AcDbArc
 50
162.6551603367588
 51
197.3448396632411
  0
CIRCLE
  5
61
330
53
100
AcDbEntity
  8
Specialized_Fills
  6
Continuous
 62
    30
420
 16742400
370
    20
100
AcDbCircle
 10
10597.50433243664
 20
577.6146284131871
 30
0.0
 40
1.884663110930518
  0
CIRCLE
  5
62
330
53
100
AcDbEntity
  8
Specialized_Fills
  6
Continuous
 62
    30
420
 16742400
370
    20
100
AcDbCircle
 10
10628.88575540422
 20
589.0365322823011
 30
0.0
 40
1.884663110930518
  0
CIRCLE
  5
63
330
53
100
AcDbEntity
  8
Specialized_Fills
  6
Continuous
 62
    30
420
 16742400
370
    20
100
AcDbCircle
 10
10617.46185218626
 20
620.423448415668
 30
0.0
 40
1.884663110930518
  0
CIRCLE
  5
64
330
53
100
AcDbEntity
  8
Specialized_Fills
  6
Continuous
 62
    30
420
 16742400
370
    20
100
AcDbCircle
 10
10606.03794896831
 20
651.8103645490349
 30
0.0
 40
1.884663110930518
  0
ARC
  5
65
330
53
100
AcDbEntity
  8
Specialized_Fills
  6
Continuous
 62
    30
420
 16742400
370
    20
100
AcDbCircle
 10
10637.41937193588
 20
663.2322684181486
 30
0.0
 40
1.884663110930518
100
AcDbArc
 50
54.61590403531305
 51
305.384095964687
  0
CIRCLE
  5
66
330
53
100
AcDbEntity
  8
Specialized_Fills
  6
Continuous
 62
    30
420
 16742400
370
    20
100
AcDbCircle
 10
10594.61404575035
 20
683.1972806824018
 30
0.0
 40
1.884663110930518
  0
CIRCLE
  5
67
330
53
100
AcDbEntity
  8
Specialized_Fills
  6
Continuous
 62
    30
420
 16742400
370
    20
100
AcDbCircle
 10
10625.99546871792
 20
694.6191845515154
 30
0.0
 40
1.884663110930518
  0
CIRCLE
  5
68
330
53
100
AcDbEntity
  8
Specialized_Fills
  6
Continuous
 62
    30
420
 16742400
370
    20
100
AcDbCircle
 10
10610.10296606649
 20
536.9231921312734
 30
0.0
 40
1.668521729680527
  0
CIRCLE
  5
69
330
53
100
AcDbEntity
  8
Specialized_Fills
  6
Continuous
 62
    30
420
 16742400
370
    20
100
AcDbCircle
 10
10598.67906284854
 20
568.3101082646403
 30
0.0
 40
1.668521729680527
  0
CIRCLE
  5
6A
330
53
100
AcDbEntity
  8
Specialized_Fills
  6
Continuous
 62
    30
420
 16742400
370
    20
100
AcDbCircle
 10
10630.06048581611
 20
579.7320121337544
 30
0.0
 40
1.668521729680527
  0
ARC
  5
6B
330
53
100
AcDbEntity
  8
Specialized_Fills
  6
Continuous
 62
    30
420
 16742400
370
    20
100
AcDbCircle
 10
10587.25515963058
 20
599.6970243980072
 30
0.0
 40
1.668521729680527
100
AcDbArc
 50
318.8059991578632
 51
41.19400084213679
  0
CIRCLE
  5
6C
330
53
100
AcDbEntity
  8
Specialized_Fills
  6
Continuous
 62
    30
420
 16742400
370
    20
100
AcDbCircle
 10
10618.63658259815
 20
611.1189282671213
 30
0.0
 40
1.668521729680527
  0
CIRCLE
  5
6D
330
53
100
AcDbEntity
  8
Specialized_Fills
  6
Continuous
 62
    30
420
 16742400
370
    20
100
AcDbCircle
 10
10607.2126793802
 20
642.5058444004881
 30
0.0
 40
1.668521729680527
  0
ARC
  5
6E
330
53
100
AcDbEntity
  8
Specialized_Fills
  6
Continuous
 62
    30
420
 16742400
370
    20
100
AcDbCircle
 10
10638.59410234777
 20
653.9277482696019
 30
0.0
 40
1.668521729680527
100
AcDbArc
 50
92.86532857241025
 51
267.1346714275898
  0
CIRCLE
  5
6F
330
53
100
AcDbEntity
  8
Specialized_Fills
  6
Continuous
 62
    30
420
 16742400
370
    20
100
AcDbCircle
 10
10595.78877616224
 20
673.892760533855
 30
0.0
 40
1.668521729680527
  0
CIRCLE
  5
70
330
53
100
AcDbEntity
  8
Specialized_Fills
  6
Continuous
 62
    30
420
 16742400
370
    20
100
AcDbCircle
 10
10627.17019912981
 20
685.3146644029687
 30
0.0
 40
1.668521729680527
  0
ARC
  5
71
330
53
100
AcDbEntity
  8
Specialized_Fills
  6
Continuous
 62
    30
420
 16742400
370
    20
100
AcDbCircle
 10
10615.74629591186
 20
716.701580536336
 30
0.0
 40
1.668521729680527
100
AcDbArc
 50
238.4295970674782
 51
301.5704029325217
  0
ARC
  5
72
330
53
100
AcDbEntity
  8
Specialized_Fills
  6
Continuous
 62
    30
420
 16742400
370
    20
100
AcDbCircle
 10
10590.8545151578
 20
597.9105095196224
 30
0.0
 40
2.35557420874174
100
AcDbArc
 50
185.7262340640803
 51
174.2737659359197
  0
ARC
  5
73
330
53
100
AcDbEntity
  8
Specialized_Fills
  6
Continuous
 62
    30
420
 16742400
370
    20
100
AcDbCircle
 10
10587.96422847151
 20
703.4931617888376
 30
0.0
 40
2.35557420874174
100
AcDbArc
 50
76.58581029014797
 51
283.414189709852
  0
ARC
  5
74
330
53
100
AcDbEntity
  8
Specialized_Fills
  6
Continuous
 62
    30
420
 16742400
370
    20
100
AcDbCircle
 10
10619.34565143908
 20
714.9150656579512
 30
0.0
 40
2.35557420874174
100
AcDbArc
 50
171.0875236377088
 51
8.912476362291169
  0
CIRCLE
  5
75
330
53
100
AcDbEntity
  8
Specialized_Fills
  6
Continuous
 62
    30
420
 16742400
370
    20
100
AcDbCircle
 10
10617.62336230919
 20
526.3893647156456
 30
0.0
 40
0.831379126126208
  0
CIRCLE
  5
76
330
53
100
AcDbEntity
  8
Specialized_Fills
  6
Continuous
 62
    30
420
 16742400
370
    20
100
AcDbCircle
 10
10606.19945909124
 20
557.7762808490125
 30
0.0
 40
0.831379126126208
  0
CIRCLE
  5
77
330
53
100
AcDbEntity
  8
Specialized_Fills
  6
Continuous
 62
    30
420
 16742400
370
    20
100
AcDbCircle
 10
10637.58088205881
 20
569.1981847181266
 30
0.0
 40
0.831379126126208
  0
CIRCLE
  5
78
330
53
100
AcDbEntity
  8
Specialized_Fills
  6
Continuous
 62
    30
420
 16742400
370
    20
100
AcDbCircle
 10
10594.77555587328
 20
589.1631969823794
 30
0.0
 40
0.831379126126208
  0
CIRCLE
  5
79
330
53
100
AcDbEntity
  8
Specialized_Fills
  6
Continuous
 62
    30
420
 16742400
370
    20
100
AcDbCircle
 10
10626.15697884086
 20
600.5851008514935
 30
0.0
 40
0.831379126126208
  0
CIRCLE
  5
7A
330
53
100
AcDbEntity
  8
Specialized_Fills
  6
Continuous
 62
    30
420
 16742400
370
    20
100
AcDbCircle
 10
10614.7330756229
 20
631.9720169848603
 30
0.0
 40
0.831379126126208
  0
CIRCLE
  5
7B
330
53
100
AcDbEntity
  8
Specialized_Fills
  6
Continuous
 62
    30
420
 16742400
370
    20
100
AcDbCircle
 10
10603.30917240494
 20
663.3589331182272
 30
0.0
 40
0.831379126126208
  0
CIRCLE
  5
7C
330
53
100
AcDbEntity
  8
Specialized_Fills
  6
Continuous
 62
    30
420
 16742400
370
    20
100
AcDbCircle
 10
10634.69059537252
 20
674.7808369873409
 30
0.0
 40
0.831379126126208
  0
CIRCLE
  5
7D
330
53
100
AcDbEntity
  8
Specialized_Fills
  6
Continuous
 62
    30
420
 16742400
370
    20
100
AcDbCircle
 10
10591.88526918699
 20
694.7458492515945
 30
0.0
 40
0.831379126126208
  0
CIRCLE
  5
7E
330
53
100
AcDbEntity
  8
Specialized_Fills
  6
Continuous
 62
    30
420
 16742400
370
    20
100
AcDbCircle
 10
10623.26669215456
 20
706.1677531207082
 30
0.0
 40
0.831379126126208
  0
CIRCLE
  5
7F
330
53
100
AcDbEntity
  8
Specialized_Fills
  6
Continuous
 62
    30
420
 16742400
370
    20
100
AcDbCircle
 10
10622.89099330877
 20
527.7168021469065
 30
0.0
 40
0.5542527507506278
  0
CIRCLE
  5
80
330
53
100
AcDbEntity
  8
Specialized_Fills
  6
Continuous
 62
    30
420
 16742400
370
    20
100
AcDbCircle
 10
10611.46709009082
 20
559.1037182802733
 30
0.0
 40
0.5542527507506278
  0
CIRCLE
  5
81
330
53
100
AcDbEntity
  8
Specialized_Fills
  6
Continuous
 62
    30
420
 16742400
370
    20
100
AcDbCircle
 10
10600.04318687286
 20
590.4906344136402
 30
0.0
 40
0.5542527507506278
  0
CIRCLE
  5
82
330
53
100
AcDbEntity
  8
Specialized_Fills
  6
Continuous
 62
    30
420
 16742400
370
    20
100
AcDbCircle
 10
10631.42460984043
 20
601.9125382827543
 30
0.0
 40
0.5542527507506278
  0
ARC
  5
83
330
53
100
AcDbEntity
  8
Specialized_Fills
  6
Continuous
 62
    30
420
 16742400
370
    20
100
AcDbCircle
 10
10588.6192836549
 20
621.8775505470071
 30
0.0
 40
0.5542527507506278
100
AcDbArc
 50
258.7016190396367
 51
101.2983809603633
  0
CIRCLE
  5
84
330
53
100
AcDbEntity
  8
Specialized_Fills
  6
Continuous
 62
    30
420
 16742400
370
    20
100
AcDbCircle
 10
10620.00070662247
 20
633.2994544161212
 30
0.0
 40
0.5542527507506278
  0
CIRCLE
  5
85
330
53
100
AcDbEntity
  8
Specialized_Fills
  6
Continuous
 62
    30
420
 16742400
370
    20
100
AcDbCircle
 10
10608.57680340452
 20
664.686370549488
 30
0.0
 40
0.5542527507506278
  0
CIRCLE
  5
86
330
53
100
AcDbEntity
  8
Specialized_Fills
  6
Continuous
 62
    30
420
 16742400
370
    20
100
AcDbCircle
 10
10597.15290018657
 20
696.0732866828553
 30
0.0
 40
0.5542527507506278
  0
CIRCLE
  5
87
330
53
100
AcDbEntity
  8
Specialized_Fills
  6
Continuous
 62
    30
420
 16742400
370
    20
100
AcDbCircle
 10
10628.53432315413
 20
707.4951905519691
 30
0.0
 40
0.5542527507506278
  0
CIRCLE
  5
88
330
53
100
AcDbEntity
  8
Specialized_Fills
  6
Continuous
 62
    30
420
 16742400
370
    20
100
AcDbCircle
 10
10593.25827024468
 20
527.695651094034
 30
0.0
 40
1.498790034299268
  0
CIRCLE
  5
89
330
53
100
AcDbEntity
  8
Specialized_Fills
  6
Continuous
 62
    30
420
 16742400
370
    20
100
AcDbCircle
 10
10624.63969321226
 20
539.1175549631477
 30
0.0
 40
1.498790034299268
  0
CIRCLE
  5
8A
330
53
100
AcDbEntity
  8
Specialized_Fills
  6
Continuous
 62
    30
420
 16742400
370
    20
100
AcDbCircle
 10
10613.2157899943
 20
570.5044710965146
 30
0.0
 40
1.498790034299268
  0
CIRCLE
  5
8B
330
53
100
AcDbEntity
  8
Specialized_Fills
  6
Continuous
 62
    30
420
 16742400
370
    20
100
AcDbCircle
 10
10601.79188677635
 20
601.8913872298814
 30
0.0
 40
1.498790034299268
  0
CIRCLE
  5
8C
330
53
100
AcDbEntity
  8
Specialized_Fills
  6
Continuous
 62
    30
420
 16742400
370
    20
100
AcDbCircle
 10
10633.17330974392
 20
613.3132910989956
 30
0.0
 40
1.498790034299268
  0
CIRCLE
  5
8D
330
53
100
AcDbEntity
  8
Specialized_Fills
  6
Continuous
 62
    30
420
 16742400
370
    20
100
AcDbCircle
 10
10590.36798355839
 20
633.2783033632482
 30
0.0
 40
1.498790034299268
  0
CIRCLE
  5
8E
330
53
100
AcDbEntity
  8
Specialized_Fills
  6
Continuous
 62
    30
420
 16742400
370
    20
100
AcDbCircle
 10
10621.74940652596
 20
644.7002072323624
 30
0.0
 40
1.498790034299268
  0
CIRCLE
  5
8F
330
53
100
AcDbEntity
  8
Specialized_Fills
  6
Continuous
 62
    30
420
 16742400
370
    20
100
AcDbCircle
 10
10610.32550330801
 20
676.0871233657293
 30
0.0
 40
1.498790034299268
  0
CIRCLE
  5
90
330
53
100
AcDbEntity
  8
Specialized_Fills
  6
Continuous
 62
    30
420
 16742400
370
    20
100
AcDbCircle
 10
10598.90160009005
 20
707.4740394990966
 30
0.0
 40
1.498790034299268
  0
ARC
  5
91
330
53
100
AcDbEntity
  8
Specialized_Fills
  6
Continuous
 62
    30
420
 16742400
370
    20
100
AcDbCircle
 10
10588.78193469593
 20
532.7019120946284
 30
0.0
 40
1.23934682739506
100
AcDbArc
 50
257.3581089036239
 51
102.6418910963761
  0
CIRCLE
  5
92
330
53
100
AcDbEntity
  8
Specialized_Fills
  6
Continuous
 62
    30
420
 16742400
370
    20
100
AcDbCircle
 10
10620.1633576635
 20
544.123815963742
 30
0.0
 40
1.23934682739506
  0
CIRCLE
  5
93
330
53
100
AcDbEntity
  8
Specialized_Fills
  6
Continuous
 62
    30
420
 16742400
370
    20
100
AcDbCircle
 10
10608.73945444555
 20
575.510732097109
 30
0.0
 40
1.23934682739506
  0
CIRCLE
  5
94
330
53
100
AcDbEntity
  8
Specialized_Fills
  6
Continuous
 62
    30
420
 16742400
370
    20
100
AcDbCircle
 10
10597.31555122759
 20
606.8976482304758
 30
0.0
 40
1.23934682739506
  0
CIRCLE
  5
95
330
53
100
AcDbEntity
  8
Specialized_Fills
  6
Continuous
 62
    30
420
 16742400
370
    20
100
AcDbCircle
 10
10628.69697419516
 20
618.3195520995899
 30
0.0
 40
1.23934682739506
  0
CIRCLE
  5
96
330
53
100
AcDbEntity
  8
Specialized_Fills
  6
Continuous
 62
    30
420
 16742400
370
    20
100
AcDbCircle
 10
10617.27307097721
 20
649.7064682329567
 30
0.0
 40
1.23934682739506
  0
CIRCLE
  5
97
330
53
100
AcDbEntity
  8
Specialized_Fills
  6
Continuous
 62
    30
420
 16742400
370
    20
100
AcDbCircle
 10
10605.84916775925
 20
681.0933843663236
 30
0.0
 40
1.23934682739506
  0
CIRCLE
  5
98
330
53
100
AcDbEntity
  8
Specialized_Fills
  6
Continuous
 62
    30
420
 16742400
370
    20
100
AcDbCircle
 10
10637.23059072682
 20
692.5152882354374
 30
0.0
 40
1.23934682739506
  0
CIRCLE
  5
99
330
53
100
AcDbEntity
  8
Specialized_Fills
  6
Continuous
 62
    30
420
 16742400
370
    20
100
AcDbCircle
 10
10594.4252645413
 20
712.480300499691
 30
0.0
 40
1.23934682739506
  0
CIRCLE
  5
9A
330
53
100
AcDbEntity
  8
Specialized_Fills
  6
Continuous
 62
    30
420
 16742400
370
    20
100
AcDbCircle
 10
10615.26145589195
 20
547.0582572890605
 30
0.0
 40
2.110531596509446
  0
CIRCLE
  5
9B
330
53
100
AcDbEntity
  8
Specialized_Fills
  6
Continuous
 62
    30
420
 16742400
370
    20
100
AcDbCircle
 10
10603.837552674
 20
578.4451734224274
 30
0.0
 40
2.110531596509446
  0
CIRCLE
  5
9C
330
53
100
AcDbEntity
  8
Specialized_Fills
  6
Continuous
 62
    30
420
 16742400
370
    20
100
AcDbCircle
 10
10635.21897564157
 20
589.8670772915415
 30
0.0
 40
2.110531596509446
  0
CIRCLE
  5
9D
330
53
100
AcDbEntity
  8
Specialized_Fills
  6
Continuous
 62
    30
420
 16742400
370
    20
100
AcDbCircle
 10
10592.41364945604
 20
609.8320895557942
 30
0.0
 40
2.110531596509446
  0
CIRCLE
  5
9E
330
53
100
AcDbEntity
  8
Specialized_Fills
  6
Continuous
 62
    30
420
 16742400
370
    20
100
AcDbCircle
 10
10623.79507242361
 20
621.2539934249083
 30
0.0
 40
2.110531596509446
  0
CIRCLE
  5
9F
330
53
100
AcDbEntity
  8
Specialized_Fills
  6
Continuous
 62
    30
420
 16742400
370
    20
100
AcDbCircle
 10
10612.37116920565
 20
652.6409095582752
 30
0.0
 40
2.110531596509446
  0
CIRCLE
  5
A0
330
53
100
AcDbEntity
  8
Specialized_Fills
  6
Continuous
 62
    30
420
 16742400
370
    20
100
AcDbCircle
 10
10600.9472659877
 20
684.0278256916421
 30
0.0
 40
2.110531596509446
  0
CIRCLE
  5
A1
330
53
100
AcDbEntity
  8
Specialized_Fills
  6
Continuous
 62
    30
420
 16742400
370
    20
100
AcDbCircle
 10
10632.32868895527
 20
695.4497295607558
 30
0.0
 40
2.110531596509446
  0
ARC
  5
A2
330
53
100
AcDbEntity
  8
Specialized_Fills
  6
Continuous
 62
    30
420
 16742400
370
    20
100
AcDbCircle
 10
10589.52336276975
 20
715.4147418250094
 30
0.0
 40
2.110531596509446
100
AcDbArc
 50
241.3265955179412
 51
356.3397133810836
  0
CIRCLE
  5
A3
330
53
100
AcDbEntity
  8
Specialized_Fills
  6
Continuous
 62
    30
420
 16742400
370
    20
100
AcDbCircle
 10
10611.61709993595
 20
540.8657766721274
 30
0.0
 40
1.884663110930518
  0
CIRCLE
  5
A4
330
53
100
AcDbEntity
  8
Specialized_Fills
  6
Continuous
 62
    30
420
 16742400
370
    20
100
AcDbCircle
 10
10600.193196718
 20
572.2526928054942
 30
0.0
 40
1.884663110930518
  0
CIRCLE
  5
A5
330
53
100
AcDbEntity
  8
Specialized_Fills
  6
Continuous
 62
    30
420
 16742400
370
    20
100
AcDbCircle
 10
10631.57461968557
 20
583.6745966746084
 30
0.0
 40
1.884663110930518
  0
ARC
  5
A6
330
53
100
AcDbEntity
  8
Specialized_Fills
  6
Continuous
 62
    30
420
 16742400
370
    20
100
AcDbCircle
 10
10588.76929350004
 20
603.6396089388611
 30
0.0
 40
1.884663110930518
100
AcDbArc
 50
262.1134580550183
 51
97.88654194498167
  0
CIRCLE
  5
A7
330
53
100
AcDbEntity
  8
Specialized_Fills
  6
Continuous
 62
    30
420
 16742400
370
    20
100
AcDbCircle
 10
10620.15071646762
 20
615.0615128079753
 30
0.0
 40
1.884663110930518
  0
CIRCLE
  5
A8
330
53
100
AcDbEntity
  8
Specialized_Fills
  6
Continuous
 62
    30
420
 16742400
370
    20
100
AcDbCircle
 10
10608.72681324966
 20
646.4484289413421
 30
0.0
 40
1.884663110930518
  0
ARC
  5
A9
330
53
100
AcDbEntity
  8
Specialized_Fills
  6
Continuous
 62
    30
420
 16742400
370
    20
100
AcDbCircle
 10
10640.10823621723
 20
657.8703328104558
 30
0.0
 40
1.884663110930518
100
AcDbArc
 50
147.957338694033
 51
212.042661305967
  0
CIRCLE
  5
AA
330
53
100
AcDbEntity
  8
Specialized_Fills
  6
Continuous
 62
    30
420
 16742400
370
    20
100
AcDbCircle
 10
10597.3029100317
 20
677.835345074709
 30
0.0
 40
1.884663110930518
  0
CIRCLE
  5
AB
330
53
100
AcDbEntity
  8
Specialized_Fills
  6
Continuous
 62
    30
420
 16742400
370
    20
100
AcDbCircle
 10
10628.68433299928
 20
689.2572489438227
 30
0.0
 40
1.884663110930518
  0
CIRCLE
  5
AC
330
53
100
AcDbEntity
  8
Specialized_Fills
  6
Continuous
 62
    30
420
 16742400
370
    20
100
AcDbCircle
 10
10600.97015740693
 20
550.2616343034767
 30
0.0
 40
2.351495271282999
  0
CIRCLE
  5
AD
330
53
100
AcDbEntity
  8
Specialized_Fills
  6
Continuous
 62
    30
420
 16742400
370
    20
100
AcDbCircle
 10
10632.3515803745
 20
561.6835381725904
 30
0.0
 40
2.351495271282999
  0
ARC
  5
AE
330
53
100
AcDbEntity
  8
Specialized_Fills
  6
Continuous
 62
    30
420
 16742400
370
    20
100
AcDbCircle
 10
10589.54625418897
 20
581.6485504368436
 30
0.0
 40
2.351495271282999
100
AcDbArc
 50
243.8716706349953
 51
116.1283293650047
  0
CIRCLE
  5
AF
330
53
100
AcDbEntity
  8
Specialized_Fills
  6
Continuous
 62
    30
420
 16742400
370
    20
100
AcDbCircle
 10
10620.92767715654
 20
593.0704543059572
 30
0.0
 40
2.351495271282999
  0
CIRCLE
  5
B0
330
53
100
AcDbEntity
  8
Specialized_Fills
  6
Continuous
 62
    30
420
 16742400
370
    20
100
AcDbCircle
 10
10609.50377393859
 20
624.4573704393241
 30
0.0
 40
2.351495271282999
  0
CIRCLE
  5
B1
330
53
100
AcDbEntity
  8
Specialized_Fills
  6
Continuous
 62
    30
420
 16742400
370
    20
100
AcDbCircle
 10
10598.07987072063
 20
655.844286572691
 30
0.0
 40
2.351495271282999
  0
CIRCLE
  5
B2
330
53
100
AcDbEntity
  8
Specialized_Fills
  6
Continuous
 62
    30
420
 16742400
370
    20
100
AcDbCircle
 10
10629.4612936882
 20
667.2661904418052
 30
0.0
 40
2.351495271282999
  0
ARC
  5
B3
330
53
100
AcDbEntity
  8
Specialized_Fills
  6
Continuous
 62
    30
420
 16742400
370
    20
100
AcDbCircle
 10
10586.65596750268
 20
687.2312027060578
 30
0.0
 40
2.351495271282999
100
AcDbArc
 50
322.0682921619214
 51
37.93170783807862
  0
CIRCLE
  5
B4
330
53
100
AcDbEntity
  8
Specialized_Fills
  6
Continuous
 62
    30
420
 16742400
370
    20
100
AcDbCircle
 10
10618.03739047025
 20
698.6531065751719
 30
0.0
 40
2.351495271282999
  0
CIRCLE
  5
B5
330
53
100
AcDbEntity
  8
Specialized_Fills
  6
Continuous
 62
    30
420
 16742400
370
    20
100
AcDbCircle
 10
10599.9304157451
 20
543.3951412527355
 30
0.0
 40
1.082213091730288
  0
CIRCLE
  5
B6
330
53
100
AcDbEntity
  8
Specialized_Fills
  6
Continuous
 62
    30
420
 16742400
370
    20
100
AcDbCircle
 10
10631.31183871267
 20
554.8170451218492
 30
0.0
 40
1.082213091730288
  0
ARC
  5
B7
330
53
100
AcDbEntity
  8
Specialized_Fills
  6
Continuous
 62
    30
420
 16742400
370
    20
100
AcDbCircle
 10
10588.50651252714
 20
574.7820573861024
 30
0.0
 40
1.082213091730288
100
AcDbArc
 50
270.221451015088
 51
89.77854898491202
  0
CIRCLE
  5
B8
330
53
100
AcDbEntity
  8
Specialized_Fills
  6
Continuous
 62
    30
420
 16742400
370
    20
100
AcDbCircle
 10
10619.88793549471
 20
586.2039612552161
 30
0.0
 40
1.082213091730288
  0
CIRCLE
  5
B9
330
53
100
AcDbEntity
  8
Specialized_Fills
  6
Continuous
 62
    30
420
 16742400
370
    20
100
AcDbCircle
 10
10608.46403227676
 20
617.5908773885829
 30
0.0
 40
1.082213091730288
  0
CIRCLE
  5
BA
330
53
100
AcDbEntity
  8
Specialized_Fills
  6
Continuous
 62
    30
420
 16742400
370
    20
100
AcDbCircle
 10
10597.04012905881
 20
648.9777935219498
 30
0.0
 40
1.082213091730288
  0
CIRCLE
  5
BB
330
53
100
AcDbEntity
  8
Specialized_Fills
  6
Continuous
 62
    30
420
 16742400
370
    20
100
AcDbCircle
 10
10628.42155202637
 20
660.3996973910639
 30
0.0
 40
1.082213091730288
  0
CIRCLE
  5
BC
330
53
100
AcDbEntity
  8
Specialized_Fills
  6
Continuous
 62
    30
420
 16742400
370
    20
100
AcDbCircle
 10
10616.99764880842
 20
691.7866135244308
 30
0.0
 40
1.082213091730288
  0
ARC
  5
BD
330
53
100
AcDbEntity
  8
Specialized_Fills
  6
Continuous
 62
    30
420
 16742400
370
    20
100
AcDbCircle
 10
10636.9927623344
 20
528.2702809872287
 30
0.0
 40
1.859020241092324
100
AcDbArc
 50
59.57669202451321
 51
180.4528907640063
  0
CIRCLE
  5
BE
330
53
100
AcDbEntity
  8
Specialized_Fills
  6
Continuous
 62
    30
420
 16742400
370
    20
100
AcDbCircle
 10
10594.18743614887
 20
548.2352932514819
 30
0.0
 40
1.859020241092324
  0
CIRCLE
  5
BF
330
53
100
AcDbEntity
  8
Specialized_Fills
  6
Continuous
 62
    30
420
 16742400
370
    20
100
AcDbCircle
 10
10625.56885911644
 20
559.6571971205955
 30
0.0
 40
1.859020241092324
  0
CIRCLE
  5
C0
330
53
100
AcDbEntity
  8
Specialized_Fills
  6
Continuous
 62
    30
420
 16742400
370
    20
100
AcDbCircle
 10
10614.14495589849
 20
591.0441132539624
 30
0.0
 40
1.859020241092324
  0
CIRCLE
  5
C1
330
53
100
AcDbEntity
  8
Specialized_Fills
  6
Continuous
 62
    30
420
 16742400
370
    20
100
AcDbCircle
 10
10602.72105268053
 20
622.4310293873293
 30
0.0
 40
1.859020241092324
  0
CIRCLE
  5
C2
330
53
100
AcDbEntity
  8
Specialized_Fills
  6
Continuous
 62
    30
420
 16742400
370
    20
100
AcDbCircle
 10
10634.1024756481
 20
633.8529332564434
 30
0.0
 40
1.859020241092324
  0
CIRCLE
  5
C3
330
53
100
AcDbEntity
  8
Specialized_Fills
  6
Continuous
 62
    30
420
 16742400
370
    20
100
AcDbCircle
 10
10591.29714946258
 20
653.8179455206962
 30
0.0
 40
1.859020241092324
  0
CIRCLE
  5
C4
330
53
100
AcDbEntity
  8
Specialized_Fills
  6
Continuous
 62
    30
420
 16742400
370
    20
100
AcDbCircle
 10
10622.67857243015
 20
665.2398493898102
 30
0.0
 40
1.859020241092324
  0
CIRCLE
  5
C5
330
53
100
AcDbEntity
  8
Specialized_Fills
  6
Continuous
 62
    30
420
 16742400
370
    20
100
AcDbCircle
 10
10611.25466921219
 20
696.6267655231771
 30
0.0
 40
1.859020241092324
  0
CIRCLE
  5
C6
330
53
100
AcDbEntity
  8
Specialized_Fills
  6
Continuous
 62
    30
420
 16742400
370
    20
100
AcDbCircle
 10
10598.46176049891
 20
545.8097117471392
 30
0.0
 40
0.8763505458929897
  0
CIRCLE
  5
C7
330
53
100
AcDbEntity
  8
Specialized_Fills
  6
Continuous
 62
    30
420
 16742400
370
    20
100
AcDbCircle
 10
10629.84318346648
 20
557.2316156162528
 30
0.0
 40
0.8763505458929897
  0
CIRCLE
  5
C8
330
53
100
AcDbEntity
  8
Specialized_Fills
  6
Continuous
 62
    30
420
 16742400
370
    20
100
AcDbCircle
 10
10618.41928024853
 20
588.6185317496197
 30
0.0
 40
0.8763505458929897
  0
CIRCLE
  5
C9
330
53
100
AcDbEntity
  8
Specialized_Fills
  6
Continuous
 62
    30
420
 16742400
370
    20
100
AcDbCircle
 10
10606.99537703057
 20
620.0054478829866
 30
0.0
 40
0.8763505458929897
  0
ARC
  5
CA
330
53
100
AcDbEntity
  8
Specialized_Fills
  6
Continuous
 62
    30
420
 16742400
370
    20
100
AcDbCircle
 10
10638.37679999815
 20
631.4273517521008
 30
0.0
 40
0.8763505458929897
100
AcDbArc
 50
81.21150453695602
 51
278.788495463044
  0
CIRCLE
  5
CB
330
53
100
AcDbEntity
  8
Specialized_Fills
  6
Continuous
 62
    30
420
 16742400
370
    20
100
AcDbCircle
 10
10595.57147381262
 20
651.3923640163534
 30
0.0
 40
0.8763505458929897
  0
CIRCLE
  5
CC
330
53
100
AcDbEntity
  8
Specialized_Fills
  6
Continuous
 62
    30
420
 16742400
370
    20
100
AcDbCircle
 10
10626.95289678019
 20
662.8142678854676
 30
0.0
 40
0.8763505458929897
  0
CIRCLE
  5
CD
330
53
100
AcDbEntity
  8
Specialized_Fills
  6
Continuous
 62
    30
420
 16742400
370
    20
100
AcDbCircle
 10
10615.52899356224
 20
694.2011840188345
 30
0.0
 40
0.8763505458929897
  0
ARC
  5
CE
330
53
100
AcDbEntity
  8
Specialized_Fills
  6
Continuous
 62
    30
420
 16742400
370
    20
100
AcDbCircle
 10
10630.34072607583
 20
524.6694908764867
 30
0.0
 40
1.364689132099527
100
AcDbArc
 50
61.24584888198574
 51
178.7837339065245
  0
ARC
  5
CF
330
53
100
AcDbEntity
  8
Specialized_Fills
  6
Continuous
 62
    30
420
 16742400
370
    20
100
AcDbCircle
 10
10587.53539989031
 20
544.6345031407398
 30
0.0
 40
1.364689132099527
100
AcDbArc
 50
315.6157439088232
 51
44.3842560911768
  0
CIRCLE
  5
D0
330
53
100
AcDbEntity
  8
Specialized_Fills
  6
Continuous
 62
    30
420
 16742400
370
    20
100
AcDbCircle
 10
10618.91682285788
 20
556.0564070098536
 30
0.0
 40
1.364689132099527
  0
CIRCLE
  5
D1
330
53
100
AcDbEntity
  8
Specialized_Fills
  6
Continuous
 62
    30
420
 16742400
370
    20
100
AcDbCircle
 10
10607.49291963992
 20
587.4433231432204
 30
0.0
 40
1.364689132099527
  0
ARC
  5
D2
330
53
100
AcDbEntity
  8
Specialized_Fills
  6
Continuous
 62
    30
420
 16742400
370
    20
100
AcDbCircle
 10
10638.8743426075
 20
598.8652270123345
 30
0.0
 40
1.364689132099527
100
AcDbArc
 50
105.4542564903176
 51
254.5457435096824
  0
CIRCLE
  5
D3
330
53
100
AcDbEntity
  8
Specialized_Fills
  6
Continuous
 62
    30
420
 16742400
370
    20
100
AcDbCircle
 10
10596.06901642197
 20
618.8302392765873
 30
0.0
 40
1.364689132099527
  0
CIRCLE
  5
D4
330
53
100
AcDbEntity
  8
Specialized_Fills
  6
Continuous
 62
    30
420
 16742400
370
    20
100
AcDbCircle
 10
10627.45043938954
 20
630.2521431457014
 30
0.0
 40
1.364689132099527
  0
CIRCLE
  5
D5
330
53
100
AcDbEntity
  8
Specialized_Fills
  6
Continuous
 62
    30
420
 16742400
370
    20
100
AcDbCircle
 10
10616.02653617158
 20
661.6390592790683
 30
0.0
 40
1.364689132099527
  0
CIRCLE
  5
D6
330
53
100
AcDbEntity
  8
Specialized_Fills
  6
Continuous
 62
    30
420
 16742400
370
    20
100
AcDbCircle
 10
10604.60263295363
 20
693.0259754124351
 30
0.0
 40
1.364689132099527
  0
CIRCLE
  5
D7
330
53
100
AcDbEntity
  8
Specialized_Fills
  6
Continuous
 62
    30
420
 16742400
370
    20
100
AcDbCircle
 10
10635.9840559212
 20
704.4478792815488
 30
0.0
 40
1.364689132099527
  0
ARC
  5
D8
330
53
100
AcDbEntity
  8
Specialized_Fills
  6
Continuous
 62
    30
420
 16742400
370
    20
100
AcDbCircle
 10
10625.54653089488
 20
523.6618258554586
 30
0.0
 40
0.9991933561993347
100
AcDbArc
 50
335.0581364113327
 51
264.9714463772352
  0
CIRCLE
  5
D9
330
53
100
AcDbEntity
  8
Specialized_Fills
  6
Continuous
 62
    30
420
 16742400
370
    20
100
AcDbCircle
 10
10614.12262767692
 20
555.0487419888255
 30
0.0
 40
0.9991933561993347
  0
CIRCLE
  5
DA
330
53
100
AcDbEntity
  8
Specialized_Fills
  6
Continuous
 62
    30
420
 16742400
370
    20
100
AcDbCircle
 10
10602.69872445897
 20
586.4356581221924
 30
0.0
 40
0.9991933561993347
  0
CIRCLE
  5
DB
330
53
100
AcDbEntity
  8
Specialized_Fills
  6
Continuous
 62
    30
420
 16742400
370
    20
100
AcDbCircle
 10
10634.08014742654
 20
597.8575619913065
 30
0.0
 40
0.9991933561993347
  0
CIRCLE
  5
DC
330
53
100
AcDbEntity
  8
Specialized_Fills
  6
Continuous
 62
    30
420
 16742400
370
    20
100
AcDbCircle
 10
10591.27482124101
 20
617.8225742555593
 30
0.0
 40
0.9991933561993347
  0
CIRCLE
  5
DD
330
53
100
AcDbEntity
  8
Specialized_Fills
  6
Continuous
 62
    30
420
 16742400
370
    20
100
AcDbCircle
 10
10622.65624420858
 20
629.2444781246733
 30
0.0
 40
0.9991933561993347
  0
CIRCLE
  5
DE
330
53
100
AcDbEntity
  8
Specialized_Fills
  6
Continuous
 62
    30
420
 16742400
370
    20
100
AcDbCircle
 10
10611.23234099063
 20
660.6313942580402
 30
0.0
 40
0.9991933561993347
  0
CIRCLE
  5
DF
330
53
100
AcDbEntity
  8
Specialized_Fills
  6
Continuous
 62
    30
420
 16742400
370
    20
100
AcDbCircle
 10
10599.80843777267
 20
692.018310391407
 30
0.0
 40
0.9991933561993347
  0
CIRCLE
  5
E0
330
53
100
AcDbEntity
  8
Specialized_Fills
  6
Continuous
 62
    30
420
 16742400
370
    20
100
AcDbCircle
 10
10631.18986074024
 20
703.4402142605208
 30
0.0
 40
0.9991933561993347
  0
ARC
  5
E1
330
53
100
AcDbEntity
  8
Specialized_Fills
  6
Continuous
 62
    30
420
 16742400
370
    20
100
AcDbCircle
 10
10622.57570917819
 20
521.6957999927473
 30
0.0
 40
1.446642150311205
100
AcDbArc
 50
36.9198626779288
 51
143.7391584858398
  0
CIRCLE
  5
E2
330
53
100
AcDbEntity
  8
Specialized_Fills
  6
Continuous
 62
    30
420
 16742400
370
    20
100
AcDbCircle
 10
10611.15180596023
 20
553.0827161261141
 30
0.0
 40
1.446642150311205
  0
CIRCLE
  5
E3
330
53
100
AcDbEntity
  8
Specialized_Fills
  6
Continuous
 62
    30
420
 16742400
370
    20
100
AcDbCircle
 10
10599.72790274227
 20
584.469632259481
 30
0.0
 40
1.446642150311205
  0
CIRCLE
  5
E4
330
53
100
AcDbEntity
  8
Specialized_Fills
  6
Continuous
 62
    30
420
 16742400
370
    20
100
AcDbCircle
 10
10631.10932570985
 20
595.8915361285951
 30
0.0
 40
1.446642150311205
  0
ARC
  5
E5
330
53
100
AcDbEntity
  8
Specialized_Fills
  6
Continuous
 62
    30
420
 16742400
370
    20
100
AcDbCircle
 10
10588.30399952432
 20
615.8565483928478
 30
0.0
 40
1.446642150311205
100
AcDbArc
 50
278.2145166451253
 51
81.78548335487468
  0
CIRCLE
  5
E6
330
53
100
AcDbEntity
  8
Specialized_Fills
  6
Continuous
 62
    30
420
 16742400
370
    20
100
AcDbCircle
 10
10619.68542249189
 20
627.278452261962
 30
0.0
 40
1.446642150311205
  0
CIRCLE
  5
E7
330
53
100
AcDbEntity
  8
Specialized_Fills
  6
Continuous
 62
    30
420
 16742400
370
    20
100
AcDbCircle
 10
10608.26151927394
 20
658.6653683953288
 30
0.0
 40
1.446642150311205
  0
ARC
  5
E8
330
53
100
AcDbEntity
  8
Specialized_Fills
  6
Continuous
 62
    30
420
 16742400
370
    20
100
AcDbCircle
 10
10639.64294224151
 20
670.0872722644425
 30
0.0
 40
1.446642150311205
100
AcDbArc
 50
141.505915440287
 51
218.494084559713
  0
CIRCLE
  5
E9
330
53
100
AcDbEntity
  8
Specialized_Fills
  6
Continuous
 62
    30
420
 16742400
370
    20
100
AcDbCircle
 10
10596.83761605598
 20
690.0522845286957
 30
0.0
 40
1.446642150311205
  0
CIRCLE
  5
EA
330
53
100
AcDbEntity
  8
Specialized_Fills
  6
Continuous
 62
    30
420
 16742400
370
    20
100
AcDbCircle
 10
10628.21903902355
 20
701.4741883978094
 30
0.0
 40
1.446642150311205
  0
CIRCLE
  5
EB
330
53
100
AcDbEntity
  8
Specialized_Fills
  6
Continuous
 62
    30
420
 16742400
370
    20
100
AcDbCircle
 10
10594.61778431675
 20
534.0887083261573
 30
0.0
 40
1.254743030480298
  0
CIRCLE
  5
EC
330
53
100
AcDbEntity
  8
Specialized_Fills
  6
Continuous
 62
    30
420
 16742400
370
    20
100
AcDbCircle
 10
10625.99920728432
 20
545.5106121952709
 30
0.0
 40
1.254743030480298
  0
CIRCLE
  5
ED
330
53
100
AcDbEntity
  8
Specialized_Fills
  6
Continuous
 62
    30
420
 16742400
370
    20
100
AcDbCircle
 10
10614.57530406636
 20
576.8975283286378
 30
0.0
 40
1.254743030480298
  0
CIRCLE
  5
EE
330
53
100
AcDbEntity
  8
Specialized_Fills
  6
Continuous
 62
    30
420
 16742400
370
    20
100
AcDbCircle
 10
10603.15140084841
 20
608.2844444620047
 30
0.0
 40
1.254743030480298
  0
CIRCLE
  5
EF
330
53
100
AcDbEntity
  8
Specialized_Fills
  6
Continuous
 62
    30
420
 16742400
370
    20
100
AcDbCircle
 10
10634.53282381598
 20
619.7063483311187
 30
0.0
 40
1.254743030480298
  0
CIRCLE
  5
F0
330
53
100
AcDbEntity
  8
Specialized_Fills
  6
Continuous
 62
    30
420
 16742400
370
    20
100
AcDbCircle
 10
10591.72749763045
 20
639.6713605953715
 30
0.0
 40
1.254743030480298
  0
CIRCLE
  5
F1
330
53
100
AcDbEntity
  8
Specialized_Fills
  6
Continuous
 62
    30
420
 16742400
370
    20
100
AcDbCircle
 10
10623.10892059803
 20
651.0932644644856
 30
0.0
 40
1.254743030480298
  0
CIRCLE
  5
F2
330
53
100
AcDbEntity
  8
Specialized_Fills
  6
Continuous
 62
    30
420
 16742400
370
    20
100
AcDbCircle
 10
10611.68501738007
 20
682.4801805978524
 30
0.0
 40
1.254743030480298
  0
CIRCLE
  5
F3
330
53
100
AcDbEntity
  8
Specialized_Fills
  6
Continuous
 62
    30
420
 16742400
370
    20
100
AcDbCircle
 10
10600.26111416212
 20
713.8670967312198
 30
0.0
 40
1.254743030480298
  0
CIRCLE
  5
F4
330
53
100
AcDbEntity
  8
Specialized_Fills
  6
Continuous
 62
    30
420
 16742400
370
    20
100
AcDbCircle
 10
10602.24062701046
 20
537.4530196248442
 30
0.0
 40
2.190876364732474
  0
CIRCLE
  5
F5
330
53
100
AcDbEntity
  8
Specialized_Fills
  6
Continuous
 62
    30
420
 16742400
370
    20
100
AcDbCircle
 10
10633.62204997803
 20
548.8749234939579
 30
0.0
 40
2.190876364732474
  0
CIRCLE
  5
F6
330
53
100
AcDbEntity
  8
Specialized_Fills
  6
Continuous
 62
    30
420
 16742400
370
    20
100
AcDbCircle
 10
10590.8167237925
 20
568.8399357582111
 30
0.0
 40
2.190876364732474
  0
CIRCLE
  5
F7
330
53
100
AcDbEntity
  8
Specialized_Fills
  6
Continuous
 62
    30
420
 16742400
370
    20
100
AcDbCircle
 10
10622.19814676008
 20
580.2618396273247
 30
0.0
 40
2.190876364732474
  0
CIRCLE
  5
F8
330
53
100
AcDbEntity
  8
Specialized_Fills
  6
Continuous
 62
    30
420
 16742400
370
    20
100
AcDbCircle
 10
10610.77424354212
 20
611.6487557606916
 30
0.0
 40
2.190876364732474
  0
CIRCLE
  5
F9
330
53
100
AcDbEntity
  8
Specialized_Fills
  6
Continuous
 62
    30
420
 16742400
370
    20
100
AcDbCircle
 10
10599.35034032417
 20
643.0356718940585
 30
0.0
 40
2.190876364732474
  0
CIRCLE
  5
FA
330
53
100
AcDbEntity
  8
Specialized_Fills
  6
Continuous
 62
    30
420
 16742400
370
    20
100
AcDbCircle
 10
10630.73176329174
 20
654.4575757631726
 30
0.0
 40
2.190876364732474
  0
ARC
  5
FB
330
53
100
AcDbEntity
  8
Specialized_Fills
  6
Continuous
 62
    30
420
 16742400
370
    20
100
AcDbCircle
 10
10587.92643710621
 20
674.4225880274253
 30
0.0
 40
2.190876364732474
100
AcDbArc
 50
285.4666753010027
 51
74.53332469899729
  0
CIRCLE
  5
FC
330
53
100
AcDbEntity
  8
Specialized_Fills
  6
Continuous
 62
    30
420
 16742400
370
    20
100
AcDbCircle
 10
10619.30786007378
 20
685.8444918965394
 30
0.0
 40
2.190876364732474
  0
ARC
  5
FD
330
53
100
AcDbEntity
  8
Specialized_Fills
  6
Continuous
 62
    30
420
 16742400
370
    20
100
AcDbCircle
 10
10607.88395685583
 20
717.2314080299067
 30
0.0
 40
2.190876364732474
100
AcDbArc
 50
242.9607797449071
 51
297.0392202550929
  0
CIRCLE
  5
FE
330
53
100
AcDbEntity
  8
Specialized_Fills
  6
Continuous
 62
    30
420
 16742400
370
    20
100
AcDbCircle
 10
10593.78771750202
 20
538.8000881034442
 30
0.0
 40
1.392542801927199
  0
CIRCLE
  5
FF
330
53
100
AcDbEntity
  8
Specialized_Fills
  6
Continuous
 62
    30
420
 16742400
370
    20
100
AcDbCircle
 10
10625.16914046959
 20
550.2219919725579
 30
0.0
 40
1.392542801927199
  0
CIRCLE
  5
100
330
53
100
AcDbEntity
  8
Specialized_Fills
  6
Continuous
 62
    30
420
 16742400
370
    20
100
AcDbCircle
 10
10613.74523725163
 20
581.6089081059248
 30
0.0
 40
1.392542801927199
  0
CIRCLE
  5
101
330
53
100
AcDbEntity
  8
Specialized_Fills
  6
Continuous
 62
    30
420
 16742400
370
    20
100
AcDbCircle
 10
10602.32133403368
 20
612.9958242392916
 30
0.0
 40
1.392542801927199
  0
CIRCLE
  5
102
330
53
100
AcDbEntity
  8
Specialized_Fills
  6
Continuous
 62
    30
420
 16742400
370
    20
100
AcDbCircle
 10
10633.70275700125
 20
624.4177281084057
 30
0.0
 40
1.392542801927199
  0
CIRCLE
  5
103
330
53
100
AcDbEntity
  8
Specialized_Fills
  6
Continuous
 62
    30
420
 16742400
370
    20
100
AcDbCircle
 10
10590.89743081572
 20
644.3827403726585
 30
0.0
 40
1.392542801927199
  0
CIRCLE
  5
104
330
53
100
AcDbEntity
  8
Specialized_Fills
  6
Continuous
 62
    30
420
 16742400
370
    20
100
AcDbCircle
 10
10622.2788537833
 20
655.8046442417726
 30
0.0
 40
1.392542801927199
  0
CIRCLE
  5
105
330
53
100
AcDbEntity
  8
Specialized_Fills
  6
Continuous
 62
    30
420
 16742400
370
    20
100
AcDbCircle
 10
10610.85495056534
 20
687.1915603751395
 30
0.0
 40
1.392542801927199
  0
ARC
  5
106
330
53
100
AcDbEntity
  8
Specialized_Fills
  6
Continuous
 62
    30
420
 16742400
370
    20
100
AcDbCircle
 10
10589.32478393574
 20
538.5028159075978
 30
0.0
 40
1.385631884225165
100
AcDbArc
 50
234.0186721298298
 51
125.9813278701647
  0
ARC
  5
107
330
53
100
AcDbEntity
  8
Specialized_Fills
  6
Continuous
 62
    30
420
 16742400
370
    20
100
AcDbCircle
 10
10637.77343996663
 20
698.3161920484067
 30
0.0
 40
1.385631884225165
100
AcDbArc
 50
302.1455312151239
 51
57.854468784881
  0
ARC
  5
108
330
53
100
AcDbEntity
  8
Specialized_Fills
  6
Continuous
 62
    30
420
 16742400
370
    20
100
AcDbCircle
 10
10599.36841365246
 20
522.2518564716864
 30
0.0
 40
3.246639275191398
100
AcDbArc
 50
3.380755986046907
 51
177.2782651776864
  0
CIRCLE
  5
109
330
53
100
AcDbEntity
  8
Specialized_Fills
  6
Continuous
 62
    30
420
 16742400
370
    20
100
AcDbCircle
 10
10630.74983662003
 20
533.6737603408002
 30
0.0
 40
3.246639275191398
  0
ARC
  5
10A
330
53
100
AcDbEntity
  8
Specialized_Fills
  6
Continuous
 62
    30
420
 16742400
370
    20
100
AcDbCircle
 10
10587.9445104345
 20
553.6387726050532
 30
0.0
 40
3.246639275191398
100
AcDbArc
 50
280.0432239606182
 51
79.95677603938176
  0
CIRCLE
  5
10B
330
53
100
AcDbEntity
  8
Specialized_Fills
  6
Continuous
 62
    30
420
 16742400
370
    20
100
AcDbCircle
 10
10619.32593340207
 20
565.060676474167
 30
0.0
 40
3.246639275191398
  0
CIRCLE
  5
10C
330
53
100
AcDbEntity
  8
Specialized_Fills
  6
Continuous
 62
    30
420
 16742400
370
    20
100
AcDbCircle
 10
10607.90203018412
 20
596.4475926075339
 30
0.0
 40
3.246639275191398
  0
ARC
  5
10D
330
53
100
AcDbEntity
  8
Specialized_Fills
  6
Continuous
 62
    30
420
 16742400
370
    20
100
AcDbCircle
 10
10639.28345315169
 20
607.869496476648
 30
0.0
 40
3.246639275191398
100
AcDbArc
 50
103.7695767981634
 51
256.2304232018365
  0
CIRCLE
  5
10E
330
53
100
AcDbEntity
  8
Specialized_Fills
  6
Continuous
 62
    30
420
 16742400
370
    20
100
AcDbCircle
 10
10596.47812696616
 20
627.8345087409007
 30
0.0
 40
3.246639275191398
  0
CIRCLE
  5
10F
330
53
100
AcDbEntity
  8
Specialized_Fills
  6
Continuous
 62
    30
420
 16742400
370
    20
100
AcDbCircle
 10
10627.85954993374
 20
639.2564126100149
 30
0.0
 40
3.246639275191398
  0
CIRCLE
  5
110
330
53
100
AcDbEntity
  8
Specialized_Fills
  6
Continuous
 62
    30
420
 16742400
370
    20
100
AcDbCircle
 10
10616.43564671578
 20
670.6433287433817
 30
0.0
 40
3.246639275191398
  0
CIRCLE
  5
111
330
53
100
AcDbEntity
  8
Specialized_Fills
  6
Continuous
 62
    30
420
 16742400
370
    20
100
AcDbCircle
 10
10605.01174349782
 20
702.030244876749
 30
0.0
 40
3.246639275191398
  0
ARC
  5
112
330
53
100
AcDbEntity
  8
Specialized_Fills
  6
Continuous
 62
    30
420
 16742400
370
    20
100
AcDbCircle
 10
10636.3931664654
 20
713.4521487458627
 30
0.0
 40
3.246639275191398
100
AcDbArc
 50
145.7365297044435
 51
310.7093250328113
  0
ARC
  5
113
330
53
100
AcDbEntity
  8
Specialized_Fills
  6
Continuous
 62
    30
420
 16742400
370
    20
100
AcDbCircle
 10
10588.80521930651
 20
565.453602439645
 30
0.0
 40
1.492371212980843
100
AcDbArc
 50
258.6177858320685
 51
101.3822141679315
  0
ARC
  5
114
330
53
100
AcDbEntity
  8
Specialized_Fills
  6
Continuous
 62
    30
420
 16742400
370
    20
100
AcDbCircle
 10
10605.87245236983
 20
713.8450747113408
 30
0.0
 40
1.492371212980843
100
AcDbArc
 50
105.9483537810291
 51
74.05164621897792
  0
CIRCLE
  5
115
330
53
100
AcDbEntity
  8
Specialized_Fills
  6
Continuous
 62
    30
420
 16742400
370
    20
100
AcDbCircle
 10
10599.50819688386
 20
529.970438357039
 30
0.0
 40
1.983922927269609
  0
CIRCLE
  5
116
330
53
100
AcDbEntity
  8
Specialized_Fills
  6
Continuous
 62
    30
420
 16742400
370
    20
100
AcDbCircle
 10
10630.88961985143
 20
541.3923422261527
 30
0.0
 40
1.983922927269609
  0
ARC
  5
117
330
53
100
AcDbEntity
  8
Specialized_Fills
  6
Continuous
 62
    30
420
 16742400
370
    20
100
AcDbCircle
 10
10588.0842936659
 20
561.3573544904059
 30
0.0
 40
1.983922927269609
100
AcDbArc
 50
282.411334927158
 51
77.58866507284203
  0
CIRCLE
  5
118
330
53
100
AcDbEntity
  8
Specialized_Fills
  6
Continuous
 62
    30
420
 16742400
370
    20
100
AcDbCircle
 10
10619.46571663347
 20
572.7792583595196
 30
0.0
 40
1.983922927269609
  0
CIRCLE
  5
119
330
53
100
AcDbEntity
  8
Specialized_Fills
  6
Continuous
 62
    30
420
 16742400
370
    20
100
AcDbCircle
 10
10608.04181341552
 20
604.1661744928863
 30
0.0
 40
1.983922927269609
  0
ARC
  5
11A
330
53
100
AcDbEntity
  8
Specialized_Fills
  6
Continuous
 62
    30
420
 16742400
370
    20
100
AcDbCircle
 10
10639.42323638309
 20
615.5880783620006
 30
0.0
 40
1.983922927269609
100
AcDbArc
 50
117.3850425662494
 51
242.6149574337506
  0
CIRCLE
  5
11B
330
53
100
AcDbEntity
  8
Specialized_Fills
  6
Continuous
 62
    30
420
 16742400
370
    20
100
AcDbCircle
 10
10596.61791019756
 20
635.5530906262532
 30
0.0
 40
1.983922927269609
  0
CIRCLE
  5
11C
330
53
100
AcDbEntity
  8
Specialized_Fills
  6
Continuous
 62
    30
420
 16742400
370
    20
100
AcDbCircle
 10
10627.99933316513
 20
646.9749944953674
 30
0.0
 40
1.983922927269609
  0
CIRCLE
  5
11D
330
53
100
AcDbEntity
  8
Specialized_Fills
  6
Continuous
 62
    30
420
 16742400
370
    20
100
AcDbCircle
 10
10616.57542994718
 20
678.3619106287343
 30
0.0
 40
1.983922927269609
  0
CIRCLE
  5
11E
330
53
100
AcDbEntity
  8
Specialized_Fills
  6
Continuous
 62
    30
420
 16742400
370
    20
100
AcDbCircle
 10
10605.15152672922
 20
709.7488267621017
 30
0.0
 40
1.983922927269609
  0
CIRCLE
  5
11F
330
53
100
AcDbEntity
  8
Specialized_Fills
  6
Continuous
 62
    30
420
 16742400
370
    20
100
AcDbCircle
 10
10604.69396886878
 20
527.8765966618843
 30
0.0
 40
2.217011003003044
  0
CIRCLE
  5
120
330
53
100
AcDbEntity
  8
Specialized_Fills
  6
Continuous
 62
    30
420
 16742400
370
    20
100
AcDbCircle
 10
10636.07539183635
 20
539.298500530998
 30
0.0
 40
2.217011003003044
  0
CIRCLE
  5
121
330
53
100
AcDbEntity
  8
Specialized_Fills
  6
Continuous
 62
    30
420
 16742400
370
    20
100
AcDbCircle
 10
10593.27006565082
 20
559.2635127952512
 30
0.0
 40
2.217011003003044
  0
CIRCLE
  5
122
330
53
100
AcDbEntity
  8
Specialized_Fills
  6
Continuous
 62
    30
420
 16742400
370
    20
100
AcDbCircle
 10
10624.65148861839
 20
570.6854166643648
 30
0.0
 40
2.217011003003044
  0
CIRCLE
  5
123
330
53
100
AcDbEntity
  8
Specialized_Fills
  6
Continuous
 62
    30
420
 16742400
370
    20
100
AcDbCircle
 10
10613.22758540044
 20
602.0723327977317
 30
0.0
 40
2.217011003003044
  0
CIRCLE
  5
124
330
53
100
AcDbEntity
  8
Specialized_Fills
  6
Continuous
 62
    30
420
 16742400
370
    20
100
AcDbCircle
 10
10601.80368218248
 20
633.4592489310986
 30
0.0
 40
2.217011003003044
  0
CIRCLE
  5
125
330
53
100
AcDbEntity
  8
Specialized_Fills
  6
Continuous
 62
    30
420
 16742400
370
    20
100
AcDbCircle
 10
10633.18510515005
 20
644.8811528002127
 30
0.0
 40
2.217011003003044
  0
ARC
  5
126
330
53
100
AcDbEntity
  8
Specialized_Fills
  6
Continuous
 62
    30
420
 16742400
370
    20
100
AcDbCircle
 10
10590.37977896453
 20
664.8461650644654
 30
0.0
 40
2.217011003003044
100
AcDbArc
 50
212.5348300565961
 51
147.4651699434039
  0
CIRCLE
  5
127
330
53
100
AcDbEntity
  8
Specialized_Fills
  6
Continuous
 62
    30
420
 16742400
370
    20
100
AcDbCircle
 10
10621.7612019321
 20
676.2680689335796
 30
0.0
 40
2.217011003003044
  0
CIRCLE
  5
128
330
53
100
AcDbEntity
  8
Specialized_Fills
  6
Continuous
 62
    30
420
 16742400
370
    20
100
AcDbCircle
 10
10610.33729871414
 20
707.6549850669469
 30
0.0
 40
2.217011003003044
  0
CIRCLE
  5
129
330
53
100
AcDbEntity
  8
Specialized_Fills
  6
Continuous
 62
    30
420
 16742400
370
    20
100
AcDbCircle
 10
10610.35317667232
 20
526.1025273769627
 30
0.0
 40
1.364689132099527
  0
CIRCLE
  5
12A
330
53
100
AcDbEntity
  8
Specialized_Fills
  6
Continuous
 62
    30
420
 16742400
370
    20
100
AcDbCircle
 10
10598.92927345436
 20
557.4894435103296
 30
0.0
 40
1.364689132099527
  0
CIRCLE
  5
12B
330
53
100
AcDbEntity
  8
Specialized_Fills
  6
Continuous
 62
    30
420
 16742400
370
    20
100
AcDbCircle
 10
10630.31069642193
 20
568.9113473794431
 30
0.0
 40
1.364689132099527
  0
ARC
  5
12C
330
53
100
AcDbEntity
  8
Specialized_Fills
  6
Continuous
 62
    30
420
 16742400
370
    20
100
AcDbCircle
 10
10587.5053702364
 20
588.8763596436964
 30
0.0
 40
1.364689132099527
100
AcDbArc
 50
317.4484896349336
 51
42.55151036506643
  0
CIRCLE
  5
12D
330
53
100
AcDbEntity
  8
Specialized_Fills
  6
Continuous
 62
    30
420
 16742400
370
    20
100
AcDbCircle
 10
10618.88679320398
 20
600.29826351281
 30
0.0
 40
1.364689132099527
  0
CIRCLE
  5
12E
330
53
100
AcDbEntity
  8
Specialized_Fills
  6
Continuous
 62
    30
420
 16742400
370
    20
100
AcDbCircle
 10
10607.46288998602
 20
631.6851796461769
 30
0.0
 40
1.364689132099527
  0
ARC
  5
12F
330
53
100
AcDbEntity
  8
Specialized_Fills
  6
Continuous
 62
    30
420
 16742400
370
    20
100
AcDbCircle
 10
10638.84431295359
 20
643.1070835152911
 30
0.0
 40
1.364689132099527
100
AcDbArc
 50
104.150171527969
 51
255.849828472031
  0
CIRCLE
  5
130
330
53
100
AcDbEntity
  8
Specialized_Fills
  6
Continuous
 62
    30
420
 16742400
370
    20
100
AcDbCircle
 10
10596.03898676807
 20
663.0720957795438
 30
0.0
 40
1.364689132099527
  0
CIRCLE
  5
131
330
53
100
AcDbEntity
  8
Specialized_Fills
  6
Continuous
 62
    30
420
 16742400
370
    20
100
AcDbCircle
 10
10627.42040973564
 20
674.4939996486579
 30
0.0
 40
1.364689132099527
  0
CIRCLE
  5
132
330
53
100
AcDbEntity
  8
Specialized_Fills
  6
Continuous
 62
    30
420
 16742400
370
    20
100
AcDbCircle
 10
10615.99650651768
 20
705.8809157820252
 30
0.0
 40
1.364689132099527
  0
CIRCLE
  5
133
330
53
100
AcDbEntity
  8
Specialized_Fills
  6
Continuous
 62
    30
420
 16742400
370
    20
100
AcDbCircle
 10
10617.9412219414
 20
532.403290737268
 30
0.0
 40
0.9699423138137321
  0
CIRCLE
  5
134
330
53
100
AcDbEntity
  8
Specialized_Fills
  6
Continuous
 62
    30
420
 16742400
370
    20
100
AcDbCircle
 10
10606.51731872344
 20
563.7902068706349
 30
0.0
 40
0.9699423138137321
  0
ARC
  5
135
330
53
100
AcDbEntity
  8
Specialized_Fills
  6
Continuous
 62
    30
420
 16742400
370
    20
100
AcDbCircle
 10
10637.89874169101
 20
575.212110739749
 30
0.0
 40
0.9699423138137321
100
AcDbArc
 50
50.88214946116857
 51
309.1178505388314
  0
CIRCLE
  5
136
330
53
100
AcDbEntity
  8
Specialized_Fills
  6
Continuous
 62
    30
420
 16742400
370
    20
100
AcDbCircle
 10
10595.09341550548
 20
595.1771230040018
 30
0.0
 40
0.9699423138137321
  0
CIRCLE
  5
137
330
53
100
AcDbEntity
  8
Specialized_Fills
  6
Continuous
 62
    30
420
 16742400
370
    20
100
AcDbCircle
 10
10626.47483847306
 20
606.5990268731159
 30
0.0
 40
0.9699423138137321
  0
CIRCLE
  5
138
330
53
100
AcDbEntity
  8
Specialized_Fills
  6
Continuous
 62
    30
420
 16742400
370
    20
100
AcDbCircle
 10
10615.0509352551
 20
637.9859430064827
 30
0.0
 40
0.9699423138137321
  0
CIRCLE
  5
139
330
53
100
AcDbEntity
  8
Specialized_Fills
  6
Continuous
 62
    30
420
 16742400
370
    20
100
AcDbCircle
 10
10603.62703203715
 20
669.3728591398496
 30
0.0
 40
0.9699423138137321
  0
CIRCLE
  5
13A
330
53
100
AcDbEntity
  8
Specialized_Fills
  6
Continuous
 62
    30
420
 16742400
370
    20
100
AcDbCircle
 10
10635.00845500472
 20
680.7947630089634
 30
0.0
 40
0.9699423138137321
  0
CIRCLE
  5
13B
330
53
100
AcDbEntity
  8
Specialized_Fills
  6
Continuous
 62
    30
420
 16742400
370
    20
100
AcDbCircle
 10
10592.20312881919
 20
700.7597752732169
 30
0.0
 40
0.9699423138137321
  0
CIRCLE
  5
13C
330
53
100
AcDbEntity
  8
Specialized_Fills
  6
Continuous
 62
    30
420
 16742400
370
    20
100
AcDbCircle
 10
10623.58455178676
 20
712.1816791423306
 30
0.0
 40
0.9699423138137321
  0
ARC
  5
13D
330
53
100
AcDbEntity
  8
Specialized_Fills
  6
Continuous
 62
    30
420
 16742400
370
    20
100
AcDbCircle
 10
10589.38760069683
 20
625.8435916912638
 30
0.0
 40
1.108505509026478
100
AcDbArc
 50
217.7143883702518
 51
142.28561162973
  0
ARC
  5
13E
330
53
100
AcDbEntity
  8
Specialized_Fills
  6
Continuous
 62
    30
420
 16742400
370
    20
100
AcDbCircle
 10
10586.78945619291
 20
528.7306322117441
 30
0.0
 40
2.004675758922407
100
AcDbArc
 50
30.8388791121935
 51
329.1611208877956
  0
ARC
  5
13F
330
53
100
AcDbEntity
  8
Specialized_Fills
  6
Continuous
 62
    30
420
 16742400
370
    20
100
AcDbCircle
 10
10638.1283989101
 20
582.9613560833386
 30
0.0
 40
2.004675758922407
100
AcDbArc
 50
280.9937765257001
 51
79.00622347429628
  0
CIRCLE
  5
140
330
53
100
AcDbEntity
  8
Specialized_Fills
  6
Continuous
 62
    30
420
 16742400
370
    20
100
AcDbCircle
 10
10590.09964206521
 20
524.5594462821461
 30
0.0
 40
1.57542517109146
  0
CIRCLE
  5
141
330
53
100
AcDbEntity
  8
Specialized_Fills
  6
Continuous
 62
    30
420
 16742400
370
    20
100
AcDbCircle
 10
10621.48106503278
 20
535.9813501512597
 30
0.0
 40
1.57542517109146
  0
CIRCLE
  5
142
330
53
100
AcDbEntity
  8
Specialized_Fills
  6
Continuous
 62
    30
420
 16742400
370
    20
100
AcDbCircle
 10
10610.05716181483
 20
567.3682662846267
 30
0.0
 40
1.57542517109146
  0
CIRCLE
  5
143
330
53
100
AcDbEntity
  8
Specialized_Fills
  6
Continuous
 62
    30
420
 16742400
370
    20
100
AcDbCircle
 10
10598.63325859687
 20
598.7551824179935
 30
0.0
 40
1.57542517109146
  0
CIRCLE
  5
144
330
53
100
AcDbEntity
  8
Specialized_Fills
  6
Continuous
 62
    30
420
 16742400
370
    20
100
AcDbCircle
 10
10630.01468156445
 20
610.1770862871076
 30
0.0
 40
1.57542517109146
  0
ARC
  5
145
330
53
100
AcDbEntity
  8
Specialized_Fills
  6
Continuous
 62
    30
420
 16742400
370
    20
100
AcDbCircle
 10
10587.20935537892
 20
630.1420985513604
 30
0.0
 40
1.57542517109146
100
AcDbArc
 50
325.6925077986875
 51
34.30749220131247
  0
CIRCLE
  5
146
330
53
100
AcDbEntity
  8
Specialized_Fills
  6
Continuous
 62
    30
420
 16742400
370
    20
100
AcDbCircle
 10
10618.59077834649
 20
641.5640024204744
 30
0.0
 40
1.57542517109146
  0
CIRCLE
  5
147
330
53
100
AcDbEntity
  8
Specialized_Fills
  6
Continuous
 62
    30
420
 16742400
370
    20
100
AcDbCircle
 10
10607.16687512853
 20
672.9509185538413
 30
0.0
 40
1.57542517109146
  0
ARC
  5
148
330
53
100
AcDbEntity
  8
Specialized_Fills
  6
Continuous
 62
    30
420
 16742400
370
    20
100
AcDbCircle
 10
10638.54829809611
 20
684.372822422955
 30
0.0
 40
1.57542517109146
100
AcDbArc
 50
91.3676846180852
 51
268.6323153819148
  0
CIRCLE
  5
149
330
53
100
AcDbEntity
  8
Specialized_Fills
  6
Continuous
 62
    30
420
 16742400
370
    20
100
AcDbCircle
 10
10595.74297191058
 20
704.3378346872087
 30
0.0
 40
1.57542517109146
  0
ARC
  5
14A
330
53
100
AcDbEntity
  8
Specialized_Fills
  6
Continuous
 62
    30
420
 16742400
370
    20
100
AcDbCircle
 10
10627.12439487815
 20
715.7597385563223
 30
0.0
 40
1.57542517109146
100
AcDbArc
 50
197.728749136308
 51
342.271250863692
  0
CIRCLE
  5
14B
330
53
100
AcDbEntity
  8
Specialized_Fills
  6
Continuous
 62
    30
420
 16742400
370
    20
100
AcDbCircle
 10
10612.23392102913
 20
530.3079042687743
 30
0.0
 40
1.277489469031145
  0
CIRCLE
  5
14C
330
53
100
AcDbEntity
  8
Specialized_Fills
  6
Continuous
 62
    30
420
 16742400
370
    20
100
AcDbCircle
 10
10600.81001781118
 20
561.6948204021412
 30
0.0
 40
1.277489469031145
  0
CIRCLE
  5
14D
330
53
100
AcDbEntity
  8
Specialized_Fills
  6
Continuous
 62
    30
420
 16742400
370
    20
100
AcDbCircle
 10
10632.19144077875
 20
573.1167242712554
 30
0.0
 40
1.277489469031145
  0
ARC
  5
14E
330
53
100
AcDbEntity
  8
Specialized_Fills
  6
Continuous
 62
    30
420
 16742400
370
    20
100
AcDbCircle
 10
10589.38611459322
 20
593.081736535508
 30
0.0
 40
1.277489469031145
100
AcDbArc
 50
226.7435209192391
 51
133.2564790807609
  0
CIRCLE
  5
14F
330
53
100
AcDbEntity
  8
Specialized_Fills
  6
Continuous
 62
    30
420
 16742400
370
    20
100
AcDbCircle
 10
10620.76753756079
 20
604.5036404046222
 30
0.0
 40
1.277489469031145
  0
CIRCLE
  5
150
330
53
100
AcDbEntity
  8
Specialized_Fills
  6
Continuous
 62
    30
420
 16742400
370
    20
100
AcDbCircle
 10
10609.34363434284
 20
635.8905565379891
 30
0.0
 40
1.277489469031145
  0
CIRCLE
  5
151
330
53
100
AcDbEntity
  8
Specialized_Fills
  6
Continuous
 62
    30
420
 16742400
370
    20
100
AcDbCircle
 10
10597.91973112488
 20
667.2774726713559
 30
0.0
 40
1.277489469031145
  0
CIRCLE
  5
152
330
53
100
AcDbEntity
  8
Specialized_Fills
  6
Continuous
 62
    30
420
 16742400
370
    20
100
AcDbCircle
 10
10629.30115409245
 20
678.6993765404696
 30
0.0
 40
1.277489469031145
  0
CIRCLE
  5
153
330
53
100
AcDbEntity
  8
Specialized_Fills
  6
Continuous
 62
    30
420
 16742400
370
    20
100
AcDbCircle
 10
10617.8772508745
 20
710.0862926738369
 30
0.0
 40
1.277489469031145
  0
ARC
  5
154
330
53
100
AcDbEntity
  8
Specialized_Fills
  6
Continuous
 62
    30
420
 16742400
370
    20
100
AcDbCircle
 10
10589.76446506573
 20
696.615174583578
 30
0.0
 40
1.292977014883647
100
AcDbArc
 50
194.1458497900985
 51
165.8541502098631
  0
CIRCLE
  5
155
330
53
100
AcDbEntity
  8
Specialized_Fills
  6
Continuous
 62
    30
420
 16742400
370
    20
100
AcDbCircle
 10
10620.40066033978
 20
529.1027876316915
 30
0.0
 40
1.255125548576963
  0
CIRCLE
  5
156
330
53
100
AcDbEntity
  8
Specialized_Fills
  6
Continuous
 62
    30
420
 16742400
370
    20
100
AcDbCircle
 10
10608.97675712182
 20
560.4897037650584
 30
0.0
 40
1.255125548576963
  0
CIRCLE
  5
157
330
53
100
AcDbEntity
  8
Specialized_Fills
  6
Continuous
 62
    30
420
 16742400
370
    20
100
AcDbCircle
 10
10597.55285390387
 20
591.8766198984252
 30
0.0
 40
1.255125548576963
  0
CIRCLE
  5
158
330
53
100
AcDbEntity
  8
Specialized_Fills
  6
Continuous
 62
    30
420
 16742400
370
    20
100
AcDbCircle
 10
10628.93427687144
 20
603.2985237675393
 30
0.0
 40
1.255125548576963
  0
CIRCLE
  5
159
330
53
100
AcDbEntity
  8
Specialized_Fills
  6
Continuous
 62
    30
420
 16742400
370
    20
100
AcDbCircle
 10
10617.51037365348
 20
634.6854399009061
 30
0.0
 40
1.255125548576963
  0
CIRCLE
  5
15A
330
53
100
AcDbEntity
  8
Specialized_Fills
  6
Continuous
 62
    30
420
 16742400
370
    20
100
AcDbCircle
 10
10606.08647043553
 20
666.0723560342731
 30
0.0
 40
1.255125548576963
  0
ARC
  5
15B
330
53
100
AcDbEntity
  8
Specialized_Fills
  6
Continuous
 62
    30
420
 16742400
370
    20
100
AcDbCircle
 10
10637.4678934031
 20
677.4942599033867
 30
0.0
 40
1.255125548576963
100
AcDbArc
 50
33.8154173278527
 51
326.1845826721473
  0
CIRCLE
  5
15C
330
53
100
AcDbEntity
  8
Specialized_Fills
  6
Continuous
 62
    30
420
 16742400
370
    20
100
AcDbCircle
 10
10594.66256721757
 20
697.4592721676404
 30
0.0
 40
1.255125548576963
  0
CIRCLE
  5
15D
330
53
100
AcDbEntity
  8
Specialized_Fills
  6
Continuous
 62
    30
420
 16742400
370
    20
100
AcDbCircle
 10
10626.04399018515
 20
708.881176036754
 30
0.0
 40
1.255125548576963
  0
CIRCLE
  5
15E
330
53
100
AcDbEntity
  8
Specialized_Fills
  6
Continuous
 62
    30
420
 16742400
370
    20
100
AcDbCircle
 10
10627.16952054149
 20
528.3237875798485
 30
0.0
 40
1.474220607961029
  0
CIRCLE
  5
15F
330
53
100
AcDbEntity
  8
Specialized_Fills
  6
Continuous
 62
    30
420
 16742400
370
    20
100
AcDbCircle
 10
10615.74561732354
 20
559.7107037132154
 30
0.0
 40
1.474220607961029
  0
CIRCLE
  5
160
330
53
100
AcDbEntity
  8
Specialized_Fills
  6
Continuous
 62
    30
420
 16742400
370
    20
100
AcDbCircle
 10
10604.32171410558
 20
591.0976198465824
 30
0.0
 40
1.474220607961029
  0
CIRCLE
  5
161
330
53
100
AcDbEntity
  8
Specialized_Fills
  6
Continuous
 62
    30
420
 16742400
370
    20
100
AcDbCircle
 10
10635.70313707316
 20
602.5195237156965
 30
0.0
 40
1.474220607961029
  0
CIRCLE
  5
162
330
53
100
AcDbEntity
  8
Specialized_Fills
  6
Continuous
 62
    30
420
 16742400
370
    20
100
AcDbCircle
 10
10592.89781088763
 20
622.4845359799492
 30
0.0
 40
1.474220607961029
  0
CIRCLE
  5
163
330
53
100
AcDbEntity
  8
Specialized_Fills
  6
Continuous
 62
    30
420
 16742400
370
    20
100
AcDbCircle
 10
10624.2792338552
 20
633.9064398490634
 30
0.0
 40
1.474220607961029
  0
CIRCLE
  5
164
330
53
100
AcDbEntity
  8
Specialized_Fills
  6
Continuous
 62
    30
420
 16742400
370
    20
100
AcDbCircle
 10
10612.85533063724
 20
665.2933559824301
 30
0.0
 40
1.474220607961029
  0
CIRCLE
  5
165
330
53
100
AcDbEntity
  8
Specialized_Fills
  6
Continuous
 62
    30
420
 16742400
370
    20
100
AcDbCircle
 10
10601.43142741929
 20
696.6802721157975
 30
0.0
 40
1.474220607961029
  0
CIRCLE
  5
166
330
53
100
AcDbEntity
  8
Specialized_Fills
  6
Continuous
 62
    30
420
 16742400
370
    20
100
AcDbCircle
 10
10632.81285038686
 20
708.1021759849112
 30
0.0
 40
1.474220607961029
  0
ARC
  5
167
330
53
100
AcDbEntity
  8
Specialized_Fills
  6
Continuous
 62
    30
420
 16742400
370
    20
100
AcDbCircle
 10
10607.55645300257
 20
521.6118810673932
 30
0.0
 40
1.37258085789611
100
AcDbArc
 50
39.11910228163008
 51
141.539918882074
  0
ARC
  5
168
330
53
100
AcDbEntity
  8
Specialized_Fills
  6
Continuous
 62
    30
420
 16742400
370
    20
100
AcDbCircle
 10
10638.93787597014
 20
533.0337849365069
 30
0.0
 40
1.37258085789611
100
AcDbArc
 50
108.1330336816871
 51
251.8669663183129
  0
CIRCLE
  5
169
330
53
100
AcDbEntity
  8
Specialized_Fills
  6
Continuous
 62
    30
420
 16742400
370
    20
100
AcDbCircle
 10
10596.13254978461
 20
552.9987972007599
 30
0.0
 40
1.37258085789611
  0
CIRCLE
  5
16A
330
53
100
AcDbEntity
  8
Specialized_Fills
  6
Continuous
 62
    30
420
 16742400
370
    20
100
AcDbCircle
 10
10627.51397275218
 20
564.4207010698737
 30
0.0
 40
1.37258085789611
  0
CIRCLE
  5
16B
330
53
100
AcDbEntity
  8
Specialized_Fills
  6
Continuous
 62
    30
420
 16742400
370
    20
100
AcDbCircle
 10
10616.09006953423
 20
595.8076172032406
 30
0.0
 40
1.37258085789611
  0
CIRCLE
  5
16C
330
53
100
AcDbEntity
  8
Specialized_Fills
  6
Continuous
 62
    30
420
 16742400
370
    20
100
AcDbCircle
 10
10604.66616631627
 20
627.1945333366074
 30
0.0
 40
1.37258085789611
  0
CIRCLE
  5
16D
330
53
100
AcDbEntity
  8
Specialized_Fills
  6
Continuous
 62
    30
420
 16742400
370
    20
100
AcDbCircle
 10
10636.04758928385
 20
638.6164372057216
 30
0.0
 40
1.37258085789611
  0
CIRCLE
  5
16E
330
53
100
AcDbEntity
  8
Specialized_Fills
  6
Continuous
 62
    30
420
 16742400
370
    20
100
AcDbCircle
 10
10593.24226309832
 20
658.5814494699743
 30
0.0
 40
1.37258085789611
  0
CIRCLE
  5
16F
330
53
100
AcDbEntity
  8
Specialized_Fills
  6
Continuous
 62
    30
420
 16742400
370
    20
100
AcDbCircle
 10
10624.62368606589
 20
670.0033533390884
 30
0.0
 40
1.37258085789611
  0
CIRCLE
  5
170
330
53
100
AcDbEntity
  8
Specialized_Fills
  6
Continuous
 62
    30
420
 16742400
370
    20
100
AcDbCircle
 10
10613.19978284793
 20
701.3902694724557
 30
0.0
 40
1.37258085789611
  0
CIRCLE
  5
171
330
53
100
AcDbEntity
  8
Specialized_Fills
  6
Continuous
 62
    30
420
 16742400
370
    20
100
AcDbCircle
 10
10606.2511090152
 20
534.1074294512176
 30
0.0
 40
1.045510956534734
  0
ARC
  5
172
330
53
100
AcDbEntity
  8
Specialized_Fills
  6
Continuous
 62
    30
420
 16742400
370
    20
100
AcDbCircle
 10
10637.63253198277
 20
545.5293333203313
 30
0.0
 40
1.045510956534734
100
AcDbArc
 50
32.86653195248443
 51
327.1334680475156
  0
CIRCLE
  5
173
330
53
100
AcDbEntity
  8
Specialized_Fills
  6
Continuous
 62
    30
420
 16742400
370
    20
100
AcDbCircle
 10
10594.82720579724
 20
565.4943455845844
 30
0.0
 40
1.045510956534734
  0
CIRCLE
  5
174
330
53
100
AcDbEntity
  8
Specialized_Fills
  6
Continuous
 62
    30
420
 16742400
370
    20
100
AcDbCircle
 10
10626.20862876482
 20
576.9162494536981
 30
0.0
 40
1.045510956534734
  0
CIRCLE
  5
175
330
53
100
AcDbEntity
  8
Specialized_Fills
  6
Continuous
 62
    30
420
 16742400
370
    20
100
AcDbCircle
 10
10614.78472554686
 20
608.303165587065
 30
0.0
 40
1.045510956534734
  0
CIRCLE
  5
176
330
53
100
AcDbEntity
  8
Specialized_Fills
  6
Continuous
 62
    30
420
 16742400
370
    20
100
AcDbCircle
 10
10603.36082232891
 20
639.6900817204318
 30
0.0
 40
1.045510956534734
  0
CIRCLE
  5
177
330
53
100
AcDbEntity
  8
Specialized_Fills
  6
Continuous
 62
    30
420
 16742400
370
    20
100
AcDbCircle
 10
10634.74224529648
 20
651.1119855895459
 30
0.0
 40
1.045510956534734
  0
CIRCLE
  5
178
330
53
100
AcDbEntity
  8
Specialized_Fills
  6
Continuous
 62
    30
420
 16742400
370
    20
100
AcDbCircle
 10
10591.93691911095
 20
671.0769978537987
 30
0.0
 40
1.045510956534734
  0
CIRCLE
  5
179
330
53
100
AcDbEntity
  8
Specialized_Fills
  6
Continuous
 62
    30
420
 16742400
370
    20
100
AcDbCircle
 10
10623.31834207852
 20
682.4989017229128
 30
0.0
 40
1.045510956534734
  0
CIRCLE
  5
17A
330
53
100
AcDbEntity
  8
Specialized_Fills
  6
Continuous
 62
    30
420
 16742400
370
    20
100
AcDbCircle
 10
10611.89443886057
 20
713.8858178562801
 30
0.0
 40
1.045510956534734
  0
ENDBLK
  5
55
330
53
100
AcDbEntity
  8
0
100
AcDbBlockEnd
  0
BLOCK
  5
1CD
330
1CC
100
AcDbEntity
  8
0
100
AcDbBlockBegin
  2
Line_1
 70
     0
 10
10581.62075866579
 20
487.2271220517525
 30
0.0
  3
Line_1
  1

  0
LINE
  5
591
330
1CC
100
AcDbEntity
  8
Specialized_Lines
  6
Continuous
 62
   251
420
  6250335
100
AcDbLine
 10
10581.62075866579
 20
487.2271220517525
 30
0.0
 11
10591.77551006579
 21
497.3818734517542
 31
0.0
  0
LINE
  5
592
330
1CC
100
AcDbEntity
  8
Specialized_Lines
  6
Continuous
 62
   251
420
  6250335
370
    20
100
AcDbLine
 10
10597.05342579124
 20
502.6597891772084
 30
0.0
 11
10593.18972362816
 21
495.967659889381
 31
0.0
  0
LINE
  5
593
330
1CC
100
AcDbEntity
  8
Specialized_Lines
  6
Continuous
 62
   251
420
  6250335
370
    20
100
AcDbLine
 10
10597.05342579124
 20
502.6597891772084
 30
0.0
 11
10590.36129650341
 21
498.7960870141273
 31
0.0
  0
LINE
  5
594
330
1CC
100
AcDbEntity
  8
Specialized_Lines
  6
Continuous
 62
   251
420
  6250335
370
    20
100
AcDbLine
 10
10593.18972362816
 20
495.967659889381
 30
0.0
 11
10590.36129650341
 21
498.7960870141273
 31
0.0
  0
HATCH
  5
595
330
1CC
100
AcDbEntity
  8
Specialized_Lines
  6
Continuous
 62
   251
420
  6250335
370
    20
100
AcDbHatch
 10
0.0
 20
0.0
 30
0.0
210
0.0
220
0.0
230
1.0
  2
SOLID
 70
     1
 71
     0
 91
        1
 92
        2
 72
     0
 73
     1
 93
        3
 10
10597.05342579124
 20
502.6597891772084
 10
10593.18972362816
 20
495.967659889381
 10
10590.36129650341
 20
498.7960870141273
 97
        0
 75
     0
 76
     1
 98
        0
450
        0
451
        0
460
0.0
461
0.0
452
        1
462
0.0
453
        0
470

  0
ENDBLK
  5
1CE
330
1CC
100
AcDbEntity
  8
0
100
AcDbBlockEnd
  0
BLOCK
  5
1FC
330
1FB
100
AcDbEntity
  8
0
100
AcDbBlockBegin
  2
*D4
 70
     1
 10
0.0
 20
0.0
 30
0.0
  3
*D4
  1

  0
LINE
  5
4C1
330
1FB
100
AcDbEntity
  8
Specialized_Lines
  6
Continuous
 62
     7
440
 16777216
370
    -2
100
AcDbLine
 10
10765.00903121588
 20
515.3580827030967
 30
0.0
 11
10779.62467896542
 21
515.3580827030967
 31
0.0
  0
LINE
  5
4C2
330
1FB
100
AcDbEntity
  8
Specialized_Lines
  6
Continuous
 62
     7
440
 16777216
370
    -2
100
AcDbLine
 10
10764.50903121589
 20
522.5013587026072
 30
0.0
 11
10779.62467896542
 21
522.5013587026072
 31
0.0
  0
LINE
  5
4C3
330
1FB
100
AcDbEntity
  8
Specialized_Lines
  6
Continuous
 62
     7
440
 16777216
370
    -2
100
AcDbLine
 10
10779.44467896542
 20
511.5580827030967
 30
0.0
 11
10779.44467896542
 21
507.7580827030967
 31
0.0
  0
LINE
  5
4C4
330
1FB
100
AcDbEntity
  8
Specialized_Lines
  6
Continuous
 62
     7
440
 16777216
370
    -2
100
AcDbLine
 10
10779.44467896542
 20
526.3013587026072
 30
0.0
 11
10779.44467896542
 21
530.1013587026073
 31
0.0
  0
MTEXT
  5
4C5
330
1FB
100
AcDbEntity
  8
Specialized_Lines
  6
Continuous
 62
     7
440
 16777216
100
AcDbMText
 10
10787.38757801045
 20
518.9297207028537
 30
0.0
 40
5.0
 41
0.0
 46
0.0
 71
     5
 72
     1
  1
\A1;7.5
  7
GENERATED_STYLE_1
 11
0.0000000000000001
 21
1.0
 31
0.0
 73
     1
 44
1.0
  0
LINE
  5
4C6
330
1FB
100
AcDbEntity
  8
Specialized_Lines
  6
Continuous
 62
     7
440
 16777216
370
    -2
100
AcDbLine
 10
10779.44467896542
 20
515.3580827030967
 30
0.0
 11
10779.44467896542
 21
522.5013587026072
 31
0.0
  0
INSERT
  5
4C7
330
1FB
100
AcDbEntity
  8
Specialized_Lines
  6
Continuous
 62
     7
440
 16777216
370
    -2
100
AcDbBlockReference
  2
ARROWHEAD_6
 10
10779.44467896542
 20
515.3580827030967
 30
0.0
 41
3.799999999999999
 42
3.799999999999999
 43
3.799999999999999
 50
90.0
  0
INSERT
  5
4C8
330
1FB
100
AcDbEntity
  8
Specialized_Lines
  6
Continuous
 62
     7
440
 16777216
370
    -2
100
AcDbBlockReference
  2
ARROWHEAD_6
 10
10779.44467896542
 20
522.5013587026072
 30
0.0
 41
3.799999999999999
 42
3.799999999999999
 43
3.799999999999999
 50
270.0
  0
POINT
  5
4C9
330
1FB
100
AcDbEntity
  8
Defpoints
  6
Continuous
 62
     0
440
 16777216
100
AcDbPoint
 10
10750.00903121588
 20
515.3580827030967
 30
0.0
  0
POINT
  5
4CA
330
1FB
100
AcDbEntity
  8
Defpoints
  6
Continuous
 62
     0
440
 16777216
100
AcDbPoint
 10
10749.50903121589
 20
522.5013587026072
 30
0.0
  0
POINT
  5
4CB
330
1FB
100
AcDbEntity
  8
Defpoints
  6
Continuous
 62
     0
440
 16777216
100
AcDbPoint
 10
10779.44467896542
 20
522.5013587026072
 30
0.0
  0
ENDBLK
  5
1FD
330
1FB
100
AcDbEntity
  8
0
100
AcDbBlockEnd
  0
BLOCK
  5
20A
330
209
100
AcDbEntity
  8
0
100
AcDbBlockBegin
  2
ARROWHEAD_6
 70
     0
 10
0.0
 20
0.0
 30
0.0
  3
ARROWHEAD_6
  1

  0
LINE
  5
20C
330
209
100
AcDbEntity
  8
0
  6
Continuous
 62
     0
370
     0
100
AcDbLine
 10
-0.5
 20
-0.5
 30
0.0
 11
0.5
 21
0.5
 31
0.0
  0
LINE
  5
20D
330
209
100
AcDbEntity
  8
0
  6
Continuous
 62
     0
370
     0
100
AcDbLine
 10
0.0
 20
0.0
 30
0.0
 11
-1.0
 21
0.0
 31
0.0
  0
ENDBLK
  5
20B
330
209
100
AcDbEntity
  8
0
100
AcDbBlockEnd
  0
BLOCK
  5
20F
330
20E
100
AcDbEntity
  8
0
100
AcDbBlockBegin
  2
*D6
 70
     1
 10
0.0
 20
0.0
 30
0.0
  3
*D6
  1

  0
LINE
  5
82A
330
20E
100
AcDbEntity
  8
Specialized_Lines
  6
Continuous
 62
     7
440
 16777216
370
    -2
100
AcDbLine
 10
10606.98431853712
 20
525.2155228207898
 30
0.0
 11
10625.78374697932
 21
525.2155228207898
 31
0.0
  0
LINE
  5
82B
330
20E
100
AcDbEntity
  8
Specialized_Lines
  6
Continuous
 62
     7
440
 16777216
370
    -2
100
AcDbLine
 10
10619.99311457821
 20
535.5580827030967
 30
0.0
 11
10625.78374697932
 21
535.5580827030967
 31
0.0
  0
LINE
  5
82C
330
20E
100
AcDbEntity
  8
Specialized_Lines
  6
Continuous
 62
     7
440
 16777216
370
    -2
100
AcDbLine
 10
10625.60374697932
 20
529.0155228207898
 30
0.0
 11
10625.60374697932
 21
531.7580827030967
 31
0.0
  0
MTEXT
  5
82D
330
20E
100
AcDbEntity
  8
Specialized_Lines
  6
Continuous
 62
     7
440
 16777216
100
AcDbMText
 10
10633.58245775695
 20
530.386802761945
 30
0.0
 40
5.0
 41
0.0
 46
0.0
 71
     5
 72
     1
  1
\A1;10mm cover
  7
GENERATED_STYLE_1
 11
0.0000000000000001
 21
1.0
 31
0.0
 73
     1
 44
1.0
  0
INSERT
  5
82E
330
20E
100
AcDbEntity
  8
Specialized_Lines
  6
Continuous
 62
     7
440
 16777216
370
    -2
100
AcDbBlockReference
  2
ARROWHEAD_6
 10
10625.60374697932
 20
525.2155228207898
 30
0.0
 41
3.799999999999999
 42
3.799999999999999
 43
3.799999999999999
 50
270.0
  0
INSERT
  5
82F
330
20E
100
AcDbEntity
  8
Specialized_Lines
  6
Continuous
 62
     7
440
 16777216
370
    -2
100
AcDbBlockReference
  2
ARROWHEAD_6
 10
10625.60374697932
 20
535.5580827030967
 30
0.0
 41
3.799999999999999
 42
3.799999999999999
 43
3.799999999999999
 50
90.0
  0
POINT
  5
830
330
20E
100
AcDbEntity
  8
Defpoints
  6
Continuous
 62
     0
440
 16777216
100
AcDbPoint
 10
10602.98431853712
 20
525.2155228207898
 30
0.0
  0
POINT
  5
831
330
20E
100
AcDbEntity
  8
Defpoints
  6
Continuous
 62
     0
440
 16777216
100
AcDbPoint
 10
10615.99311457821
 20
535.5580827030967
 30
0.0
  0
POINT
  5
832
330
20E
100
AcDbEntity
  8
Defpoints
  6
Continuous
 62
     0
440
 16777216
100
AcDbPoint
 10
10625.60374697932
 20
535.5580827030967
 30
0.0
  0
ENDBLK
  5
210
330
20E
100
AcDbEntity
  8
0
100
AcDbBlockEnd
  0
BLOCK
  5
21B
330
21A
100
AcDbEntity
  8
0
100
AcDbBlockBegin
  2
*D7
 70
     1
 10
0.0
 20
0.0
 30
0.0
  3
*D7
  1

  0
LINE
  5
4D5
330
21A
100
AcDbEntity
  8
Specialized_Lines
  6
Continuous
 62
     7
440
 16777216
370
    -2
100
AcDbLine
 10
10660.29787804037
 20
549.883268455961
 30
0.0
 11
10681.10309330184
 21
549.883268455961
 31
0.0
  0
LINE
  5
4D6
330
21A
100
AcDbEntity
  8
Specialized_Lines
  6
Continuous
 62
     7
440
 16777216
370
    -2
100
AcDbLine
 10
10662.29612406735
 20
584.8592225583896
 30
0.0
 11
10681.10309330184
 21
584.8592225583896
 31
0.0
  0
LINE
  5
4D7
330
21A
100
AcDbEntity
  8
Specialized_Lines
  6
Continuous
 62
     7
440
 16777216
370
    -2
100
AcDbLine
 10
10680.92309330184
 20
553.6832684559611
 30
0.0
 11
10680.92309330184
 21
581.0592225583897
 31
0.0
  0
MTEXT
  5
4D8
330
21A
100
AcDbEntity
  8
Specialized_Lines
  6
Continuous
 62
     7
440
 16777216
100
AcDbMText
 10
10688.90180407947
 20
567.371245507177
 30
0.0
 40
5.0
 41
0.0
 46
0.0
 71
     5
 72
     1
  1
\A1;35mm cover
  7
GENERATED_STYLE_1
 11
0.0000000000000001
 21
1.0
 31
0.0
 73
     1
 44
1.0
  0
INSERT
  5
4D9
330
21A
100
AcDbEntity
  8
Specialized_Lines
  6
Continuous
 62
     7
440
 16777216
370
    -2
100
AcDbBlockReference
  2
ARROWHEAD_6
 10
10680.92309330184
 20
549.883268455961
 30
0.0
 41
3.799999999999999
 42
3.799999999999999
 43
3.799999999999999
 50
270.0
  0
INSERT
  5
4DA
330
21A
100
AcDbEntity
  8
Specialized_Lines
  6
Continuous
 62
     7
440
 16777216
370
    -2
100
AcDbBlockReference
  2
ARROWHEAD_6
 10
10680.92309330184
 20
584.8592225583896
 30
0.0
 41
3.799999999999999
 42
3.799999999999999
 43
3.799999999999999
 50
90.0
  0
POINT
  5
4DB
330
21A
100
AcDbEntity
  8
Defpoints
  6
Continuous
 62
     0
440
 16777216
100
AcDbPoint
 10
10656.13494110404
 20
549.883268455961
 30
0.0
  0
POINT
  5
4DC
330
21A
100
AcDbEntity
  8
Defpoints
  6
Continuous
 62
     0
440
 16777216
100
AcDbPoint
 10
10658.13318713102
 20
584.8592225583896
 30
0.0
  0
POINT
  5
4DD
330
21A
100
AcDbEntity
  8
Defpoints
  6
Continuous
 62
     0
440
 16777216
100
AcDbPoint
 10
10680.92309330184
 20
584.8592225583896
 30
0.0
  0
ENDBLK
  5
21C
330
21A
100
AcDbEntity
  8
0
100
AcDbBlockEnd
  0
BLOCK
  5
22A
330
229
100
AcDbEntity
  8
0
100
AcDbBlockBegin
  2
*D8
 70
     1
 10
0.0
 20
0.0
 30
0.0
  3
*D8
  1

  0
LINE
  5
4DE
330
229
100
AcDbEntity
  8
Specialized_Lines
  6
Continuous
 62
     7
440
 16777216
370
    -2
100
AcDbLine
 10
10650.81484199898
 20
572.3153526227497
 30
0.0
 11
10640.10761334688
 21
565.971389009478
 31
0.0
  0
LINE
  5
4DF
330
229
100
AcDbEntity
  8
Specialized_Lines
  6
Continuous
 62
     7
440
 16777216
370
    -2
100
AcDbLine
 10
10653.31516846572
 20
568.095346201485
 30
0.0
 11
10642.60793981361
 21
561.7513825882133
 31
0.0
  0
LINE
  5
4E0
330
229
100
AcDbEntity
  8
Specialized_Lines
  6
Continuous
 62
     7
440
 16777216
370
    -2
100
AcDbLine
 10
10638.0157447739
 20
569.1488858030907
 30
0.0
 11
10636.07873540525
 21
572.4181356720591
 31
0.0
  0
LINE
  5
4E1
330
229
100
AcDbEntity
  8
Specialized_Lines
  6
Continuous
 62
     7
440
 16777216
370
    -2
100
AcDbLine
 10
10644.39008997795
 20
558.3903796438881
 30
0.0
 11
10646.3270993466
 21
555.1211297749196
 31
0.0
  0
LINE
  5
4E2
330
229
100
AcDbEntity
  8
Specialized_Lines
  6
Continuous
 62
     7
440
 16777216
370
    -2
100
AcDbLine
 10
10639.95275414256
 20
565.8796359341213
 30
0.0
 11
10642.4530806093
 21
561.6596295128565
 31
0.0
  0
INSERT
  5
4E3
330
229
100
AcDbEntity
  8
Specialized_Lines
  6
Continuous
 62
     7
440
 16777216
370
    -2
100
AcDbBlockReference
  2
ARROWHEAD_6
 10
10639.95275414256
 20
565.8796359341213
 30
0.0
 41
3.799999999999999
 42
3.799999999999999
 43
3.799999999999999
 50
300.646466709763
  0
INSERT
  5
4E4
330
229
100
AcDbEntity
  8
Specialized_Lines
  6
Continuous
 62
     7
440
 16777216
370
    -2
100
AcDbBlockReference
  2
ARROWHEAD_6
 10
10642.4530806093
 20
561.6596295128565
 30
0.0
 41
3.799999999999999
 42
3.799999999999999
 43
3.799999999999999
 50
120.646466709763
  0
MTEXT
  5
4E5
330
229
100
AcDbEntity
  8
Specialized_Lines
  6
Continuous
 62
     7
440
 16777216
100
AcDbMText
 10
10643.46784767576
 20
565.1115892535654
 30
0.0
 40
5.0
 41
0.0
 46
0.0
 71
     5
 72
     1
  1
\A1;5
  7
GENERATED_STYLE_1
 11
0.509739307540206
 21
-0.8603289128864792
 31
0.0
 73
     1
 44
1.0
  0
POINT
  5
4E6
330
229
100
AcDbEntity
  8
Defpoints
  6
Continuous
 62
     0
440
 16777216
100
AcDbPoint
 10
10637.90990830568
 20
564.6692630096468
 30
0.0
  0
POINT
  5
4E7
330
229
100
AcDbEntity
  8
Defpoints
  6
Continuous
 62
     0
440
 16777216
100
AcDbPoint
 10
10640.41023477242
 20
560.449256588382
 30
0.0
  0
POINT
  5
4E8
330
229
100
AcDbEntity
  8
Defpoints
  6
Continuous
 62
     0
440
 16777216
100
AcDbPoint
 10
10642.4530806093
 20
561.6596295128565
 30
0.0
  0
ENDBLK
  5
22B
330
229
100
AcDbEntity
  8
0
100
AcDbBlockEnd
  0
BLOCK
  5
23A
330
239
100
AcDbEntity
  8
0
100
AcDbBlockBegin
  2
ARROWHEAD_5
 70
     0
 10
0.0
 20
0.0
 30
0.0
  3
ARROWHEAD_5
  1

  0
SOLID
  5
23C
330
239
100
AcDbEntity
  8
0
  6
Continuous
 62
     0
370
     0
100
AcDbTrace
 10
-1.0
 20
0.2679
 30
0.0
 11
0.0
 21
0.0
 31
0.0
 12
-1.0
 22
-0.2679
 32
0.0
 13
-1.0
 23
0.2679
 33
0.0
  0
LINE
  5
23D
330
239
100
AcDbEntity
  8
0
  6
Continuous
 62
     0
370
     0
100
AcDbLine
 10
0.0
 20
0.0
 30
0.0
 11
-1.0
 21
0.0
 31
0.0
  0
ENDBLK
  5
23B
330
239
100
AcDbEntity
  8
0
100
AcDbBlockEnd
  0
BLOCK
  5
250
330
24F
100
AcDbEntity
  8
0
100
AcDbBlockBegin
  2
01C Window Head_ BRICK_STORY_MARKER
 70
     0
 10
0.0
 20
0.0
 30
0.0
  3
01C Window Head_ BRICK_STORY_MARKER
  1

  0
ENDBLK
  5
251
330
24F
100
AcDbEntity
  8
0
100
AcDbBlockEnd
  0
ENDSEC
  0
SECTION
  2
ENTITIES
  0
HATCH
  5
3F
330
1F
100
AcDbEntity
  8
Specialized_Fills
  6
Continuous
 62
    30
420
 16742400
370
    20
100
AcDbHatch
 10
0.0
 20
0.0
 30
0.0
210
0.0
220
0.0
230
1.0
  2
SOLID
 70
     1
 71
     1
 91
        3
 92
        1
 93
       58
 72
     1
 10
10586.70990830566
 20
571.8250936480813
 11
10586.70990830566
 21
553.8737703405964
 72
     1
 10
10586.70990830566
 20
553.8737703405964
 11
10588.10990830566
 21
555.5750936480792
 72
     1
 10
10588.10990830566
 20
555.5750936480792
 11
10588.10990830566
 21
551.2381688761283
 72
     1
 10
10588.10990830566
 20
551.2381688761283
 11
10586.70990830566
 21
552.9394921836087
 72
     1
 10
10586.70990830566
 20
552.9394921836087
 11
10586.70990830566
 21
552.2272735853146
 72
     1
 10
10586.70990830566
 20
552.2272735853146
 11
10587.70226033814
 21
550.9394921836082
 72
     1
 10
10587.70226033814
 20
550.9394921836082
 11
10586.70990830566
 21
549.6517107819016
 72
     1
 10
10586.70990830566
 20
549.6517107819016
 11
10586.70990830566
 21
548.9394921836084
 72
     1
 10
10586.70990830566
 20
548.9394921836084
 11
10588.10990830566
 21
550.6408154910928
 72
     1
 10
10588.10990830566
 20
550.6408154910928
 11
10588.10990830567
 21
546.3190116856861
 72
     1
 10
10588.10990830567
 20
546.3190116856861
 11
10586.70990830566
 21
548.0203349931715
 72
     1
 10
10586.70990830566
 20
548.0203349931715
 11
10586.70990830566
 21
543.9234609623443
 72
     1
 10
10586.70990830566
 20
543.9234609623443
 11
10587.57372543155
 21
543.9234609623443
 72
     1
 10
10587.57372543155
 20
543.9234609623443
 11
10588.37724745393
 21
545.336788898282
 72
     1
 10
10588.37724745393
 20
545.336788898282
 11
10589.94868789723
 21
544.9199934710931
 72
     1
 10
10589.94868789723
 20
544.9199934710931
 11
10590.60543462305
 21
545.1955639155764
 72
     1
 10
10590.60543462305
 20
545.1955639155764
 11
10588.49493492866
 21
545.8282502806611
 72
     1
 10
10588.49493492866
 20
545.8282502806611
 11
10593.4767908977
 21
547.9186333914749
 72
     1
 10
10593.4767908977
 20
547.9186333914749
 11
10592.44966258171
 21
545.9694006144366
 72
     1
 10
10592.44966258171
 20
545.9694006144366
 11
10593.10640930753
 21
546.2449710589201
 72
     1
 10
10593.10640930753
 20
546.2449710589201
 11
10593.90993132991
 21
547.6582989948588
 72
     1
 10
10593.90993132991
 20
547.6582989948588
 11
10595.4813717732
 21
547.2415035676681
 72
     1
 10
10595.4813717732
 20
547.2415035676681
 11
10596.13811849902
 21
547.5170740121519
 72
     1
 10
10596.13811849902
 20
547.5170740121519
 11
10594.02761880463
 21
548.1497603772367
 72
     1
 10
10594.02761880463
 20
548.1497603772367
 11
10599.00947477367
 21
550.2401434880495
 72
     1
 10
10599.00947477367
 20
550.2401434880495
 11
10597.98234645769
 21
548.2909107110116
 72
     1
 10
10597.98234645769
 20
548.2909107110116
 11
10598.63909318351
 21
548.566481155496
 72
     1
 10
10598.63909318351
 20
548.566481155496
 11
10599.44261520588
 21
549.9798090914342
 72
     1
 10
10599.44261520588
 20
549.9798090914342
 11
10601.01405564918
 21
549.5630136642444
 72
     1
 10
10601.01405564918
 20
549.5630136642444
 11
10601.670802375
 21
549.8385841087278
 72
     1
 10
10601.670802375
 20
549.8385841087278
 11
10599.56030268061
 21
550.4712704738121
 72
     1
 10
10599.56030268061
 20
550.4712704738121
 11
10604.54215864965
 21
552.5616535846271
 72
     1
 10
10604.54215864965
 20
552.5616535846271
 11
10603.51503033366
 21
550.612420807587
 72
     1
 10
10603.51503033366
 20
550.612420807587
 11
10604.17177705949
 21
550.8879912520714
 72
     1
 10
10604.17177705949
 20
550.8879912520714
 11
10604.97529908186
 21
552.3013191880092
 72
     1
 10
10604.97529908186
 20
552.3013191880092
 11
10606.54673952515
 21
551.8845237608198
 72
     1
 10
10606.54673952515
 20
551.8845237608198
 11
10607.20348625098
 21
552.1600942053037
 72
     1
 10
10607.20348625098
 20
552.1600942053037
 11
10605.09298655659
 21
552.7927805703884
 72
     1
 10
10605.09298655659
 20
552.7927805703884
 11
10610.07484252563
 21
554.8831636812031
 72
     1
 10
10610.07484252563
 20
554.8831636812031
 11
10609.04771420964
 21
552.9339309041634
 72
     1
 10
10609.04771420964
 20
552.9339309041634
 11
10609.67435530728
 21
553.1968690491413
 72
     1
 10
10609.67435530728
 20
553.1968690491413
 11
10610.50798295784
 21
554.622829284586
 72
     1
 10
10610.50798295784
 20
554.622829284586
 11
10611.90990830566
 21
554.2509945919449
 72
     1
 10
10611.90990830566
 20
554.2509945919449
 11
10611.90990830567
 21
547.125093648082
 72
     1
 10
10611.90990830567
 20
547.125093648082
 11
10613.10990830566
 21
547.1250936480815
 72
     1
 10
10613.10990830566
 20
547.1250936480815
 11
10613.10990830566
 21
549.6250936480814
 72
     1
 10
10613.10990830566
 20
549.6250936480814
 11
10641.06215338458
 21
549.6250936480814
 72
     1
 10
10641.06215338458
 20
549.6250936480814
 11
10641.06215338458
 21
559.4400482243062
 72
     1
 10
10641.06215338458
 20
559.4400482243062
 11
10657.06215338459
 21
568.6776525313401
 72
     1
 10
10657.06215338459
 20
568.6776525313401
 11
10657.06215338459
 21
598.6776525313399
 72
     1
 10
10657.06215338459
 20
598.6776525313399
 11
10655.86215338458
 21
598.6776525313399
 72
     1
 10
10655.86215338458
 20
598.6776525313399
 11
10655.86215338458
 21
569.3704259586107
 72
     1
 10
10655.86215338458
 20
569.3704259586107
 11
10623.7406955795
 21
550.8250936480814
 72
     1
 10
10623.7406955795
 20
550.8250936480814
 11
10613.10990830566
 21
550.8250936480814
 72
     1
 10
10613.10990830566
 20
550.8250936480814
 11
10613.10990830566
 21
556.8250936480811
 72
     1
 10
10613.10990830566
 20
556.8250936480811
 11
10587.90990830566
 21
556.8250936480811
 72
     1
 10
10587.90990830566
 20
556.8250936480811
 11
10587.90990830566
 21
571.8250936480813
 72
     1
 10
10587.90990830566
 20
571.8250936480813
 11
10586.70990830566
 21
571.8250936480813
 97
        1
330
41
 92
       16
 93
        3
 72
     1
 10
10626.14061435366
 20
550.8250936480814
 11
10639.86215338458
 21
558.7472279012781
 72
     1
 10
10639.86215338458
 20
558.7472279012781
 11
10639.86215338458
 21
550.8250936480814
 72
     1
 10
10639.86215338458
 20
550.8250936480814
 11
10626.14061435366
 21
550.8250936480814
 97
        1
330
42
 92
       16
 93
        3
 72
     1
 10
10589.30990830566
 20
555.5750936480792
 11
10608.63395043148
 21
555.5750936480801
 72
     1
 10
10608.63395043148
 20
555.5750936480801
 11
10589.30990830566
 21
547.4667397447392
 72
     1
 10
10589.30990830566
 20
547.4667397447392
 11
10589.30990830566
 21
555.5750936480792
 97
        1
330
43
 75
     0
 76
     1
 98
        0
450
        0
451
        0
460
0.0
461
0.0
452
        1
462
0.0
453
        0
470

  0
LWPOLYLINE
  5
41
102
{ACAD_REACTORS
330
3F
330
43E
330
6DA
102
}
330
1F
100
AcDbEntity
  8
Specialized_Fills
  6
Continuous
100
AcDbPolyline
 90
       58
 70
   129
 43
0.0
 10
10586.70990830566
 20
571.8250936480813
 10
10586.70990830566
 20
553.8737703405964
 10
10588.10990830566
 20
555.5750936480792
 10
10588.10990830566
 20
551.2381688761283
 10
10586.70990830566
 20
552.9394921836087
 10
10586.70990830566
 20
552.2272735853146
 10
10587.70226033814
 20
550.9394921836082
 10
10586.70990830566
 20
549.6517107819016
 10
10586.70990830566
 20
548.9394921836084
 10
10588.10990830566
 20
550.6408154910928
 10
10588.10990830567
 20
546.3190116856861
 10
10586.70990830566
 20
548.0203349931715
 10
10586.70990830566
 20
543.9234609623443
 10
10587.57372543155
 20
543.9234609623443
 10
10588.37724745393
 20
545.336788898282
 10
10589.94868789723
 20
544.9199934710931
 10
10590.60543462305
 20
545.1955639155764
 10
10588.49493492866
 20
545.8282502806611
 10
10593.4767908977
 20
547.9186333914749
 10
10592.44966258171
 20
545.9694006144366
 10
10593.10640930753
 20
546.2449710589201
 10
10593.90993132991
 20
547.6582989948588
 10
10595.4813717732
 20
547.2415035676681
 10
10596.13811849902
 20
547.5170740121519
 10
10594.02761880463
 20
548.1497603772367
 10
10599.00947477367
 20
550.2401434880495
 10
10597.98234645769
 20
548.2909107110116
 10
10598.63909318351
 20
548.566481155496
 10
10599.44261520588
 20
549.9798090914342
 10
10601.01405564918
 20
549.5630136642444
 10
10601.670802375
 20
549.8385841087278
 10
10599.56030268061
 20
550.4712704738121
 10
10604.54215864965
 20
552.5616535846271
 10
10603.51503033366
 20
550.612420807587
 10
10604.17177705949
 20
550.8879912520714
 10
10604.97529908186
 20
552.3013191880092
 10
10606.54673952515
 20
551.8845237608198
 10
10607.20348625098
 20
552.1600942053037
 10
10605.09298655659
 20
552.7927805703884
 10
10610.07484252563
 20
554.8831636812031
 10
10609.04771420964
 20
552.9339309041634
 10
10609.67435530728
 20
553.1968690491413
 10
10610.50798295784
 20
554.622829284586
 10
10611.90990830566
 20
554.2509945919449
 10
10611.90990830567
 20
547.125093648082
 10
10613.10990830566
 20
547.1250936480815
 10
10613.10990830566
 20
549.6250936480814
 10
10641.06215338458
 20
549.6250936480814
 10
10641.06215338458
 20
559.4400482243062
 10
10657.06215338459
 20
568.6776525313401
 10
10657.06215338459
 20
598.6776525313399
 10
10655.86215338458
 20
598.6776525313399
 10
10655.86215338458
 20
569.3704259586107
 10
10623.7406955795
 20
550.8250936480814
 10
10613.10990830566
 20
550.8250936480814
 10
10613.10990830566
 20
556.8250936480811
 10
10587.90990830566
 20
556.8250936480811
 91
        8
 10
10587.90990830566
 20
571.8250936480813
 91
        9
  0
LWPOLYLINE
  5
42
102
{ACAD_REACTORS
330
3F
102
}
330
1F
100
AcDbEntity
  8
Specialized_Fills
  6
Continuous
100
AcDbPolyline
 90
        3
 70
   129
 43
0.0
 10
10626.14061435366
 20
550.8250936480814
 10
10639.86215338458
 20
558.7472279012781
 10
10639.86215338458
 20
550.8250936480814
  0
LWPOLYLINE
  5
43
102
{ACAD_REACTORS
330
3F
102
}
330
1F
100
AcDbEntity
  8
Specialized_Fills
  6
Continuous
100
AcDbPolyline
 90
        3
 70
   129
 43
0.0
 10
10589.30990830566
 20
555.5750936480792
 10
10608.63395043148
 20
555.5750936480801
 10
10589.30990830566
 20
547.4667397447392
  0
HATCH
  5
45
330
1F
100
AcDbEntity
  8
Specialized_Fills
  6
Continuous
 62
   254
420
 14671839
370
    13
100
AcDbHatch
 10
0.0
 20
0.0
 30
0.0
210
0.0
220
0.0
230
1.0
  2
SOLID
 70
     1
 71
     1
 91
        1
 92
        1
 93
        4
 72
     1
 10
10659.50903121589
 20
662.5013587025724
 11
10704.50903121588
 21
662.5013587025724
 72
     1
 10
10704.50903121588
 20
662.5013587025724
 11
10704.50903121588
 21
522.5013587026072
 72
     1
 10
10704.50903121588
 20
522.5013587026072
 11
10659.50903121589
 21
522.5013587026072
 72
     1
 10
10659.50903121589
 20
522.5013587026072
 11
10659.50903121589
 21
662.5013587025724
 97
        1
330
46
 75
     0
 76
     1
 98
        0
450
        0
451
        0
460
0.0
461
0.0
452
        1
462
0.0
453
        0
470

  0
LWPOLYLINE
  5
46
102
{ACAD_REACTORS
330
45
102
}
330
1F
100
AcDbEntity
  8
Specialized_Fills
  6
Continuous
100
AcDbPolyline
 90
        4
 70
   129
 43
0.0
 10
10659.50903121589
 20
662.5013587025724
 10
10704.50903121588
 20
662.5013587025724
 10
10704.50903121588
 20
522.5013587026072
 10
10659.50903121589
 20
522.5013587026072
  0
HATCH
  5
47
330
1F
100
AcDbEntity
  8
Specialized_Fills
  6
Continuous
 62
   254
420
 14671839
370
    13
100
AcDbHatch
 10
0.0
 20
0.0
 30
0.0
210
0.0
220
0.0
230
1.0
  2
SOLID
 70
     1
 71
     1
 91
        1
 92
        1
 93
        4
 72
     1
 10
10704.5090312159
 20
662.5013587025724
 11
10749.50903121589
 21
662.5013587025724
 72
     1
 10
10749.50903121589
 20
662.5013587025724
 11
10749.50903121589
 21
522.5013587026072
 72
     1
 10
10749.50903121589
 20
522.5013587026072
 11
10704.5090312159
 21
522.5013587026072
 72
     1
 10
10704.5090312159
 20
522.5013587026072
 11
10704.5090312159
 21
662.5013587025724
 97
        1
330
48
 75
     0
 76
     1
 98
        0
450
        0
451
        0
460
0.0
461
0.0
452
        1
462
0.0
453
        0
470

  0
LWPOLYLINE
  5
48
102
{ACAD_REACTORS
330
47
102
}
330
1F
100
AcDbEntity
  8
Specialized_Fills
  6
Continuous
100
AcDbPolyline
 90
        4
 70
   129
 43
0.0
 10
10704.5090312159
 20
662.5013587025724
 10
10749.50903121589
 20
662.5013587025724
 10
10749.50903121589
 20
522.5013587026072
 10
10704.5090312159
 20
522.5013587026072
  0
HATCH
  5
4B
330
1F
100
AcDbEntity
  8
Specialized_Fills
  6
Continuous
100
AcDbHatch
 10
0.0
 20
0.0
 30
0.0
210
0.0
220
0.0
230
1.0
  2
WOODFACE
 70
     0
 71
     1
 91
        1
 92
        1
 93
        8
 72
     1
 10
10664.19311457821
 20
515.3580827030967
 11
10664.19311457821
 21
496.3580827030913
 72
     1
 10
10664.19311457821
 20
496.3580827030913
 11
10766.16395003691
 21
496.3580827030913
 72
     1
 10
10766.16395003691
 20
496.3580827030913
 11
10766.16395003691
 21
515.3580827030967
 72
     1
 10
10766.16395003691
 20
515.3580827030967
 11
10761.0090312159
 21
515.3580827030967
 72
     1
 10
10761.0090312159
 20
515.3580827030967
 11
10761.0090312159
 21
510.1216380104975
 72
     1
 10
10761.0090312159
 20
510.1216380104975
 11
10750.00903121588
 21
510.1216380104975
 72
     1
 10
10750.00903121588
 20
510.1216380104975
 11
10750.00903121588
 21
515.3580827030967
 72
     1
 10
10750.00903121588
 20
515.3580827030967
 11
10664.19311457821
 21
515.3580827030967
 97
        1
330
4C
 75
     0
 76
     2
 52
0.0
 41
1.0
 77
     0
 78
    38
 53
0.0
 43
-0.6007870180656028
 44
34.46286250831986
 45
100.0
 46
100.0
 79
     2
 49
5.0
 49
-95.00000000000001
 53
90.0
 43
39.3992129819344
 44
69.46286250831986
 45
-100.0
 46
100.0
 79
     2
 49
10.0
 49
-90.00000000000001
 53
44.99999999999999
 43
19.39921298193439
 44
59.46286250831986
 45
0.0
 46
100.0000000019025
 79
     6
 49
7.070000000000001
 49
-21.21
 49
7.070000000000001
 49
-14.14
 49
49.5
 49
-42.43135622999999
 53
44.99999999999999
 43
-5.600787018065602
 44
29.46286250831986
 45
0.0
 46
100.0000000019025
 79
     4
 49
7.071
 49
-14.142
 49
7.071
 49
-113.1373562
 53
44.99999999999999
 43
29.3992129819344
 44
39.46286250831986
 45
0.0
 46
100.0000000019025
 79
     2
 49
7.071
 49
-134.3503562
 53
44.99999999999999
 43
39.3992129819344
 44
34.46286250831986
 45
0.0
 46
100.0000000019025
 79
     2
 49
7.071
 49
-134.3503562
 53
44.99999999999999
 43
24.3992129819344
 44
44.46286250831986
 45
0.0
 46
100.0000000019025
 79
     2
 49
7.071
 49
-134.3503562
 53
44.99999999999999
 43
19.39921298193439
 44
49.46286250831986
 45
0.0
 46
100.0000000019025
 79
     2
 49
14.142
 49
-127.2793562
 53
44.99999999999999
 43
44.3992129819344
 44
124.4628625083199
 45
0.0
 46
100.0000000019025
 79
     2
 49
14.142
 49
-127.2793562
 53
44.99999999999999
 43
9.399212981934397
 44
54.46286250831986
 45
0.0
 46
100.0000000019025
 79
     2
 49
28.284
 49
-113.1373562
 53
44.99999999999999
 43
4.399212981934397
 44
59.46286250831986
 45
0.0
 46
100.0000000019025
 79
     2
 49
28.284
 49
-113.1373562
 53
44.99999999999999
 43
69.39921298193441
 44
89.46286250831986
 45
0.0
 46
100.0000000019025
 79
     2
 49
28.284
 49
-113.1373562
 53
44.99999999999999
 43
-0.6007870180656028
 44
69.46286250831986
 45
0.0
 46
100.0000000019025
 79
     2
 49
21.2132
 49
-120.2081562
 53
44.99999999999999
 43
-20.6007870180656
 44
84.46286250831986
 45
0.0
 46
100.0000000019025
 79
     2
 49
21.2132
 49
-120.2081562
 53
44.99999999999999
 43
-10.6007870180656
 44
74.46286250831986
 45
0.0
 46
100.0000000019025
 79
     2
 49
21.2132
 49
-120.2081562
 53
44.99999999999999
 43
54.39921298193439
 44
104.4628625083198
 45
0.0
 46
100.0000000019025
 79
     2
 49
35.35534
 49
-106.0660162
 53
44.99999999999999
 43
44.3992129819344
 44
109.4628625083198
 45
0.0
 46
100.0000000019025
 79
     2
 49
35.35534
 49
-106.0660162
 53
44.99999999999999
 43
54.39921298193439
 44
84.46286250831986
 45
0.0
 46
100.0000000019025
 79
     2
 49
49.49747460000001
 49
-91.92388150000001
 53
26.56505119999999
 43
9.399212981934397
 44
44.46286250831986
 45
100.0000000000093
 46
0.000000040006455
 79
     2
 49
11.180339
 49
-212.426458
 53
26.56505119999999
 43
29.3992129819344
 44
74.46286250831986
 45
100.0000000000093
 46
0.000000040006455
 79
     2
 49
11.180339
 49
-212.426458
 53
26.56505119999999
 43
24.3992129819344
 44
64.46286250831986
 45
100.0000000000093
 46
0.000000040006455
 79
     2
 49
11.180339
 49
-212.426458
 53
26.56505119999999
 43
4.399212981934397
 44
34.46286250831986
 45
100.0000000000093
 46
0.000000040006455
 79
     2
 49
22.36067999999999
 49
-201.2461177
 53
26.56505119999999
 43
24.3992129819344
 44
79.46286250831986
 45
100.0000000000093
 46
0.000000040006455
 79
     2
 49
33.5410196
 49
-190.0657781
 53
26.56505119999999
 43
14.3992129819344
 44
84.46286250831986
 45
100.0000000000093
 46
0.000000040006455
 79
     2
 49
44.72135950000001
 49
-178.8854382
 53
26.56505119999999
 43
4.399212981934397
 44
89.46286250831986
 45
100.0000000000093
 46
0.000000040006455
 79
     2
 49
44.72135950000001
 49
-178.8854382
 53
26.56505119999999
 43
-10.6007870180656
 44
119.4628625083198
 45
100.0000000000093
 46
0.000000040006455
 79
     2
 49
44.72135950000001
 49
-178.8854382
 53
26.56505119999999
 43
-10.6007870180656
 44
109.4628625083198
 45
100.0000000000093
 46
0.000000040006455
 79
     2
 49
55.90169999999999
 49
-167.7050977
 53
26.56505119999999
 43
-5.600787018065602
 44
99.46286250831988
 45
100.0000000000093
 46
0.000000040006455
 79
     2
 49
55.90169999999999
 49
-167.7050977
 53
63.43494882000001
 43
29.3992129819344
 44
59.46286250831986
 45
0.0000000050998636
 46
100.0000000000093
 79
     2
 49
11.18033899999999
 49
-212.4264579999998
 53
63.43494882000001
 43
14.3992129819344
 44
49.46286250831986
 45
0.0000000050998636
 46
100.0000000000093
 79
     2
 49
11.18033899999999
 49
-212.4264579999998
 53
63.43494882000001
 43
-0.6007870180656028
 44
34.46286250831986
 45
0.0000000050998636
 46
100.0000000000093
 79
     2
 49
22.36067999999997
 49
-201.2461176999998
 53
63.43494882000001
 43
29.3992129819344
 44
49.46286250831986
 45
0.0000000050998636
 46
100.0000000000093
 79
     2
 49
22.36067999999997
 49
-201.2461176999998
 53
63.43494882000001
 43
-10.6007870180656
 44
29.46286250831986
 45
0.0000000050998636
 46
100.0000000000093
 79
     2
 49
33.54101959999996
 49
-190.0657780999998
 53
63.43494882000001
 43
-20.6007870180656
 44
29.46286250831986
 45
0.0000000050998636
 46
100.0000000000093
 79
     2
 49
44.72135949999996
 49
-178.8854381999998
 53
63.43494882000001
 43
69.39921298193441
 44
34.46286250831986
 45
0.0000000050998636
 46
100.0000000000093
 79
     2
 49
44.72135949999996
 49
-178.8854381999998
 53
63.43494882000001
 43
34.39921298193441
 44
44.46286250831986
 45
0.0000000050998636
 46
100.0000000000093
 79
     2
 49
44.72135949999996
 49
-178.8854381999998
 53
63.43494882000001
 43
54.39921298193439
 44
34.46286250831986
 45
0.0000000050998636
 46
100.0000000000093
 79
     2
 49
55.90169999999995
 49
-167.7050976999998
 53
63.43494882000001
 43
44.3992129819344
 44
39.46286250831986
 45
0.0000000050998636
 46
100.0000000000093
 79
     2
 49
55.90169999999995
 49
-167.7050976999998
 98
        0
  0
LWPOLYLINE
  5
4C
102
{ACAD_REACTORS
330
4B
102
}
330
1F
100
AcDbEntity
  8
Specialized_Fills
  6
Continuous
100
AcDbPolyline
 90
        8
 70
   129
 43
0.0
 10
10664.19311457821
 20
515.3580827030967
 10
10664.19311457821
 20
496.3580827030913
 10
10766.16395003691
 20
496.3580827030913
 10
10766.16395003691
 20
515.3580827030967
 10
10761.0090312159
 20
515.3580827030967
 10
10761.0090312159
 20
510.1216380104975
 10
10750.00903121588
 20
510.1216380104975
 10
10750.00903121588
 20
515.3580827030967
  0
HATCH
  5
4E
330
1F
100
AcDbEntity
  8
Specialized_Fills
  6
Continuous
100
AcDbHatch
 10
0.0
 20
0.0
 30
0.0
210
0.0
220
0.0
230
1.0
  2
LINES___ANGLED
 70
     0
 71
     1
 91
        1
 92
        1
 93
        4
 72
     1
 10
10638.52591673048
 20
619.7564433000503
 11
10638.52591673048
 21
569.7564433000531
 72
     1
 10
10638.52591673048
 20
569.7564433000531
 11
10655.05268570293
 21
569.7564433000531
 72
     1
 10
10655.05268570293
 20
569.7564433000531
 11
10655.05268570293
 21
619.7564433000555
 72
     1
 10
10655.05268570293
 20
619.7564433000555
 11
10638.52591673048
 21
619.7564433000503
 97
        1
330
4F
 75
     0
 76
     2
 52
0.0
 41
1.0
 77
     0
 78
     1
 53
44.99999999999999
 43
-0.6007870180656028
 44
34.46286250831986
 45
-1.838477563650065
 46
1.838477563650065
 79
     0
 98
        0
  0
LWPOLYLINE
  5
4F
102
{ACAD_REACTORS
330
4E
102
}
330
1F
100
AcDbEntity
  8
Specialized_Fills
  6
Continuous
100
AcDbPolyline
 90
        4
 70
   129
 43
0.0
 10
10638.52591673048
 20
619.7564433000503
 10
10638.52591673048
 20
569.7564433000531
 10
10655.05268570293
 20
569.7564433000531
 10
10655.05268570293
 20
619.7564433000555
  0
HATCH
  5
1A4
330
1F
100
AcDbEntity
  8
Specialized_Fills
  6
Continuous
 62
   254
420
 14671839
370
    13
100
AcDbHatch
 10
0.0
 20
0.0
 30
0.0
210
0.0
220
0.0
230
1.0
  2
SOLID
 70
     1
 71
     1
 91
        1
 92
        1
 93
        4
 72
     1
 10
10760.50903121589
 20
511.1216380105023
 11
10760.50903121589
 21
749.7428667123842
 72
     1
 10
10760.50903121589
 20
749.7428667123842
 11
10750.5090312159
 21
749.7428667123842
 72
     1
 10
10750.5090312159
 20
749.7428667123842
 11
10750.5090312159
 21
511.1216380105023
 72
     1
 10
10750.5090312159
 20
511.1216380105023
 11
10760.50903121589
 21
511.1216380105023
 97
        1
330
1A5
 75
     0
 76
     1
 98
        0
450
        0
451
        0
460
0.0
461
0.0
452
        1
462
0.0
453
        0
470

  0
LWPOLYLINE
  5
1A5
102
{ACAD_REACTORS
330
1A4
102
}
330
1F
100
AcDbEntity
  8
Specialized_Fills
  6
Continuous
100
AcDbPolyline
 90
        4
 70
   129
 43
0.0
 10
10760.50903121589
 20
511.1216380105023
 10
10760.50903121589
 20
749.7428667123842
 10
10750.5090312159
 20
749.7428667123842
 10
10750.5090312159
 20
511.1216380105023
  0
LINE
  5
1A6
330
1F
100
AcDbEntity
  8
Specialized_Lines
  6
Continuous
100
AcDbLine
 10
10619.50903121589
 20
508.5376867166306
 30
0.0
 11
10619.50903121589
 21
501.7580827030967
 31
0.0
  0
LINE
  5
1A9
330
1F
100
AcDbEntity
  8
Specialized_Lines
  6
Continuous
100
AcDbLine
 10
10619.61225038
 20
498.3661236957375
 30
0.0
 11
10619.50903121589
 21
432.5376867166372
 31
0.0
  0
LINE
  5
1B2
102
{ACAD_REACTORS
330
6DA
102
}
330
1F
100
AcDbEntity
  8
Specialized_Lines
  6
Continuous
100
AcDbLine
 10
10549.5090312159
 20
594.5376867166434
 30
0.0
 11
10582.86418313076
 21
594.5313967596752
 31
0.0
  0
LINE
  5
1B3
102
{ACAD_REACTORS
330
829
102
}
330
1F
100
AcDbEntity
  8
Specialized_Lines
  6
Continuous
100
AcDbLine
 10
10582.86606888345
 20
604.5313964040882
 30
0.0
 11
10549.5090312159
 21
604.5376867166627
 31
0.0
  0
LINE
  5
1B4
330
1F
100
AcDbEntity
  8
Specialized_Lines
  6
Continuous
100
AcDbLine
 10
10760.50903121589
 20
749.7428667123541
 30
0.0
 11
10760.50903121589
 21
511.1216380105023
 31
0.0
  0
LINE
  5
1B6
330
1F
100
AcDbEntity
  8
Specialized_Lines
  6
DASHEDX2
100
AcDbLine
 10
10586.13609430331
 20
541.0855747540942
 30
0.0
 11
10611.66009009873
 21
551.5780886721505
 31
0.0
  0
LINE
  5
1B7
330
1F
100
AcDbEntity
  8
Specialized_Lines
  6
Continuous
100
AcDbLine
 10
10614.18052796714
 20
508.4926315384534
 30
0.0
 11
10619.50903121589
 21
508.5376867166306
 31
0.0
  0
LINE
  5
1B8
330
1F
100
AcDbEntity
  8
Specialized_Lines
  6
Continuous
100
AcDbLine
 10
10760.50903121589
 20
511.1216380105023
 30
0.0
 11
10750.5090312159
 21
511.1216380105023
 31
0.0
  0
LINE
  5
1B9
102
{ACAD_REACTORS
330
6DA
102
}
330
1F
100
AcDbEntity
  8
Specialized_Lines
  6
Continuous
 62
   251
420
  6250335
100
AcDbLine
 10
10587.91129145026
 20
503.2829305393194
 30
0.0
 11
10587.91129145026
 21
524.4579854323867
 31
0.0
  0
LINE
  5
1BA
330
1F
100
AcDbEntity
  8
Specialized_Lines
  6
Continuous
100
AcDbLine
 10
10749.50903121589
 20
749.7428667123825
 30
0.0
 11
10749.50903121589
 21
522.5013587026072
 31
0.0
  0
LINE
  5
1BB
330
1F
100
AcDbEntity
  8
Specialized_Lines
  6
Continuous
100
AcDbLine
 10
10659.50903121589
 20
749.7428667123825
 30
0.0
 11
10659.50903121589
 21
522.5013587026072
 31
0.0
  0
LINE
  5
1BC
102
{ACAD_REACTORS
330
829
102
}
330
1F
100
AcDbEntity
  8
Specialized_Lines
  6
Continuous
100
AcDbLine
 10
10549.5090312159
 20
604.5376867166627
 30
0.0
 11
10549.49411097573
 21
670.6219950966374
 31
0.0
  0
LINE
  5
1BD
330
1F
100
AcDbEntity
  8
Specialized_Lines
  6
Continuous
100
AcDbLine
 10
10704.5090312159
 20
522.5013587026072
 30
0.0
 11
10749.50903121589
 21
662.5013587025758
 31
0.0
  0
LINE
  5
1BE
330
1F
100
AcDbEntity
  8
Specialized_Lines
  6
Continuous
100
AcDbLine
 10
10749.50903121589
 20
522.5013587026072
 30
0.0
 11
10704.5090312159
 21
662.501358702579
 31
0.0
  0
LINE
  5
1BF
330
1F
100
AcDbEntity
  8
Specialized_Lines
  6
Continuous
100
AcDbLine
 10
10659.50903121589
 20
522.5013587026072
 30
0.0
 11
10704.40390120552
 21
662.1742875592385
 31
0.0
  0
LINE
  5
1C0
330
1F
100
AcDbEntity
  8
Specialized_Lines
  6
Continuous
100
AcDbLine
 10
10704.50903121588
 20
522.5013587026072
 30
0.0
 11
10659.50903121589
 21
662.5013587025724
 31
0.0
  0
LINE
  5
1C1
330
1F
100
AcDbEntity
  8
Specialized_Lines
  6
Continuous
100
AcDbLine
 10
10713.40442719426
 20
515.9318513390136
 30
0.0
 11
10740.99404166995
 21
522.0704806132179
 31
0.0
  0
LINE
  5
1C2
330
1F
100
AcDbEntity
  8
Specialized_Lines
  6
Continuous
100
AcDbLine
 10
10740.99404166995
 20
515.9318513390136
 30
0.0
 11
10713.40442719426
 21
522.0704806132179
 31
0.0
  0
LINE
  5
1C3
330
1F
100
AcDbEntity
  8
Specialized_Lines
  6
Continuous
100
AcDbLine
 10
10761.0090312159
 20
514.1942356104838
 30
0.0
 11
10766.16395003691
 21
515.3580827030967
 31
0.0
  0
LINE
  5
1C4
102
{ACAD_REACTORS
330
6DA
102
}
330
1F
100
AcDbEntity
  8
Specialized_Lines
  6
Continuous
100
AcDbLine
 10
10619.50903121589
 20
518.53768671665
 30
0.0
 11
10608.08633459539
 21
518.53768671665
 31
0.0
  0
LINE
  5
1C5
102
{ACAD_REACTORS
330
6DA
102
}
330
1F
100
AcDbEntity
  8
Specialized_Lines
  6
Continuous
100
AcDbLine
 10
10549.5090312159
 20
518.53768671665
 30
0.0
 11
10549.5090312159
 21
594.5376867166434
 31
0.0
  0
LINE
  5
1C6
330
1F
100
AcDbEntity
  8
Specialized_Lines
  6
Continuous
100
AcDbLine
 10
10619.50903121589
 20
432.5376867166434
 30
0.0
 11
10549.5090312159
 21
432.5376867166434
 31
0.0
  0
LINE
  5
1C7
330
1F
100
AcDbEntity
  8
Specialized_Lines
  6
Continuous
100
AcDbLine
 10
10549.5090312159
 20
432.5376867166372
 30
0.0
 11
10549.5090312159
 21
508.5376867166306
 31
0.0
  0
LINE
  5
1C8
330
1F
100
AcDbEntity
  8
Specialized_Lines
  6
Continuous
100
AcDbLine
 10
10750.5090312159
 20
749.7428667123541
 30
0.0
 11
10750.5090312159
 21
511.1216380105023
 31
0.0
  0
LINE
  5
1C9
330
1F
100
AcDbEntity
  8
Specialized_Lines
  6
Continuous
100
AcDbLine
 10
10766.16395003691
 20
496.3580827030913
 30
0.0
 11
10766.16395003691
 21
422.5376867166437
 31
0.0
  0
LINE
  5
1CA
330
1F
100
AcDbEntity
  8
Specialized_Lines
  6
Continuous
100
AcDbLine
 10
10664.86113382632
 20
496.3580827030913
 30
0.0
 11
10664.86113382632
 21
496.1080827030972
 31
0.0
  0
LINE
  5
1CB
330
1F
100
AcDbEntity
  8
Specialized_Lines
  6
Continuous
100
AcDbLine
 10
10665.57640824783
 20
494.7107622144474
 30
0.0
 11
10665.57640824783
 21
422.5376867166401
 31
0.0
  0
INSERT
  5
1D4
102
{ACAD_REACTORS
330
6DA
102
}
330
1F
100
AcDbEntity
  8
Specialized_Lines
  6
Continuous
 62
   251
420
  6250335
100
AcDbBlockReference
  2
Line_1
 10
10587.91129145026
 20
524.4579854323867
 30
0.0
  0
LINE
  5
1D5
102
{ACAD_REACTORS
330
6DA
102
}
330
1F
100
AcDbEntity
  8
Specialized_Lines
  6
Continuous
100
AcDbLine
 10
10619.50903121589
 20
550.8250936480814
 30
0.0
 11
10619.50903121589
 21
518.53768671665
 31
0.0
  0
LINE
  5
1D6
102
{ACAD_REACTORS
330
6DA
102
}
330
1F
100
AcDbEntity
  8
Specialized_Lines
  6
Continuous
100
AcDbLine
 10
10606.88633459539
 20
518.5376867166235
 30
0.0
 11
10549.5090312159
 21
518.53768671665
 31
0.0
  0
LINE
  5
1D7
330
1F
100
AcDbEntity
  8
Specialized_Lines
  6
Continuous
100
AcDbLine
 10
10549.5090312159
 20
508.5376867166306
 30
0.0
 11
10612.60944865132
 21
508.5376867166306
 31
0.0
  0
LWPOLYLINE
  5
1D8
330
1F
100
AcDbEntity
  8
Specialized_Lines
  6
Continuous
100
AcDbPolyline
 90
        6
 70
   128
 43
0.0
 10
10602.98431853712
 20
525.2155228207898
 10
10607.43690157061
 20
536.9674578252622
 10
10610.30226781488
 20
538.3972623876959
 10
10656.13494110404
 20
549.883268455961
 42
0.4142135623731029
 10
10658.17897847703
 20
552.637641470034
 10
10658.13318713102
 20
584.8592225583896
  0
LWPOLYLINE
  5
1DB
330
1F
100
AcDbEntity
  8
Specialized_Lines
  6
Continuous
100
AcDbPolyline
 90
        2
 70
   128
 43
0.0
 10
10704.5090312159
 20
522.5013587026072
 10
10704.5090312159
 20
662.5013587025724
  0
LWPOLYLINE
  5
1DC
330
1F
100
AcDbEntity
  8
Specialized_Lines
  6
DASHEDX2
100
AcDbPolyline
 90
        4
 70
   128
 43
0.0
 10
10750.02210881214
 20
530.7329497658148
 10
10750.09564011409
 20
522.0976406576429
 10
10658.6377989112
 20
521.6106507760631
 10
10658.6377989112
 20
749.7428667123825
  0
LWPOLYLINE
  5
1DD
330
1F
100
AcDbEntity
  8
Specialized_Lines
  6
Continuous
100
AcDbPolyline
 90
        3
 70
   128
 43
0.0
 10
10749.50903121589
 20
749.7428667123541
 10
10749.50903121589
 20
522.5013587026072
 10
10704.5090312159
 20
522.5013587026072
  0
LWPOLYLINE
  5
1DE
330
1F
100
AcDbEntity
  8
Specialized_Lines
  6
Continuous
100
AcDbPolyline
 90
        2
 70
   128
 43
0.0
 10
10659.50903121589
 20
522.5013587026072
 10
10659.50903121589
 20
749.7428667123541
  0
LWPOLYLINE
  5
1DF
330
1F
100
AcDbEntity
  8
Specialized_Lines
  6
Continuous
100
AcDbPolyline
 90
        4
 70
   129
 43
0.0
 10
10740.99404166995
 20
515.9318513390136
 10
10713.40442719426
 20
515.9318513390136
 10
10713.40442719426
 20
522.0704806132179
 10
10740.99404166995
 20
522.0704806132179
  0
LWPOLYLINE
  5
1E0
330
1F
100
AcDbEntity
  8
Specialized_Lines
  6
Continuous
100
AcDbPolyline
 90
        8
 70
   129
 43
0.0
 10
10766.16395003691
 20
496.3580827030913
 10
10664.19311457821
 20
496.3580827030913
 10
10664.19311457821
 20
515.3580827030967
 10
10750.00903121588
 20
515.3580827030967
 10
10750.00903121588
 20
510.1216380104975
 10
10761.0090312159
 20
510.1216380104975
 10
10761.0090312159
 20
515.3580827030967
 10
10766.16395003691
 20
515.3580827030967
  0
LWPOLYLINE
  5
1E1
330
1F
100
AcDbEntity
  8
Specialized_Lines
  6
Continuous
100
AcDbPolyline
 90
        4
 70
   128
 43
0.0
 10
10658.10931666547
 20
602.8636249350771
 10
10658.10931666547
 20
583.740336400945
 10
10656.95296928496
 20
574.6024569845875
 10
10656.95296928496
 20
564.5991672666301
  0
LWPOLYLINE
  5
1E2
330
1F
100
AcDbEntity
  8
Specialized_Lines
  6
Continuous
100
AcDbPolyline
 90
        3
 70
   128
 43
0.0
 10
10704.5090312159
 20
654.2821154029869
 10
10704.5090312159
 20
522.5013587026072
 10
10659.50903121589
 20
522.5013587026072
  0
LWPOLYLINE
  5
1E3
330
1F
100
AcDbEntity
  8
Specialized_Lines
  6
DASHEDX2
100
AcDbPolyline
 90
        3
 70
   128
 43
0.0
 10
10586.13587087575
 20
749.7428667123806
 10
10584.92653679039
 20
543.7378925160715
 10
10586.13609430331
 20
541.0855747540942
  0
LWPOLYLINE
  5
1E5
330
1F
100
AcDbEntity
  8
Specialized_Fills
  6
DASHEDX2
 62
   253
420
 10461087
370
    20
100
AcDbPolyline
 90
        2
 70
   128
 43
0.0
 10
10727.00903121589
 20
707.5013587025726
 42
0.7765908303814024
 10
10737.80360677487
 20
749.7428667123842
  0
LWPOLYLINE
  5
1E6
330
1F
100
AcDbEntity
  8
Specialized_Fills
  6
DASHEDX2
 62
   253
420
 10461087
370
    20
100
AcDbPolyline
 90
        2
 70
   128
 43
0.0
 10
10659.67876650765
 20
749.7428667123827
 42
0.3786557640135535
 10
10682.00903121589
 20
730.0013587025732
  0
LWPOLYLINE
  5
1E7
330
1F
100
AcDbEntity
  8
Specialized_Fills
  6
DASHEDX2
 62
   253
420
 10461087
370
    20
100
AcDbPolyline
 90
        2
 70
   128
 43
0.0
 10
10682.00903121589
 20
730.0013587025732
 42
0.4142135623731025
 10
10659.50903121589
 20
707.5013587025726
  0
LWPOLYLINE
  5
1E8
330
1F
100
AcDbEntity
  8
Specialized_Fills
  6
DASHEDX2
 62
   253
420
 10461087
370
    20
100
AcDbPolyline
 90
        2
 70
   128
 43
0.0
 10
10727.00903121589
 20
662.5013587025724
 42
0.9999999999999989
 10
10727.00903121589
 20
707.5013587025726
  0
LWPOLYLINE
  5
1E9
330
1F
100
AcDbEntity
  8
Specialized_Fills
  6
DASHEDX2
 62
   253
420
 10461087
370
    20
100
AcDbPolyline
 90
        2
 70
   128
 43
0.0
 10
10659.50903121589
 20
707.5013587025726
 42
0.4142135623730862
 10
10682.00903121589
 20
685.0013587025731
  0
LWPOLYLINE
  5
1EA
330
1F
100
AcDbEntity
  8
Specialized_Fills
  6
DASHEDX2
 62
   253
420
 10461087
370
    20
100
AcDbPolyline
 90
        2
 70
   128
 43
0.0
 10
10682.00903121589
 20
685.0013587025731
 42
0.4142135623731025
 10
10659.50903121589
 20
662.5013587025724
  0
LWPOLYLINE
  5
1EB
330
1F
100
AcDbEntity
  8
0
  6
Continuous
100
AcDbPolyline
 90
        6
 70
   128
 43
0.0
 10
10777.28142666116
 20
749.7428667123825
 10
10708.51869291717
 20
749.7428667123825
 10
10706.51869291717
 20
755.2378215512915
 10
10702.51869291717
 20
744.2479118734736
 10
10700.51869291717
 20
749.7428667123799
 91
        1
 10
10538.63091410558
 20
749.7428667123812
 91
        2
  0
LWPOLYLINE
  5
1EF
330
1F
100
AcDbEntity
  8
0
  6
Continuous
100
AcDbPolyline
 90
        6
 70
   128
 43
0.0
 10
10777.28142666116
 20
422.5376867166437
 10
10708.51869291717
 20
422.5376867166437
 10
10706.51869291717
 20
428.0326415555526
 10
10702.51869291717
 20
417.0427318777347
 10
10700.51869291717
 20
422.5376867166437
 10
10538.63091410557
 20
422.5376867166437
  0
ARC
  5
1F0
330
1F
100
AcDbEntity
  8
Specialized_Lines
  6
Continuous
100
AcDbCircle
 10
10619.50903121589
 20
513.5376867166545
 30
0.0
 40
5.000000000001669
100
AcDbArc
 50
179.2015488862979
 51
270.0
  0
ELLIPSE
  5
1F1
330
1F
100
AcDbEntity
  8
Specialized_Lines
  6
Continuous
100
AcDbEllipse
 10
10745.70064607576
 20
518.9288504125162
 30
0.0
 11
4.3494602983154
 21
-2.263838866008781
 31
0.0
210
0.0
220
0.0
230
1.0
 40
0.6607036763668314
 41
0.0
 42
6.283185307179586
  0
ARC
  5
1F2
330
1F
100
AcDbEntity
  8
Specialized_Lines
  6
Continuous
100
AcDbCircle
 10
10549.5090312159
 20
513.5376867166545
 30
0.0
 40
5.000000000001669
100
AcDbArc
 50
270.0
 51
90.0
  0
ARC
  5
1F3
330
1F
100
AcDbEntity
  8
Specialized_Lines
  6
Continuous
100
AcDbCircle
 10
10619.50903121589
 20
427.5376867166418
 30
0.0
 40
5.000000000001669
100
AcDbArc
 50
90.0
 51
270.0
  0
ARC
  5
1F4
330
1F
100
AcDbEntity
  8
Specialized_Lines
  6
Continuous
100
AcDbCircle
 10
10549.5090312159
 20
427.5376867166418
 30
0.0
 40
5.000000000001669
100
AcDbArc
 50
270.0
 51
90.0
  0
ARC
  5
1F5
330
1F
100
AcDbEntity
  8
Specialized_Lines
  6
Continuous
100
AcDbCircle
 10
10549.5090312159
 20
599.5376867166388
 30
0.0
 40
5.000000000001669
100
AcDbArc
 50
270.0
 51
90.0
  0
ARC
  5
1F6
330
1F
100
AcDbEntity
  8
Specialized_Lines
  6
Continuous
100
AcDbCircle
 10
10619.50903121589
 20
513.5376867166545
 30
0.0
 40
5.000000000001669
100
AcDbArc
 50
90.0
 51
179.2015488862979
  0
SPLINE
  5
1F7
330
1F
100
AcDbEntity
  8
Specialized_Fills
  6
DASHEDX2
 62
   253
420
 10461087
370
    20
100
AcDbSpline
210
0.0
220
0.0
230
1.0
 70
     8
 71
     3
 72
    14
 73
    10
 74
     0
 42
0.00001
 43
0.0000000001
 40
0.0
 40
0.0
 40
0.0
 40
0.0
 40
1.0
 40
1.0
 40
1.0
 40
2.0
 40
2.0
 40
2.0
 40
3.0
 40
3.0
 40
3.0
 40
3.0
 10
10682.00903121589
 20
730.0013587025723
 30
0.0
 10
10685.47386037616
 20
730.5490090446751
 30
0.0
 10
10688.8795821511
 20
731.0439079189107
 30
0.0
 10
10692.07133711464
 20
732.3767469050741
 30
0.0
 10
10696.79273358967
 20
734.3483460293638
 30
0.0
 10
10700.65768697413
 20
737.858856019928
 30
0.0
 10
10704.50903121589
 20
741.2513587025723
 30
0.0
 10
10708.12216704806
 20
744.434032655865
 30
0.0
 10
10711.74728061435
 20
747.7205676817439
 30
0.0
 10
10716.08028959537
 20
749.7428667123842
 30
0.0
  0
SPLINE
  5
1F8
330
1F
100
AcDbEntity
  8
Specialized_Fills
  6
DASHEDX2
 62
   253
420
 10461087
370
    20
100
AcDbSpline
210
0.0
220
0.0
230
1.0
 70
     8
 71
     3
 72
    17
 73
    13
 74
     0
 42
0.00001
 43
0.0000000001
 40
0.0
 40
0.0
 40
0.0
 40
0.0
 40
1.0
 40
1.0
 40
1.0
 40
2.0
 40
2.0
 40
2.0
 40
3.0
 40
3.0
 40
3.0
 40
4.0
 40
4.0
 40
4.0
 40
4.0
 10
10682.00903121589
 20
730.0013587025723
 30
0.0
 10
10685.47386037616
 20
729.4537083604691
 30
0.0
 10
10688.8795821511
 20
728.9588094862335
 30
0.0
 10
10692.07133711464
 20
727.62597050007
 30
0.0
 10
10696.79273358967
 20
725.6543713757801
 30
0.0
 10
10700.65768697413
 20
722.1438613852168
 30
0.0
 10
10704.50903121589
 20
718.7513587025716
 30
0.0
 10
10708.36037545764
 20
715.358856019925
 30
0.0
 10
10712.2253288421
 20
711.8483460293653
 30
0.0
 10
10716.94672531714
 20
709.8767469050734
 30
0.0
 10
10720.13848028068
 20
708.5439079189092
 30
0.0
 10
10723.54420205561
 20
708.0490090446692
 30
0.0
 10
10727.00903121589
 20
707.5013587025648
 30
0.0
  0
SPLINE
  5
1F9
330
1F
100
AcDbEntity
  8
Specialized_Fills
  6
DASHEDX2
 62
   253
420
 10461087
370
    20
100
AcDbSpline
210
0.0
220
0.0
230
1.0
 70
     8
 71
     3
 72
    17
 73
    13
 74
     0
 42
0.00001
 43
0.0000000001
 40
0.0
 40
0.0
 40
0.0
 40
0.0
 40
1.0
 40
1.0
 40
1.0
 40
2.0
 40
2.0
 40
2.0
 40
3.0
 40
3.0
 40
3.0
 40
4.0
 40
4.0
 40
4.0
 40
4.0
 10
10682.00903121589
 20
685.001358702572
 30
0.0
 10
10685.47386037616
 20
685.549009044675
 30
0.0
 10
10688.8795821511
 20
686.0439079189106
 30
0.0
 10
10692.07133711464
 20
687.3767469050739
 30
0.0
 10
10696.79273358967
 20
689.3483460293635
 30
0.0
 10
10700.65768697413
 20
692.8588560199267
 30
0.0
 10
10704.50903121589
 20
696.2513587025719
 30
0.0
 10
10708.36037545764
 20
699.6438613852184
 30
0.0
 10
10712.2253288421
 20
703.1543713757771
 30
0.0
 10
10716.94672531714
 20
705.1259705000736
 30
0.0
 10
10720.13848028068
 20
706.4588094862414
 30
0.0
 10
10723.54420205561
 20
706.9537083604883
 30
0.0
 10
10727.00903121589
 20
707.5013587025944
 30
0.0
  0
SPLINE
  5
1FA
330
1F
100
AcDbEntity
  8
Specialized_Fills
  6
DASHEDX2
 62
   253
420
 10461087
370
    20
100
AcDbSpline
210
0.0
220
0.0
230
1.0
 70
     8
 71
     3
 72
    17
 73
    13
 74
     0
 42
0.00001
 43
0.0000000001
 40
0.0
 40
0.0
 40
0.0
 40
0.0
 40
1.0
 40
1.0
 40
1.0
 40
2.0
 40
2.0
 40
2.0
 40
3.0
 40
3.0
 40
3.0
 40
4.0
 40
4.0
 40
4.0
 40
4.0
 10
10682.00903121589
 20
685.001358702572
 30
0.0
 10
10685.47386037616
 20
684.453708360469
 30
0.0
 10
10688.8795821511
 20
683.9588094862325
 30
0.0
 10
10692.07133711464
 20
682.6259705000699
 30
0.0
 10
10696.79273358967
 20
680.6543713757802
 30
0.0
 10
10700.65768697413
 20
677.1438613852171
 30
0.0
 10
10704.50903121589
 20
673.7513587025715
 30
0.0
 10
10708.36037545764
 20
670.3588560199245
 30
0.0
 10
10712.2253288421
 20
666.8483460293635
 30
0.0
 10
10716.94672531714
 20
664.8767469050719
 30
0.0
 10
10720.13848028068
 20
663.543907918908
 30
0.0
 10
10723.54420205561
 20
663.0490090446687
 30
0.0
 10
10727.00903121589
 20
662.5013587025659
 30
0.0
  0
DIMENSION
  5
207
330
1F
100
AcDbEntity
  8
Specialized_Lines
  6
Continuous
100
AcDbDimension
280
     0
  2
*D4
 10
10779.44467896542
 20
522.5013587026072
 30
0.0
 11
10787.38757801045
 21
518.9297207028537
 31
0.0
 70
    32
  1
7.5
 71
     5
 42
7.143275999510478
 73
     0
 74
     0
 75
     0
  3
GENERATED_STYLE__1
100
AcDbAlignedDimension
 13
10750.00903121588
 23
515.3580827030967
 33
0.0
 14
10749.50903121589
 24
522.5013587026072
 34
0.0
 50
90.0
100
AcDbRotatedDimension
  0
DIMENSION
  5
219
330
1F
100
AcDbEntity
  8
Specialized_Lines
  6
Continuous
100
AcDbDimension
280
     0
  2
*D6
 10
10625.60374697932
 20
535.5580827030967
 30
0.0
 11
10633.58245775695
 21
530.386802761945
 31
0.0
 70
    32
  1
10mm cover
 71
     5
 42
10.34255988230688
 73
     0
 74
     0
 75
     0
  3
GENERATED_STYLE__1
100
AcDbAlignedDimension
 13
10602.98431853712
 23
525.2155228207898
 33
0.0
 14
10615.99311457821
 24
535.5580827030967
 34
0.0
 50
90.0
100
AcDbRotatedDimension
1001
ACAD
1000
DSTYLE
1002
{
1070
    42
1040
4.0
1002
}
  0
DIMENSION
  5
227
330
1F
100
AcDbEntity
  8
Specialized_Lines
  6
Continuous
100
AcDbDimension
280
     0
  2
*D7
 10
10680.92309330184
 20
584.8592225583896
 30
0.0
 11
10688.90180407947
 21
567.371245507177
 31
0.0
 70
    32
  1
35mm cover
 71
     5
 42
34.97595410242855
 73
     0
 74
     0
 75
     0
  3
GENERATED_STYLE__2
100
AcDbAlignedDimension
 13
10656.13494110404
 23
549.883268455961
 33
0.0
 14
10658.13318713102
 24
584.8592225583896
 34
0.0
 50
90.0
100
AcDbRotatedDimension
  0
DIMENSION
  5
234
330
1F
100
AcDbEntity
  8
Specialized_Lines
  6
Continuous
100
AcDbDimension
280
     0
  2
*D8
 10
10642.4530806093
 20
561.6596295128565
 30
0.0
 11
10643.46784767576
 21
565.1115892535654
 31
0.0
 70
    32
  1
<>
 71
     5
 42
4.905108218560599
 73
     0
 74
     0
 75
     0
  3
GENERATED_STYLE__1
100
AcDbAlignedDimension
 13
10637.90990830568
 23
564.6692630096472
 33
0.0
 14
10640.41023477242
 24
560.4492565883816
 34
0.0
 50
300.646466709763
100
AcDbRotatedDimension
  0
MTEXT
  5
235
102
{ACAD_REACTORS
330
237
102
}
330
1F
100
AcDbEntity
  8
Specialized_Text
  6
Continuous
100
AcDbMText
 10
10798.75045882102
 20
780.8918444002146
 30
0.0
 40
5.5
 41
109.6086589180878
 46
0.0
 71
     4
 72
     1
  1
selected plaster finish
  7
GENERATED_STYLE_1
 73
     1
 44
1.0
  0
LEADER
  5
237
330
1F
100
AcDbEntity
  8
Specialized_Text
  6
Continuous
 62
   251
420
  6250335
370
    13
100
AcDbLeader
  3
GENERATED_STYLE__3
 73
     0
 40
7.124488403819918
 41
73.14324693042292
 76
     2
 10
10584.24523706224
 20
739.7534094650604
 30
0.0
 10
10798.66045882102
 20
780.8918444002146
 30
0.0
340
235
  0
MTEXT
  5
23E
102
{ACAD_REACTORS
330
23F
102
}
330
1F
100
AcDbEntity
  8
Specialized_Text
  6
Continuous
100
AcDbMText
 10
10796.68243816378
 20
486.2139973154742
 30
0.0
 40
5.5
 41
109.6086589180878
 46
0.0
 71
     4
 72
     1
  1
{Metal head flashing with 15° slope must have folded ends extending vertically a minimum of 25mm and head flashing must be sealed against brick veneer, to be supplied and installed by others}
  7
GENERATED_STYLE_1
 73
     1
 44
1.126013442656422
  0
LEADER
  5
23F
330
1F
100
AcDbEntity
  8
Specialized_Text
  6
Continuous
 62
   251
420
  6250335
370
    13
100
AcDbLeader
  3
GENERATED_STYLE__3
 73
     0
 40
69.36080793075247
 41
104.256139154161
 76
     2
 10
10620.44878311447
 20
528.5813923247726
 30
0.0
 10
10796.59243816379
 20
486.2139973154742
 30
0.0
340
23E
  0
MTEXT
  5
240
102
{ACAD_REACTORS
330
241
102
}
330
1F
100
AcDbEntity
  8
Specialized_Text
  6
Continuous
100
AcDbMText
 10
10798.27431633717
 20
714.3709424671357
 30
0.0
 40
5.5
 41
109.6086589180878
 46
0.0
 71
     4
 72
     1
  1
{breather type building wrap taped onto CAVITECLAD head flashing with Protecto Tape (or similar) }
  7
GENERATED_STYLE_1
 73
     1
 44
1.12256121350079
  0
LEADER
  5
241
330
1F
100
AcDbEntity
  8
Specialized_Text
  6
Continuous
 62
   251
420
  6250335
370
    13
100
AcDbLeader
  3
GENERATED_STYLE__3
 73
     0
 40
38.2880352360144
 41
105.2540927694406
 76
     2
 10
10658.40692053495
 20
684.6082443149611
 30
0.0
 10
10798.18431633718
 20
714.3709424671357
 30
0.0
340
240
  0
MTEXT
  5
242
102
{ACAD_REACTORS
330
243
102
}
330
1F
100
AcDbEntity
  8
Specialized_Text
  6
Continuous
100
AcDbMText
 10
10798.1841001018
 20
656.7996492028083
 30
0.0
 40
5.5
 41
109.6086589180878
 46
0.0
 71
     4
 72
     1
  1
{discontinuous horizontal 45mm x 20mm EPS battens on 15° slope and no more than 100mm in length as required for fixing}
  7
GENERATED_STYLE_1
 73
     1
 44
1.122502932643008
  0
LEADER
  5
243
330
1F
100
AcDbEntity
  8
Specialized_Text
  6
Continuous
 62
   251
420
  6250335
370
    13
100
AcDbLeader
  3
GENERATED_STYLE__3
 73
     0
 40
38.21061817574904
 41
107.7602319236016
 76
     3
 10
10648.40500024868
 20
619.7564433000535
 30
0.0
 10
10648.40500024868
 20
638.5159079747474
 30
0.0
 10
10798.0941001018
 20
656.7996492028083
 30
0.0
340
242
  0
MTEXT
  5
244
102
{ACAD_REACTORS
330
245
102
}
330
1F
100
AcDbEntity
  8
Specialized_Text
  6
Continuous
100
AcDbMText
 10
10798.36431633718
 20
605.4114294178543
 30
0.0
 40
5.5
 41
109.6086589180878
 46
0.0
 71
     4
 72
     1
  1
{CAVITECLAD proprietory head flashing}
  7
GENERATED_STYLE_1
 73
     1
 44
1.0
  0
LEADER
  5
245
330
1F
100
AcDbEntity
  8
Specialized_Text
  6
Continuous
 62
   251
420
  6250335
370
    13
100
AcDbLeader
  3
GENERATED_STYLE__3
 73
     0
 40
16.4674852205548
 41
105.4041609822647
 76
     2
 10
10657.06215338459
 20
597.2016679843619
 30
0.0
 10
10798.27431633717
 20
605.4114294178543
 30
0.0
340
244
  0
MTEXT
  5
246
102
{ACAD_REACTORS
330
247
102
}
330
1F
100
AcDbEntity
  8
Specialized_Text
  6
Continuous
100
AcDbMText
 10
10796.89358305673
 20
561.3142228135853
 30
0.0
 40
5.5
 41
109.6086589180878
 46
0.0
 71
     4
 72
     1
  1
{building wrap to be continued under lintel and taped with Protectowrap System (or similar) at corner by builder}
  7
GENERATED_STYLE_1
 73
     1
 44
1.12256121350079
  0
LEADER
  5
247
330
1F
100
AcDbEntity
  8
Specialized_Text
  6
Continuous
 62
   251
420
  6250335
370
    13
100
AcDbLeader
  3
GENERATED_STYLE__3
 73
     0
 40
38.18274726407964
 41
98.90245566166441
 76
     2
 10
10658.6377989112
 20
573.9536152744364
 30
0.0
 10
10796.80358305673
 20
561.3142228135853
 30
0.0
340
246
  0
MTEXT
  5
248
102
{ACAD_REACTORS
330
249
102
}
330
1F
100
AcDbEntity
  8
Specialized_Text
  6
Continuous
100
AcDbMText
 10
10798.64120623146
 20
419.047376430722
 30
0.0
 40
5.5
 41
80.4518
 46
0.0
 71
     4
 72
     1
  1
{air seal to be installed by builder}
  7
GENERATED_STYLE_1
 73
     1
 44
1.0
  0
LEADER
  5
249
330
1F
100
AcDbEntity
  8
Specialized_Text
  6
Continuous
 62
   251
420
  6250335
370
    13
100
AcDbLeader
  3
GENERATED_STYLE__3
 73
     0
 74
     0
 75
     1
 40
16.27989995452478
 41
73.48465211459753
 76
     4
 10
10746.3966725401
 20
515.3323809988832
 30
0.0
 10
10746.3966725401
 20
492.3753728650541
 30
0.0
 10
10791.25520623146
 20
419.047376430722
 30
0.0
 10
10798.55120623146
 20
419.047376430722
 30
0.0
340
248
  0
MTEXT
  5
24A
102
{ACAD_REACTORS
330
24B
102
}
330
1F
100
AcDbEntity
  8
Specialized_Text
  6
Continuous
100
AcDbMText
 10
10798.34685744055
 20
394.3357864355625
 30
0.0
 40
5.5
 41
109.6086589180878
 46
0.0
 71
     4
 72
     1
  1
{brick veneer}
  7
GENERATED_STYLE_1
 73
     1
 44
1.0
  0
LEADER
  5
24B
330
1F
100
AcDbEntity
  8
Specialized_Text
  6
Continuous
 62
   251
420
  6250335
370
    13
100
AcDbLeader
  3
GENERATED_STYLE__3
 73
     0
 74
     0
 75
     1
 40
5.593792633015007
 41
41.43758526603001
 76
     3
 10
10585.95514579909
 20
456.8160584623196
 30
0.0
 10
10790.96085744055
 20
394.3357864355625
 30
0.0
 10
10798.25685744055
 20
394.3357864355625
 30
0.0
340
24A
  0
MTEXT
  5
24C
102
{ACAD_REACTORS
330
24D
102
}
330
1F
100
AcDbEntity
  8
Specialized_Text
  6
Continuous
100
AcDbMText
 10
10798.38110777937
 20
755.6053002635596
 30
0.0
 40
5.5
 41
109.6086589180878
 46
0.0
 71
     4
 72
     1
  1
50mm EPS or {\C30;\c30975;75mm Neopor® EPS}
  7
GENERATED_STYLE_1
 73
     1
 44
1.127211339394292
  0
LEADER
  5
24D
330
1F
100
AcDbEntity
  8
Specialized_Text
  6
Continuous
 62
   251
420
  6250335
370
    13
100
AcDbLeader
  3
GENERATED_STYLE__3
 73
     0
 40
16.12607999663052
 41
103.9785129604366
 76
     2
 10
10622.11860646201
 20
718.597266554218
 30
0.0
 10
10798.29110777937
 20
755.6053002635596
 30
0.0
340
24C
  0
MTEXT
  5
24E
330
1F
100
AcDbEntity
  8
Specialized_Text
  6
Continuous
100
AcDbMText
 10
10588.02312018412
 20
499.9240976743287
 30
0.0
 40
5.5
 41
46.32042848519631
 46
0.0
 71
     2
 72
     1
  1
minimum 5mm gap
  7
GENERATED_STYLE_1
 73
     1
 44
1.0
  0
LWPOLYLINE
  5
42A
102
{ACAD_REACTORS
330
439
330
43C
330
440
330
442
330
46A
102
}
330
1F
100
AcDbEntity
  8
Specialized_Lines
100
AcDbPolyline
 90
        6
 70
     0
 43
0.0
 10
10637.90990830568
 20
749.7428667123807
 91
        4
 10
10637.90990830568
 20
564.6692630096473
 91
        5
 10
10624.6977379287
 20
557.0366644285527
 91
        6
 10
10587.90990830566
 20
556.8250936480811
 91
        7
 10
10587.90990830566
 20
749.7428667123807
 91
       11
 10
10637.90990830568
 20
749.7428667123807
 91
       12
  0
HATCH
  5
46A
330
1F
100
AcDbEntity
  8
Specialized_Lines
 62
   251
420
  6250335
100
AcDbHatch
 10
0.0
 20
0.0
 30
0.0
210
0.0
220
0.0
230
1.0
  2
HPCRC1E0
 70
     0
 71
     1
 91
        1
 92
        7
 72
     0
 73
     1
 93
        5
 10
10587.90990830566
 20
556.8250936480811
 10
10624.6977379287
 20
557.0366644285527
 10
10637.90990830568
 20
564.6692630096473
 10
10637.90990830568
 20
749.7428667123807
 10
10587.90990830566
 20
749.7428667123807
 97
        1
330
42A
 75
     1
 76
     2
 52
0.0
 41
0.12
 77
     0
 78
    78
 53
82.8749847
 43
-0.6007870180656028
 44
38.66286250831986
 45
-0.0000004961129005
 46
8.399999852931037
 79
     2
 49
0.9674709324
 49
-66.75549316799998
 53
75.96376039999999
 43
-0.4807870180656028
 44
39.62286250831986
 45
-0.000000348785556
 46
8.399999709154096
 79
     2
 49
0.4947726600000001
 49
-34.139315184
 53
63.43495179999999
 43
-0.3607870180656028
 44
40.10286250831986
 45
-0.0000000286036308
 46
8.400000041591663
 79
     2
 49
1.073312639999999
 49
-17.70965881199999
 53
45.0
 43
0.1192129819343972
 44
41.06286250831986
 45
0.0000000000000009
 46
8.400000002875099
 79
     2
 49
1.527350688
 49
-10.352043456
 53
33.6900673
 43
1.199212981934397
 44
42.14286250831985
 45
0.0000001596020127
 46
8.399999824188462
 79
     2
 49
0.4326661440000001
 49
-29.85396423600001
 53
33.6900673
 43
9.599212981934396
 44
42.14286250831985
 45
0.0000001596020127
 46
8.399999824188462
 79
     2
 49
0.4326661440000001
 49
-29.85396423600001
 53
33.6900673
 43
17.99921298193439
 44
42.14286250831985
 45
0.0000001596020127
 46
8.399999824188462
 79
     2
 49
0.4326661440000001
 49
-29.85396423600001
 53
26.5650501
 43
1.559212981934397
 44
42.38286250831985
 45
-0.0000000460215162
 46
8.400000143556356
 79
     2
 49
0.26832816
 49
-18.514643556
 53
26.5650501
 43
9.959212981934395
 44
42.38286250831985
 45
-0.0000000460215162
 46
8.400000143556356
 79
     2
 49
0.26832816
 49
-18.514643556
 53
18.434948
 43
1.799212981934397
 44
42.50286250831986
 45
0.0000002686412607
 46
8.399999851558131
 79
     2
 49
0.3794733239999999
 49
-26.18365905599999
 53
18.434948
 43
10.19921298193439
 44
42.50286250831986
 45
0.0000002686412607
 46
8.399999851558131
 79
     2
 49
0.3794733239999999
 49
-26.18365905599999
 53
18.434948
 43
18.59921298193439
 44
42.50286250831986
 45
0.0000002686412607
 46
8.399999851558131
 79
     2
 49
0.3794733239999999
 49
-26.18365905599999
 53
26.5650501
 43
2.159212981934397
 44
42.62286250831985
 45
-0.0000000460215162
 46
8.400000143556356
 79
     2
 49
0.26832816
 49
-18.514643556
 53
26.5650501
 43
10.5592129819344
 44
42.62286250831985
 45
-0.0000000460215162
 46
8.400000143556356
 79
     2
 49
0.26832816
 49
-18.514643556
 53
11.3099327
 43
2.399212981934397
 44
42.74286250831986
 45
-0.0000000543109101
 46
8.400000069389928
 79
     2
 49
0.6118823435999997
 49
-42.21988036799998
 53
11.3099327
 43
10.7992129819344
 44
42.74286250831986
 45
-0.0000000543109101
 46
8.400000069389928
 79
     2
 49
0.6118823435999997
 49
-42.21988036799998
 53
11.3099327
 43
19.1992129819344
 44
42.74286250831986
 45
-0.0000000543109101
 46
8.400000069389928
 79
     2
 49
0.6118823435999997
 49
-42.21988036799998
 53
11.3099327
 43
27.5992129819344
 44
42.74286250831986
 45
-0.0000000543109101
 46
8.400000069389928
 79
     2
 49
0.6118823435999997
 49
-42.21988036799998
 53
11.3099327
 43
35.9992129819344
 44
42.74286250831986
 45
-0.0000000543109101
 46
8.400000069389928
 79
     2
 49
0.6118823435999997
 49
-42.21988036799998
 53
0.0
 43
2.999212981934396
 44
42.86286250831985
 45
0.0
 46
8.4
 79
     2
 49
1.199999999999999
 49
-7.199999999999999
 53
348.6900673
 43
4.199212981934397
 44
42.86286250831985
 45
0.0000000543109101
 46
8.400000069389928
 79
     2
 49
0.6118823435999997
 49
-42.21988036799998
 53
348.6900673
 43
12.5992129819344
 44
42.86286250831985
 45
0.0000000543109101
 46
8.400000069389928
 79
     2
 49
0.6118823435999997
 49
-42.21988036799998
 53
348.6900673
 43
20.99921298193439
 44
42.86286250831985
 45
0.0000000543109101
 46
8.400000069389928
 79
     2
 49
0.6118823435999997
 49
-42.21988036799998
 53
348.6900673
 43
29.3992129819344
 44
42.86286250831985
 45
0.0000000543109101
 46
8.400000069389928
 79
     2
 49
0.6118823435999997
 49
-42.21988036799998
 53
348.6900673
 43
37.7992129819344
 44
42.86286250831985
 45
0.0000000543109101
 46
8.400000069389928
 79
     2
 49
0.6118823435999997
 49
-42.21988036799998
 53
333.4349499
 43
4.799212981934396
 44
42.74286250831986
 45
0.0000000460215162
 46
8.400000143556356
 79
     2
 49
0.2683281599999999
 49
-18.51464355599999
 53
333.4349499
 43
13.19921298193439
 44
42.74286250831986
 45
0.0000000460215162
 46
8.400000143556356
 79
     2
 49
0.2683281599999999
 49
-18.51464355599999
 53
341.565052
 43
5.039212981934396
 44
42.62286250831985
 45
-0.0000002686412607
 46
8.399999851558131
 79
     2
 49
0.379473324
 49
-26.183659056
 53
341.565052
 43
13.43921298193439
 44
42.62286250831985
 45
-0.0000002686412607
 46
8.399999851558131
 79
     2
 49
0.379473324
 49
-26.183659056
 53
341.565052
 43
21.83921298193439
 44
42.62286250831985
 45
-0.0000002686412607
 46
8.399999851558131
 79
     2
 49
0.379473324
 49
-26.183659056
 53
333.4349499
 43
5.399212981934397
 44
42.50286250831986
 45
0.0000000460215162
 46
8.400000143556356
 79
     2
 49
0.2683281599999999
 49
-18.51464355599999
 53
333.4349499
 43
13.79921298193439
 44
42.50286250831986
 45
0.0000000460215162
 46
8.400000143556356
 79
     2
 49
0.2683281599999999
 49
-18.51464355599999
 53
326.3099327
 43
5.639212981934397
 44
42.38286250831985
 45
-0.0000001596020127
 46
8.399999824188462
 79
     2
 49
0.4326661440000001
 49
-29.85396423600001
 53
326.3099327
 43
14.03921298193439
 44
42.38286250831985
 45
-0.0000001596020127
 46
8.399999824188462
 79
     2
 49
0.4326661440000001
 49
-29.85396423600001
 53
326.3099327
 43
22.43921298193439
 44
42.38286250831985
 45
-0.0000001596020127
 46
8.399999824188462
 79
     2
 49
0.4326661440000001
 49
-29.85396423600001
 53
315.0
 43
5.999212981934396
 44
42.14286250831985
 45
-0.0000000000000009
 46
8.400000002875099
 79
     2
 49
1.527350688
 49
-10.352043456
 53
296.5650482
 43
7.079212981934396
 44
41.06286250831986
 45
0.0000000286036308
 46
8.400000041591663
 79
     2
 49
1.073312639999999
 49
-17.70965881199999
 53
284.0362396
 43
7.559212981934397
 44
40.10286250831986
 45
0.000000348785556
 46
8.399999709154096
 79
     2
 49
0.4947726600000001
 49
-34.139315184
 53
277.1250153
 43
7.679212981934396
 44
39.62286250831986
 45
0.0000004961129005
 46
8.399999852931037
 79
     2
 49
0.9674709324
 49
-66.75549316799998
 53
277.1250153
 43
-0.6007870180656028
 44
38.66286250831986
 45
0.0000004961129005
 46
8.399999852931037
 79
     2
 49
0.9674709324
 49
-66.75549316799998
 53
284.0362396
 43
-0.4807870180656028
 44
37.70286250831986
 45
0.000000348785556
 46
8.399999709154096
 79
     2
 49
0.4947726600000001
 49
-34.139315184
 53
296.5650482
 43
-0.3607870180656028
 44
37.22286250831986
 45
0.0000000286036308
 46
8.400000041591663
 79
     2
 49
1.073312639999999
 49
-17.70965881199999
 53
315.0
 43
0.1192129819343972
 44
36.26286250831986
 45
-0.0000000000000009
 46
8.400000002875099
 79
     2
 49
1.527350688
 49
-10.352043456
 53
326.3099327
 43
1.199212981934397
 44
35.18286250831986
 45
-0.0000001596020127
 46
8.399999824188462
 79
     2
 49
0.4326661440000001
 49
-29.85396423600001
 53
326.3099327
 43
9.599212981934396
 44
35.18286250831986
 45
-0.0000001596020127
 46
8.399999824188462
 79
     2
 49
0.4326661440000001
 49
-29.85396423600001
 53
326.3099327
 43
17.99921298193439
 44
35.18286250831986
 45
-0.0000001596020127
 46
8.399999824188462
 79
     2
 49
0.4326661440000001
 49
-29.85396423600001
 53
333.4349499
 43
1.559212981934397
 44
34.94286250831986
 45
0.0000000460215162
 46
8.400000143556356
 79
     2
 49
0.2683281599999999
 49
-18.51464355599999
 53
333.4349499
 43
9.959212981934395
 44
34.94286250831986
 45
0.0000000460215162
 46
8.400000143556356
 79
     2
 49
0.2683281599999999
 49
-18.51464355599999
 53
341.565052
 43
1.799212981934397
 44
34.82286250831986
 45
-0.0000002686412607
 46
8.399999851558131
 79
     2
 49
0.379473324
 49
-26.183659056
 53
341.565052
 43
10.19921298193439
 44
34.82286250831986
 45
-0.0000002686412607
 46
8.399999851558131
 79
     2
 49
0.379473324
 49
-26.183659056
 53
341.565052
 43
18.59921298193439
 44
34.82286250831986
 45
-0.0000002686412607
 46
8.399999851558131
 79
     2
 49
0.379473324
 49
-26.183659056
 53
333.4349499
 43
2.159212981934397
 44
34.70286250831986
 45
0.0000000460215162
 46
8.400000143556356
 79
     2
 49
0.2683281599999999
 49
-18.51464355599999
 53
333.4349499
 43
10.5592129819344
 44
34.70286250831986
 45
0.0000000460215162
 46
8.400000143556356
 79
     2
 49
0.2683281599999999
 49
-18.51464355599999
 53
348.6900673
 43
2.399212981934397
 44
34.58286250831986
 45
0.0000000543109101
 46
8.400000069389928
 79
     2
 49
0.6118823435999997
 49
-42.21988036799998
 53
348.6900673
 43
10.7992129819344
 44
34.58286250831986
 45
0.0000000543109101
 46
8.400000069389928
 79
     2
 49
0.6118823435999997
 49
-42.21988036799998
 53
348.6900673
 43
19.1992129819344
 44
34.58286250831986
 45
0.0000000543109101
 46
8.400000069389928
 79
     2
 49
0.6118823435999997
 49
-42.21988036799998
 53
348.6900673
 43
27.5992129819344
 44
34.58286250831986
 45
0.0000000543109101
 46
8.400000069389928
 79
     2
 49
0.6118823435999997
 49
-42.21988036799998
 53
348.6900673
 43
35.9992129819344
 44
34.58286250831986
 45
0.0000000543109101
 46
8.400000069389928
 79
     2
 49
0.6118823435999997
 49
-42.21988036799998
 53
0.0
 43
2.999212981934396
 44
34.46286250831986
 45
0.0
 46
8.4
 79
     2
 49
1.199999999999999
 49
-7.199999999999999
 53
11.3099327
 43
4.199212981934397
 44
34.46286250831986
 45
-0.0000000543109101
 46
8.400000069389928
 79
     2
 49
0.6118823435999997
 49
-42.21988036799998
 53
11.3099327
 43
12.5992129819344
 44
34.46286250831986
 45
-0.0000000543109101
 46
8.400000069389928
 79
     2
 49
0.6118823435999997
 49
-42.21988036799998
 53
11.3099327
 43
20.99921298193439
 44
34.46286250831986
 45
-0.0000000543109101
 46
8.400000069389928
 79
     2
 49
0.6118823435999997
 49
-42.21988036799998
 53
11.3099327
 43
29.3992129819344
 44
34.46286250831986
 45
-0.0000000543109101
 46
8.400000069389928
 79
     2
 49
0.6118823435999997
 49
-42.21988036799998
 53
11.3099327
 43
37.7992129819344
 44
34.46286250831986
 45
-0.0000000543109101
 46
8.400000069389928
 79
     2
 49
0.6118823435999997
 49
-42.21988036799998
 53
26.5650501
 43
4.799212981934396
 44
34.58286250831986
 45
-0.0000000460215162
 46
8.400000143556356
 79
     2
 49
0.26832816
 49
-18.514643556
 53
26.5650501
 43
13.19921298193439
 44
34.58286250831986
 45
-0.0000000460215162
 46
8.400000143556356
 79
     2
 49
0.26832816
 49
-18.514643556
 53
18.434948
 43
5.039212981934396
 44
34.70286250831986
 45
0.0000002686412607
 46
8.399999851558131
 79
     2
 49
0.3794733239999999
 49
-26.18365905599999
 53
18.434948
 43
13.43921298193439
 44
34.70286250831986
 45
0.0000002686412607
 46
8.399999851558131
 79
     2
 49
0.3794733239999999
 49
-26.18365905599999
 53
18.434948
 43
21.83921298193439
 44
34.70286250831986
 45
0.0000002686412607
 46
8.399999851558131
 79
     2
 49
0.3794733239999999
 49
-26.18365905599999
 53
26.5650501
 43
5.399212981934397
 44
34.82286250831986
 45
-0.0000000460215162
 46
8.400000143556356
 79
     2
 49
0.26832816
 49
-18.514643556
 53
26.5650501
 43
13.79921298193439
 44
34.82286250831986
 45
-0.0000000460215162
 46
8.400000143556356
 79
     2
 49
0.26832816
 49
-18.514643556
 53
33.6900673
 43
5.639212981934397
 44
34.94286250831986
 45
0.0000001596020127
 46
8.399999824188462
 79
     2
 49
0.4326661440000001
 49
-29.85396423600001
 53
33.6900673
 43
14.03921298193439
 44
34.94286250831986
 45
0.0000001596020127
 46
8.399999824188462
 79
     2
 49
0.4326661440000001
 49
-29.85396423600001
 53
33.6900673
 43
22.43921298193439
 44
34.94286250831986
 45
0.0000001596020127
 46
8.399999824188462
 79
     2
 49
0.4326661440000001
 49
-29.85396423600001
 53
45.0
 43
5.999212981934396
 44
35.18286250831986
 45
0.0000000000000009
 46
8.400000002875099
 79
     2
 49
1.527350688
 49
-10.352043456
 53
63.43495179999999
 43
7.079212981934396
 44
36.26286250831986
 45
-0.0000000286036308
 46
8.400000041591663
 79
     2
 49
1.073312639999999
 49
-17.70965881199999
 53
75.96376039999999
 43
7.559212981934397
 44
37.22286250831986
 45
-0.000000348785556
 46
8.399999709154096
 79
     2
 49
0.4947726600000001
 49
-34.139315184
 53
82.8749847
 43
7.679212981934396
 44
37.70286250831986
 45
-0.0000004961129005
 46
8.399999852931037
 79
     2
 49
0.9674709324
 49
-66.75549316799998
 47
0.2799004491937569
 98
        1
 10
10598.06294707425
 20
635.614805661858
1001
GradientColor1ACI
1070
     5
1001
GradientColor2ACI
1070
     2
1001
ACAD
1010
0.0
1020
0.0
1030
0.0
  0
LINE
  5
499
330
1F
100
AcDbEntity
  8
Viewport
 62
     7
420
 16777215
100
AcDbLine
 10
10908.35306319067
 20
864.6028709658038
 30
0.0
 11
10908.35306319067
 21
324.5532553270075
 31
0.0
  0
LINE
  5
49A
102
{ACAD_REACTORS
330
4B5
102
}
330
1F
100
AcDbEntity
  8
Viewport
 62
     7
420
 16777215
100
AcDbLine
 10
10908.35306319067
 20
324.5532553270075
 30
0.0
 11
10535.21133610469
 21
324.5532553270075
 31
0.0
  0
MTEXT
  5
49B
330
1F
100
AcDbEntity
  8
Specialized_Lines
 62
    30
420
 16742400
100
AcDbMText
 10
10613.50770089517
 20
365.8861209640375
 30
0.0
 40
7.0
 41
63.23088711380842
 46
0.0
 71
     1
 72
     5
  1
CAVITECLAD
  7
GENERATED_STYLE_2
 73
     1
 44
1.0
1001
ACAD
1000
ACAD_MTEXT_COLUMN_INFO_BEGIN
1070
    75
1070
     2
1070
    79
1070
     0
1070
    76
1070
     1
1070
    78
1070
     0
1070
    48
1040
63.23088711380842
1070
    49
1040
12.5
1070
    50
1070
     1
1040
0.0
1000
ACAD_MTEXT_COLUMN_INFO_END
  0
LINE
  5
49C
102
{ACAD_REACTORS
330
4B4
102
}
330
1F
100
AcDbEntity
  8
Viewport
 62
     7
420
 16777215
100
AcDbLine
 10
10535.21133610469
 20
324.5532553270075
 30
0.0
 11
10535.21133610469
 21
864.6028709658038
 31
0.0
  0
MTEXT
  5
49D
330
1F
100
AcDbEntity
  8
Specialized_Lines
100
AcDbMText
 10
10612.04073590962
 20
381.4814079432084
 30
0.0
 40
10.0
 41
200.1801991688954
 46
0.0
 71
     1
 72
     5
  1
{\fArial|b1|i0|c0|p34;Window Head: BRICK}
 73
     1
 44
1.0
1001
ACAD
1000
ACAD_MTEXT_COLUMN_INFO_BEGIN
1070
    75
1070
     2
1070
    79
1070
     0
1070
    76
1070
     1
1070
    78
1070
     0
1070
    48
1040
200.1801991688954
1070
    49
1040
12.5
1070
    50
1070
     1
1040
0.0
1000
ACAD_MTEXT_COLUMN_INFO_END
  0
MTEXT
  5
49E
330
1F
100
AcDbEntity
  8
Specialized_Lines
 62
    30
420
 16742400
100
AcDbMText
 10
10583.25588042825
 20
361.9384364235533
 30
0.0
 40
4.0
 41
34.37092666967328
 46
0.0
 71
     5
 72
     5
  1
SCALE: 1:2
  7
GENERATED_STYLE_2
 73
     1
 44
1.0
1001
ACAD
1000
ACAD_MTEXT_COLUMN_INFO_BEGIN
1070
    75
1070
     2
1070
    79
1070
     0
1070
    76
1070
     1
1070
    78
1070
     0
1070
    48
1040
34.37092666967328
1070
    49
1040
12.5
1070
    50
1070
     1
1040
0.0
1000
ACAD_MTEXT_COLUMN_INFO_END
  0
HATCH
  5
49F
330
1F
100
AcDbEntity
  8
0
 62
    30
420
 16742400
370
     5
100
AcDbHatch
 10
0.0
 20
0.0
 30
0.0
210
0.0
220
0.0
230
1.0
  2
SOLID
 70
     1
 71
     0
 91
        1
 92
        1
 93
        4
 72
     1
 10
10606.40986580976
 20
366.9613959239444
 11
10606.40986580976
 21
386.9613959239444
 72
     1
 10
10606.40986580976
 20
386.9613959239444
 11
10561.40986580976
 21
386.9613959239444
 72
     1
 10
10561.40986580976
 20
386.9613959239444
 11
10561.40986580976
 21
366.9613959239444
 72
     1
 10
10561.40986580976
 20
366.9613959239444
 11
10606.40986580976
 21
366.9613959239444
 97
        0
 75
     1
 76
     1
 98
        1
 10
10591.82503899929
 20
373.0950764270686
450
        0
451
        0
460
0.0
461
0.0
452
        0
462
1.0
453
        2
463
0.0
 63
     5
421
      255
463
1.0
 63
     2
421
 16776960
470
LINEAR
1001
GradientColor1ACI
1070
     5
1001
GradientColor2ACI
1070
     2
1001
ACAD
1010
0.0
1020
0.0
1030
0.0
  0
LWPOLYLINE
  5
4A0
330
1F
100
AcDbEntity
  8
0
370
     5
100
AcDbPolyline
 90
        5
 70
     0
 43
0.0
 10
10561.40986580976
 20
386.9613959239444
 10
10561.40986580976
 20
366.9613959239444
 10
10606.40986580976
 20
366.9613959239444
 10
10606.40986580976
 20
386.9613959239444
 10
10561.40986580976
 20
386.9613959239444
  0
MTEXT
  5
4A1
330
1F
100
AcDbEntity
  8
Specialized_Lines
100
AcDbMText
 10
10584.11468089865
 20
376.7665512775559
 30
0.0
 40
10.0
 41
90.34063603881987
 46
0.0
 71
     5
 72
     5
  1
{\fArial|b1|i0|c0|p34;01C}
 73
     1
 44
1.0
1001
ACAD
1000
ACAD_MTEXT_COLUMN_INFO_BEGIN
1070
    75
1070
     2
1070
    79
1070
     0
1070
    76
1070
     1
1070
    78
1070
     0
1070
    48
1040
90.34063603881987
1070
    49
1040
12.5
1070
    50
1070
     1
1040
0.0
1000
ACAD_MTEXT_COLUMN_INFO_END
  0
LWPOLYLINE
  5
4A2
330
1F
100
AcDbEntity
  8
0
370
     5
100
AcDbPolyline
 90
        4
 70
     0
 43
0.0
 10
10561.40986580976
 20
366.9613959239444
 10
10561.40986580976
 20
356.9613959239444
 10
10606.40986580976
 20
356.9613959239444
 10
10606.40986580976
 20
366.9613959239444
  0
LINE
  5
4B0
330
1F
100
AcDbEntity
  8
Viewport
 62
     7
420
 16777215
100
AcDbLine
 10
10908.35306348838
 20
864.6028704682496
 30
0.0
 11
10908.35306348838
 21
324.5532548294534
 31
0.0
  0
LINE
  5
4B3
330
1F
100
AcDbEntity
  8
Viewport
 62
     7
420
 16777215
100
AcDbLine
 10
10908.35306348838
 20
864.6028704682496
 30
0.0
 11
10535.21133640239
 21
864.6028704682496
 31
0.0
  0
LWPOLYLINE
  5
550
102
{ACAD_REACTORS
330
6DA
330
829
102
}
330
1F
100
AcDbEntity
  8
Specialized_Lines
  6
PLASTER
 48
5.0
100
AcDbPolyline
 90
        5
 70
     0
 43
0.0
 10
10611.90990830567
 20
549.2697760334563
 91
       78
 10
10587.34968844954
 20
538.6732500427291
 91
       79
 10
10583.86561817869
 20
539.0235497887718
 91
       84
 10
10582.85414657093
 20
541.3083016314012
 91
       86
 10
10582.8934521765
 20
749.7428667123807
 91
       89
  0
HATCH
  5
620
330
1F
100
AcDbEntity
  8
0
 62
    30
420
 16742400
100
AcDbHatch
 10
0.0
 20
0.0
 30
0.0
210
0.0
220
0.0
230
1.0
  2
SOLID
 70
     1
 71
     1
 91
        1
 92
        7
 72
     0
 73
     1
 93
        4
 10
10561.33094276961
 20
343.1397958193741
 10
10561.33094276961
 20
338.1397958193741
 10
10566.33094276961
 20
338.1397958193745
 10
10566.33094276961
 20
343.1397958193745
 97
        1
330
621
 75
     1
 76
     1
 47
0.0321901215665183
 98
        1
 10
10563.12039089831
 20
341.7168152291308
450
        0
451
        0
460
0.0
461
0.0
452
        0
462
1.0
453
        2
463
0.0
 63
     5
421
      255
463
1.0
 63
     2
421
 16776960
470
LINEAR
1001
GradientColor1ACI
1070
     5
1001
GradientColor2ACI
1070
     2
1001
ACAD
1010
0.0
1020
0.0
1030
0.0
  0
LWPOLYLINE
  5
621
102
{ACAD_REACTORS
330
620
102
}
330
1F
100
AcDbEntity
  8
0
 62
    30
420
 16742400
100
AcDbPolyline
 90
        4
 70
     1
 43
0.0
 10
10561.33094276961
 20
343.1397958193741
 10
10566.33094276961
 20
343.1397958193745
 10
10566.33094276961
 20
338.1397958193745
 10
10561.33094276961
 20
338.1397958193741
  0
LINE
  5
622
330
1F
100
AcDbEntity
  8
0
 62
    30
420
 16742400
100
AcDbLine
 10
10561.33094276961
 20
343.1397958193741
 30
0.0
 11
10566.33094276961
 21
343.1397958193741
 31
0.0
  0
LWPOLYLINE
  5
623
330
1F
100
AcDbEntity
  8
0
370
     5
100
AcDbPolyline
 90
        2
 70
     0
 43
0.0
 10
10566.33094276961
 20
340.639795819374
 10
10887.48500069329
 20
340.639795819374
  0
MTEXT
  5
624
330
1F
100
AcDbEntity
  8
Specialized_Text
  6
Continuous
100
AcDbMText
 10
10569.89462208474
 20
343.1662628529659
 30
0.0
 40
3.0
 41
163.0041735515597
 46
0.0
 71
     4
 72
     1
  1
© copyright 2013 Specialized Building Products Ltd
  7
GENERATED_STYLE_2
 73
     1
 44
1.0
  0
MTEXT
  5
625
330
1F
100
AcDbEntity
  8
Specialized_Text
  6
Continuous
100
AcDbMText
 10
10747.79562275842
 20
343.1662628529659
 30
0.0
 40
3.0
 41
163.0041735515597
 46
0.0
 71
     4
 72
     1
  1
All Dimensions to be site checked before construction & installation
  7
GENERATED_STYLE_2
 73
     1
 44
1.0
  0
MTEXT
  5
626
330
1F
100
AcDbEntity
  8
Specialized_Text
  6
Continuous
100
AcDbMText
 10
10564.24100441225
 20
813.527546688401
 30
0.0
 40
3.0
 41
48.87340123734884
 46
0.0
 71
     4
 72
     1
  1
Appraisal No.510 [2013]
  7
GENERATED_STYLE_2
 73
     1
 44
1.0
  0
IMAGE
  5
627
330
1F
100
AcDbEntity
  8
0
 62
     7
420
 16777215
160
               140
310
8C00000001000000840000000600000005000000599C7B76B4A0C4401E903D869E8689400000000000000000599C7B76B4A0C440A54E03AED2048B400000000000000000E780FCBB07BAC440A54E03AED2048B400000000000000000E780FCBB07BAC4401E903D869E8689400000000000000000599C7B76B4A0C4401E903D
310
869E8689400000000000000000
100
AcDbRasterImage
 90
        0
 10
10561.40986580976
 20
816.8274044808965
 30
0.0
 11
0.0611721721957824
 21
0.0
 31
0.0
 12
0.0
 22
0.0611721721957824
 32
0.0
 13
828.0
 23
781.0
340
5FA
 70
     7
280
     0
281
    50
282
    50
283
     0
290
     0
360
628
 71
     1
 91
        2
 14
-0.5
 24
-0.5
 14
827.5
 24
780.5
  0
MTEXT
  5
629
330
1F
100
AcDbEntity
  8
Specialized_Text
  6
Continuous
 62
    30
420
 16742400
370
    20
100
AcDbMText
 10
10786.35099654763
 20
330.0423590328526
 30
0.0
 40
5.5
 41
111.9228601720179
 46
0.0
 71
     7
 72
     1
  1
{\fArial Unicode MS|b1|i0|c0|p34;web \fArial Unicode MS|b0|i0|c0|p34;\C256;www.specialized.co.nz}
  7
GENERATED_STYLE_2
 73
     1
 44
1.12662050634974
  0
IMAGE
  5
62A
330
1F
100
AcDbEntity
  8
0
 62
     7
420
 16777215
160
               140
310
8C00000001000000840000000600000005000000EAA34C5E5D17C5404EA4DF1B5AB689400000000000000000EAA34C5E5D17C54065607435C9EF8A400000000000000000AFB42C312D4EC54065607435C9EF8A400000000000000000AFB42C312D4EC5404EA4DF1B5AB689400000000000000000EAA34C5E5D17C5404EA4DF
310
1B5AB689400000000000000000
100
AcDbRasterImage
 90
        0
 10
10798.72944028858
 20
822.7939984771744
 30
0.0
 11
0.0434841820317712
 21
0.0
 31
0.0
 12
0.0
 22
0.0434841820317712
 32
0.0
 13
2521.0
 23
901.0
340
5FB
 70
     7
280
     0
281
    50
282
    50
283
     0
290
     0
360
62B
 71
     1
 91
        2
 14
-0.5
 24
-0.5
 14
2520.5
 24
900.5
  0
LINE
  5
675
330
1F
100
AcDbEntity
  8
0
  6
Continuous
100
AcDbLine
 10
10645.88727878549
 20
485.8078981796532
 30
0.0
 11
10645.88727878549
 21
483.9078981796531
 31
0.0
  0
LINE
  5
676
330
1F
100
AcDbEntity
  8
0
  6
Continuous
100
AcDbLine
 10
10626.2872787855
 20
492.3580827251147
 30
0.0
 11
10638.28727878549
 21
480.3580827251201
 31
0.0
  0
LINE
  5
677
330
1F
100
AcDbEntity
  8
0
  6
Continuous
100
AcDbLine
 10
10626.2872787855
 20
480.3580827251201
 30
0.0
 11
10638.28727878549
 21
492.3580827251147
 31
0.0
  0
LWPOLYLINE
  5
678
102
{ACAD_REACTORS
330
6DA
102
}
330
1F
100
AcDbEntity
  8
Specialized_Lines
  6
Continuous
100
AcDbPolyline
 90
      120
 70
   129
 43
0.0
 10
10606.8863345954
 20
532.5580827030967
 42
-0.4142135623731866
 10
10609.8863345954
 20
535.5580827030975
 10
10617.3863345954
 20
535.5580827030958
 10
10617.3863345954
 20
534.0580827030948
 10
10616.71299339993
 20
534.0580827030958
 42
0.5655031645004213
 10
10616.27132796205
 20
533.3237077032686
 42
-0.3217948770562723
 10
10615.84813637959
 20
530.2029994813633
 42
-0.9999999999998639
 10
10614.9762244755
 20
531.0274809132456
 42
2.321887592543225
 10
10612.7964447153
 20
531.0274809132456
 42
-1.0
 10
10611.92453281121
 20
530.2029994813628
 42
-0.1103502097709531
 10
10611.3215566444
 20
531.2143327033632
 42
0.3239071718579501
 10
10610.84659776363
 20
531.5580827030994
 10
10610.2863345954
 20
531.5580827030994
 42
-0.9999999999999998
 10
10610.2863345954
 20
532.5580827030976
 10
10610.84659776395
 20
532.5580827030976
 42
0.323907171728007
 10
10611.32155664442
 20
532.901832702913
 42
-0.0700097239470757
 10
10611.65398192646
 20
533.5768327027658
 42
0.602220588535332
 10
10611.24058328349
 20
534.3580827030969
 10
10609.8863345954
 20
534.3580827030969
 42
0.4142135623733198
 10
10608.0863345954
 20
532.5580827030957
 10
10608.0863345954
 20
530.1723202268992
 42
-0.0990193029430995
 10
10608.08633459539
 20
526.1327038282001
 10
10608.08633459539
 20
519.8827038281814
 10
10610.03664569762
 20
519.8827038281814
 10
10609.80337168225
 20
520.7532943056301
 42
-0.9999999999999998
 10
10610.76929750853
 20
521.0121133507326
 10
10611.0025715239
 20
520.1415228732834
 42
-0.4931454260305637
 10
10610.03664569762
 20
518.8827038281809
 10
10608.08633459539
 20
518.8827038281814
 10
10608.08633459539
 20
516.8141093906682
 42
0.1763269807084013
 10
10608.74141015466
 20
515.0143040835463
 10
10613.8697656996
 20
508.9025679387563
 42
-0.0563385934597803
 10
10614.51536756718
 20
507.9290497313039
 10
10615.58633459539
 20
506.8580827030976
 10
10615.58633459539
 20
506.3580827030977
 10
10615.08633459538
 20
506.3580827030977
 10
10615.08633459538
 20
503.2580827030963
 42
0.4142135623731409
 10
10616.58633459539
 20
501.7580827030964
 10
10625.03969448828
 20
501.7580827030973
 42
0.4671804552025508
 10
10625.53184744602
 20
502.346317997369
 42
-0.1957965268150679
 10
10625.98633459539
 20
504.4859647627639
 10
10625.98633459539
 20
505.9580827031539
 10
10630.58633459539
 20
505.9580827031539
 10
10630.58633459539
 20
504.7475270659259
 42
-0.0334583915426535
 10
10630.81869948726
 20
504.4371967056298
 10
10631.4273216059
 20
504.4371967055193
 42
-0.1989123673327494
 10
10632.41727109931
 20
504.02714619918
 10
10634.68633459551
 20
501.7580827029791
 10
10647.58633459539
 20
501.7580827032619
 42
-0.2757233595359096
 10
10648.81852881298
 20
501.0226859007683
 42
0.4507513050372938
 10
10649.54820340039
 20
500.8524551594344
 42
-0.1556796623165252
 10
10652.38633459539
 20
501.7580827030973
 10
10657.34614807188
 20
501.7580827030973
 42
-0.5724326707062994
 10
10658.49344424074
 20
502.1337301144297
 42
2.21717847210509
 10
10658.49344424074
 20
504.3824352917657
 42
-0.5724326705872703
 10
10657.34614807193
 20
504.7580827028504
 10
10656.78633459524
 20
504.7580827029518
 42
-0.4142135623199554
 10
10655.98633459539
 20
505.558082702952
 10
10655.98633459539
 20
506.2580827030973
 10
10662.98633459539
 20
506.2580827030968
 10
10663.34829788006
 20
515.3976556410965
 42
-0.4026668427419374
 10
10664.34751456456
 20
516.3580827030963
 10
10665.38633459539
 20
516.3580827030967
 10
10665.58633459539
 20
516.1580827030969
 10
10672.18633459539
 20
516.1580827030992
 10
10672.38633459539
 20
516.3580827030995
 10
10673.88633459539
 20
516.3580827030995
 42
-0.9999999999999998
 10
10673.88633459539
 20
515.3580827030967
 10
10664.38633459539
 20
515.3580827030967
 10
10664.38633459539
 20
506.2580827030973
 42
-0.4142135623728079
 10
10662.98633459539
 20
504.8580827030967
 10
10662.41037289892
 20
504.8580827030967
 42
0.5427832983428679
 10
10662.13624430797
 20
504.4362077030999
 42
-0.2772996015394571
 10
10661.77077999601
 20
501.4716591218706
 42
0.4682733384615019
 10
10661.86785589369
 20
501.0211302436722
 42
-0.2789442285749476
 10
10664.38633459539
 20
496.8580827030958
 10
10664.38633459539
 20
496.1580827030969
 10
10668.88633459539
 20
496.1580827030969
 10
10668.88633459539
 20
495.958082703098
 42
-0.4348123749608391
 10
10667.81657812165
 20
494.9605186528382
 10
10664.11657812164
 20
495.219247857029
 42
-0.3939104756170651
 10
10663.18633459539
 20
496.2168119072961
 10
10663.18633459539
 20
496.8580827030977
 42
0.4142135623730951
 10
10659.68633459539
 20
500.3580827030977
 10
10652.38633459539
 20
500.3580827030977
 42
0.4142135623730951
 10
10648.88633459539
 20
496.8580827030977
 10
10648.88633459539
 20
480.3580827030958
 10
10646.08633459539
 20
480.3580827030968
 42
-0.414213562373428
 10
10645.28633459539
 20
481.158082703097
 10
10645.28633459539
 20
483.2080827030971
 42
-0.4142135623748682
 10
10645.73633459539
 20
483.6580827030969
 42
-0.4142135623725041
 10
10646.18633459539
 20
483.2080827030971
 10
10646.18633459539
 20
481.658082703097
 10
10647.58633459539
 20
481.658082703097
 10
10647.58633459539
 20
488.0580827030966
 10
10646.18633459539
 20
488.0580827030966
 10
10646.18633459539
 20
487.408082703097
 42
-0.4142135623730951
 10
10645.73633459539
 20
486.9580827030962
 42
-0.4142135623725041
 10
10645.28633459539
 20
487.408082703096
 10
10645.28633459539
 20
488.2580827030973
 42
-0.4142135623726539
 10
10646.18633459539
 20
489.158082703097
 10
10647.58633459539
 20
489.158082703097
 10
10647.58633459539
 20
500.3580827032605
 10
10634.6863345954
 20
500.3580827031022
 42
-0.1989123673830573
 10
10633.69638510172
 20
500.7681332094429
 10
10631.42732160565
 20
503.0371967055192
 10
10630.40305435055
 20
503.0371967055192
 42
-0.2983362412664925
 10
10629.76137079209
 20
503.4574786138567
 42
1.850368107317784
 10
10628.38633459531
 20
501.3580827031536
 10
10629.38633459539
 20
501.3580827030968
 42
-0.1989123673801356
 10
10629.59846662974
 20
501.2702147374533
 10
10629.79846662974
 20
501.0702147374543
 42
-0.4142135623737189
 10
10629.79846662974
 20
500.6459506687418
 10
10629.59846662974
 20
500.4459506687411
 42
-0.1989123673802284
 10
10629.38633459539
 20
500.3580827030977
 10
10613.88633459539
 20
500.3580827030977
 10
10613.88633459539
 20
505.5600723683808
 42
0.1763269807084801
 10
10612.95051236787
 20
508.1312228071273
 10
10607.82215682292
 20
514.2429589519219
 42
-0.1763269807084215
 10
10606.88633459539
 20
516.8141093906673
  0
LWPOLYLINE
  5
679
330
1F
100
AcDbEntity
  8
Specialized_Lines
  6
Continuous
100
AcDbPolyline
 90
       36
 70
   129
 43
0.0
 10
10628.53642478351
 20
502.1178903242338
 42
0.7673269879784158
 10
10628.68642478351
 20
501.5580827030979
 10
10629.88642478351
 20
501.5580827030979
 10
10629.88642478351
 20
499.8580827039212
 10
10617.28192974561
 20
499.8580827039208
 42
0.1839743436377466
 10
10615.28633459537
 20
499.0980827030974
 10
10615.28633459537
 20
500.0580827030971
 42
0.4142135623733169
 10
10614.98633459537
 20
500.3580827030977
 10
10614.58633459539
 20
500.3580827030977
 42
0.4142135623730951
 10
10614.28633459539
 20
500.0580827030975
 10
10614.28633459539
 20
479.6580827030924
 42
0.4142135623773127
 10
10614.58633459539
 20
479.3580827030926
 10
10614.8863345954
 20
479.3580827030958
 42
0.4142135623699874
 10
10615.18633459539
 20
479.6580827030969
 10
10615.18633459539
 20
480.3580827030968
 10
10616.28633459537
 20
480.3580827030968
 42
0.4142135623735391
 10
10616.58633459537
 20
480.6580827030969
 10
10616.58633459537
 20
480.9580827030966
 42
0.414213562373761
 10
10616.28633459537
 20
481.2580827030964
 10
10615.48633459539
 20
481.2580827030964
 10
10615.48633459539
 20
481.9216866000464
 10
10616.45453264691
 20
482.8898846515616
 42
0.6681786379188248
 10
10616.13633459537
 20
483.658082703096
 10
10615.68633459539
 20
483.6580827030965
 10
10615.78633459539
 20
496.8471022182655
 42
-0.416146736396814
 10
10617.29622815604
 20
498.3470695903969
 42
-0.4380437686141797
 10
10617.59310785332
 20
498.0209293921533
 10
10617.46893792136
 20
496.6016605752969
 42
1.000000000000079
 10
10618.46513261945
 20
496.5145048325502
 10
10618.60266116378
 20
498.0864632874244
 42
-0.3865331148211373
 10
10618.89907267255
 20
498.3603065855626
 10
10629.89458111905
 20
498.4499926250922
 42
0.4118266132869719
 10
10630.88642478351
 20
499.4499593616368
 10
10630.88642478351
 20
501.5580827030988
 42
0.414213562372799
 10
10629.98642478351
 20
502.4580827030976
 10
10629.12565526805
 20
502.458082703098
  0
LWPOLYLINE
  5
67A
330
1F
100
AcDbEntity
  8
0
  6
Continuous
100
AcDbPolyline
 90
       23
 70
   129
 43
0.0
 10
10647.27207878549
 20
483.9718570067979
 42
-0.2556906500445654
 10
10647.38727878549
 20
483.7613125696833
 10
10647.38727878549
 20
483.0578981796533
 42
-0.9999999999999998
 10
10646.48727878549
 20
483.0578981796533
 10
10646.48727878549
 20
483.9078981796531
 10
10645.88727878549
 20
483.9078981796531
 10
10645.28727878549
 20
483.9078981796531
 10
10645.28727878549
 20
481.3078981796532
 42
-0.4142135623730951
 10
10645.03727878549
 20
481.0578981796533
 10
10644.53727878549
 20
481.0578981796533
 42
-0.4142135623730951
 10
10644.28727878549
 20
481.3078981796532
 10
10644.28727878549
 20
484.857898179653
 10
10644.28727878549
 20
488.4078981796532
 42
-0.4142135623730951
 10
10644.53727878549
 20
488.6578981796532
 10
10645.03727878549
 20
488.6578981796532
 42
-0.4142135623730951
 10
10645.28727878549
 20
488.4078981796532
 10
10645.28727878549
 20
485.8078981796532
 10
10645.88727878549
 20
485.8078981796532
 10
10646.48727878549
 20
485.8078981796532
 10
10646.48727878549
 20
486.6578981796532
 42
-0.9999999999999998
 10
10647.38727878549
 20
486.6578981796532
 10
10647.38727878549
 20
485.9544837896232
 42
-0.2556906500445664
 10
10647.27207878549
 20
485.7439393525108
 42
0.5471529031042364
  0
LWPOLYLINE
  5
67B
330
1F
100
AcDbEntity
  8
0
  6
Continuous
100
AcDbPolyline
 90
       25
 70
   129
 43
0.0
 10
10616.020114528
 20
483.7076941990047
 10
10616.570114528
 20
483.7076941990047
 10
10616.570114528
 20
480.1576941990055
 10
10616.42012136395
 20
480.1576941990055
 42
0.414213562374094
 10
10615.92011452805
 20
479.6576873631082
 10
10615.92011452805
 20
479.2917456849012
 42
0.3222824919740567
 10
10616.26107238289
 20
478.8177144664536
 42
0.0594186347937949
 10
10620.43488895811
 20
477.949845688758
 42
0.4660174091873958
 10
10620.65136901607
 20
478.1665323111054
 10
10620.55249087379
 20
479.2967146490253
 42
0.310508253462837
 10
10620.40837940533
 20
479.4715358396636
 10
10620.21483981637
 20
479.5270324237602
 42
-0.3345953195019857
 10
10618.766114528
 20
481.4495558156367
 10
10618.766114528
 20
482.9076941990055
 10
10620.49240747784
 20
482.2793749496416
 42
0.8390996311772196
 10
10620.83709019139
 20
482.8763829220082
 10
10618.766114528
 20
484.6141378373366
 10
10618.766114528
 20
486.5457767681476
 10
10620.49240747784
 20
485.9174575187834
 42
0.8390996311772196
 10
10620.83709019139
 20
486.51446549115
 10
10618.766114528
 20
488.2522204064783
 10
10617.24047356901
 20
489.6513836385955
 42
0.6526623844698686
 10
10616.570114528
 20
489.3565854212568
 10
10616.570114528
 20
485.1618536568842
 10
10615.81641876548
 20
484.1026356917967
 42
0.6094093647963478
  0
LWPOLYLINE
  5
67C
330
1F
100
AcDbEntity
  8
0
  6
Continuous
100
AcDbPolyline
 90
        4
 70
   129
 43
0.0
 10
10626.2872787855
 20
492.3580827251147
 10
10638.28727878549
 20
492.3580827251147
 10
10638.28727878549
 20
480.3580827251201
 10
10626.2872787855
 20
480.3580827251201
  0
LWPOLYLINE
  5
67D
330
1F
100
AcDbEntity
  8
0
  6
Continuous
100
AcDbPolyline
 90
        4
 70
   128
 43
0.0
 10
10638.28727878549
 20
422.5376867166437
 10
10638.28727878549
 20
492.3580827251147
 10
10644.28727878549
 20
492.3580827251147
 10
10644.28727878549
 20
422.5376867166437
  0
LWPOLYLINE
  5
67E
330
1F
100
AcDbEntity
  8
Specialized_Lines
  6
Continuous
 62
     9
370
    20
100
AcDbPolyline
 90
        2
 70
   128
 43
0.0
 10
10639.28727878549
 20
492.3580827251147
 10
10639.28727878549
 20
422.5376867166437
  0
LWPOLYLINE
  5
67F
330
1F
100
AcDbEntity
  8
Specialized_Lines
  6
Continuous
 62
     9
370
    20
100
AcDbPolyline
 90
        2
 70
   128
 43
0.0
 10
10640.28727878549
 20
492.3580827251147
 10
10640.28727878549
 20
422.5376867166437
  0
LWPOLYLINE
  5
680
330
1F
100
AcDbEntity
  8
Specialized_Lines
  6
Continuous
 62
     9
370
    20
100
AcDbPolyline
 90
        2
 70
   128
 43
0.0
 10
10641.28727878549
 20
492.3580827251147
 10
10641.28727878549
 20
422.5376867166437
  0
LWPOLYLINE
  5
681
330
1F
100
AcDbEntity
  8
Specialized_Lines
  6
Continuous
 62
     9
370
    20
100
AcDbPolyline
 90
        2
 70
   128
 43
0.0
 10
10642.28727878549
 20
492.3580827251147
 10
10642.28727878549
 20
422.5376867166437
  0
LWPOLYLINE
  5
682
330
1F
100
AcDbEntity
  8
Specialized_Lines
  6
Continuous
 62
     9
370
    20
100
AcDbPolyline
 90
        2
 70
   128
 43
0.0
 10
10643.28727878549
 20
492.3580827251147
 10
10643.28727878549
 20
422.5376867166437
  0
LWPOLYLINE
  5
683
330
1F
100
AcDbEntity
  8
0
  6
Continuous
100
AcDbPolyline
 90
        4
 70
   128
 43
0.0
 10
10626.2872787855
 20
422.5376867166437
 10
10626.2872787855
 20
492.3580827251147
 10
10620.2872787855
 20
492.3580827251147
 10
10620.2872787855
 20
422.5376867166437
  0
LWPOLYLINE
  5
684
330
1F
100
AcDbEntity
  8
Specialized_Lines
  6
Continuous
 62
     9
370
    20
100
AcDbPolyline
 90
        2
 70
   128
 43
0.0
 10
10625.2872787855
 20
492.3580827251147
 10
10625.2872787855
 20
422.5376867166437
  0
LWPOLYLINE
  5
685
330
1F
100
AcDbEntity
  8
Specialized_Lines
  6
Continuous
 62
     9
370
    20
100
AcDbPolyline
 90
        2
 70
   128
 43
0.0
 10
10624.2872787855
 20
492.3580827251147
 10
10624.2872787855
 20
422.5376867166437
  0
LWPOLYLINE
  5
686
330
1F
100
AcDbEntity
  8
Specialized_Lines
  6
Continuous
 62
     9
370
    20
100
AcDbPolyline
 90
        2
 70
   128
 43
0.0
 10
10623.2872787855
 20
492.3580827251147
 10
10623.2872787855
 20
422.5376867166437
  0
LWPOLYLINE
  5
687
330
1F
100
AcDbEntity
  8
Specialized_Lines
  6
Continuous
 62
     9
370
    20
100
AcDbPolyline
 90
        2
 70
   128
 43
0.0
 10
10622.2872787855
 20
492.3580827251147
 10
10622.2872787855
 20
422.5376867166437
  0
LWPOLYLINE
  5
688
330
1F
100
AcDbEntity
  8
Specialized_Lines
  6
Continuous
 62
     9
370
    20
100
AcDbPolyline
 90
        2
 70
   128
 43
0.0
 10
10621.2872787855
 20
492.3580827251147
 10
10621.2872787855
 20
422.5376867166437
  0
HATCH
  5
6DA
330
1F
100
AcDbEntity
  8
Specialized_Lines
 62
   254
420
 14671839
100
AcDbHatch
 10
0.0
 20
0.0
 30
0.0
210
0.0
220
0.0
230
1.0
  2
ANSI31
 70
     0
 71
     1
 91
        1
 92
        7
 72
     1
 73
     1
 93
       52
 10
10596.65182928789
 20
536.0269503947615
 42
0.0
 10
10603.34395857571
 20
539.8906525578427
 42
0.0
 10
10599.48025641263
 20
533.1985232700152
 42
0.0
 10
10598.06604285026
 20
534.6127368323884
 42
0.0
 10
10587.91129145026
 20
524.4579854323867
 42
0.0
 10
10587.91129145026
 20
518.5376867166322
 42
0.0
 10
10606.88633459539
 20
518.5376867166235
 42
0.0
 10
10606.8863345954
 20
532.5580827030989
 42
-0.4142135623730305
 10
10609.8863345954
 20
535.5580827030975
 42
0.0
 10
10617.3863345954
 20
535.5580827030958
 42
0.0
 10
10617.3863345954
 20
534.0580827030948
 42
0.0
 10
10616.71299340042
 20
534.0580827030958
 42
0.5655031649575402
 10
10616.27132796214
 20
533.3237077030942
 42
-0.3217948770360222
 10
10615.84813637959
 20
530.2029994813639
 42
-1.0
 10
10614.9762244755
 20
531.0274809132457
 42
2.321887592543281
 10
10612.7964447153
 20
531.0274809132454
 42
-1.0
 10
10611.92453281121
 20
530.2029994813628
 42
-0.1103502097449084
 10
10611.32155664449
 20
531.2143327030991
 42
0.3239071714294362
 10
10610.84659776468
 20
531.5580827030994
 42
0.0
 10
10610.2863345954
 20
531.5580827030994
 42
-1.0
 10
10610.2863345954
 20
532.5580827030976
 42
0.0
 10
10610.84659776469
 20
532.5580827030976
 42
0.3239071714290726
 10
10611.32155664449
 20
532.9018327030971
 42
-0.0700097239663445
 10
10611.65398192669
 20
533.5768327030973
 42
0.6022205876858742
 10
10611.24058328434
 20
534.3580827030969
 42
0.0
 10
10609.8863345954
 20
534.3580827030969
 42
0.4142135623730953
 10
10608.0863345954
 20
532.5580827030973
 42
0.0
 10
10608.0863345954
 20
530.1723202268992
 42
-0.0990193029431001
 10
10608.08633459539
 20
526.1327038282001
 42
0.0
 10
10608.08633459539
 20
519.8827038281814
 42
0.0
 10
10610.03664569762
 20
519.8827038281814
 42
0.0
 10
10609.80337168225
 20
520.7532943056313
 42
-1.0
 10
10610.76929750853
 20
521.012113350732
 42
0.0
 10
10611.0025715239
 20
520.1415228732817
 42
-0.4931454260307297
 10
10610.03664569761
 20
518.8827038281809
 42
0.0
 10
10608.08633459539
 20
518.8827038281814
 42
0.0
 10
10608.08633459539
 20
518.53768671665
 42
0.0
 10
10619.50903121589
 20
518.53768671665
 42
0.0
 10
10619.50903121589
 20
549.6250936480814
 42
0.0
 10
10613.10990830566
 20
549.6250936480814
 42
0.0
 10
10613.10990830566
 20
547.1250936480815
 42
0.0
 10
10611.90990830567
 20
547.125093648082
 42
0.0
 10
10611.90990830567
 20
549.2697760334561
 42
0.0
 10
10587.34968844954
 20
538.6732500427291
 42
0.0
 10
10583.86561817869
 20
539.0235497887718
 42
0.0
 10
10582.85414657093
 20
541.3083016314012
 42
0.0
 10
10582.86418313076
 20
594.5313967596752
 42
0.0
 10
10549.5090312159
 20
594.5376867166434
 42
0.0
 10
10549.5090312159
 20
518.53768671665
 42
0.0
 10
10587.91129145026
 20
518.5376867166322
 42
0.0
 10
10587.91129145026
 20
524.4579854323867
 42
0.0
 10
10598.06604285026
 20
534.6127368323884
 42
0.0
 97
       10
330
1D4
330
1B9
330
1D6
330
678
330
1C4
330
1D5
330
41
330
550
330
1B2
330
1C5
 75
     1
 76
     1
 52
0.0
 41
25.0
 77
     0
 78
     1
 53
45.0
 43
0.0
 44
0.0
 45
-2.20970869120796
 46
2.209708691207961
 79
     0
 47
0.2747655907879628
 98
        1
 10
10570.88095885642
 20
535.7298678873005
1001
GradientColor1ACI
1070
     5
1001
GradientColor2ACI
1070
     2
1001
ACAD
1010
0.0
1020
0.0
1030
0.0
  0
HATCH
  5
814
330
1F
100
AcDbEntity
  8
Specialized_Lines
 62
   254
420
 14671839
100
AcDbHatch
 10
0.0
 20
0.0
 30
0.0
210
0.0
220
0.0
230
1.0
  2
ANSI31
 70
     0
 71
     0
 91
        2
 92
        1
 93
       22
 72
     1
 10
10549.5090312159
 20
508.5376867166306
 11
10549.5090312159
 21
432.5376867166372
 72
     1
 10
10549.5090312159
 20
432.5376867166372
 11
10619.50903121589
 21
432.5376867166372
 72
     1
 10
10619.50903121589
 20
432.5376867166372
 11
10619.58038585
 21
478.044391551996
 72
     2
 10
10621.98658960865
 20
495.8828383305656
 40
18.00000000000019
 50
97.68218121048594
 51
108.5471103754322
 73
     0
 72
     2
 10
10616.42011452805
 20
479.2917456849007
 40
0.4999999999999773
 50
108.5471103754393
 51
179.9999999998957
 73
     0
 72
     1
 10
10615.92011452805
 20
479.2917456848997
 11
10615.92011452805
 21
479.6576873631084
 72
     2
 10
10616.42012136394
 20
479.6576873631087
 40
0.5000068358967838
 50
179.9999999999674
 51
270.0
 73
     0
 72
     1
 10
10616.42012136394
 20
480.1576941990055
 11
10616.570114528
 21
480.1576941990055
 72
     1
 10
10616.570114528
 20
480.1576941990055
 11
10616.570114528
 21
480.5607741739933
 72
     2
 10
10616.28633459537
 20
480.6580827030959
 40
0.2999999999991734
 50
18.92691212639106
 51
90.0
 73
     0
 72
     1
 10
10616.28633459537
 20
480.3580827030968
 11
10615.18633459539
 21
480.3580827030968
 72
     1
 10
10615.18633459539
 20
480.3580827030968
 11
10615.18633459539
 21
479.6580827030973
 72
     2
 10
10614.88633459539
 20
479.6580827030969
 40
0.3000000000010914
 50
359.999999999924
 51
449.9999999993051
 73
     0
 72
     1
 10
10614.8863345954
 20
479.3580827030958
 11
10614.58633459539
 21
479.3580827030926
 72
     2
 10
10614.58633459539
 20
479.658082703092
 40
0.2999999999993292
 50
89.99999999930521
 51
180.0000000001411
 73
     0
 72
     1
 10
10614.28633459539
 20
479.6580827030927
 11
10614.28633459539
 21
500.0580827030971
 72
     2
 10
10614.58633459539
 20
500.0580827030983
 40
0.2999999999992724
 50
179.9999999997503
 51
270.0000000003474
 73
     0
 72
     1
 10
10614.58633459539
 20
500.3580827030977
 11
10613.88633459539
 21
500.3580827030977
 72
     1
 10
10613.88633459539
 20
500.3580827030977
 11
10613.88633459539
 21
505.560072368381
 72
     2
 10
10609.88633459539
 20
505.560072368381
 40
4.0
 50
0.0000000000008142
 51
40.00000000000071
 73
     1
 72
     1
 10
10612.95051236787
 20
508.1312228071272
 11
10612.60944865132
 21
508.5376867166306
 72
     1
 10
10612.60944865132
 20
508.5376867166306
 11
10549.5090312159
 21
508.5376867166306
 97
        0
 92
        1
 93
        8
 72
     1
 10
10619.50903121589
 20
501.7580827030967
 11
10619.50903121852
 21
508.5376867166528
 72
     1
 10
10619.50903121852
 20
508.5376867166528
 11
10614.18052796714
 21
508.4926315384533
 72
     1
 10
10614.18052796714
 20
508.4926315384533
 11
10615.60124572949
 21
506.8431715689986
 72
     1
 10
10615.60124572949
 20
506.8431715689986
 11
10615.58633459539
 21
506.3580827030977
 72
     1
 10
10615.58633459539
 20
506.3580827030977
 11
10615.08633459538
 21
506.3580827030977
 72
     1
 10
10615.08633459538
 20
506.3580827030977
 11
10615.08633459538
 21
503.2580827030963
 72
     1
 10
10615.08633459538
 20
503.2580827030963
 11
10616.38068362421
 21
501.7722470197
 72
     1
 10
10616.38068362421
 20
501.7722470197
 11
10619.50903121589
 21
501.7580827030967
 97
        0
 75
     1
 76
     1
 52
0.0
 41
25.0
 77
     0
 78
     1
 53
45.0
 43
0.0
 44
0.0
 45
-2.20970869120796
 46
2.209708691207961
 79
     0
 98
        1
 10
10585.30983046139
 20
481.325867495686
1001
GradientColor1ACI
1070
     5
1001
GradientColor2ACI
1070
     2
1001
ACAD
1010
0.0
1020
0.0
1030
0.0
  0
LINE
  5
815
102
{ACAD_REACTORS
330
6DA
330
829
102
}
330
1F
100
AcDbEntity
  8
Specialized_Lines
  6
Continuous
100
AcDbLine
 10
10549.52337883429
 20
670.6219895774428
 30
0.0
 11
10582.87853074915
 21
670.6156996204746
 31
0.0
  0
LINE
  5
816
102
{ACAD_REACTORS
330
829
102
}
330
1F
100
AcDbEntity
  8
Specialized_Lines
  6
Continuous
100
AcDbLine
 10
10582.88041650184
 20
680.6156992648876
 30
0.0
 11
10549.52337883429
 21
680.6219895774622
 31
0.0
  0
ARC
  5
817
330
1F
100
AcDbEntity
  8
Specialized_Lines
  6
Continuous
100
AcDbCircle
 10
10549.52337883429
 20
675.6219895774383
 30
0.0
 40
5.000000000001669
100
AcDbArc
 50
270.0
 51
90.0
  0
LINE
  5
818
102
{ACAD_REACTORS
330
829
102
}
330
1F
100
AcDbEntity
  8
Specialized_Lines
  6
Continuous
100
AcDbLine
 10
10549.52337883429
 20
680.6219895774622
 30
0.0
 11
10549.50845859411
 21
746.7062979574368
 31
0.0
  0
LINE
  5
819
102
{ACAD_REACTORS
330
6DA
330
829
102
}
330
1F
100
AcDbEntity
  8
Specialized_Lines
  6
Continuous
100
AcDbLine
 10
10549.50845856155
 20
746.706297957443
 30
0.0
 11
10582.86361047641
 21
746.7000080004749
 31
0.0
  0
ARC
  5
81A
330
1F
100
AcDbEntity
  8
Specialized_Lines
  6
Continuous
100
AcDbCircle
 10
10549.50845856155
 20
751.7062979574385
 30
0.0
 40
5.000000000001669
100
AcDbArc
 50
270.0
 51
336.8782507437048
  0
HATCH
  5
829
330
1F
100
AcDbEntity
  8
Specialized_Lines
 62
   254
420
 14671839
100
AcDbHatch
 10
0.0
 20
0.0
 30
0.0
210
0.0
220
0.0
230
1.0
  2
ANSI31
 70
     0
 71
     1
 91
        2
 92
        7
 72
     0
 73
     1
 93
        4
 10
10582.87853074915
 20
670.6156996204746
 10
10549.49411097573
 20
670.6219950966373
 10
10549.5090312159
 20
604.5376867166627
 10
10582.86606888345
 20
604.5313964040882
 97
        4
330
815
330
1BC
330
1B3
330
550
 92
        7
 72
     0
 73
     1
 93
        4
 10
10582.89287836754
 20
746.7000024812742
 10
10549.50845859411
 20
746.7062979574369
 10
10549.52337883429
 20
680.6219895774622
 10
10582.88041650184
 20
680.6156992648876
 97
        4
330
819
330
818
330
816
330
550
 75
     1
 76
     1
 52
0.0
 41
25.0
 77
     0
 78
     1
 53
45.0
 43
0.0
 44
0.0
 45
-2.20970869120796
 46
2.209708691207961
 79
     0
 47
0.4760739522985589
 98
        2
 10
10569.56716193491
 20
637.7129155293264
 10
10573.37757187873
 20
721.02585774725
1001
GradientColor1ACI
1070
     5
1001
GradientColor2ACI
1070
     2
1001
ACAD
1010
0.0
1020
0.0
1030
0.0
  0
ENDSEC
  0
SECTION
  2
OBJECTS
  0
DICTIONARY
  5
C
330
0
100
AcDbDictionary
281
     1
  3
ACAD_ASSOCNETWORK
350
433
  3
ACAD_CIP_PREVIOUS_PRODUCT_INFO
350
290
  3
ACAD_COLOR
350
284
  3
ACAD_DETAILVIEWSTYLE
350
289
  3
ACAD_GROUP
350
D
  3
ACAD_IMAGE_DICT
350
4AC
  3
ACAD_IMAGE_VARS
350
4AF
  3
ACAD_LAYOUT
350
1A
  3
ACAD_MATERIAL
350
3B
  3
ACAD_MLEADERSTYLE
350
277
  3
ACAD_MLINESTYLE
350
17
  3
ACAD_PLOTSETTINGS
350
19
  3
ACAD_PLOTSTYLENAME
350
E
  3
ACAD_SCALELIST
350
17C
  3
ACAD_SECTIONVIEWSTYLE
350
287
  3
ACAD_TABLESTYLE
350
276
  3
ACAD_VISUALSTYLE
350
2A
  3
ACAD_WIPEOUT_VARS
350
292
  3
ACDB_RECOMPOSE_DATA
350
8BD
  3
AcDbVariableDictionary
350
254
  3
AcDsDecomposeData
350
8C3
  3
WATERMARKS
350
252
  0
DICTIONARY
  5
3E3
330
2
100
AcDbDictionary
280
     1
281
     1
  3
ACAD_LAYERSTATES
360
3E4
  0
DICTIONARY
  5
3D8
330
10
100
AcDbDictionary
280
     1
281
     1
  3
ADSK_XREC_LAYER_RECONCILED
360
3D9
  0
DICTIONARY
  5
3DA
330
40
100
AcDbDictionary
280
     1
281
     1
  3
ADSK_XREC_LAYER_RECONCILED
360
3DB
  0
DICTIONARY
  5
3DC
330
1A7
100
AcDbDictionary
280
     1
281
     1
  3
ADSK_XREC_LAYER_RECONCILED
360
3DD
  0
DICTIONARY
  5
3DE
330
236
100
AcDbDictionary
280
     1
281
     1
  3
ADSK_XREC_LAYER_RECONCILED
360
3DF
  0
DICTIONARY
  5
481
330
480
100
AcDbDictionary
280
     1
281
     1
  0
DICTIONARY
  5
2A2
330
1F
100
AcDbDictionary
280
     1
281
     1
  3
ACAD_ASSOCNETWORK
360
431
  3
ACAD_SORTENTS
360
2A3
  0
DICTIONARY
  5
596
330
1CC
100
AcDbDictionary
280
     1
281
     1
  0
IMAGEDEF_REACTOR
  5
628
330
627
100
AcDbRasterImageDefReactor
 90
        2
330
627
  0
IMAGEDEF_REACTOR
  5
62B
330
62A
100
AcDbRasterImageDefReactor
 90
        2
330
62A
  0
DICTIONARY
  5
433
102
{ACAD_REACTORS
330
C
102
}
330
C
100
AcDbDictionary
281
     1
  3
ACAD_ASSOCNETWORK
350
434
  0
XRECORD
  5
290
102
{ACAD_REACTORS
330
C
102
}
330
C
100
AcDbXrecord
280
     1
300
ACD
300
2014
300
BDSPRM_F_S
  0
DICTIONARY
  5
284
102
{ACAD_REACTORS
330
C
102
}
330
C
100
AcDbDictionary
281
     1
  0
DICTIONARY
  5
289
102
{ACAD_REACTORS
330
C
102
}
330
C
100
AcDbDictionary
281
     1
  3
Imperial24
350
28A
  0
DICTIONARY
  5
D
102
{ACAD_REACTORS
330
C
102
}
330
C
100
AcDbDictionary
281
     1
  0
DICTIONARY
  5
4AC
102
{ACAD_REACTORS
330
C
102
}
330
C
100
AcDbDictionary
281
     1
  3
BRANZ logo. Do not place on drawing without number 510-
350
5FA
  3
logo sharp
350
5FB
  0
RASTERVARIABLES
  5
4AF
102
{ACAD_REACTORS
330
C
102
}
330
C
100
AcDbRasterVariables
 90
        0
 70
     1
 71
     1
 72
     0
  0
DICTIONARY
  5
1A
102
{ACAD_REACTORS
330
C
102
}
330
C
100
AcDbDictionary
281
     1
  3
Layout1
350
1E
  3
Layout2
350
26
  3
Model
350
22
  0
DICTIONARY
  5
3B
102
{ACAD_REACTORS
330
C
102
}
330
C
100
AcDbDictionary
281
     1
  3
ByBlock
350
3D
  3
ByLayer
350
3C
  3
Global
350
3E
  0
DICTIONARY
  5
277
102
{ACAD_REACTORS
330
C
102
}
330
C
100
AcDbDictionary
281
     1
  3
Standard
350
286
  0
DICTIONARY
  5
17
102
{ACAD_REACTORS
330
C
102
}
330
C
100
AcDbDictionary
281
     1
  3
Standard
350
18
  0
DICTIONARY
  5
19
102
{ACAD_REACTORS
330
C
102
}
330
C
100
AcDbDictionary
281
     1
  0
ACDBDICTIONARYWDFLT
  5
E
102
{ACAD_REACTORS
330
C
102
}
330
C
100
AcDbDictionary
281
     1
  3
Normal
350
F
100
AcDbDictionaryWithDefault
340
F
  0
DICTIONARY
  5
17C
102
{ACAD_REACTORS
330
C
102
}
330
C
100
AcDbDictionary
281
     1
  3
A0
350
17D
  3
A1
350
17E
  3
A2
350
17F
  3
A3
350
180
  3
A4
350
181
  3
A5
350
182
  3
A6
350
183
  3
A7
350
184
  3
A8
350
185
  3
A9
350
186
  3
B0
350
187
  3
B1
350
188
  3
B2
350
189
  3
B3
350
18A
  3
B4
350
18B
  3
B5
350
18C
  3
B6
350
18D
  3
B7
350
18E
  3
B8
350
18F
  3
B9
350
190
  3
C0
350
191
  3
C1
350
192
  3
C2
350
193
  3
C3
350
194
  3
C4
350
195
  3
C5
350
196
  3
C6
350
197
  3
C7
350
198
  3
C8
350
199
  3
C9
350
19A
  3
D0
350
19B
  3
D1
350
19C
  3
D2
350
19D
  0
DICTIONARY
  5
287
102
{ACAD_REACTORS
330
C
102
}
330
C
100
AcDbDictionary
281
     1
  3
Imperial24
350
288
  0
DICTIONARY
  5
276
102
{ACAD_REACTORS
330
C
102
}
330
C
100
AcDbDictionary
281
     1
  3
Standard
350
285
  0
DICTIONARY
  5
2A
102
{ACAD_REACTORS
330
C
102
}
330
C
100
AcDbDictionary
281
     1
  3
2dWireframe
350
2F
  3
3D Hidden
350
31
  3
3dWireframe
350
30
  3
Basic
350
32
  3
Brighten
350
36
  3
ColorChange
350
3A
  3
Conceptual
350
34
  3
Dim
350
35
  3
EdgeColorOff
350
283
  3
Facepattern
350
39
  3
Flat
350
2B
  3
FlatWithEdges
350
2C
  3
Gouraud
350
2D
  3
GouraudWithEdges
350
2E
  3
Hidden
350
27B
  3
JitterOff
350
281
  3
Linepattern
350
38
  3
OverhangOff
350
282
  3
Realistic
350
33
  3
Shaded
350
280
  3
Shaded with edges
350
27F
  3
Shades of Gray
350
27C
  3
Sketchy
350
27D
  3
Thicken
350
37
  3
Wireframe
350
27A
  3
X-Ray
350
27E
  0
WIPEOUTVARIABLES
  5
292
102
{ACAD_REACTORS
330
C
102
}
330
C
100
AcDbWipeoutVariables
 70
     1
  0
XRECORD
  5
8BD
102
{ACAD_REACTORS
330
C
102
}
330
C
100
AcDbXrecord
280
     1
 90
        1
330
285
330
49B
330
49D
330
49E
330
4A1
  0
DICTIONARY
  5
254
102
{ACAD_REACTORS
330
C
102
}
330
C
100
AcDbDictionary
281
     1
  3
CANNOSCALE
350
255
  3
CMLEADERSTYLE
350
3EF
  3
CTABLESTYLE
350
3EE
  3
CVIEWDETAILSTYLE
350
3F0
  3
CVIEWSECTIONSTYLE
350
3F1
  3
HPCOLOR
350
81E
  3
LAYEREVAL
350
3F2
  3
LAYERNOTIFY
350
3F3
  0
DICTIONARY
  5
8C3
102
{ACAD_REACTORS
330
C
102
}
330
C
100
AcDbDictionary
281
     1
  3
AcDsRecords
350
8C5
  3
AcDsSchemas
350
8C4
1001
ACAD
1070
     2
  0
DICTIONARY
  5
252
102
{ACAD_REACTORS
330
C
102
}
330
C
100
AcDbDictionary
281
     1
  3
AC_WATERMARK
350
253
  0
DICTIONARY
  5
3E4
102
{ACAD_REACTORS
330
3E3
102
}
330
3E3
100
AcDbDictionary
281
     1
  0
XRECORD
  5
3D9
102
{ACAD_REACTORS
330
3D8
102
}
330
3D8
100
AcDbXrecord
280
     1
290
     1
  0
XRECORD
  5
3DB
102
{ACAD_REACTORS
330
3DA
102
}
330
3DA
100
AcDbXrecord
280
     1
290
     1
  0
XRECORD
  5
3DD
102
{ACAD_REACTORS
330
3DC
102
}
330
3DC
100
AcDbXrecord
280
     1
290
     1
  0
XRECORD
  5
3DF
102
{ACAD_REACTORS
330
3DE
102
}
330
3DE
100
AcDbXrecord
280
     1
290
     1
  0
DICTIONARY
  5
431
102
{ACAD_REACTORS
330
2A2
102
}
330
2A2
100
AcDbDictionary
281
     1
  3
ACAD_ASSOCNETWORK
350
432
  0
SORTENTSTABLE
  5
2A3
102
{ACAD_REACTORS
330
2A2
102
}
330
2A2
100
AcDbSortentsTable
330
1F
331
1E3
  5
237
331
1EB
  5
244
331
1B4
  5
1D4
331
1BC
  5
1DB
331
1F3
  5
249
331
67C
  5
6DD
331
1C4
  5
1E8
331
49F
  5
677
331
4C
  5
1A3
331
242
  5
49E
331
24A
  5
620
331
1D4
  5
1F2
331
1DC
  5
1F9
331
814
  5
1C6
331
625
  5
684
331
1A5
  5
1BB
331
675
  5
690
331
1BD
  5
1DC
331
1F4
  5
247
331
1C5
  5
1E9
331
685
  5
817
331
45
  5
4E
331
243
  5
49F
331
4A0
  5
678
331
1D5
  5
1F3
331
24B
  5
621
331
4B0
  5
67B
331
1DD
  5
1FA
331
815
  5
819
331
626
  5
685
331
1A6
  5
1BC
331
1E5
  5
23E
331
676
  5
693
331
1B6
  5
1D5
331
1BE
  5
1DD
331
1F5
  5
24A
331
234
  5
401
331
1C6
  5
1EA
331
499
  5
626
331
46
  5
1A4
331
4E
  5
1B0
331
4A1
  5
679
331
244
  5
4A0
331
42A
  5
625
331
24C
  5
622
331
1D6
  5
1F4
331
550
  5
67E
331
816
  5
81A
331
1DE
  5
207
331
627
  5
686
331
3F
  5
46
331
1E6
  5
23F
331
1B7
  5
1D6
331
46A
  5
624
331
677
  5
694
331
235
  5
445
331
1BF
  5
1DE
331
1F6
  5
24C
331
687
  5
818
331
1C7
  5
1EB
331
49A
  5
627
331
47
  5
4F
331
4F
  5
1AD
331
245
  5
4A1
331
4A2
  5
67A
331
24D
  5
623
331
1D7
  5
1F6
331
817
  5
81C
331
1DF
  5
219
331
620
  5
67F
331
1E7
  5
240
331
678
  5
695
331
1B8
  5
1D7
331
1EF
  5
245
331
1F7
  5
24B
331
680
  5
816
331
1C0
  5
1DF
331
49B
  5
629
331
688
  5
716
331
23E
  5
49A
331
48
  5
1AB
331
1C8
  5
1EE
331
207
  5
24E
331
246
  5
4A2
331
1D8
  5
1F7
331
24E
  5
550
331
818
  5
81D
331
621
  5
680
331
4B3
  5
67D
331
629
  5
687
331
1A9
  5
1C7
331
1E0
  5
227
331
227
  5
404
331
1E8
  5
241
331
1F0
  5
246
331
679
  5
696
331
1B9
  5
1D8
331
1C1
  5
1E5
331
1F8
  5
24D
331
237
  5
499
331
681
  5
74F
331
23F
  5
42A
331
49C
  5
62A
331
41
  5
4A
331
1C9
  5
1EF
331
247
  5
49B
331
819
  5
81F
331
622
  5
681
331
62A
  5
688
331
1E1
  5
234
331
1E9
  5
242
331
829
  5
1CA
331
1B2
  5
1C8
331
1BA
  5
1D9
331
67A
  5
6DC
331
1F9
  5
29F
331
1C2
  5
1E6
331
49D
  5
675
331
1CA
  5
1F0
331
240
  5
49C
331
248
  5
4B0
331
6DA
  5
49
331
623
  5
682
331
219
  5
403
331
81A
  5
820
331
1E2
  5
235
331
1B3
  5
1CB
331
1EA
  5
243
331
1F2
  5
248
331
1BB
  5
1DA
331
1C3
  5
1E7
331
1FA
  5
2A1
331
49E
  5
676
331
43
  5
4C
331
4B
  5
1AE
331
241
  5
49D
331
1CB
  5
1F1
331
249
  5
4B3
331
1DB
  5
1F8
331
624
  5
683
331
1A4
  5
1BA
  0
ACDBASSOCNETWORK
  5
434
102
{ACAD_REACTORS
330
433
102
}
330
433
100
AcDbAssocAction
 90
        1
 90
        0
330
0
360
0
 90
        0
 90
        0
 90
        0
100
AcDbAssocNetwork
 90
        0
 90
        1
 90
        1
330
432
 90
        0
  0
ACDBDETAILVIEWSTYLE
  5
28A
102
{ACAD_XDICTIONARY
360
3EB
102
}
102
{ACAD_REACTORS
330
289
102
}
330
289
100
AcDbModelDocViewStyle
 70
     0
  3
Imperial24
290
     0
100
AcDbDetailViewStyle
 70
     0
 71
     0
 90
        3
 71
     1
340
11
 62
   256
 40
0.24
340
0
 62
   256
 40
0.24
300

 40
0.36
280
     3
 71
     2
340
16
 90
       25
 62
   256
 71
     3
340
11
 62
   256
 40
0.24
 90
        1
 40
0.75
 90
        1
300
%<\AcVar ViewType \f "%tc1">% %<\AcVar ViewDetailId>%\PSCALE %<\AcVar ViewScale \f "%sn">%
 71
     4
340
16
 90
       25
 62
   256
340
16
 90
       25
 62
   256
280
     0
  0
IMAGEDEF
  5
5FA
102
{ACAD_REACTORS
330
4AC
330
628
102
}
330
4AC
100
AcDbRasterImageDef
 90
        0
  1
P:\VERT-X CONSULTING LTD\2013\10 Oct\1310-015- Specialized Construction Products - Contract draughting\Drawings\BRANZ logo. Do not place on drawing without number 510-.jpg
 10
828.0
 20
781.0
 11
0.0846666666666667
 21
0.0846666666666667
280
     1
281
     5
  0
IMAGEDEF
  5
5FB
102
{ACAD_REACTORS
330
4AC
330
62B
102
}
330
4AC
100
AcDbRasterImageDef
 90
        0
  1
P:\VERT-X CONSULTING LTD\2013\10 Oct\1310-015- Specialized Construction Products - Contract draughting\Drawings\logo sharp.JPG
 10
2521.0
 20
901.0
 11
0.2645833333333333
 21
0.2645833333333333
280
     1
281
     5
  0
LAYOUT
  5
1E
102
{ACAD_REACTORS
330
1A
102
}
330
1A
100
AcDbPlotSettings
  1

  2
none_device
  4

  6

 40
0.0
 41
0.0
 42
0.0
 43
0.0
 44
0.0
 45
0.0
 46
0.0
 47
0.0
 48
0.0
 49
0.0
140
0.0
141
0.0
142
1.0
143
1.0
 70
   688
 72
     0
 73
     0
 74
     5
  7

 75
    16
147
1.0
 76
     0
 77
     2
 78
   300
148
0.0
149
0.0
100
AcDbLayout
  1
Layout1
 70
     1
 71
     1
 10
0.0
 20
0.0
 11
12.0
 21
9.0
 12
0.0
 22
0.0
 32
0.0
 14
1.000000000000000E+20
 24
1.000000000000000E+20
 34
1.000000000000000E+20
 15
-1.000000000000000E+20
 25
-1.000000000000000E+20
 35
-1.000000000000000E+20
146
0.0
 13
0.0
 23
0.0
 33
0.0
 16
1.0
 26
0.0
 36
0.0
 17
0.0
 27
1.0
 37
0.0
 76
     0
330
1B
  0
LAYOUT
  5
26
102
{ACAD_REACTORS
330
1A
102
}
330
1A
100
AcDbPlotSettings
  1

  2
none_device
  4

  6

 40
0.0
 41
0.0
 42
0.0
 43
0.0
 44
0.0
 45
0.0
 46
0.0
 47
0.0
 48
0.0
 49
0.0
140
0.0
141
0.0
142
1.0
143
1.0
 70
   688
 72
     0
 73
     0
 74
     5
  7

 75
    16
147
1.0
 76
     0
 77
     2
 78
   300
148
0.0
149
0.0
100
AcDbLayout
  1
Layout2
 70
     1
 71
     2
 10
0.0
 20
0.0
 11
0.0
 21
0.0
 12
0.0
 22
0.0
 32
0.0
 14
0.0
 24
0.0
 34
0.0
 15
0.0
 25
0.0
 35
0.0
146
0.0
 13
0.0
 23
0.0
 33
0.0
 16
1.0
 26
0.0
 36
0.0
 17
0.0
 27
1.0
 37
0.0
 76
     0
330
23
  0
LAYOUT
  5
22
102
{ACAD_REACTORS
330
1A
102
}
330
1A
100
AcDbPlotSettings
  1

  2
none_device
  4

  6

 40
0.0
 41
0.0
 42
0.0
 43
0.0
 44
0.0
 45
0.0
 46
0.0
 47
0.0
 48
0.0
 49
0.0
140
0.0
141
0.0
142
1.0
143
1.0
 70
  1712
 72
     0
 73
     0
 74
     0
  7

 75
     0
147
1.0
 76
     0
 77
     2
 78
   300
148
0.0
149
0.0
100
AcDbLayout
  1
Model
 70
     1
 71
     0
 10
0.0
 20
0.0
 11
12.0
 21
9.0
 12
0.0
 22
0.0
 32
0.0
 14
1.000000000000000E+20
 24
1.000000000000000E+20
 34
1.000000000000000E+20
 15
-1.000000000000000E+20
 25
-1.000000000000000E+20
 35
-1.000000000000000E+20
146
0.0
 13
0.0
 23
0.0
 33
0.0
 16
1.0
 26
0.0
 36
0.0
 17
0.0
 27
1.0
 37
0.0
 76
     0
330
1F
331
29
  0
MATERIAL
  5
3D
102
{ACAD_REACTORS
330
3B
102
}
330
3B
100
AcDbMaterial
  1
ByBlock
 73
     1
 78
     1
172
     1
176
     1
270
     1
274
     1
  0
MATERIAL
  5
3C
102
{ACAD_REACTORS
330
3B
102
}
330
3B
100
AcDbMaterial
  1
ByLayer
 73
     1
 78
     1
172
     1
176
     1
270
     1
274
     1
  0
MATERIAL
  5
3E
102
{ACAD_REACTORS
330
3B
102
}
330
3B
100
AcDbMaterial
  1
Global
 73
     1
 78
     1
172
     1
176
     1
270
     1
274
     1
  0
MLEADERSTYLE
  5
286
102
{ACAD_XDICTIONARY
360
8FA
102
}
102
{ACAD_REACTORS
330
277
102
}
330
277
100
AcDbMLeaderStyle
179
     2
170
     2
171
     1
172
     0
 90
        2
 40
0.0
 41
0.0
173
     1
 91
-1056964608
340
14
 92
       -2
290
     1
 42
0.09
291
     1
 43
0.36
  3
Standard
 44
0.18
300

342
11
174
     1
178
     6
175
     1
176
     0
 93
-1056964608
 45
0.18
292
     0
297
     0
 46
0.18
 94
-1056964608
 47
1.0
 49
1.0
140
1.0
293
     1
141
0.0
294
     1
177
     0
142
1.0
295
     0
296
     0
143
0.125
271
     0
272
     9
273
     9
  0
MLINESTYLE
  5
18
102
{ACAD_REACTORS
330
17
102
}
330
17
100
AcDbMlineStyle
  2
STANDARD
 70
     0
  3

 62
   256
 51
90.0
 52
90.0
 71
     2
 49
0.5
 62
   256
  6
BYLAYER
 49
-0.5
 62
   256
  6
BYLAYER
  0
ACDBPLACEHOLDER
  5
F
102
{ACAD_REACTORS
330
E
102
}
330
E
  0
SCALE
  5
17D
102
{ACAD_REACTORS
330
17C
102
}
330
17C
100
AcDbScale
 70
     0
300
1:1
140
1.0
141
1.0
290
     1
  0
SCALE
  5
17E
102
{ACAD_REACTORS
330
17C
102
}
330
17C
100
AcDbScale
 70
     0
300
1:2
140
1.0
141
2.0
290
     0
  0
SCALE
  5
17F
102
{ACAD_REACTORS
330
17C
102
}
330
17C
100
AcDbScale
 70
     0
300
1:4
140
1.0
141
4.0
290
     0
  0
SCALE
  5
180
102
{ACAD_REACTORS
330
17C
102
}
330
17C
100
AcDbScale
 70
     0
300
1:5
140
1.0
141
5.0
290
     0
  0
SCALE
  5
181
102
{ACAD_REACTORS
330
17C
102
}
330
17C
100
AcDbScale
 70
     0
300
1:8
140
1.0
141
8.0
290
     0
  0
SCALE
  5
182
102
{ACAD_REACTORS
330
17C
102
}
330
17C
100
AcDbScale
 70
     0
300
1:10
140
1.0
141
10.0
290
     0
  0
SCALE
  5
183
102
{ACAD_REACTORS
330
17C
102
}
330
17C
100
AcDbScale
 70
     0
300
1:16
140
1.0
141
16.0
290
     0
  0
SCALE
  5
184
102
{ACAD_REACTORS
330
17C
102
}
330
17C
100
AcDbScale
 70
     0
300
1:20
140
1.0
141
20.0
290
     0
  0
SCALE
  5
185
102
{ACAD_REACTORS
330
17C
102
}
330
17C
100
AcDbScale
 70
     0
300
1:30
140
1.0
141
30.0
290
     0
  0
SCALE
  5
186
102
{ACAD_REACTORS
330
17C
102
}
330
17C
100
AcDbScale
 70
     0
300
1:40
140
1.0
141
40.0
290
     0
  0
SCALE
  5
187
102
{ACAD_REACTORS
330
17C
102
}
330
17C
100
AcDbScale
 70
     0
300
1:50
140
1.0
141
50.0
290
     0
  0
SCALE
  5
188
102
{ACAD_REACTORS
330
17C
102
}
330
17C
100
AcDbScale
 70
     0
300
1:100
140
1.0
141
100.0
290
     0
  0
SCALE
  5
189
102
{ACAD_REACTORS
330
17C
102
}
330
17C
100
AcDbScale
 70
     0
300
2:1
140
2.0
141
1.0
290
     0
  0
SCALE
  5
18A
102
{ACAD_REACTORS
330
17C
102
}
330
17C
100
AcDbScale
 70
     0
300
4:1
140
4.0
141
1.0
290
     0
  0
SCALE
  5
18B
102
{ACAD_REACTORS
330
17C
102
}
330
17C
100
AcDbScale
 70
     0
300
8:1
140
8.0
141
1.0
290
     0
  0
SCALE
  5
18C
102
{ACAD_REACTORS
330
17C
102
}
330
17C
100
AcDbScale
 70
     0
300
10:1
140
10.0
141
1.0
290
     0
  0
SCALE
  5
18D
102
{ACAD_REACTORS
330
17C
102
}
330
17C
100
AcDbScale
 70
     0
300
100:1
140
100.0
141
1.0
290
     0
  0
SCALE
  5
18E
102
{ACAD_REACTORS
330
17C
102
}
330
17C
100
AcDbScale
 70
     0
300
1/128" = 1'-0"
140
0.0078125
141
12.0
290
     0
  0
SCALE
  5
18F
102
{ACAD_REACTORS
330
17C
102
}
330
17C
100
AcDbScale
 70
     0
300
1/64" = 1'-0"
140
0.015625
141
12.0
290
     0
  0
SCALE
  5
190
102
{ACAD_REACTORS
330
17C
102
}
330
17C
100
AcDbScale
 70
     0
300
1/32" = 1'-0"
140
0.03125
141
12.0
290
     0
  0
SCALE
  5
191
102
{ACAD_REACTORS
330
17C
102
}
330
17C
100
AcDbScale
 70
     0
300
1/16" = 1'-0"
140
0.0625
141
12.0
290
     0
  0
SCALE
  5
192
102
{ACAD_REACTORS
330
17C
102
}
330
17C
100
AcDbScale
 70
     0
300
3/32" = 1'-0"
140
0.09375
141
12.0
290
     0
  0
SCALE
  5
193
102
{ACAD_REACTORS
330
17C
102
}
330
17C
100
AcDbScale
 70
     0
300
1/8" = 1'-0"
140
0.125
141
12.0
290
     0
  0
SCALE
  5
194
102
{ACAD_REACTORS
330
17C
102
}
330
17C
100
AcDbScale
 70
     0
300
3/16" = 1'-0"
140
0.1875
141
12.0
290
     0
  0
SCALE
  5
195
102
{ACAD_REACTORS
330
17C
102
}
330
17C
100
AcDbScale
 70
     0
300
1/4" = 1'-0"
140
0.25
141
12.0
290
     0
  0
SCALE
  5
196
102
{ACAD_REACTORS
330
17C
102
}
330
17C
100
AcDbScale
 70
     0
300
3/8" = 1'-0"
140
0.375
141
12.0
290
     0
  0
SCALE
  5
197
102
{ACAD_REACTORS
330
17C
102
}
330
17C
100
AcDbScale
 70
     0
300
1/2" = 1'-0"
140
0.5
141
12.0
290
     0
  0
SCALE
  5
198
102
{ACAD_REACTORS
330
17C
102
}
330
17C
100
AcDbScale
 70
     0
300
3/4" = 1'-0"
140
0.75
141
12.0
290
     0
  0
SCALE
  5
199
102
{ACAD_REACTORS
330
17C
102
}
330
17C
100
AcDbScale
 70
     0
300
1" = 1'-0"
140
1.0
141
12.0
290
     0
  0
SCALE
  5
19A
102
{ACAD_REACTORS
330
17C
102
}
330
17C
100
AcDbScale
 70
     0
300
1-1/2" = 1'-0"
140
1.5
141
12.0
290
     0
  0
SCALE
  5
19B
102
{ACAD_REACTORS
330
17C
102
}
330
17C
100
AcDbScale
 70
     0
300
3" = 1'-0"
140
3.0
141
12.0
290
     0
  0
SCALE
  5
19C
102
{ACAD_REACTORS
330
17C
102
}
330
17C
100
AcDbScale
 70
     0
300
6" = 1'-0"
140
6.0
141
12.0
290
     0
  0
SCALE
  5
19D
102
{ACAD_REACTORS
330
17C
102
}
330
17C
100
AcDbScale
 70
     0
300
1'-0" = 1'-0"
140
12.0
141
12.0
290
     0
  0
ACDBSECTIONVIEWSTYLE
  5
288
102
{ACAD_XDICTIONARY
360
3E9
102
}
102
{ACAD_REACTORS
330
287
102
}
330
287
100
AcDbModelDocViewStyle
 70
     0
  3
Imperial24
290
     0
100
AcDbSectionViewStyle
 70
     0
 71
     0
 90
       78
 71
     1
340
11
 62
   256
 40
0.24
340
0
340
0
 62
   256
 40
0.24
300
I, O, Q, S, X, Z
 40
0.48
 90
        3
 40
0.18
 90
        1
 71
     2
340
16
 90
       25
 62
   256
340
16
 90
       50
 62
   256
 40
0.24
 40
0.0
 40
0.24
 71
     3
340
11
 62
   256
 40
0.24
 90
        1
 40
0.75
 90
        1
300
%<\AcVar ViewType \f "%tc1">% %<\AcVar ViewSectionStartId>%-%<\AcVar ViewSectionEndId>%\PSCALE %<\AcVar ViewScale \f "%sn">%
 71
     4
 62
   256
 62
   257
300
ANSI31
 40
1.0
 90
        0
290
     0
290
     0
 90
        6
 40
0.0
 40
1.570796326794896
 40
0.2617993877991494
 40
1.308996938995747
 40
-0.2617993877991494
 40
1.832595714594046
  0
TABLESTYLE
  5
285
102
{ACAD_XDICTIONARY
360
8BB
102
}
102
{ACAD_REACTORS
330
276
102
}
330
276
100
AcDbTableStyle
280
     0
  3
Standard
 70
     0
 71
     0
 40
0.06
 41
0.06
280
     0
281
     0
  7
Standard
140
0.18
170
     2
 62
     0
 63
     7
283
     0
 90
      512
 91
        0
  1

274
    -2
284
     1
 64
     0
275
    -2
285
     1
 65
     0
276
    -2
286
     1
 66
     0
277
    -2
287
     1
 67
     0
278
    -2
288
     1
 68
     0
279
    -2
289
     1
 69
     0
  7
Standard
140
0.25
170
     5
 62
     0
 63
     7
283
     0
 90
      512
 91
        0
  1

274
    -2
284
     1
 64
     0
275
    -2
285
     1
 65
     0
276
    -2
286
     1
 66
     0
277
    -2
287
     1
 67
     0
278
    -2
288
     1
 68
     0
279
    -2
289
     1
 69
     0
  7
Standard
140
0.18
170
     5
 62
     0
 63
     7
283
     0
 90
      512
 91
        0
  1

274
    -2
284
     1
 64
     0
275
    -2
285
     1
 65
     0
276
    -2
286
     1
 66
     0
277
    -2
287
     1
 67
     0
278
    -2
288
     1
 68
     0
279
    -2
289
     1
 69
     0
  0
VISUALSTYLE
  5
2F
102
{ACAD_XDICTIONARY
360
8CE
102
}
102
{ACAD_REACTORS
330
2A
102
}
330
2A
100
AcDbVisualStyle
  2
2dWireframe
 70
     4
177
     2
291
     0
 71
     0
176
     1
 72
     2
176
     1
 73
     0
176
     1
 90
        0
176
     1
 40
0.6
176
     1
 41
30.0
176
     1
 63
     7
421
 16777215
176
     1
 74
     1
176
     1
 91
        4
176
     1
 64
     7
176
     1
 65
   257
176
     1
 75
     1
176
     1
175
     1
176
     1
 42
1.0
176
     1
 92
        0
176
     1
 66
   257
176
     1
 43
1.0
176
     1
 76
     1
176
     1
 77
     6
176
     1
 78
     2
176
     1
 67
     7
176
     1
 79
     5
176
     1
170
     0
176
     1
171
     0
176
     1
290
     0
176
     1
 93
        1
176
     1
 44
0.0
176
     1
173
     0
176
     1
1001
ACAD
1000
AcDbSavedByObjectVersion
1070
     0
  0
VISUALSTYLE
  5
31
102
{ACAD_XDICTIONARY
360
8D2
102
}
102
{ACAD_REACTORS
330
2A
102
}
330
2A
100
AcDbVisualStyle
  2
3D Hidden
 70
     6
177
     2
291
     0
 71
     1
176
     1
 72
     2
176
     1
 73
     2
176
     1
 90
        0
176
     1
 40
0.6
176
     1
 41
30.0
176
     1
 63
     7
421
 16777215
176
     1
 74
     2
176
     1
 91
        2
176
     1
 64
     7
176
     1
 65
   257
176
     1
 75
     2
176
     1
175
     1
176
     1
 42
40.0
176
     1
 92
        0
176
     1
 66
   257
176
     1
 43
1.0
176
     1
 76
     1
176
     1
 77
     6
176
     1
 78
     2
176
     1
 67
     7
176
     1
 79
     3
176
     1
170
     0
176
     1
171
     0
176
     1
290
     0
176
     1
 93
        1
176
     1
 44
0.0
176
     1
173
     0
176
     1
1001
ACAD
1000
AcDbSavedByObjectVersion
1070
     0
  0
VISUALSTYLE
  5
30
102
{ACAD_XDICTIONARY
360
8D0
102
}
102
{ACAD_REACTORS
330
2A
102
}
330
2A
100
AcDbVisualStyle
  2
3dWireframe
 70
     5
177
     2
291
     0
 71
     0
176
     1
 72
     2
176
     1
 73
     0
176
     1
 90
        0
176
     1
 40
0.6
176
     1
 41
30.0
176
     1
 63
     7
421
 16777215
176
     1
 74
     1
176
     1
 91
        4
176
     1
 64
     7
176
     1
 65
   257
176
     1
 75
     1
176
     1
175
     1
176
     1
 42
1.0
176
     1
 92
        0
176
     1
 66
   257
176
     1
 43
1.0
176
     1
 76
     1
176
     1
 77
     6
176
     1
 78
     2
176
     1
 67
     7
176
     1
 79
     5
176
     1
170
     0
176
     1
171
     0
176
     1
290
     0
176
     1
 93
        1
176
     1
 44
0.0
176
     1
173
     0
176
     1
1001
ACAD
1000
AcDbSavedByObjectVersion
1070
     0
  0
VISUALSTYLE
  5
32
102
{ACAD_XDICTIONARY
360
8D4
102
}
102
{ACAD_REACTORS
330
2A
102
}
330
2A
100
AcDbVisualStyle
  2
Basic
 70
     7
177
     2
291
     1
 71
     1
176
     1
 72
     0
176
     1
 73
     1
176
     1
 90
        0
176
     1
 40
0.6
176
     1
 41
30.0
176
     1
 63
     7
421
 16777215
176
     1
 74
     0
176
     1
 91
        4
176
     1
 64
     7
176
     1
 65
   257
176
     1
 75
     1
176
     1
175
     1
176
     1
 42
1.0
176
     1
 92
        8
176
     1
 66
     7
176
     1
 43
1.0
176
     1
 76
     1
176
     1
 77
     6
176
     1
 78
     2
176
     1
 67
     7
176
     1
 79
     5
176
     1
170
     0
176
     1
171
     0
176
     1
290
     0
176
     1
 93
        1
176
     1
 44
0.0
176
     1
173
     0
176
     1
1001
ACAD
1000
AcDbSavedByObjectVersion
1070
     0
  0
VISUALSTYLE
  5
36
102
{ACAD_XDICTIONARY
360
8DC
102
}
102
{ACAD_REACTORS
330
2A
102
}
330
2A
100
AcDbVisualStyle
  2
Brighten
 70
    12
177
     2
291
     1
 71
     2
176
     1
 72
     2
176
     1
 73
     0
176
     1
 90
        0
176
     1
 40
0.6
176
     1
 41
30.0
176
     1
 63
     7
421
 16777215
176
     1
 74
     1
176
     1
 91
        4
176
     1
 64
     7
176
     1
 65
   257
176
     1
 75
     1
176
     1
175
     1
176
     1
 42
1.0
176
     1
 92
        8
176
     1
 66
     7
176
     1
 43
1.0
176
     1
 76
     1
176
     1
 77
     6
176
     1
 78
     2
176
     1
 67
     7
176
     1
 79
     5
176
     1
170
     0
176
     1
171
     0
176
     1
290
     0
176
     1
 93
        1
176
     1
 44
50.0
176
     1
173
     0
176
     1
1001
ACAD
1000
AcDbSavedByObjectVersion
1070
     0
  0
VISUALSTYLE
  5
3A
102
{ACAD_XDICTIONARY
360
8E4
102
}
102
{ACAD_REACTORS
330
2A
102
}
330
2A
100
AcDbVisualStyle
  2
ColorChange
 70
    16
177
     2
291
     1
 71
     2
176
     1
 72
     2
176
     1
 73
     3
176
     1
 90
        0
176
     1
 40
0.6
176
     1
 41
30.0
176
     1
 63
     8
421
  8421504
176
     1
 74
     1
176
     1
 91
        4
176
     1
 64
     7
176
     1
 65
   257
176
     1
 75
     1
176
     1
175
     1
176
     1
 42
1.0
176
     1
 92
        8
176
     1
 66
     8
424
  8421504
176
     1
 43
1.0
176
     1
 76
     1
176
     1
 77
     6
176
     1
 78
     2
176
     1
 67
     7
176
     1
 79
     5
176
     1
170
     0
176
     1
171
     0
176
     1
290
     0
176
     1
 93
        1
176
     1
 44
0.0
176
     1
173
     0
176
     1
1001
ACAD
1000
AcDbSavedByObjectVersion
1070
     0
  0
VISUALSTYLE
  5
34
102
{ACAD_XDICTIONARY
360
8D8
102
}
102
{ACAD_REACTORS
330
2A
102
}
330
2A
100
AcDbVisualStyle
  2
Conceptual
 70
     9
177
     2
291
     0
 71
     3
176
     1
 72
     2
176
     1
 73
     0
176
     1
 90
        0
176
     1
 40
0.6
176
     1
 41
30.0
176
     1
 63
     7
421
 16777215
176
     1
 74
     2
176
     1
 91
        2
176
     1
 64
     7
176
     1
 65
   257
176
     1
 75
     1
176
     1
175
     1
176
     1
 42
40.0
176
     1
 92
        8
176
     1
 66
     7
176
     1
 43
1.0
176
     1
 76
     1
176
     1
 77
     6
176
     1
 78
     2
176
     1
 67
     7
176
     1
 79
     3
176
     1
170
     0
176
     1
171
     0
176
     1
290
     0
176
     1
 93
        1
176
     1
 44
0.0
176
     1
173
     0
176
     1
1001
ACAD
1000
AcDbSavedByObjectVersion
1070
     0
  0
VISUALSTYLE
  5
35
102
{ACAD_XDICTIONARY
360
8DA
102
}
102
{ACAD_REACTORS
330
2A
102
}
330
2A
100
AcDbVisualStyle
  2
Dim
 70
    11
177
     2
291
     1
 71
     2
176
     1
 72
     2
176
     1
 73
     0
176
     1
 90
        0
176
     1
 40
0.6
176
     1
 41
30.0
176
     1
 63
     7
421
 16777215
176
     1
 74
     1
176
     1
 91
        4
176
     1
 64
     7
176
     1
 65
   257
176
     1
 75
     1
176
     1
175
     1
176
     1
 42
1.0
176
     1
 92
        8
176
     1
 66
     7
176
     1
 43
1.0
176
     1
 76
     1
176
     1
 77
     6
176
     1
 78
     2
176
     1
 67
     7
176
     1
 79
     5
176
     1
170
     0
176
     1
171
     0
176
     1
290
     0
176
     1
 93
        1
176
     1
 44
-50.0
176
     1
173
     0
176
     1
1001
ACAD
1000
AcDbSavedByObjectVersion
1070
     0
  0
VISUALSTYLE
  5
283
102
{ACAD_XDICTIONARY
360
8F8
102
}
102
{ACAD_REACTORS
330
2A
102
}
330
2A
100
AcDbVisualStyle
  2
EdgeColorOff
 70
    22
177
     2
291
     1
 71
     2
176
     0
 72
     2
176
     0
 73
     0
176
     0
 90
        0
176
     0
 40
0.6
176
     0
 41
30.0
176
     0
 63
     7
421
 16777215
176
     0
 74
     1
176
     0
 91
        4
176
     0
 64
     7
176
     0
 65
   257
176
     0
 75
     1
176
     0
175
     1
176
     0
 42
1.0
176
     0
 92
        8
176
     2
 66
     7
176
     0
 43
1.0
176
     0
 76
     1
176
     0
 77
     6
176
     0
 78
     2
176
     0
 67
     7
176
     0
 79
     5
176
     0
170
     0
176
     0
171
     0
176
     0
290
     0
176
     0
 93
        1
176
     0
 44
0.0
176
     0
173
     0
176
     0
1001
ACAD
1000
AcDbSavedByObjectVersion
1070
     0
  0
VISUALSTYLE
  5
39
102
{ACAD_XDICTIONARY
360
8E2
102
}
102
{ACAD_REACTORS
330
2A
102
}
330
2A
100
AcDbVisualStyle
  2
Facepattern
 70
    15
177
     2
291
     1
 71
     2
176
     1
 72
     2
176
     1
 73
     0
176
     1
 90
        0
176
     1
 40
0.6
176
     1
 41
30.0
176
     1
 63
     7
421
 16777215
176
     1
 74
     1
176
     1
 91
        4
176
     1
 64
     7
176
     1
 65
   257
176
     1
 75
     1
176
     1
175
     1
176
     1
 42
1.0
176
     1
 92
        8
176
     1
 66
     7
176
     1
 43
1.0
176
     1
 76
     1
176
     1
 77
     6
176
     1
 78
     2
176
     1
 67
     7
176
     1
 79
     5
176
     1
170
     0
176
     1
171
     0
176
     1
290
     0
176
     1
 93
        1
176
     1
 44
0.0
176
     1
173
     0
176
     1
1001
ACAD
1000
AcDbSavedByObjectVersion
1070
     0
  0
VISUALSTYLE
  5
2B
102
{ACAD_XDICTIONARY
360
8C6
102
}
102
{ACAD_REACTORS
330
2A
102
}
330
2A
100
AcDbVisualStyle
  2
Flat
 70
     0
177
     2
291
     1
 71
     2
176
     1
 72
     1
176
     1
 73
     1
176
     1
 90
        2
176
     1
 40
0.6
176
     1
 41
30.0
176
     1
 63
     7
421
 16777215
176
     1
 74
     0
176
     1
 91
        4
176
     1
 64
     7
176
     1
 65
   257
176
     1
 75
     1
176
     1
175
     1
176
     1
 42
1.0
176
     1
 92
        8
176
     1
 66
     7
176
     1
 43
1.0
176
     1
 76
     1
176
     1
 77
     6
176
     1
 78
     2
176
     1
 67
     7
176
     1
 79
     5
176
     1
170
     0
176
     1
171
     0
176
     1
290
     0
176
     1
 93
       13
176
     1
 44
0.0
176
     1
173
     0
176
     1
1001
ACAD
1000
AcDbSavedByObjectVersion
1070
     0
  0
VISUALSTYLE
  5
2C
102
{ACAD_XDICTIONARY
360
8C8
102
}
102
{ACAD_REACTORS
330
2A
102
}
330
2A
100
AcDbVisualStyle
  2
FlatWithEdges
 70
     1
177
     2
291
     1
 71
     2
176
     1
 72
     1
176
     1
 73
     1
176
     1
 90
        2
176
     1
 40
0.6
176
     1
 41
30.0
176
     1
 63
     7
421
 16777215
176
     1
 74
     1
176
     1
 91
        4
176
     1
 64
     7
176
     1
 65
   257
176
     1
 75
     1
176
     1
175
     1
176
     1
 42
1.0
176
     1
 92
        0
176
     1
 66
   257
176
     1
 43
1.0
176
     1
 76
     1
176
     1
 77
     6
176
     1
 78
     2
176
     1
 67
     7
176
     1
 79
     5
176
     1
170
     0
176
     1
171
     0
176
     1
290
     0
176
     1
 93
       13
176
     1
 44
0.0
176
     1
173
     0
176
     1
1001
ACAD
1000
AcDbSavedByObjectVersion
1070
     0
  0
VISUALSTYLE
  5
2D
102
{ACAD_XDICTIONARY
360
8CA
102
}
102
{ACAD_REACTORS
330
2A
102
}
330
2A
100
AcDbVisualStyle
  2
Gouraud
 70
     2
177
     2
291
     1
 71
     2
176
     1
 72
     2
176
     1
 73
     1
176
     1
 90
        2
176
     1
 40
0.6
176
     1
 41
30.0
176
     1
 63
     7
421
 16777215
176
     1
 74
     0
176
     1
 91
        4
176
     1
 64
     7
176
     1
 65
   257
176
     1
 75
     1
176
     1
175
     1
176
     1
 42
1.0
176
     1
 92
        0
176
     1
 66
     7
176
     1
 43
1.0
176
     1
 76
     1
176
     1
 77
     6
176
     1
 78
     2
176
     1
 67
     7
176
     1
 79
     5
176
     1
170
     0
176
     1
171
     0
176
     1
290
     0
176
     1
 93
       13
176
     1
 44
0.0
176
     1
173
     0
176
     1
1001
ACAD
1000
AcDbSavedByObjectVersion
1070
     0
  0
VISUALSTYLE
  5
2E
102
{ACAD_XDICTIONARY
360
8CC
102
}
102
{ACAD_REACTORS
330
2A
102
}
330
2A
100
AcDbVisualStyle
  2
GouraudWithEdges
 70
     3
177
     2
291
     1
 71
     2
176
     1
 72
     2
176
     1
 73
     1
176
     1
 90
        2
176
     1
 40
0.6
176
     1
 41
30.0
176
     1
 63
     7
421
 16777215
176
     1
 74
     1
176
     1
 91
        4
176
     1
 64
     7
176
     1
 65
   257
176
     1
 75
     1
176
     1
175
     1
176
     1
 42
1.0
176
     1
 92
        0
176
     1
 66
   257
176
     1
 43
1.0
176
     1
 76
     1
176
     1
 77
     6
176
     1
 78
     2
176
     1
 67
     7
176
     1
 79
     5
176
     1
170
     0
176
     1
171
     0
176
     1
290
     0
176
     1
 93
       13
176
     1
 44
0.0
176
     1
173
     0
176
     1
1001
ACAD
1000
AcDbSavedByObjectVersion
1070
     0
  0
VISUALSTYLE
  5
27B
102
{ACAD_XDICTIONARY
360
8E8
102
}
102
{ACAD_REACTORS
330
2A
102
}
330
2A
100
AcDbVisualStyle
  2
Hidden
 70
     6
177
     2
291
     0
 71
     1
176
     1
 72
     2
176
     1
 73
     2
176
     1
 90
        0
176
     1
 40
0.6
176
     1
 41
30.0
176
     1
 63
     7
421
 16777215
176
     1
 74
     2
176
     1
 91
        2
176
     1
 64
     7
176
     1
 65
   257
176
     1
 75
     2
176
     1
175
     1
176
     1
 42
40.0
176
     1
 92
        0
176
     1
 66
   257
176
     1
 43
1.0
176
     1
 76
     1
176
     1
 77
     6
176
     1
 78
     2
176
     1
 67
     7
176
     1
 79
     3
176
     1
170
     0
176
     1
171
     0
176
     1
290
     0
176
     1
 93
        1
176
     1
 44
0.0
176
     1
173
     0
176
     1
1001
ACAD
1000
AcDbSavedByObjectVersion
1070
     0
  0
VISUALSTYLE
  5
281
102
{ACAD_XDICTIONARY
360
8F4
102
}
102
{ACAD_REACTORS
330
2A
102
}
330
2A
100
AcDbVisualStyle
  2
JitterOff
 70
    20
177
     2
291
     1
 71
     2
176
     0
 72
     2
176
     0
 73
     0
176
     0
 90
        0
176
     0
 40
0.6
176
     0
 41
30.0
176
     0
 63
     7
421
 16777215
176
     0
 74
     1
176
     0
 91
        4
176
     0
 64
     7
176
     0
 65
   257
176
     0
 75
     1
176
     0
175
     1
176
     0
 42
1.0
176
     0
 92
       10
176
     2
 66
     7
176
     0
 43
1.0
176
     0
 76
     1
176
     0
 77
     6
176
     0
 78
     2
176
     0
 67
     7
176
     0
 79
     5
176
     0
170
     0
176
     0
171
     0
176
     0
290
     0
176
     0
 93
        1
176
     0
 44
0.0
176
     0
173
     0
176
     0
1001
ACAD
1000
AcDbSavedByObjectVersion
1070
     0
  0
VISUALSTYLE
  5
38
102
{ACAD_XDICTIONARY
360
8E0
102
}
102
{ACAD_REACTORS
330
2A
102
}
330
2A
100
AcDbVisualStyle
  2
Linepattern
 70
    14
177
     2
291
     1
 71
     2
176
     1
 72
     2
176
     1
 73
     0
176
     1
 90
        0
176
     1
 40
0.6
176
     1
 41
30.0
176
     1
 63
     7
421
 16777215
176
     1
 74
     1
176
     1
 91
        4
176
     1
 64
     7
176
     1
 65
   257
176
     1
 75
     7
176
     1
175
     7
176
     1
 42
1.0
176
     1
 92
        8
176
     1
 66
     7
176
     1
 43
1.0
176
     1
 76
     1
176
     1
 77
     6
176
     1
 78
     2
176
     1
 67
     7
176
     1
 79
     5
176
     1
170
     0
176
     1
171
     0
176
     1
290
     0
176
     1
 93
        1
176
     1
 44
0.0
176
     1
173
     0
176
     1
1001
ACAD
1000
AcDbSavedByObjectVersion
1070
     0
  0
VISUALSTYLE
  5
282
102
{ACAD_XDICTIONARY
360
8F6
102
}
102
{ACAD_REACTORS
330
2A
102
}
330
2A
100
AcDbVisualStyle
  2
OverhangOff
 70
    21
177
     2
291
     1
 71
     2
176
     0
 72
     2
176
     0
 73
     0
176
     0
 90
        0
176
     0
 40
0.6
176
     0
 41
30.0
176
     0
 63
     7
421
 16777215
176
     0
 74
     1
176
     0
 91
        4
176
     0
 64
     7
176
     0
 65
   257
176
     0
 75
     1
176
     0
175
     1
176
     0
 42
1.0
176
     0
 92
        9
176
     2
 66
     7
176
     0
 43
1.0
176
     0
 76
     1
176
     0
 77
     6
176
     0
 78
     2
176
     0
 67
     7
176
     0
 79
     5
176
     0
170
     0
176
     0
171
     0
176
     0
290
     0
176
     0
 93
        1
176
     0
 44
0.0
176
     0
173
     0
176
     0
1001
ACAD
1000
AcDbSavedByObjectVersion
1070
     0
  0
VISUALSTYLE
  5
33
102
{ACAD_XDICTIONARY
360
8D6
102
}
102
{ACAD_REACTORS
330
2A
102
}
330
2A
100
AcDbVisualStyle
  2
Realistic
 70
     8
177
     2
291
     0
 71
     2
176
     1
 72
     2
176
     1
 73
     0
176
     1
 90
        0
176
     1
 40
0.6
176
     1
 41
30.0
176
     1
 63
     7
421
 16777215
176
     1
 74
     1
176
     1
 91
        0
176
     1
 64
     7
176
     1
 65
   257
176
     1
 75
     1
176
     1
175
     1
176
     1
 42
1.0
176
     1
 92
        8
176
     1
 66
     8
424
  7895160
176
     1
 43
1.0
176
     1
 76
     1
176
     1
 77
     6
176
     1
 78
     2
176
     1
 67
     7
176
     1
 79
     5
176
     1
170
     0
176
     1
171
     0
176
     1
290
     0
176
     1
 93
       13
176
     1
 44
0.0
176
     1
173
     0
176
     1
1001
ACAD
1000
AcDbSavedByObjectVersion
1070
     0
  0
VISUALSTYLE
  5
280
102
{ACAD_XDICTIONARY
360
8F2
102
}
102
{ACAD_REACTORS
330
2A
102
}
330
2A
100
AcDbVisualStyle
  2
Shaded
 70
    27
177
     2
291
     0
 71
     2
176
     1
 72
     2
176
     1
 73
     1
176
     1
 90
        2
176
     1
 40
0.6
176
     1
 41
30.0
176
     1
 63
     7
421
 16777215
176
     1
 74
     0
176
     1
 91
        4
176
     1
 64
     7
176
     1
 65
   257
176
     1
 75
     1
176
     1
175
     1
176
     1
 42
1.0
176
     1
 92
        8
176
     1
 66
   257
176
     1
 43
1.0
176
     1
 76
     1
176
     1
 77
     6
176
     1
 78
     2
176
     1
 67
     8
425
  7895160
176
     1
 79
     3
176
     1
170
     0
176
     1
171
     0
176
     1
290
     0
176
     1
 93
        5
176
     1
 44
0.0
176
     1
173
     0
176
     1
1001
ACAD
1000
AcDbSavedByObjectVersion
1070
     0
  0
VISUALSTYLE
  5
27F
102
{ACAD_XDICTIONARY
360
8F0
102
}
102
{ACAD_REACTORS
330
2A
102
}
330
2A
100
AcDbVisualStyle
  2
Shaded with edges
 70
    26
177
     2
291
     0
 71
     2
176
     1
 72
     2
176
     1
 73
     1
176
     1
 90
        2
176
     1
 40
0.6
176
     1
 41
30.0
176
     1
 63
     7
421
 16777215
176
     1
 74
     1
176
     1
 91
       10
176
     1
 64
     7
176
     1
 65
   257
176
     1
 75
     2
176
     1
175
     1
176
     1
 42
1.0
176
     1
 92
        8
176
     1
 66
   257
176
     1
 43
1.0
176
     1
 76
     1
176
     1
 77
     6
176
     1
 78
     2
176
     1
 67
     7
176
     1
 79
     3
176
     1
170
     0
176
     1
171
     0
176
     1
290
     0
176
     1
 93
        5
176
     1
 44
0.0
176
     1
173
     0
176
     1
1001
ACAD
1000
AcDbSavedByObjectVersion
1070
     0
  0
VISUALSTYLE
  5
27C
102
{ACAD_XDICTIONARY
360
8EA
102
}
102
{ACAD_REACTORS
330
2A
102
}
330
2A
100
AcDbVisualStyle
  2
Shades of Gray
 70
    23
177
     2
291
     0
 71
     2
176
     1
 72
     2
176
     1
 73
     3
176
     1
 90
        0
176
     1
 40
0.6
176
     1
 41
30.0
176
     1
 63
     7
421
 16777215
176
     1
 74
     2
176
     1
 91
        2
176
     1
 64
     7
176
     1
 65
     7
176
     1
 75
     1
176
     1
175
     1
176
     1
 42
40.0
176
     1
 92
        8
176
     1
 66
     7
176
     1
 43
1.0
176
     1
 76
     1
176
     1
 77
     6
176
     1
 78
     2
176
     1
 67
     7
176
     1
 79
     3
176
     1
170
     0
176
     1
171
     0
176
     1
290
     0
176
     1
 93
        1
176
     1
 44
0.0
176
     1
173
     0
176
     1
1001
ACAD
1000
AcDbSavedByObjectVersion
1070
     0
  0
VISUALSTYLE
  5
27D
102
{ACAD_XDICTIONARY
360
8EC
102
}
102
{ACAD_REACTORS
330
2A
102
}
330
2A
100
AcDbVisualStyle
  2
Sketchy
 70
    24
177
     2
291
     0
 71
     1
176
     1
 72
     2
176
     1
 73
     2
176
     1
 90
        0
176
     1
 40
0.6
176
     1
 41
30.0
176
     1
 63
     7
421
 16777215
176
     1
 74
     2
176
     1
 91
        2
176
     1
 64
     7
176
     1
 65
     7
176
     1
 75
     1
176
     1
175
     1
176
     1
 42
40.0
176
     1
 92
       11
176
     1
 66
     7
176
     1
 43
1.0
176
     1
 76
     1
176
     1
 77
     6
176
     1
 78
     2
176
     1
 67
     7
176
     1
 79
     6
176
     1
170
     0
176
     1
171
     0
176
     1
290
     0
176
     1
 93
        1
176
     1
 44
0.0
176
     1
173
     0
176
     1
1001
ACAD
1000
AcDbSavedByObjectVersion
1070
     0
  0
VISUALSTYLE
  5
37
102
{ACAD_XDICTIONARY
360
8DE
102
}
102
{ACAD_REACTORS
330
2A
102
}
330
2A
100
AcDbVisualStyle
  2
Thicken
 70
    13
177
     2
291
     1
 71
     2
176
     1
 72
     2
176
     1
 73
     0
176
     1
 90
        0
176
     1
 40
0.6
176
     1
 41
30.0
176
     1
 63
     7
421
 16777215
176
     1
 74
     1
176
     1
 91
        4
176
     1
 64
     7
176
     1
 65
   257
176
     1
 75
     1
176
     1
175
     1
176
     1
 42
1.0
176
     1
 92
       12
176
     1
 66
     7
176
     1
 43
1.0
176
     1
 76
     1
176
     1
 77
     6
176
     1
 78
     2
176
     1
 67
     7
176
     1
 79
     5
176
     1
170
     0
176
     1
171
     0
176
     1
290
     0
176
     1
 93
        1
176
     1
 44
0.0
176
     1
173
     0
176
     1
1001
ACAD
1000
AcDbSavedByObjectVersion
1070
     0
  0
VISUALSTYLE
  5
27A
102
{ACAD_XDICTIONARY
360
8E6
102
}
102
{ACAD_REACTORS
330
2A
102
}
330
2A
100
AcDbVisualStyle
  2
Wireframe
 70
     5
177
     2
291
     0
 71
     0
176
     1
 72
     2
176
     1
 73
     0
176
     1
 90
        0
176
     1
 40
0.6
176
     1
 41
30.0
176
     1
 63
     7
421
 16777215
176
     1
 74
     1
176
     1
 91
        4
176
     1
 64
     7
176
     1
 65
   257
176
     1
 75
     1
176
     1
175
     1
176
     1
 42
1.0
176
     1
 92
        0
176
     1
 66
   257
176
     1
 43
1.0
176
     1
 76
     1
176
     1
 77
     6
176
     1
 78
     2
176
     1
 67
     7
176
     1
 79
     3
176
     1
170
     0
176
     1
171
     0
176
     1
290
     0
176
     1
 93
        1
176
     1
 44
0.0
176
     1
173
     0
176
     1
1001
ACAD
1000
AcDbSavedByObjectVersion
1070
     0
  0
VISUALSTYLE
  5
27E
102
{ACAD_XDICTIONARY
360
8EE
102
}
102
{ACAD_REACTORS
330
2A
102
}
330
2A
100
AcDbVisualStyle
  2
X-Ray
 70
    25
177
     2
291
     0
 71
     2
176
     1
 72
     2
176
     1
 73
     1
176
     1
 90
        1
176
     1
 40
0.5
176
     1
 41
30.0
176
     1
 63
     7
421
 16777215
176
     1
 74
     1
176
     1
 91
        0
176
     1
 64
     7
176
     1
 65
   257
176
     1
 75
     1
176
     1
175
     1
176
     1
 42
1.0
176
     1
 92
        8
176
     1
 66
     7
176
     1
 43
1.0
176
     1
 76
     1
176
     1
 77
     6
176
     1
 78
     2
176
     1
 67
     7
176
     1
 79
     3
176
     1
170
     0
176
     1
171
     0
176
     1
290
     0
176
     1
 93
       13
176
     1
 44
0.0
176
     1
173
     0
176
     1
1001
ACAD
1000
AcDbSavedByObjectVersion
1070
     0
  0
DICTIONARYVAR
  5
255
102
{ACAD_REACTORS
330
254
102
}
330
254
100
DictionaryVariables
280
     0
  1
1:1
  0
DICTIONARYVAR
  5
3EF
102
{ACAD_REACTORS
330
254
102
}
330
254
100
DictionaryVariables
280
     0
  1
STANDARD
  0
DICTIONARYVAR
  5
3EE
102
{ACAD_REACTORS
330
254
102
}
330
254
100
DictionaryVariables
280
     0
  1
STANDARD
  0
DICTIONARYVAR
  5
3F0
102
{ACAD_REACTORS
330
254
102
}
330
254
100
DictionaryVariables
280
     0
  1
Imperial24
  0
DICTIONARYVAR
  5
3F1
102
{ACAD_REACTORS
330
254
102
}
330
254
100
DictionaryVariables
280
     0
  1
Imperial24
  0
DICTIONARYVAR
  5
81E
102
{ACAD_REACTORS
330
254
102
}
330
254
100
DictionaryVariables
280
     0
  1
RGB:223,223,223
  0
DICTIONARYVAR
  5
3F2
102
{ACAD_REACTORS
330
254
102
}
330
254
100
DictionaryVariables
280
     0
  1
1
  0
DICTIONARYVAR
  5
3F3
102
{ACAD_REACTORS
330
254
102
}
330
254
100
DictionaryVariables
280
     0
  1
15
  0
DICTIONARY
  5
8C5
102
{ACAD_REACTORS
330
8C3
102
}
330
8C3
100
AcDbDictionary
281
     1
  0
DICTIONARY
  5
8C4
102
{ACAD_REACTORS
330
8C3
102
}
330
8C3
100
AcDbDictionary
281
     1
  3
2127773936
350
8BE
  3
2127773944
350
8BF
  3
2127773952
350
8C0
  3
2127773960
350
8C1
  3
2127773968
350
8C2
  0
XRECORD
  5
253
102
{ACAD_REACTORS
330
252
102
}
330
252
100
AcDbXrecord
280
     1
1000
This DWG file was created in ArchiCAD(TM)®
  0
ACDBASSOCNETWORK
  5
432
102
{ACAD_REACTORS
330
431
102
}
330
431
100
AcDbAssocAction
 90
        1
 90
        0
330
434
360
0
 90
        1
 90
        0
 90
        0
100
AcDbAssocNetwork
 90
        0
 90
        1
 90
        1
360
435
 90
        0
  0
DICTIONARY
  5
3EB
330
28A
100
AcDbDictionary
280
     1
281
     1
  3
ACAD_XREC_ROUNDTRIP
360
8FD
  0
DICTIONARY
  5
8FA
330
286
100
AcDbDictionary
280
     1
281
     1
  3
ACAD_XREC_ROUNDTRIP
360
8FB
  0
DICTIONARY
  5
3E9
330
288
100
AcDbDictionary
280
     1
281
     1
  3
ACAD_XREC_ROUNDTRIP
360
8FC
  0
DICTIONARY
  5
8BB
330
285
100
AcDbDictionary
280
     1
281
     1
  3
ACAD_ROUNDTRIP_2008_TABLESTYLE_CELLSTYLEMAP
360
8BC
  0
DICTIONARY
  5
8CE
330
2F
100
AcDbDictionary
280
     1
281
     1
  3
ACAD_XREC_ROUNDTRIP
360
8CF
  0
DICTIONARY
  5
8D2
330
31
100
AcDbDictionary
280
     1
281
     1
  3
ACAD_XREC_ROUNDTRIP
360
8D3
  0
DICTIONARY
  5
8D0
330
30
100
AcDbDictionary
280
     1
281
     1
  3
ACAD_XREC_ROUNDTRIP
360
8D1
  0
DICTIONARY
  5
8D4
330
32
100
AcDbDictionary
280
     1
281
     1
  3
ACAD_XREC_ROUNDTRIP
360
8D5
  0
DICTIONARY
  5
8DC
330
36
100
AcDbDictionary
280
     1
281
     1
  3
ACAD_XREC_ROUNDTRIP
360
8DD
  0
DICTIONARY
  5
8E4
330
3A
100
AcDbDictionary
280
     1
281
     1
  3
ACAD_XREC_ROUNDTRIP
360
8E5
  0
DICTIONARY
  5
8D8
330
34
100
AcDbDictionary
280
     1
281
     1
  3
ACAD_XREC_ROUNDTRIP
360
8D9
  0
DICTIONARY
  5
8DA
330
35
100
AcDbDictionary
280
     1
281
     1
  3
ACAD_XREC_ROUNDTRIP
360
8DB
  0
DICTIONARY
  5
8F8
330
283
100
AcDbDictionary
280
     1
281
     1
  3
ACAD_XREC_ROUNDTRIP
360
8F9
  0
DICTIONARY
  5
8E2
330
39
100
AcDbDictionary
280
     1
281
     1
  3
ACAD_XREC_ROUNDTRIP
360
8E3
  0
DICTIONARY
  5
8C6
330
2B
100
AcDbDictionary
280
     1
281
     1
  3
ACAD_XREC_ROUNDTRIP
360
8C7
  0
DICTIONARY
  5
8C8
330
2C
100
AcDbDictionary
280
     1
281
     1
  3
ACAD_XREC_ROUNDTRIP
360
8C9
  0
DICTIONARY
  5
8CA
330
2D
100
AcDbDictionary
280
     1
281
     1
  3
ACAD_XREC_ROUNDTRIP
360
8CB
  0
DICTIONARY
  5
8CC
330
2E
100
AcDbDictionary
280
     1
281
     1
  3
ACAD_XREC_ROUNDTRIP
360
8CD
  0
DICTIONARY
  5
8E8
330
27B
100
AcDbDictionary
280
     1
281
     1
  3
ACAD_XREC_ROUNDTRIP
360
8E9
  0
DICTIONARY
  5
8F4
330
281
100
AcDbDictionary
280
     1
281
     1
  3
ACAD_XREC_ROUNDTRIP
360
8F5
  0
DICTIONARY
  5
8E0
330
38
100
AcDbDictionary
280
     1
281
     1
  3
ACAD_XREC_ROUNDTRIP
360
8E1
  0
DICTIONARY
  5
8F6
330
282
100
AcDbDictionary
280
     1
281
     1
  3
ACAD_XREC_ROUNDTRIP
360
8F7
  0
DICTIONARY
  5
8D6
330
33
100
AcDbDictionary
280
     1
281
     1
  3
ACAD_XREC_ROUNDTRIP
360
8D7
  0
DICTIONARY
  5
8F2
330
280
100
AcDbDictionary
280
     1
281
     1
  3
ACAD_XREC_ROUNDTRIP
360
8F3
  0
DICTIONARY
  5
8F0
330
27F
100
AcDbDictionary
280
     1
281
     1
  3
ACAD_XREC_ROUNDTRIP
360
8F1
  0
DICTIONARY
  5
8EA
330
27C
100
AcDbDictionary
280
     1
281
     1
  3
ACAD_XREC_ROUNDTRIP
360
8EB
  0
DICTIONARY
  5
8EC
330
27D
100
AcDbDictionary
280
     1
281
     1
  3
ACAD_XREC_ROUNDTRIP
360
8ED
  0
DICTIONARY
  5
8DE
330
37
100
AcDbDictionary
280
     1
281
     1
  3
ACAD_XREC_ROUNDTRIP
360
8DF
  0
DICTIONARY
  5
8E6
330
27A
100
AcDbDictionary
280
     1
281
     1
  3
ACAD_XREC_ROUNDTRIP
360
8E7
  0
DICTIONARY
  5
8EE
330
27E
100
AcDbDictionary
280
     1
281
     1
  3
ACAD_XREC_ROUNDTRIP
360
8EF
  0
XRECORD
  5
8BE
102
{ACAD_REACTORS
330
8C4
102
}
330
8C4
100
AcDbXrecord
280
     1
  1
AcDb_Thumbnail_Schema
102
{ATTRRECORD
341
8BF
  2
AcDbDs::TreatedAsObjectData
280
     1
291
     1
102
ATTRRECORD}
102
{ATTRRECORD
341
8C0
  2
AcDbDs::Legacy
280
     1
291
     1
102
ATTRRECORD}
  2
AcDbDs::ID
280
    10
 91
        8
102
{ATTRRECORD
341
8C1
  2
AcDs:Indexable
280
     1
291
     1
102
ATTRRECORD}
102
{ATTRRECORD
341
8C2
  2
AcDbDs::HandleAttribute
280
     7
282
     1
102
ATTRRECORD}
  2
Thumbnail_Data
280
    15
 91
        0
  0
XRECORD
  5
8BF
102
{ACAD_REACTORS
330
8C4
102
}
330
8C4
100
AcDbXrecord
280
     1
  1
AcDbDs::TreatedAsObjectDataSchema
  2
AcDbDs::TreatedAsObjectData
280
     1
 91
        0
  0
XRECORD
  5
8C0
102
{ACAD_REACTORS
330
8C4
102
}
330
8C4
100
AcDbXrecord
280
     1
  1
AcDbDs::LegacySchema
  2
AcDbDs::Legacy
280
     1
 91
        0
  0
XRECORD
  5
8C1
102
{ACAD_REACTORS
330
8C4
102
}
330
8C4
100
AcDbXrecord
280
     1
  1
AcDbDs::IndexedPropertySchema
  2
AcDs:Indexable
280
     1
 91
        0
  0
XRECORD
  5
8C2
102
{ACAD_REACTORS
330
8C4
102
}
330
8C4
100
AcDbXrecord
280
     1
  1
AcDbDs::HandleAttributeSchema
  2
AcDbDs::HandleAttribute
280
     7
 91
        1
284
     1
  0
ACDBASSOC2DCONSTRAINTGROUP
  5
435
330
432
100
AcDbAssocAction
 90
        1
 90
        0
330
432
360
0
 90
        1
 90
       22
 90
        0
 90
        2
 70
     0
 10
0.0
 20
0.0
 30
0.0
 10
1.0
 20
0.0
 30
0.0
 10
0.0
 20
1.0
 30
0.0
360
0
 90
        7
360
439
360
43C
360
43E
360
440
360
442
360
4B4
360
4B5
 90
      135
 90
       42
  1
AcConstrainedBoundedLine
330
435
 90
       13
 70
     1
 90
        3
 90
       15
 90
       17
 90
       69
330
439
 90
        0
 10
10637.90990830568
 20
749.7428667123807
 30
0.0
 10
0.0
 20
-1.0
 30
0.0
290
     0
 10
10637.90990830568
 20
749.7428667123807
 30
0.0
 11
10637.90990830568
 21
564.6692630096473
 31
0.0
  1
AcConstrainedImplicitPoint
330
435
 90
       14
 70
     1
 90
        2
 90
       15
 90
       68
330
0
 90
        0
280
     0
 90
       -1
 90
       13
  1
AcPointCurveConstraint
330
435
 90
       15
 70
     0
 90
        2
 90
       14
 90
       13
 90
        0
290
     1
290
     1
  1
AcConstrainedImplicitPoint
330
435
 90
       16
 70
     1
 90
        1
 90
       17
330
0
 90
        0
280
     1
 90
       -1
 90
       13
  1
AcPointCurveConstraint
330
435
 90
       17
 70
     0
 90
        2
 90
       16
 90
       13
 90
        0
290
     1
290
     1
  1
AcConstrainedBoundedLine
330
435
 90
       31
 70
     1
 90
        2
 90
       33
 90
       35
330
43C
 90
        0
 10
10624.6977379287
 20
557.0366644285527
 30
0.0
 10
-0.9999834627888048
 20
-0.0057510128716558
 30
0.0
290
     0
 10
10624.6977379287
 20
557.0366644285527
 30
0.0
 11
10587.90990830566
 21
556.8250936480811
 31
0.0
  1
AcConstrainedImplicitPoint
330
435
 90
       32
 70
     1
 90
        1
 90
       33
330
0
 90
        0
280
     0
 90
       -1
 90
       31
  1
AcPointCurveConstraint
330
435
 90
       33
 70
     0
 90
        2
 90
       32
 90
       31
 90
        0
290
     1
290
     1
  1
AcConstrainedImplicitPoint
330
435
 90
       34
 70
     1
 90
        3
 90
       35
 90
       48
 90
       54
330
0
 90
        0
280
     1
 90
       -1
 90
       31
  1
AcPointCurveConstraint
330
435
 90
       35
 70
     0
 90
        2
 90
       34
 90
       31
 90
        0
290
     1
290
     1
  1
AcConstrainedBoundedLine
330
435
 90
       43
 70
     1
 90
        2
 90
       45
 90
       47
330
43E
 90
        0
 10
10587.90990830567
 20
522.3622311397608
 30
0.0
 10
0.0
 20
1.0
 30
0.0
290
     0
 10
10587.90990830566
 20
556.8250936480811
 30
0.0
 11
10587.90990830566
 21
571.8250936480813
 31
0.0
  1
AcConstrainedImplicitPoint
330
435
 90
       44
 70
     1
 90
        2
 90
       45
 90
       48
330
0
 90
        0
280
     0
 90
       -1
 90
       43
  1
AcPointCurveConstraint
330
435
 90
       45
 70
     0
 90
        2
 90
       44
 90
       43
 90
        0
290
     1
290
     1
  1
AcConstrainedImplicitPoint
330
435
 90
       46
 70
     1
 90
        1
 90
       47
330
0
 90
        0
280
     1
 90
       -1
 90
       43
  1
AcPointCurveConstraint
330
435
 90
       47
 70
     0
 90
        2
 90
       46
 90
       43
 90
        0
290
     1
290
     1
  1
AcPointCoincidenceConstraint
330
435
 90
       48
 70
     0
 90
        2
 90
       34
 90
       44
 90
        0
290
     0
290
     1
  1
AcConstrainedBoundedLine
330
435
 90
       49
 70
     1
 90
        3
 90
       51
 90
       53
 90
       67
330
440
 90
        0
 10
10587.90990830566
 20
556.8250936480811
 30
0.0
 10
0.0
 20
1.0
 30
0.0
290
     0
 10
10587.90990830566
 20
556.8250936480811
 30
0.0
 11
10587.90990830566
 21
749.7428667123807
 31
0.0
  1
AcConstrainedImplicitPoint
330
435
 90
       50
 70
     1
 90
        2
 90
       51
 90
       54
330
0
 90
        0
280
     0
 90
       -1
 90
       49
  1
AcPointCurveConstraint
330
435
 90
       51
 70
     0
 90
        2
 90
       50
 90
       49
 90
        0
290
     1
290
     1
  1
AcConstrainedImplicitPoint
330
435
 90
       52
 70
     1
 90
        2
 90
       53
 90
       66
330
0
 90
        0
280
     1
 90
       -1
 90
       49
  1
AcPointCurveConstraint
330
435
 90
       53
 70
     0
 90
        2
 90
       52
 90
       49
 90
        0
290
     1
290
     1
  1
AcPointCoincidenceConstraint
330
435
 90
       54
 70
     0
 90
        2
 90
       34
 90
       50
 90
        0
290
     1
290
     1
  1
AcConstrainedBoundedLine
330
435
 90
       61
 70
     1
 90
        4
 90
       63
 90
       65
 90
       67
 90
       69
330
442
 90
        0
 10
10587.90990830566
 20
749.7428667123807
 30
0.0
 10
1.0
 20
0.0
 30
0.0
290
     0
 10
10587.90990830566
 20
749.7428667123807
 30
0.0
 11
10637.90990830568
 21
749.7428667123807
 31
0.0
  1
AcConstrainedImplicitPoint
330
435
 90
       62
 70
     1
 90
        2
 90
       63
 90
       66
330
0
 90
        0
280
     0
 90
       -1
 90
       61
  1
AcPointCurveConstraint
330
435
 90
       63
 70
     0
 90
        2
 90
       62
 90
       61
 90
        0
290
     1
290
     1
  1
AcConstrainedImplicitPoint
330
435
 90
       64
 70
     1
 90
        2
 90
       65
 90
       68
330
0
 90
        0
280
     1
 90
       -1
 90
       61
  1
AcPointCurveConstraint
330
435
 90
       65
 70
     0
 90
        2
 90
       64
 90
       61
 90
        0
290
     1
290
     1
  1
AcPointCoincidenceConstraint
330
435
 90
       66
 70
     0
 90
        2
 90
       52
 90
       62
 90
        0
290
     1
290
     1
  1
AcPerpendicularConstraint
330
435
 90
       67
 70
     0
 90
        2
 90
       61
 90
       49
 90
        0
290
     0
290
     1
  1
AcPointCoincidenceConstraint
330
435
 90
       68
 70
     0
 90
        2
 90
       64
 90
       14
 90
        0
290
     0
290
     1
  1
AcPerpendicularConstraint
330
435
 90
       69
 70
     0
 90
        2
 90
       61
 90
       13
 90
        0
290
     0
290
     1
  1
AcConstrainedBoundedLine
330
435
 90
       71
 70
     1
 90
        2
 90
       73
 90
       75
330
4B4
 90
        0
 10
10535.21133610469
 20
324.5532553270075
 30
0.0
 10
0.0
 20
1.0
 30
0.0
290
     0
 10
10535.21133610469
 20
324.5532553270075
 30
0.0
 11
10535.21133610469
 21
864.6028709658038
 31
0.0
  1
AcConstrainedImplicitPoint
330
435
 90
       72
 70
     1
 90
        2
 90
       73
 90
       81
330
0
 90
        0
280
     0
 90
       -1
 90
       71
  1
AcPointCurveConstraint
330
435
 90
       73
 70
     0
 90
        2
 90
       72
 90
       71
 90
        0
290
     1
290
     1
  1
AcConstrainedImplicitPoint
330
435
 90
       74
 70
     1
 90
        1
 90
       75
330
0
 90
        0
280
     1
 90
       -1
 90
       71
  1
AcPointCurveConstraint
330
435
 90
       75
 70
     0
 90
        2
 90
       74
 90
       71
 90
        0
290
     1
290
     1
  1
AcConstrainedBoundedLine
330
435
 90
       76
 70
     1
 90
        2
 90
       78
 90
       80
330
4B5
 90
        0
 10
10908.35306319067
 20
324.5532553270075
 30
0.0
 10
-1.0
 20
0.0
 30
0.0
290
     0
 10
10908.35306319067
 20
324.5532553270075
 30
0.0
 11
10535.21133610469
 21
324.5532553270075
 31
0.0
  1
AcConstrainedImplicitPoint
330
435
 90
       77
 70
     1
 90
        1
 90
       78
330
0
 90
        0
280
     0
 90
       -1
 90
       76
  1
AcPointCurveConstraint
330
435
 90
       78
 70
     0
 90
        2
 90
       77
 90
       76
 90
        0
290
     1
290
     1
  1
AcConstrainedImplicitPoint
330
435
 90
       79
 70
     1
 90
        2
 90
       80
 90
       81
330
0
 90
        0
280
     1
 90
       -1
 90
       76
  1
AcPointCurveConstraint
330
435
 90
       80
 70
     0
 90
        2
 90
       79
 90
       76
 90
        0
290
     1
290
     1
  1
AcPointCoincidenceConstraint
330
435
 90
       81
 70
     0
 90
        2
 90
       72
 90
       79
 90
        0
290
     0
290
     1
  0
XRECORD
  5
8FD
102
{ACAD_REACTORS
330
3EB
102
}
330
3EB
100
AcDbXrecord
280
     1
102
DISPLAYNAME
  1
Imperial24
102
FLAGS
 90
        0
  0
XRECORD
  5
8FB
102
{ACAD_REACTORS
330
8FA
102
}
330
8FA
100
AcDbXrecord
280
     1
102
ACAD_ROUNDTRIP_2012_MLEADER_STYLE
298
     1
  0
XRECORD
  5
8FC
102
{ACAD_REACTORS
330
3E9
102
}
330
3E9
100
AcDbXrecord
280
     1
102
DISPLAYNAME
  1
Imperial24
102
FLAGS
 90
        0
  0
CELLSTYLEMAP
  5
8BC
102
{ACAD_REACTORS
330
8BB
102
}
330
8BB
100
AcDbCellStyleMap
 90
        3
300
CELLSTYLE
  1
TABLEFORMAT_BEGIN
 90
        5
170
     1
 91
        0
 92
    32768
 62
   257
 93
        1
300
CONTENTFORMAT
  1
CONTENTFORMAT_BEGIN
 90
        0
 91
        0
 92
      512
 93
        0
300

 40
0.0
140
1.0
 94
        5
 62
     0
340
11
144
0.25
309
CONTENTFORMAT_END
171
     0
 94
        0
309
TABLEFORMAT_END
  1
CELLSTYLE_BEGIN
 90
        1
 91
        1
300
_TITLE
309
CELLSTYLE_END
300
CELLSTYLE
  1
TABLEFORMAT_BEGIN
 90
        5
170
     1
 91
        0
 92
        0
 62
   257
 93
        1
300
CONTENTFORMAT
  1
CONTENTFORMAT_BEGIN
 90
        0
 91
        0
 92
      512
 93
        0
300

 40
0.0
140
1.0
 94
        5
 62
     0
340
11
144
0.18
309
CONTENTFORMAT_END
171
     0
 94
        0
309
TABLEFORMAT_END
  1
CELLSTYLE_BEGIN
 90
        2
 91
        1
300
_HEADER
309
CELLSTYLE_END
300
CELLSTYLE
  1
TABLEFORMAT_BEGIN
 90
        5
170
     1
 91
        0
 92
        0
 62
   257
 93
        1
300
CONTENTFORMAT
  1
CONTENTFORMAT_BEGIN
 90
        0
 91
        0
 92
      512
 93
        0
300

 40
0.0
140
1.0
 94
        2
 62
     0
340
11
144
0.18
309
CONTENTFORMAT_END
171
     0
 94
        0
309
TABLEFORMAT_END
  1
CELLSTYLE_BEGIN
 90
        3
 91
        2
300
_DATA
309
CELLSTYLE_END
  0
XRECORD
  5
8CF
102
{ACAD_REACTORS
330
8CE
102
}
330
8CE
100
AcDbXrecord
280
     1
102
RTVSPost2010Prop28
280
     1
102
RTVSPost2010PropOp28
 70
     1
102
RTVSPost2010Prop29
280
     1
102
RTVSPost2010PropOp29
 70
     1
102
RTVSPost2010Prop30
280
     0
102
RTVSPost2010PropOp30
 70
     1
102
RTVSPost2010Prop31
280
     0
102
RTVSPost2010PropOp31
 70
     1
102
RTVSPost2010Prop32
280
     0
102
RTVSPost2010PropOp32
 70
     1
102
RTVSPost2010Prop33
280
     0
102
RTVSPost2010PropOp33
 70
     1
102
RTVSPost2010Prop34
280
     0
102
RTVSPost2010PropOp34
 70
     1
102
RTVSPost2010Prop35
280
     0
102
RTVSPost2010PropOp35
 70
     1
102
RTVSPost2010Prop36
280
     0
102
RTVSPost2010PropOp36
 70
     1
102
RTVSPost2010Prop37
 90
       50
102
RTVSPost2010PropOp37
 70
     1
102
RTVSPost2010Prop38
140
0.0
102
RTVSPost2010PropOp38
 70
     1
102
RTVSPost2010Prop39
140
1.0
102
RTVSPost2010PropOp39
 70
     1
102
RTVSPost2010Prop40
 90
        0
102
RTVSPost2010PropOp40
 70
     1
102
RTVSPost2010Prop41ColorIndex
 90
       18
102
RTVSPost2010Prop41ColorRGB
 90
        0
102
RTVSPost2010PropOp41
 70
     1
102
RTVSPost2010Prop42
 90
       50
102
RTVSPost2010PropOp42
 70
     1
102
RTVSPost2010Prop43
 90
        3
102
RTVSPost2010PropOp43
 70
     1
102
RTVSPost2010Prop44ColorIndex
 90
        5
102
RTVSPost2010Prop44ColorRGB
 90
      255
102
RTVSPost2010PropOp44
 70
     1
102
RTVSPost2010Prop45
280
     0
102
RTVSPost2010PropOp45
 70
     1
102
RTVSPost2010Prop46
 90
       50
102
RTVSPost2010PropOp46
 70
     1
102
RTVSPost2010Prop47
 90
       50
102
RTVSPost2010PropOp47
 70
     1
102
RTVSPost2010Prop48
 90
       50
102
RTVSPost2010PropOp48
 70
     1
102
RTVSPost2010Prop49
280
     0
102
RTVSPost2010PropOp49
 70
     1
102
RTVSPost2010Prop50
 90
       50
102
RTVSPost2010PropOp50
 70
     1
102
RTVSPost2010Prop51ColorIndex
 90
      256
102
RTVSPost2010Prop51ColorRGB
 90
-16777216
102
RTVSPost2010PropOp51
 70
     0
102
RTVSPost2010Prop52
140
1.0
102
RTVSPost2010PropOp52
 70
     0
102
RTVSPost2010Prop53
 90
        2
102
RTVSPost2010PropOp53
 70
     1
102
RTVSPost2010Prop54
  1
strokes_ogs.tif
102
RTVSPost2010PropOp54
 70
     1
102
RTVSPost2010Prop55
280
     0
102
RTVSPost2010PropOp55
 70
     1
102
RTVSPost2010Prop56
140
1.0
102
RTVSPost2010PropOp56
 70
     1
102
RTVSPost2010Prop57
140
1.0
102
RTVSPost2010PropOp57
 70
     1
  0
XRECORD
  5
8D3
102
{ACAD_REACTORS
330
8D2
102
}
330
8D2
100
AcDbXrecord
280
     1
102
RTVSPost2010Prop28
280
     0
102
RTVSPost2010PropOp28
 70
     1
102
RTVSPost2010Prop29
280
     1
102
RTVSPost2010PropOp29
 70
     1
102
RTVSPost2010Prop30
280
     1
102
RTVSPost2010PropOp30
 70
     1
102
RTVSPost2010Prop31
280
     0
102
RTVSPost2010PropOp31
 70
     1
102
RTVSPost2010Prop32
280
     0
102
RTVSPost2010PropOp32
 70
     1
102
RTVSPost2010Prop33
280
     0
102
RTVSPost2010PropOp33
 70
     1
102
RTVSPost2010Prop34
280
     0
102
RTVSPost2010PropOp34
 70
     1
102
RTVSPost2010Prop35
280
     0
102
RTVSPost2010PropOp35
 70
     1
102
RTVSPost2010Prop36
280
     0
102
RTVSPost2010PropOp36
 70
     1
102
RTVSPost2010Prop37
 90
       50
102
RTVSPost2010PropOp37
 70
     1
102
RTVSPost2010Prop38
140
0.0
102
RTVSPost2010PropOp38
 70
     1
102
RTVSPost2010Prop39
140
1.0
102
RTVSPost2010PropOp39
 70
     1
102
RTVSPost2010Prop40
 90
        0
102
RTVSPost2010PropOp40
 70
     1
102
RTVSPost2010Prop41ColorIndex
 90
       18
102
RTVSPost2010Prop41ColorRGB
 90
        0
102
RTVSPost2010PropOp41
 70
     1
102
RTVSPost2010Prop42
 90
       50
102
RTVSPost2010PropOp42
 70
     1
102
RTVSPost2010Prop43
 90
        3
102
RTVSPost2010PropOp43
 70
     1
102
RTVSPost2010Prop44ColorIndex
 90
        5
102
RTVSPost2010Prop44ColorRGB
 90
      255
102
RTVSPost2010PropOp44
 70
     1
102
RTVSPost2010Prop45
280
     0
102
RTVSPost2010PropOp45
 70
     1
102
RTVSPost2010Prop46
 90
       50
102
RTVSPost2010PropOp46
 70
     1
102
RTVSPost2010Prop47
 90
       50
102
RTVSPost2010PropOp47
 70
     1
102
RTVSPost2010Prop48
 90
       50
102
RTVSPost2010PropOp48
 70
     1
102
RTVSPost2010Prop49
280
     0
102
RTVSPost2010PropOp49
 70
     1
102
RTVSPost2010Prop50
 90
       50
102
RTVSPost2010PropOp50
 70
     1
102
RTVSPost2010Prop51ColorIndex
 90
      256
102
RTVSPost2010Prop51ColorRGB
 90
-16777216
102
RTVSPost2010PropOp51
 70
     0
102
RTVSPost2010Prop52
140
1.0
102
RTVSPost2010PropOp52
 70
     0
102
RTVSPost2010Prop53
 90
        2
102
RTVSPost2010PropOp53
 70
     1
102
RTVSPost2010Prop54
  1
strokes_ogs.tif
102
RTVSPost2010PropOp54
 70
     1
102
RTVSPost2010Prop55
280
     0
102
RTVSPost2010PropOp55
 70
     1
102
RTVSPost2010Prop56
140
1.0
102
RTVSPost2010PropOp56
 70
     1
102
RTVSPost2010Prop57
140
1.0
102
RTVSPost2010PropOp57
 70
     1
  0
XRECORD
  5
8D1
102
{ACAD_REACTORS
330
8D0
102
}
330
8D0
100
AcDbXrecord
280
     1
102
RTVSPost2010Prop28
280
     0
102
RTVSPost2010PropOp28
 70
     1
102
RTVSPost2010Prop29
280
     1
102
RTVSPost2010PropOp29
 70
     1
102
RTVSPost2010Prop30
280
     1
102
RTVSPost2010PropOp30
 70
     1
102
RTVSPost2010Prop31
280
     0
102
RTVSPost2010PropOp31
 70
     1
102
RTVSPost2010Prop32
280
     0
102
RTVSPost2010PropOp32
 70
     1
102
RTVSPost2010Prop33
280
     0
102
RTVSPost2010PropOp33
 70
     1
102
RTVSPost2010Prop34
280
     0
102
RTVSPost2010PropOp34
 70
     1
102
RTVSPost2010Prop35
280
     0
102
RTVSPost2010PropOp35
 70
     1
102
RTVSPost2010Prop36
280
     0
102
RTVSPost2010PropOp36
 70
     1
102
RTVSPost2010Prop37
 90
       50
102
RTVSPost2010PropOp37
 70
     1
102
RTVSPost2010Prop38
140
0.0
102
RTVSPost2010PropOp38
 70
     1
102
RTVSPost2010Prop39
140
1.0
102
RTVSPost2010PropOp39
 70
     1
102
RTVSPost2010Prop40
 90
        0
102
RTVSPost2010PropOp40
 70
     1
102
RTVSPost2010Prop41ColorIndex
 90
       18
102
RTVSPost2010Prop41ColorRGB
 90
        0
102
RTVSPost2010PropOp41
 70
     1
102
RTVSPost2010Prop42
 90
       50
102
RTVSPost2010PropOp42
 70
     1
102
RTVSPost2010Prop43
 90
        3
102
RTVSPost2010PropOp43
 70
     1
102
RTVSPost2010Prop44ColorIndex
 90
        5
102
RTVSPost2010Prop44ColorRGB
 90
      255
102
RTVSPost2010PropOp44
 70
     1
102
RTVSPost2010Prop45
280
     0
102
RTVSPost2010PropOp45
 70
     1
102
RTVSPost2010Prop46
 90
       50
102
RTVSPost2010PropOp46
 70
     1
102
RTVSPost2010Prop47
 90
       50
102
RTVSPost2010PropOp47
 70
     1
102
RTVSPost2010Prop48
 90
       50
102
RTVSPost2010PropOp48
 70
     1
102
RTVSPost2010Prop49
280
     0
102
RTVSPost2010PropOp49
 70
     1
102
RTVSPost2010Prop50
 90
       50
102
RTVSPost2010PropOp50
 70
     1
102
RTVSPost2010Prop51ColorIndex
 90
      256
102
RTVSPost2010Prop51ColorRGB
 90
-16777216
102
RTVSPost2010PropOp51
 70
     0
102
RTVSPost2010Prop52
140
1.0
102
RTVSPost2010PropOp52
 70
     0
102
RTVSPost2010Prop53
 90
        2
102
RTVSPost2010PropOp53
 70
     1
102
RTVSPost2010Prop54
  1
strokes_ogs.tif
102
RTVSPost2010PropOp54
 70
     1
102
RTVSPost2010Prop55
280
     0
102
RTVSPost2010PropOp55
 70
     1
102
RTVSPost2010Prop56
140
1.0
102
RTVSPost2010PropOp56
 70
     1
102
RTVSPost2010Prop57
140
1.0
102
RTVSPost2010PropOp57
 70
     1
  0
XRECORD
  5
8D5
102
{ACAD_REACTORS
330
8D4
102
}
330
8D4
100
AcDbXrecord
280
     1
102
RTVSPost2010Prop28
280
     0
102
RTVSPost2010PropOp28
 70
     1
102
RTVSPost2010Prop29
280
     1
102
RTVSPost2010PropOp29
 70
     1
102
RTVSPost2010Prop30
280
     1
102
RTVSPost2010PropOp30
 70
     1
102
RTVSPost2010Prop31
280
     0
102
RTVSPost2010PropOp31
 70
     1
102
RTVSPost2010Prop32
280
     0
102
RTVSPost2010PropOp32
 70
     1
102
RTVSPost2010Prop33
280
     0
102
RTVSPost2010PropOp33
 70
     1
102
RTVSPost2010Prop34
280
     0
102
RTVSPost2010PropOp34
 70
     1
102
RTVSPost2010Prop35
280
     0
102
RTVSPost2010PropOp35
 70
     1
102
RTVSPost2010Prop36
280
     0
102
RTVSPost2010PropOp36
 70
     1
102
RTVSPost2010Prop37
 90
       50
102
RTVSPost2010PropOp37
 70
     1
102
RTVSPost2010Prop38
140
0.0
102
RTVSPost2010PropOp38
 70
     1
102
RTVSPost2010Prop39
140
1.0
102
RTVSPost2010PropOp39
 70
     1
102
RTVSPost2010Prop40
 90
        0
102
RTVSPost2010PropOp40
 70
     1
102
RTVSPost2010Prop41ColorIndex
 90
       18
102
RTVSPost2010Prop41ColorRGB
 90
        0
102
RTVSPost2010PropOp41
 70
     1
102
RTVSPost2010Prop42
 90
       50
102
RTVSPost2010PropOp42
 70
     1
102
RTVSPost2010Prop43
 90
        3
102
RTVSPost2010PropOp43
 70
     1
102
RTVSPost2010Prop44ColorIndex
 90
        5
102
RTVSPost2010Prop44ColorRGB
 90
      255
102
RTVSPost2010PropOp44
 70
     1
102
RTVSPost2010Prop45
280
     0
102
RTVSPost2010PropOp45
 70
     1
102
RTVSPost2010Prop46
 90
       50
102
RTVSPost2010PropOp46
 70
     1
102
RTVSPost2010Prop47
 90
       50
102
RTVSPost2010PropOp47
 70
     1
102
RTVSPost2010Prop48
 90
       50
102
RTVSPost2010PropOp48
 70
     1
102
RTVSPost2010Prop49
280
     0
102
RTVSPost2010PropOp49
 70
     1
102
RTVSPost2010Prop50
 90
       50
102
RTVSPost2010PropOp50
 70
     1
102
RTVSPost2010Prop51ColorIndex
 90
      256
102
RTVSPost2010Prop51ColorRGB
 90
-16777216
102
RTVSPost2010PropOp51
 70
     0
102
RTVSPost2010Prop52
140
1.0
102
RTVSPost2010PropOp52
 70
     0
102
RTVSPost2010Prop53
 90
        2
102
RTVSPost2010PropOp53
 70
     1
102
RTVSPost2010Prop54
  1
strokes_ogs.tif
102
RTVSPost2010PropOp54
 70
     1
102
RTVSPost2010Prop55
280
     0
102
RTVSPost2010PropOp55
 70
     1
102
RTVSPost2010Prop56
140
1.0
102
RTVSPost2010PropOp56
 70
     1
102
RTVSPost2010Prop57
140
1.0
102
RTVSPost2010PropOp57
 70
     1
  0
XRECORD
  5
8DD
102
{ACAD_REACTORS
330
8DC
102
}
330
8DC
100
AcDbXrecord
280
     1
102
RTVSPost2010Prop28
280
     0
102
RTVSPost2010PropOp28
 70
     1
102
RTVSPost2010Prop29
280
     1
102
RTVSPost2010PropOp29
 70
     1
102
RTVSPost2010Prop30
280
     1
102
RTVSPost2010PropOp30
 70
     1
102
RTVSPost2010Prop31
280
     0
102
RTVSPost2010PropOp31
 70
     1
102
RTVSPost2010Prop32
280
     0
102
RTVSPost2010PropOp32
 70
     1
102
RTVSPost2010Prop33
280
     0
102
RTVSPost2010PropOp33
 70
     1
102
RTVSPost2010Prop34
280
     0
102
RTVSPost2010PropOp34
 70
     1
102
RTVSPost2010Prop35
280
     0
102
RTVSPost2010PropOp35
 70
     1
102
RTVSPost2010Prop36
280
     0
102
RTVSPost2010PropOp36
 70
     1
102
RTVSPost2010Prop37
 90
       50
102
RTVSPost2010PropOp37
 70
     1
102
RTVSPost2010Prop38
140
0.0
102
RTVSPost2010PropOp38
 70
     1
102
RTVSPost2010Prop39
140
1.0
102
RTVSPost2010PropOp39
 70
     1
102
RTVSPost2010Prop40
 90
        0
102
RTVSPost2010PropOp40
 70
     1
102
RTVSPost2010Prop41ColorIndex
 90
       18
102
RTVSPost2010Prop41ColorRGB
 90
        0
102
RTVSPost2010PropOp41
 70
     1
102
RTVSPost2010Prop42
 90
       50
102
RTVSPost2010PropOp42
 70
     1
102
RTVSPost2010Prop43
 90
        3
102
RTVSPost2010PropOp43
 70
     1
102
RTVSPost2010Prop44ColorIndex
 90
        5
102
RTVSPost2010Prop44ColorRGB
 90
      255
102
RTVSPost2010PropOp44
 70
     1
102
RTVSPost2010Prop45
280
     0
102
RTVSPost2010PropOp45
 70
     1
102
RTVSPost2010Prop46
 90
       50
102
RTVSPost2010PropOp46
 70
     1
102
RTVSPost2010Prop47
 90
       50
102
RTVSPost2010PropOp47
 70
     1
102
RTVSPost2010Prop48
 90
       50
102
RTVSPost2010PropOp48
 70
     1
102
RTVSPost2010Prop49
280
     0
102
RTVSPost2010PropOp49
 70
     1
102
RTVSPost2010Prop50
 90
       50
102
RTVSPost2010PropOp50
 70
     1
102
RTVSPost2010Prop51ColorIndex
 90
      256
102
RTVSPost2010Prop51ColorRGB
 90
-16777216
102
RTVSPost2010PropOp51
 70
     0
102
RTVSPost2010Prop52
140
1.0
102
RTVSPost2010PropOp52
 70
     0
102
RTVSPost2010Prop53
 90
        2
102
RTVSPost2010PropOp53
 70
     1
102
RTVSPost2010Prop54
  1
strokes_ogs.tif
102
RTVSPost2010PropOp54
 70
     1
102
RTVSPost2010Prop55
280
     0
102
RTVSPost2010PropOp55
 70
     1
102
RTVSPost2010Prop56
140
1.0
102
RTVSPost2010PropOp56
 70
     1
102
RTVSPost2010Prop57
140
1.0
102
RTVSPost2010PropOp57
 70
     1
  0
XRECORD
  5
8E5
102
{ACAD_REACTORS
330
8E4
102
}
330
8E4
100
AcDbXrecord
280
     1
102
RTVSPost2010Prop28
280
     0
102
RTVSPost2010PropOp28
 70
     1
102
RTVSPost2010Prop29
280
     1
102
RTVSPost2010PropOp29
 70
     1
102
RTVSPost2010Prop30
280
     1
102
RTVSPost2010PropOp30
 70
     1
102
RTVSPost2010Prop31
280
     0
102
RTVSPost2010PropOp31
 70
     1
102
RTVSPost2010Prop32
280
     0
102
RTVSPost2010PropOp32
 70
     1
102
RTVSPost2010Prop33
280
     0
102
RTVSPost2010PropOp33
 70
     1
102
RTVSPost2010Prop34
280
     0
102
RTVSPost2010PropOp34
 70
     1
102
RTVSPost2010Prop35
280
     0
102
RTVSPost2010PropOp35
 70
     1
102
RTVSPost2010Prop36
280
     0
102
RTVSPost2010PropOp36
 70
     1
102
RTVSPost2010Prop37
 90
       50
102
RTVSPost2010PropOp37
 70
     1
102
RTVSPost2010Prop38
140
0.0
102
RTVSPost2010PropOp38
 70
     1
102
RTVSPost2010Prop39
140
1.0
102
RTVSPost2010PropOp39
 70
     1
102
RTVSPost2010Prop40
 90
        0
102
RTVSPost2010PropOp40
 70
     1
102
RTVSPost2010Prop41ColorIndex
 90
       18
102
RTVSPost2010Prop41ColorRGB
 90
        0
102
RTVSPost2010PropOp41
 70
     1
102
RTVSPost2010Prop42
 90
       50
102
RTVSPost2010PropOp42
 70
     1
102
RTVSPost2010Prop43
 90
        3
102
RTVSPost2010PropOp43
 70
     1
102
RTVSPost2010Prop44ColorIndex
 90
        5
102
RTVSPost2010Prop44ColorRGB
 90
      255
102
RTVSPost2010PropOp44
 70
     1
102
RTVSPost2010Prop45
280
     0
102
RTVSPost2010PropOp45
 70
     1
102
RTVSPost2010Prop46
 90
       50
102
RTVSPost2010PropOp46
 70
     1
102
RTVSPost2010Prop47
 90
       50
102
RTVSPost2010PropOp47
 70
     1
102
RTVSPost2010Prop48
 90
       50
102
RTVSPost2010PropOp48
 70
     1
102
RTVSPost2010Prop49
280
     0
102
RTVSPost2010PropOp49
 70
     1
102
RTVSPost2010Prop50
 90
       50
102
RTVSPost2010PropOp50
 70
     1
102
RTVSPost2010Prop51ColorIndex
 90
      256
102
RTVSPost2010Prop51ColorRGB
 90
-16777216
102
RTVSPost2010PropOp51
 70
     0
102
RTVSPost2010Prop52
140
1.0
102
RTVSPost2010PropOp52
 70
     0
102
RTVSPost2010Prop53
 90
        2
102
RTVSPost2010PropOp53
 70
     1
102
RTVSPost2010Prop54
  1
strokes_ogs.tif
102
RTVSPost2010PropOp54
 70
     1
102
RTVSPost2010Prop55
280
     0
102
RTVSPost2010PropOp55
 70
     1
102
RTVSPost2010Prop56
140
1.0
102
RTVSPost2010PropOp56
 70
     1
102
RTVSPost2010Prop57
140
1.0
102
RTVSPost2010PropOp57
 70
     1
  0
XRECORD
  5
8D9
102
{ACAD_REACTORS
330
8D8
102
}
330
8D8
100
AcDbXrecord
280
     1
102
RTVSPost2010Prop28
280
     0
102
RTVSPost2010PropOp28
 70
     1
102
RTVSPost2010Prop29
280
     1
102
RTVSPost2010PropOp29
 70
     1
102
RTVSPost2010Prop30
280
     1
102
RTVSPost2010PropOp30
 70
     1
102
RTVSPost2010Prop31
280
     0
102
RTVSPost2010PropOp31
 70
     1
102
RTVSPost2010Prop32
280
     0
102
RTVSPost2010PropOp32
 70
     1
102
RTVSPost2010Prop33
280
     0
102
RTVSPost2010PropOp33
 70
     1
102
RTVSPost2010Prop34
280
     0
102
RTVSPost2010PropOp34
 70
     1
102
RTVSPost2010Prop35
280
     0
102
RTVSPost2010PropOp35
 70
     1
102
RTVSPost2010Prop36
280
     0
102
RTVSPost2010PropOp36
 70
     1
102
RTVSPost2010Prop37
 90
       50
102
RTVSPost2010PropOp37
 70
     1
102
RTVSPost2010Prop38
140
0.0
102
RTVSPost2010PropOp38
 70
     1
102
RTVSPost2010Prop39
140
1.0
102
RTVSPost2010PropOp39
 70
     1
102
RTVSPost2010Prop40
 90
        0
102
RTVSPost2010PropOp40
 70
     1
102
RTVSPost2010Prop41ColorIndex
 90
       18
102
RTVSPost2010Prop41ColorRGB
 90
        0
102
RTVSPost2010PropOp41
 70
     1
102
RTVSPost2010Prop42
 90
       50
102
RTVSPost2010PropOp42
 70
     1
102
RTVSPost2010Prop43
 90
        3
102
RTVSPost2010PropOp43
 70
     1
102
RTVSPost2010Prop44ColorIndex
 90
        5
102
RTVSPost2010Prop44ColorRGB
 90
      255
102
RTVSPost2010PropOp44
 70
     1
102
RTVSPost2010Prop45
280
     0
102
RTVSPost2010PropOp45
 70
     1
102
RTVSPost2010Prop46
 90
       50
102
RTVSPost2010PropOp46
 70
     1
102
RTVSPost2010Prop47
 90
       50
102
RTVSPost2010PropOp47
 70
     1
102
RTVSPost2010Prop48
 90
       50
102
RTVSPost2010PropOp48
 70
     1
102
RTVSPost2010Prop49
280
     0
102
RTVSPost2010PropOp49
 70
     1
102
RTVSPost2010Prop50
 90
       50
102
RTVSPost2010PropOp50
 70
     1
102
RTVSPost2010Prop51ColorIndex
 90
      256
102
RTVSPost2010Prop51ColorRGB
 90
-16777216
102
RTVSPost2010PropOp51
 70
     0
102
RTVSPost2010Prop52
140
1.0
102
RTVSPost2010PropOp52
 70
     0
102
RTVSPost2010Prop53
 90
        2
102
RTVSPost2010PropOp53
 70
     1
102
RTVSPost2010Prop54
  1
strokes_ogs.tif
102
RTVSPost2010PropOp54
 70
     1
102
RTVSPost2010Prop55
280
     0
102
RTVSPost2010PropOp55
 70
     1
102
RTVSPost2010Prop56
140
1.0
102
RTVSPost2010PropOp56
 70
     1
102
RTVSPost2010Prop57
140
1.0
102
RTVSPost2010PropOp57
 70
     1
  0
XRECORD
  5
8DB
102
{ACAD_REACTORS
330
8DA
102
}
330
8DA
100
AcDbXrecord
280
     1
102
RTVSPost2010Prop28
280
     0
102
RTVSPost2010PropOp28
 70
     1
102
RTVSPost2010Prop29
280
     1
102
RTVSPost2010PropOp29
 70
     1
102
RTVSPost2010Prop30
280
     1
102
RTVSPost2010PropOp30
 70
     1
102
RTVSPost2010Prop31
280
     0
102
RTVSPost2010PropOp31
 70
     1
102
RTVSPost2010Prop32
280
     0
102
RTVSPost2010PropOp32
 70
     1
102
RTVSPost2010Prop33
280
     0
102
RTVSPost2010PropOp33
 70
     1
102
RTVSPost2010Prop34
280
     0
102
RTVSPost2010PropOp34
 70
     1
102
RTVSPost2010Prop35
280
     0
102
RTVSPost2010PropOp35
 70
     1
102
RTVSPost2010Prop36
280
     0
102
RTVSPost2010PropOp36
 70
     1
102
RTVSPost2010Prop37
 90
       50
102
RTVSPost2010PropOp37
 70
     1
102
RTVSPost2010Prop38
140
0.0
102
RTVSPost2010PropOp38
 70
     1
102
RTVSPost2010Prop39
140
1.0
102
RTVSPost2010PropOp39
 70
     1
102
RTVSPost2010Prop40
 90
        0
102
RTVSPost2010PropOp40
 70
     1
102
RTVSPost2010Prop41ColorIndex
 90
       18
102
RTVSPost2010Prop41ColorRGB
 90
        0
102
RTVSPost2010PropOp41
 70
     1
102
RTVSPost2010Prop42
 90
       50
102
RTVSPost2010PropOp42
 70
     1
102
RTVSPost2010Prop43
 90
        3
102
RTVSPost2010PropOp43
 70
     1
102
RTVSPost2010Prop44ColorIndex
 90
        5
102
RTVSPost2010Prop44ColorRGB
 90
      255
102
RTVSPost2010PropOp44
 70
     1
102
RTVSPost2010Prop45
280
     0
102
RTVSPost2010PropOp45
 70
     1
102
RTVSPost2010Prop46
 90
       50
102
RTVSPost2010PropOp46
 70
     1
102
RTVSPost2010Prop47
 90
       50
102
RTVSPost2010PropOp47
 70
     1
102
RTVSPost2010Prop48
 90
       50
102
RTVSPost2010PropOp48
 70
     1
102
RTVSPost2010Prop49
280
     0
102
RTVSPost2010PropOp49
 70
     1
102
RTVSPost2010Prop50
 90
       50
102
RTVSPost2010PropOp50
 70
     1
102
RTVSPost2010Prop51ColorIndex
 90
      256
102
RTVSPost2010Prop51ColorRGB
 90
-16777216
102
RTVSPost2010PropOp51
 70
     0
102
RTVSPost2010Prop52
140
1.0
102
RTVSPost2010PropOp52
 70
     0
102
RTVSPost2010Prop53
 90
        2
102
RTVSPost2010PropOp53
 70
     1
102
RTVSPost2010Prop54
  1
strokes_ogs.tif
102
RTVSPost2010PropOp54
 70
     1
102
RTVSPost2010Prop55
280
     0
102
RTVSPost2010PropOp55
 70
     1
102
RTVSPost2010Prop56
140
1.0
102
RTVSPost2010PropOp56
 70
     1
102
RTVSPost2010Prop57
140
1.0
102
RTVSPost2010PropOp57
 70
     1
  0
XRECORD
  5
8F9
102
{ACAD_REACTORS
330
8F8
102
}
330
8F8
100
AcDbXrecord
280
     1
102
RTVSPost2010Prop28
280
     0
102
RTVSPost2010PropOp28
 70
     0
102
RTVSPost2010Prop29
280
     1
102
RTVSPost2010PropOp29
 70
     0
102
RTVSPost2010Prop30
280
     1
102
RTVSPost2010PropOp30
 70
     0
102
RTVSPost2010Prop31
280
     0
102
RTVSPost2010PropOp31
 70
     0
102
RTVSPost2010Prop32
280
     0
102
RTVSPost2010PropOp32
 70
     0
102
RTVSPost2010Prop33
280
     0
102
RTVSPost2010PropOp33
 70
     0
102
RTVSPost2010Prop34
280
     0
102
RTVSPost2010PropOp34
 70
     0
102
RTVSPost2010Prop35
280
     0
102
RTVSPost2010PropOp35
 70
     0
102
RTVSPost2010Prop36
280
     0
102
RTVSPost2010PropOp36
 70
     0
102
RTVSPost2010Prop37
 90
       50
102
RTVSPost2010PropOp37
 70
     0
102
RTVSPost2010Prop38
140
0.0
102
RTVSPost2010PropOp38
 70
     0
102
RTVSPost2010Prop39
140
1.0
102
RTVSPost2010PropOp39
 70
     0
102
RTVSPost2010Prop40
 90
        0
102
RTVSPost2010PropOp40
 70
     0
102
RTVSPost2010Prop41ColorIndex
 90
       18
102
RTVSPost2010Prop41ColorRGB
 90
        0
102
RTVSPost2010PropOp41
 70
     0
102
RTVSPost2010Prop42
 90
       50
102
RTVSPost2010PropOp42
 70
     0
102
RTVSPost2010Prop43
 90
        3
102
RTVSPost2010PropOp43
 70
     0
102
RTVSPost2010Prop44ColorIndex
 90
        5
102
RTVSPost2010Prop44ColorRGB
 90
      255
102
RTVSPost2010PropOp44
 70
     0
102
RTVSPost2010Prop45
280
     0
102
RTVSPost2010PropOp45
 70
     0
102
RTVSPost2010Prop46
 90
       50
102
RTVSPost2010PropOp46
 70
     0
102
RTVSPost2010Prop47
 90
       50
102
RTVSPost2010PropOp47
 70
     0
102
RTVSPost2010Prop48
 90
       50
102
RTVSPost2010PropOp48
 70
     0
102
RTVSPost2010Prop49
280
     0
102
RTVSPost2010PropOp49
 70
     0
102
RTVSPost2010Prop50
 90
       50
102
RTVSPost2010PropOp50
 70
     0
102
RTVSPost2010Prop51ColorIndex
 90
      256
102
RTVSPost2010Prop51ColorRGB
 90
-16777216
102
RTVSPost2010PropOp51
 70
     0
102
RTVSPost2010Prop52
140
1.0
102
RTVSPost2010PropOp52
 70
     0
102
RTVSPost2010Prop53
 90
        2
102
RTVSPost2010PropOp53
 70
     0
102
RTVSPost2010Prop54
  1
strokes_ogs.tif
102
RTVSPost2010PropOp54
 70
     0
102
RTVSPost2010Prop55
280
     0
102
RTVSPost2010PropOp55
 70
     0
102
RTVSPost2010Prop56
140
1.0
102
RTVSPost2010PropOp56
 70
     0
102
RTVSPost2010Prop57
140
1.0
102
RTVSPost2010PropOp57
 70
     0
  0
XRECORD
  5
8E3
102
{ACAD_REACTORS
330
8E2
102
}
330
8E2
100
AcDbXrecord
280
     1
102
RTVSPost2010Prop28
280
     0
102
RTVSPost2010PropOp28
 70
     1
102
RTVSPost2010Prop29
280
     1
102
RTVSPost2010PropOp29
 70
     1
102
RTVSPost2010Prop30
280
     1
102
RTVSPost2010PropOp30
 70
     1
102
RTVSPost2010Prop31
280
     0
102
RTVSPost2010PropOp31
 70
     1
102
RTVSPost2010Prop32
280
     0
102
RTVSPost2010PropOp32
 70
     1
102
RTVSPost2010Prop33
280
     0
102
RTVSPost2010PropOp33
 70
     1
102
RTVSPost2010Prop34
280
     0
102
RTVSPost2010PropOp34
 70
     1
102
RTVSPost2010Prop35
280
     0
102
RTVSPost2010PropOp35
 70
     1
102
RTVSPost2010Prop36
280
     0
102
RTVSPost2010PropOp36
 70
     1
102
RTVSPost2010Prop37
 90
       50
102
RTVSPost2010PropOp37
 70
     1
102
RTVSPost2010Prop38
140
0.0
102
RTVSPost2010PropOp38
 70
     1
102
RTVSPost2010Prop39
140
1.0
102
RTVSPost2010PropOp39
 70
     1
102
RTVSPost2010Prop40
 90
        0
102
RTVSPost2010PropOp40
 70
     1
102
RTVSPost2010Prop41ColorIndex
 90
       18
102
RTVSPost2010Prop41ColorRGB
 90
        0
102
RTVSPost2010PropOp41
 70
     1
102
RTVSPost2010Prop42
 90
       50
102
RTVSPost2010PropOp42
 70
     1
102
RTVSPost2010Prop43
 90
        3
102
RTVSPost2010PropOp43
 70
     1
102
RTVSPost2010Prop44ColorIndex
 90
        5
102
RTVSPost2010Prop44ColorRGB
 90
      255
102
RTVSPost2010PropOp44
 70
     1
102
RTVSPost2010Prop45
280
     0
102
RTVSPost2010PropOp45
 70
     1
102
RTVSPost2010Prop46
 90
       50
102
RTVSPost2010PropOp46
 70
     1
102
RTVSPost2010Prop47
 90
       50
102
RTVSPost2010PropOp47
 70
     1
102
RTVSPost2010Prop48
 90
       50
102
RTVSPost2010PropOp48
 70
     1
102
RTVSPost2010Prop49
280
     0
102
RTVSPost2010PropOp49
 70
     1
102
RTVSPost2010Prop50
 90
       50
102
RTVSPost2010PropOp50
 70
     1
102
RTVSPost2010Prop51ColorIndex
 90
      256
102
RTVSPost2010Prop51ColorRGB
 90
-16777216
102
RTVSPost2010PropOp51
 70
     0
102
RTVSPost2010Prop52
140
1.0
102
RTVSPost2010PropOp52
 70
     0
102
RTVSPost2010Prop53
 90
        2
102
RTVSPost2010PropOp53
 70
     1
102
RTVSPost2010Prop54
  1
strokes_ogs.tif
102
RTVSPost2010PropOp54
 70
     1
102
RTVSPost2010Prop55
280
     0
102
RTVSPost2010PropOp55
 70
     1
102
RTVSPost2010Prop56
140
1.0
102
RTVSPost2010PropOp56
 70
     1
102
RTVSPost2010Prop57
140
1.0
102
RTVSPost2010PropOp57
 70
     1
  0
XRECORD
  5
8C7
102
{ACAD_REACTORS
330
8C6
102
}
330
8C6
100
AcDbXrecord
280
     1
102
RTVSPost2010Prop28
280
     0
102
RTVSPost2010PropOp28
 70
     1
102
RTVSPost2010Prop29
280
     1
102
RTVSPost2010PropOp29
 70
     1
102
RTVSPost2010Prop30
280
     1
102
RTVSPost2010PropOp30
 70
     1
102
RTVSPost2010Prop31
280
     0
102
RTVSPost2010PropOp31
 70
     1
102
RTVSPost2010Prop32
280
     0
102
RTVSPost2010PropOp32
 70
     1
102
RTVSPost2010Prop33
280
     0
102
RTVSPost2010PropOp33
 70
     1
102
RTVSPost2010Prop34
280
     0
102
RTVSPost2010PropOp34
 70
     1
102
RTVSPost2010Prop35
280
     0
102
RTVSPost2010PropOp35
 70
     1
102
RTVSPost2010Prop36
280
     0
102
RTVSPost2010PropOp36
 70
     1
102
RTVSPost2010Prop37
 90
       50
102
RTVSPost2010PropOp37
 70
     1
102
RTVSPost2010Prop38
140
0.0
102
RTVSPost2010PropOp38
 70
     1
102
RTVSPost2010Prop39
140
1.0
102
RTVSPost2010PropOp39
 70
     1
102
RTVSPost2010Prop40
 90
        0
102
RTVSPost2010PropOp40
 70
     1
102
RTVSPost2010Prop41ColorIndex
 90
       18
102
RTVSPost2010Prop41ColorRGB
 90
        0
102
RTVSPost2010PropOp41
 70
     1
102
RTVSPost2010Prop42
 90
       50
102
RTVSPost2010PropOp42
 70
     1
102
RTVSPost2010Prop43
 90
        3
102
RTVSPost2010PropOp43
 70
     1
102
RTVSPost2010Prop44ColorIndex
 90
        5
102
RTVSPost2010Prop44ColorRGB
 90
      255
102
RTVSPost2010PropOp44
 70
     1
102
RTVSPost2010Prop45
280
     0
102
RTVSPost2010PropOp45
 70
     1
102
RTVSPost2010Prop46
 90
       50
102
RTVSPost2010PropOp46
 70
     1
102
RTVSPost2010Prop47
 90
       50
102
RTVSPost2010PropOp47
 70
     1
102
RTVSPost2010Prop48
 90
       50
102
RTVSPost2010PropOp48
 70
     1
102
RTVSPost2010Prop49
280
     0
102
RTVSPost2010PropOp49
 70
     1
102
RTVSPost2010Prop50
 90
       50
102
RTVSPost2010PropOp50
 70
     1
102
RTVSPost2010Prop51ColorIndex
 90
      256
102
RTVSPost2010Prop51ColorRGB
 90
-16777216
102
RTVSPost2010PropOp51
 70
     0
102
RTVSPost2010Prop52
140
1.0
102
RTVSPost2010PropOp52
 70
     0
102
RTVSPost2010Prop53
 90
        2
102
RTVSPost2010PropOp53
 70
     1
102
RTVSPost2010Prop54
  1
strokes_ogs.tif
102
RTVSPost2010PropOp54
 70
     1
102
RTVSPost2010Prop55
280
     0
102
RTVSPost2010PropOp55
 70
     1
102
RTVSPost2010Prop56
140
1.0
102
RTVSPost2010PropOp56
 70
     1
102
RTVSPost2010Prop57
140
1.0
102
RTVSPost2010PropOp57
 70
     1
  0
XRECORD
  5
8C9
102
{ACAD_REACTORS
330
8C8
102
}
330
8C8
100
AcDbXrecord
280
     1
102
RTVSPost2010Prop28
280
     0
102
RTVSPost2010PropOp28
 70
     1
102
RTVSPost2010Prop29
280
     1
102
RTVSPost2010PropOp29
 70
     1
102
RTVSPost2010Prop30
280
     1
102
RTVSPost2010PropOp30
 70
     1
102
RTVSPost2010Prop31
280
     0
102
RTVSPost2010PropOp31
 70
     1
102
RTVSPost2010Prop32
280
     0
102
RTVSPost2010PropOp32
 70
     1
102
RTVSPost2010Prop33
280
     0
102
RTVSPost2010PropOp33
 70
     1
102
RTVSPost2010Prop34
280
     0
102
RTVSPost2010PropOp34
 70
     1
102
RTVSPost2010Prop35
280
     0
102
RTVSPost2010PropOp35
 70
     1
102
RTVSPost2010Prop36
280
     0
102
RTVSPost2010PropOp36
 70
     1
102
RTVSPost2010Prop37
 90
       50
102
RTVSPost2010PropOp37
 70
     1
102
RTVSPost2010Prop38
140
0.0
102
RTVSPost2010PropOp38
 70
     1
102
RTVSPost2010Prop39
140
1.0
102
RTVSPost2010PropOp39
 70
     1
102
RTVSPost2010Prop40
 90
        0
102
RTVSPost2010PropOp40
 70
     1
102
RTVSPost2010Prop41ColorIndex
 90
       18
102
RTVSPost2010Prop41ColorRGB
 90
        0
102
RTVSPost2010PropOp41
 70
     1
102
RTVSPost2010Prop42
 90
       50
102
RTVSPost2010PropOp42
 70
     1
102
RTVSPost2010Prop43
 90
        3
102
RTVSPost2010PropOp43
 70
     1
102
RTVSPost2010Prop44ColorIndex
 90
        5
102
RTVSPost2010Prop44ColorRGB
 90
      255
102
RTVSPost2010PropOp44
 70
     1
102
RTVSPost2010Prop45
280
     0
102
RTVSPost2010PropOp45
 70
     1
102
RTVSPost2010Prop46
 90
       50
102
RTVSPost2010PropOp46
 70
     1
102
RTVSPost2010Prop47
 90
       50
102
RTVSPost2010PropOp47
 70
     1
102
RTVSPost2010Prop48
 90
       50
102
RTVSPost2010PropOp48
 70
     1
102
RTVSPost2010Prop49
280
     0
102
RTVSPost2010PropOp49
 70
     1
102
RTVSPost2010Prop50
 90
       50
102
RTVSPost2010PropOp50
 70
     1
102
RTVSPost2010Prop51ColorIndex
 90
      256
102
RTVSPost2010Prop51ColorRGB
 90
-16777216
102
RTVSPost2010PropOp51
 70
     0
102
RTVSPost2010Prop52
140
1.0
102
RTVSPost2010PropOp52
 70
     0
102
RTVSPost2010Prop53
 90
        2
102
RTVSPost2010PropOp53
 70
     1
102
RTVSPost2010Prop54
  1
strokes_ogs.tif
102
RTVSPost2010PropOp54
 70
     1
102
RTVSPost2010Prop55
280
     0
102
RTVSPost2010PropOp55
 70
     1
102
RTVSPost2010Prop56
140
1.0
102
RTVSPost2010PropOp56
 70
     1
102
RTVSPost2010Prop57
140
1.0
102
RTVSPost2010PropOp57
 70
     1
  0
XRECORD
  5
8CB
102
{ACAD_REACTORS
330
8CA
102
}
330
8CA
100
AcDbXrecord
280
     1
102
RTVSPost2010Prop28
280
     0
102
RTVSPost2010PropOp28
 70
     1
102
RTVSPost2010Prop29
280
     1
102
RTVSPost2010PropOp29
 70
     1
102
RTVSPost2010Prop30
280
     1
102
RTVSPost2010PropOp30
 70
     1
102
RTVSPost2010Prop31
280
     0
102
RTVSPost2010PropOp31
 70
     1
102
RTVSPost2010Prop32
280
     0
102
RTVSPost2010PropOp32
 70
     1
102
RTVSPost2010Prop33
280
     0
102
RTVSPost2010PropOp33
 70
     1
102
RTVSPost2010Prop34
280
     0
102
RTVSPost2010PropOp34
 70
     1
102
RTVSPost2010Prop35
280
     0
102
RTVSPost2010PropOp35
 70
     1
102
RTVSPost2010Prop36
280
     0
102
RTVSPost2010PropOp36
 70
     1
102
RTVSPost2010Prop37
 90
       50
102
RTVSPost2010PropOp37
 70
     1
102
RTVSPost2010Prop38
140
0.0
102
RTVSPost2010PropOp38
 70
     1
102
RTVSPost2010Prop39
140
1.0
102
RTVSPost2010PropOp39
 70
     1
102
RTVSPost2010Prop40
 90
        0
102
RTVSPost2010PropOp40
 70
     1
102
RTVSPost2010Prop41ColorIndex
 90
       18
102
RTVSPost2010Prop41ColorRGB
 90
        0
102
RTVSPost2010PropOp41
 70
     1
102
RTVSPost2010Prop42
 90
       50
102
RTVSPost2010PropOp42
 70
     1
102
RTVSPost2010Prop43
 90
        3
102
RTVSPost2010PropOp43
 70
     1
102
RTVSPost2010Prop44ColorIndex
 90
        5
102
RTVSPost2010Prop44ColorRGB
 90
      255
102
RTVSPost2010PropOp44
 70
     1
102
RTVSPost2010Prop45
280
     0
102
RTVSPost2010PropOp45
 70
     1
102
RTVSPost2010Prop46
 90
       50
102
RTVSPost2010PropOp46
 70
     1
102
RTVSPost2010Prop47
 90
       50
102
RTVSPost2010PropOp47
 70
     1
102
RTVSPost2010Prop48
 90
       50
102
RTVSPost2010PropOp48
 70
     1
102
RTVSPost2010Prop49
280
     0
102
RTVSPost2010PropOp49
 70
     1
102
RTVSPost2010Prop50
 90
       50
102
RTVSPost2010PropOp50
 70
     1
102
RTVSPost2010Prop51ColorIndex
 90
      256
102
RTVSPost2010Prop51ColorRGB
 90
-16777216
102
RTVSPost2010PropOp51
 70
     0
102
RTVSPost2010Prop52
140
1.0
102
RTVSPost2010PropOp52
 70
     0
102
RTVSPost2010Prop53
 90
        2
102
RTVSPost2010PropOp53
 70
     1
102
RTVSPost2010Prop54
  1
strokes_ogs.tif
102
RTVSPost2010PropOp54
 70
     1
102
RTVSPost2010Prop55
280
     0
102
RTVSPost2010PropOp55
 70
     1
102
RTVSPost2010Prop56
140
1.0
102
RTVSPost2010PropOp56
 70
     1
102
RTVSPost2010Prop57
140
1.0
102
RTVSPost2010PropOp57
 70
     1
  0
XRECORD
  5
8CD
102
{ACAD_REACTORS
330
8CC
102
}
330
8CC
100
AcDbXrecord
280
     1
102
RTVSPost2010Prop28
280
     0
102
RTVSPost2010PropOp28
 70
     1
102
RTVSPost2010Prop29
280
     1
102
RTVSPost2010PropOp29
 70
     1
102
RTVSPost2010Prop30
280
     1
102
RTVSPost2010PropOp30
 70
     1
102
RTVSPost2010Prop31
280
     0
102
RTVSPost2010PropOp31
 70
     1
102
RTVSPost2010Prop32
280
     0
102
RTVSPost2010PropOp32
 70
     1
102
RTVSPost2010Prop33
280
     0
102
RTVSPost2010PropOp33
 70
     1
102
RTVSPost2010Prop34
280
     0
102
RTVSPost2010PropOp34
 70
     1
102
RTVSPost2010Prop35
280
     0
102
RTVSPost2010PropOp35
 70
     1
102
RTVSPost2010Prop36
280
     0
102
RTVSPost2010PropOp36
 70
     1
102
RTVSPost2010Prop37
 90
       50
102
RTVSPost2010PropOp37
 70
     1
102
RTVSPost2010Prop38
140
0.0
102
RTVSPost2010PropOp38
 70
     1
102
RTVSPost2010Prop39
140
1.0
102
RTVSPost2010PropOp39
 70
     1
102
RTVSPost2010Prop40
 90
        0
102
RTVSPost2010PropOp40
 70
     1
102
RTVSPost2010Prop41ColorIndex
 90
       18
102
RTVSPost2010Prop41ColorRGB
 90
        0
102
RTVSPost2010PropOp41
 70
     1
102
RTVSPost2010Prop42
 90
       50
102
RTVSPost2010PropOp42
 70
     1
102
RTVSPost2010Prop43
 90
        3
102
RTVSPost2010PropOp43
 70
     1
102
RTVSPost2010Prop44ColorIndex
 90
        5
102
RTVSPost2010Prop44ColorRGB
 90
      255
102
RTVSPost2010PropOp44
 70
     1
102
RTVSPost2010Prop45
280
     0
102
RTVSPost2010PropOp45
 70
     1
102
RTVSPost2010Prop46
 90
       50
102
RTVSPost2010PropOp46
 70
     1
102
RTVSPost2010Prop47
 90
       50
102
RTVSPost2010PropOp47
 70
     1
102
RTVSPost2010Prop48
 90
       50
102
RTVSPost2010PropOp48
 70
     1
102
RTVSPost2010Prop49
280
     0
102
RTVSPost2010PropOp49
 70
     1
102
RTVSPost2010Prop50
 90
       50
102
RTVSPost2010PropOp50
 70
     1
102
RTVSPost2010Prop51ColorIndex
 90
      256
102
RTVSPost2010Prop51ColorRGB
 90
-16777216
102
RTVSPost2010PropOp51
 70
     0
102
RTVSPost2010Prop52
140
1.0
102
RTVSPost2010PropOp52
 70
     0
102
RTVSPost2010Prop53
 90
        2
102
RTVSPost2010PropOp53
 70
     1
102
RTVSPost2010Prop54
  1
strokes_ogs.tif
102
RTVSPost2010PropOp54
 70
     1
102
RTVSPost2010Prop55
280
     0
102
RTVSPost2010PropOp55
 70
     1
102
RTVSPost2010Prop56
140
1.0
102
RTVSPost2010PropOp56
 70
     1
102
RTVSPost2010Prop57
140
1.0
102
RTVSPost2010PropOp57
 70
     1
  0
XRECORD
  5
8E9
102
{ACAD_REACTORS
330
8E8
102
}
330
8E8
100
AcDbXrecord
280
     1
102
RTVSPost2010Prop28
280
     0
102
RTVSPost2010PropOp28
 70
     1
102
RTVSPost2010Prop29
280
     1
102
RTVSPost2010PropOp29
 70
     1
102
RTVSPost2010Prop30
280
     1
102
RTVSPost2010PropOp30
 70
     1
102
RTVSPost2010Prop31
280
     0
102
RTVSPost2010PropOp31
 70
     1
102
RTVSPost2010Prop32
280
     0
102
RTVSPost2010PropOp32
 70
     1
102
RTVSPost2010Prop33
280
     0
102
RTVSPost2010PropOp33
 70
     1
102
RTVSPost2010Prop34
280
     0
102
RTVSPost2010PropOp34
 70
     1
102
RTVSPost2010Prop35
280
     0
102
RTVSPost2010PropOp35
 70
     1
102
RTVSPost2010Prop36
280
     0
102
RTVSPost2010PropOp36
 70
     1
102
RTVSPost2010Prop37
 90
       50
102
RTVSPost2010PropOp37
 70
     1
102
RTVSPost2010Prop38
140
0.0
102
RTVSPost2010PropOp38
 70
     1
102
RTVSPost2010Prop39
140
1.0
102
RTVSPost2010PropOp39
 70
     1
102
RTVSPost2010Prop40
 90
        0
102
RTVSPost2010PropOp40
 70
     1
102
RTVSPost2010Prop41ColorIndex
 90
       18
102
RTVSPost2010Prop41ColorRGB
 90
        0
102
RTVSPost2010PropOp41
 70
     1
102
RTVSPost2010Prop42
 90
       50
102
RTVSPost2010PropOp42
 70
     1
102
RTVSPost2010Prop43
 90
        3
102
RTVSPost2010PropOp43
 70
     1
102
RTVSPost2010Prop44ColorIndex
 90
        5
102
RTVSPost2010Prop44ColorRGB
 90
      255
102
RTVSPost2010PropOp44
 70
     1
102
RTVSPost2010Prop45
280
     0
102
RTVSPost2010PropOp45
 70
     1
102
RTVSPost2010Prop46
 90
       50
102
RTVSPost2010PropOp46
 70
     1
102
RTVSPost2010Prop47
 90
       50
102
RTVSPost2010PropOp47
 70
     1
102
RTVSPost2010Prop48
 90
       50
102
RTVSPost2010PropOp48
 70
     1
102
RTVSPost2010Prop49
280
     0
102
RTVSPost2010PropOp49
 70
     1
102
RTVSPost2010Prop50
 90
       50
102
RTVSPost2010PropOp50
 70
     1
102
RTVSPost2010Prop51ColorIndex
 90
      256
102
RTVSPost2010Prop51ColorRGB
 90
-16777216
102
RTVSPost2010PropOp51
 70
     0
102
RTVSPost2010Prop52
140
1.0
102
RTVSPost2010PropOp52
 70
     0
102
RTVSPost2010Prop53
 90
        2
102
RTVSPost2010PropOp53
 70
     1
102
RTVSPost2010Prop54
  1
strokes_ogs.tif
102
RTVSPost2010PropOp54
 70
     1
102
RTVSPost2010Prop55
280
     0
102
RTVSPost2010PropOp55
 70
     1
102
RTVSPost2010Prop56
140
1.0
102
RTVSPost2010PropOp56
 70
     1
102
RTVSPost2010Prop57
140
1.0
102
RTVSPost2010PropOp57
 70
     1
  0
XRECORD
  5
8F5
102
{ACAD_REACTORS
330
8F4
102
}
330
8F4
100
AcDbXrecord
280
     1
102
RTVSPost2010Prop28
280
     0
102
RTVSPost2010PropOp28
 70
     0
102
RTVSPost2010Prop29
280
     1
102
RTVSPost2010PropOp29
 70
     0
102
RTVSPost2010Prop30
280
     1
102
RTVSPost2010PropOp30
 70
     0
102
RTVSPost2010Prop31
280
     0
102
RTVSPost2010PropOp31
 70
     0
102
RTVSPost2010Prop32
280
     0
102
RTVSPost2010PropOp32
 70
     0
102
RTVSPost2010Prop33
280
     0
102
RTVSPost2010PropOp33
 70
     0
102
RTVSPost2010Prop34
280
     0
102
RTVSPost2010PropOp34
 70
     0
102
RTVSPost2010Prop35
280
     0
102
RTVSPost2010PropOp35
 70
     0
102
RTVSPost2010Prop36
280
     0
102
RTVSPost2010PropOp36
 70
     0
102
RTVSPost2010Prop37
 90
       50
102
RTVSPost2010PropOp37
 70
     0
102
RTVSPost2010Prop38
140
0.0
102
RTVSPost2010PropOp38
 70
     0
102
RTVSPost2010Prop39
140
1.0
102
RTVSPost2010PropOp39
 70
     0
102
RTVSPost2010Prop40
 90
        0
102
RTVSPost2010PropOp40
 70
     0
102
RTVSPost2010Prop41ColorIndex
 90
       18
102
RTVSPost2010Prop41ColorRGB
 90
        0
102
RTVSPost2010PropOp41
 70
     0
102
RTVSPost2010Prop42
 90
       50
102
RTVSPost2010PropOp42
 70
     0
102
RTVSPost2010Prop43
 90
        3
102
RTVSPost2010PropOp43
 70
     0
102
RTVSPost2010Prop44ColorIndex
 90
        5
102
RTVSPost2010Prop44ColorRGB
 90
      255
102
RTVSPost2010PropOp44
 70
     0
102
RTVSPost2010Prop45
280
     0
102
RTVSPost2010PropOp45
 70
     0
102
RTVSPost2010Prop46
 90
       50
102
RTVSPost2010PropOp46
 70
     0
102
RTVSPost2010Prop47
 90
       50
102
RTVSPost2010PropOp47
 70
     0
102
RTVSPost2010Prop48
 90
       50
102
RTVSPost2010PropOp48
 70
     0
102
RTVSPost2010Prop49
280
     0
102
RTVSPost2010PropOp49
 70
     0
102
RTVSPost2010Prop50
 90
       50
102
RTVSPost2010PropOp50
 70
     0
102
RTVSPost2010Prop51ColorIndex
 90
      256
102
RTVSPost2010Prop51ColorRGB
 90
-16777216
102
RTVSPost2010PropOp51
 70
     0
102
RTVSPost2010Prop52
140
1.0
102
RTVSPost2010PropOp52
 70
     0
102
RTVSPost2010Prop53
 90
        2
102
RTVSPost2010PropOp53
 70
     0
102
RTVSPost2010Prop54
  1
strokes_ogs.tif
102
RTVSPost2010PropOp54
 70
     0
102
RTVSPost2010Prop55
280
     0
102
RTVSPost2010PropOp55
 70
     0
102
RTVSPost2010Prop56
140
1.0
102
RTVSPost2010PropOp56
 70
     0
102
RTVSPost2010Prop57
140
1.0
102
RTVSPost2010PropOp57
 70
     0
  0
XRECORD
  5
8E1
102
{ACAD_REACTORS
330
8E0
102
}
330
8E0
100
AcDbXrecord
280
     1
102
RTVSPost2010Prop28
280
     0
102
RTVSPost2010PropOp28
 70
     1
102
RTVSPost2010Prop29
280
     1
102
RTVSPost2010PropOp29
 70
     1
102
RTVSPost2010Prop30
280
     1
102
RTVSPost2010PropOp30
 70
     1
102
RTVSPost2010Prop31
280
     0
102
RTVSPost2010PropOp31
 70
     1
102
RTVSPost2010Prop32
280
     0
102
RTVSPost2010PropOp32
 70
     1
102
RTVSPost2010Prop33
280
     0
102
RTVSPost2010PropOp33
 70
     1
102
RTVSPost2010Prop34
280
     0
102
RTVSPost2010PropOp34
 70
     1
102
RTVSPost2010Prop35
280
     0
102
RTVSPost2010PropOp35
 70
     1
102
RTVSPost2010Prop36
280
     0
102
RTVSPost2010PropOp36
 70
     1
102
RTVSPost2010Prop37
 90
       50
102
RTVSPost2010PropOp37
 70
     1
102
RTVSPost2010Prop38
140
0.0
102
RTVSPost2010PropOp38
 70
     1
102
RTVSPost2010Prop39
140
1.0
102
RTVSPost2010PropOp39
 70
     1
102
RTVSPost2010Prop40
 90
        0
102
RTVSPost2010PropOp40
 70
     1
102
RTVSPost2010Prop41ColorIndex
 90
       18
102
RTVSPost2010Prop41ColorRGB
 90
        0
102
RTVSPost2010PropOp41
 70
     1
102
RTVSPost2010Prop42
 90
       50
102
RTVSPost2010PropOp42
 70
     1
102
RTVSPost2010Prop43
 90
        3
102
RTVSPost2010PropOp43
 70
     1
102
RTVSPost2010Prop44ColorIndex
 90
        5
102
RTVSPost2010Prop44ColorRGB
 90
      255
102
RTVSPost2010PropOp44
 70
     1
102
RTVSPost2010Prop45
280
     0
102
RTVSPost2010PropOp45
 70
     1
102
RTVSPost2010Prop46
 90
       50
102
RTVSPost2010PropOp46
 70
     1
102
RTVSPost2010Prop47
 90
       50
102
RTVSPost2010PropOp47
 70
     1
102
RTVSPost2010Prop48
 90
       50
102
RTVSPost2010PropOp48
 70
     1
102
RTVSPost2010Prop49
280
     0
102
RTVSPost2010PropOp49
 70
     1
102
RTVSPost2010Prop50
 90
       50
102
RTVSPost2010PropOp50
 70
     1
102
RTVSPost2010Prop51ColorIndex
 90
      256
102
RTVSPost2010Prop51ColorRGB
 90
-16777216
102
RTVSPost2010PropOp51
 70
     0
102
RTVSPost2010Prop52
140
1.0
102
RTVSPost2010PropOp52
 70
     0
102
RTVSPost2010Prop53
 90
        2
102
RTVSPost2010PropOp53
 70
     1
102
RTVSPost2010Prop54
  1
strokes_ogs.tif
102
RTVSPost2010PropOp54
 70
     1
102
RTVSPost2010Prop55
280
     0
102
RTVSPost2010PropOp55
 70
     1
102
RTVSPost2010Prop56
140
1.0
102
RTVSPost2010PropOp56
 70
     1
102
RTVSPost2010Prop57
140
1.0
102
RTVSPost2010PropOp57
 70
     1
  0
XRECORD
  5
8F7
102
{ACAD_REACTORS
330
8F6
102
}
330
8F6
100
AcDbXrecord
280
     1
102
RTVSPost2010Prop28
280
     0
102
RTVSPost2010PropOp28
 70
     0
102
RTVSPost2010Prop29
280
     1
102
RTVSPost2010PropOp29
 70
     0
102
RTVSPost2010Prop30
280
     1
102
RTVSPost2010PropOp30
 70
     0
102
RTVSPost2010Prop31
280
     0
102
RTVSPost2010PropOp31
 70
     0
102
RTVSPost2010Prop32
280
     0
102
RTVSPost2010PropOp32
 70
     0
102
RTVSPost2010Prop33
280
     0
102
RTVSPost2010PropOp33
 70
     0
102
RTVSPost2010Prop34
280
     0
102
RTVSPost2010PropOp34
 70
     0
102
RTVSPost2010Prop35
280
     0
102
RTVSPost2010PropOp35
 70
     0
102
RTVSPost2010Prop36
280
     0
102
RTVSPost2010PropOp36
 70
     0
102
RTVSPost2010Prop37
 90
       50
102
RTVSPost2010PropOp37
 70
     0
102
RTVSPost2010Prop38
140
0.0
102
RTVSPost2010PropOp38
 70
     0
102
RTVSPost2010Prop39
140
1.0
102
RTVSPost2010PropOp39
 70
     0
102
RTVSPost2010Prop40
 90
        0
102
RTVSPost2010PropOp40
 70
     0
102
RTVSPost2010Prop41ColorIndex
 90
       18
102
RTVSPost2010Prop41ColorRGB
 90
        0
102
RTVSPost2010PropOp41
 70
     0
102
RTVSPost2010Prop42
 90
       50
102
RTVSPost2010PropOp42
 70
     0
102
RTVSPost2010Prop43
 90
        3
102
RTVSPost2010PropOp43
 70
     0
102
RTVSPost2010Prop44ColorIndex
 90
        5
102
RTVSPost2010Prop44ColorRGB
 90
      255
102
RTVSPost2010PropOp44
 70
     0
102
RTVSPost2010Prop45
280
     0
102
RTVSPost2010PropOp45
 70
     0
102
RTVSPost2010Prop46
 90
       50
102
RTVSPost2010PropOp46
 70
     0
102
RTVSPost2010Prop47
 90
       50
102
RTVSPost2010PropOp47
 70
     0
102
RTVSPost2010Prop48
 90
       50
102
RTVSPost2010PropOp48
 70
     0
102
RTVSPost2010Prop49
280
     0
102
RTVSPost2010PropOp49
 70
     0
102
RTVSPost2010Prop50
 90
       50
102
RTVSPost2010PropOp50
 70
     0
102
RTVSPost2010Prop51ColorIndex
 90
      256
102
RTVSPost2010Prop51ColorRGB
 90
-16777216
102
RTVSPost2010PropOp51
 70
     0
102
RTVSPost2010Prop52
140
1.0
102
RTVSPost2010PropOp52
 70
     0
102
RTVSPost2010Prop53
 90
        2
102
RTVSPost2010PropOp53
 70
     0
102
RTVSPost2010Prop54
  1
strokes_ogs.tif
102
RTVSPost2010PropOp54
 70
     0
102
RTVSPost2010Prop55
280
     0
102
RTVSPost2010PropOp55
 70
     0
102
RTVSPost2010Prop56
140
1.0
102
RTVSPost2010PropOp56
 70
     0
102
RTVSPost2010Prop57
140
1.0
102
RTVSPost2010PropOp57
 70
     0
  0
XRECORD
  5
8D7
102
{ACAD_REACTORS
330
8D6
102
}
330
8D6
100
AcDbXrecord
280
     1
102
RTVSPost2010Prop28
280
     0
102
RTVSPost2010PropOp28
 70
     1
102
RTVSPost2010Prop29
280
     1
102
RTVSPost2010PropOp29
 70
     1
102
RTVSPost2010Prop30
280
     1
102
RTVSPost2010PropOp30
 70
     1
102
RTVSPost2010Prop31
280
     0
102
RTVSPost2010PropOp31
 70
     1
102
RTVSPost2010Prop32
280
     0
102
RTVSPost2010PropOp32
 70
     1
102
RTVSPost2010Prop33
280
     0
102
RTVSPost2010PropOp33
 70
     1
102
RTVSPost2010Prop34
280
     0
102
RTVSPost2010PropOp34
 70
     1
102
RTVSPost2010Prop35
280
     0
102
RTVSPost2010PropOp35
 70
     1
102
RTVSPost2010Prop36
280
     0
102
RTVSPost2010PropOp36
 70
     1
102
RTVSPost2010Prop37
 90
       50
102
RTVSPost2010PropOp37
 70
     1
102
RTVSPost2010Prop38
140
0.0
102
RTVSPost2010PropOp38
 70
     1
102
RTVSPost2010Prop39
140
1.0
102
RTVSPost2010PropOp39
 70
     1
102
RTVSPost2010Prop40
 90
        0
102
RTVSPost2010PropOp40
 70
     1
102
RTVSPost2010Prop41ColorIndex
 90
       18
102
RTVSPost2010Prop41ColorRGB
 90
        0
102
RTVSPost2010PropOp41
 70
     1
102
RTVSPost2010Prop42
 90
       50
102
RTVSPost2010PropOp42
 70
     1
102
RTVSPost2010Prop43
 90
        3
102
RTVSPost2010PropOp43
 70
     1
102
RTVSPost2010Prop44ColorIndex
 90
        5
102
RTVSPost2010Prop44ColorRGB
 90
      255
102
RTVSPost2010PropOp44
 70
     1
102
RTVSPost2010Prop45
280
     0
102
RTVSPost2010PropOp45
 70
     1
102
RTVSPost2010Prop46
 90
       50
102
RTVSPost2010PropOp46
 70
     1
102
RTVSPost2010Prop47
 90
       50
102
RTVSPost2010PropOp47
 70
     1
102
RTVSPost2010Prop48
 90
       50
102
RTVSPost2010PropOp48
 70
     1
102
RTVSPost2010Prop49
280
     0
102
RTVSPost2010PropOp49
 70
     1
102
RTVSPost2010Prop50
 90
       50
102
RTVSPost2010PropOp50
 70
     1
102
RTVSPost2010Prop51ColorIndex
 90
      256
102
RTVSPost2010Prop51ColorRGB
 90
-16777216
102
RTVSPost2010PropOp51
 70
     0
102
RTVSPost2010Prop52
140
1.0
102
RTVSPost2010PropOp52
 70
     0
102
RTVSPost2010Prop53
 90
        2
102
RTVSPost2010PropOp53
 70
     1
102
RTVSPost2010Prop54
  1
strokes_ogs.tif
102
RTVSPost2010PropOp54
 70
     1
102
RTVSPost2010Prop55
280
     0
102
RTVSPost2010PropOp55
 70
     1
102
RTVSPost2010Prop56
140
1.0
102
RTVSPost2010PropOp56
 70
     1
102
RTVSPost2010Prop57
140
1.0
102
RTVSPost2010PropOp57
 70
     1
  0
XRECORD
  5
8F3
102
{ACAD_REACTORS
330
8F2
102
}
330
8F2
100
AcDbXrecord
280
     1
102
RTVSPost2010Prop28
280
     0
102
RTVSPost2010PropOp28
 70
     1
102
RTVSPost2010Prop29
280
     1
102
RTVSPost2010PropOp29
 70
     1
102
RTVSPost2010Prop30
280
     1
102
RTVSPost2010PropOp30
 70
     1
102
RTVSPost2010Prop31
280
     0
102
RTVSPost2010PropOp31
 70
     1
102
RTVSPost2010Prop32
280
     0
102
RTVSPost2010PropOp32
 70
     1
102
RTVSPost2010Prop33
280
     0
102
RTVSPost2010PropOp33
 70
     1
102
RTVSPost2010Prop34
280
     0
102
RTVSPost2010PropOp34
 70
     1
102
RTVSPost2010Prop35
280
     0
102
RTVSPost2010PropOp35
 70
     1
102
RTVSPost2010Prop36
280
     0
102
RTVSPost2010PropOp36
 70
     1
102
RTVSPost2010Prop37
 90
       50
102
RTVSPost2010PropOp37
 70
     1
102
RTVSPost2010Prop38
140
0.0
102
RTVSPost2010PropOp38
 70
     1
102
RTVSPost2010Prop39
140
1.0
102
RTVSPost2010PropOp39
 70
     1
102
RTVSPost2010Prop40
 90
        0
102
RTVSPost2010PropOp40
 70
     1
102
RTVSPost2010Prop41ColorIndex
 90
       18
102
RTVSPost2010Prop41ColorRGB
 90
        0
102
RTVSPost2010PropOp41
 70
     1
102
RTVSPost2010Prop42
 90
       50
102
RTVSPost2010PropOp42
 70
     1
102
RTVSPost2010Prop43
 90
        3
102
RTVSPost2010PropOp43
 70
     1
102
RTVSPost2010Prop44ColorIndex
 90
        5
102
RTVSPost2010Prop44ColorRGB
 90
      255
102
RTVSPost2010PropOp44
 70
     1
102
RTVSPost2010Prop45
280
     0
102
RTVSPost2010PropOp45
 70
     1
102
RTVSPost2010Prop46
 90
       50
102
RTVSPost2010PropOp46
 70
     1
102
RTVSPost2010Prop47
 90
       50
102
RTVSPost2010PropOp47
 70
     1
102
RTVSPost2010Prop48
 90
       50
102
RTVSPost2010PropOp48
 70
     1
102
RTVSPost2010Prop49
280
     0
102
RTVSPost2010PropOp49
 70
     1
102
RTVSPost2010Prop50
 90
       50
102
RTVSPost2010PropOp50
 70
     1
102
RTVSPost2010Prop51ColorIndex
 90
      256
102
RTVSPost2010Prop51ColorRGB
 90
-16777216
102
RTVSPost2010PropOp51
 70
     0
102
RTVSPost2010Prop52
140
1.0
102
RTVSPost2010PropOp52
 70
     0
102
RTVSPost2010Prop53
 90
        2
102
RTVSPost2010PropOp53
 70
     1
102
RTVSPost2010Prop54
  1
strokes_ogs.tif
102
RTVSPost2010PropOp54
 70
     1
102
RTVSPost2010Prop55
280
     0
102
RTVSPost2010PropOp55
 70
     1
102
RTVSPost2010Prop56
140
1.0
102
RTVSPost2010PropOp56
 70
     1
102
RTVSPost2010Prop57
140
1.0
102
RTVSPost2010PropOp57
 70
     1
  0
XRECORD
  5
8F1
102
{ACAD_REACTORS
330
8F0
102
}
330
8F0
100
AcDbXrecord
280
     1
102
RTVSPost2010Prop28
280
     0
102
RTVSPost2010PropOp28
 70
     1
102
RTVSPost2010Prop29
280
     1
102
RTVSPost2010PropOp29
 70
     1
102
RTVSPost2010Prop30
280
     1
102
RTVSPost2010PropOp30
 70
     1
102
RTVSPost2010Prop31
280
     0
102
RTVSPost2010PropOp31
 70
     1
102
RTVSPost2010Prop32
280
     0
102
RTVSPost2010PropOp32
 70
     1
102
RTVSPost2010Prop33
280
     0
102
RTVSPost2010PropOp33
 70
     1
102
RTVSPost2010Prop34
280
     0
102
RTVSPost2010PropOp34
 70
     1
102
RTVSPost2010Prop35
280
     0
102
RTVSPost2010PropOp35
 70
     1
102
RTVSPost2010Prop36
280
     0
102
RTVSPost2010PropOp36
 70
     1
102
RTVSPost2010Prop37
 90
       50
102
RTVSPost2010PropOp37
 70
     1
102
RTVSPost2010Prop38
140
0.0
102
RTVSPost2010PropOp38
 70
     1
102
RTVSPost2010Prop39
140
1.0
102
RTVSPost2010PropOp39
 70
     1
102
RTVSPost2010Prop40
 90
        0
102
RTVSPost2010PropOp40
 70
     1
102
RTVSPost2010Prop41ColorIndex
 90
       18
102
RTVSPost2010Prop41ColorRGB
 90
        0
102
RTVSPost2010PropOp41
 70
     1
102
RTVSPost2010Prop42
 90
       50
102
RTVSPost2010PropOp42
 70
     1
102
RTVSPost2010Prop43
 90
        3
102
RTVSPost2010PropOp43
 70
     1
102
RTVSPost2010Prop44ColorIndex
 90
        5
102
RTVSPost2010Prop44ColorRGB
 90
      255
102
RTVSPost2010PropOp44
 70
     1
102
RTVSPost2010Prop45
280
     0
102
RTVSPost2010PropOp45
 70
     1
102
RTVSPost2010Prop46
 90
       50
102
RTVSPost2010PropOp46
 70
     1
102
RTVSPost2010Prop47
 90
       50
102
RTVSPost2010PropOp47
 70
     1
102
RTVSPost2010Prop48
 90
       50
102
RTVSPost2010PropOp48
 70
     1
102
RTVSPost2010Prop49
280
     0
102
RTVSPost2010PropOp49
 70
     1
102
RTVSPost2010Prop50
 90
       50
102
RTVSPost2010PropOp50
 70
     1
102
RTVSPost2010Prop51ColorIndex
 90
      256
102
RTVSPost2010Prop51ColorRGB
 90
-16777216
102
RTVSPost2010PropOp51
 70
     0
102
RTVSPost2010Prop52
140
1.0
102
RTVSPost2010PropOp52
 70
     0
102
RTVSPost2010Prop53
 90
        2
102
RTVSPost2010PropOp53
 70
     1
102
RTVSPost2010Prop54
  1
strokes_ogs.tif
102
RTVSPost2010PropOp54
 70
     1
102
RTVSPost2010Prop55
280
     0
102
RTVSPost2010PropOp55
 70
     1
102
RTVSPost2010Prop56
140
1.0
102
RTVSPost2010PropOp56
 70
     1
102
RTVSPost2010Prop57
140
1.0
102
RTVSPost2010PropOp57
 70
     1
  0
XRECORD
  5
8EB
102
{ACAD_REACTORS
330
8EA
102
}
330
8EA
100
AcDbXrecord
280
     1
102
RTVSPost2010Prop28
280
     0
102
RTVSPost2010PropOp28
 70
     1
102
RTVSPost2010Prop29
280
     1
102
RTVSPost2010PropOp29
 70
     1
102
RTVSPost2010Prop30
280
     1
102
RTVSPost2010PropOp30
 70
     1
102
RTVSPost2010Prop31
280
     0
102
RTVSPost2010PropOp31
 70
     1
102
RTVSPost2010Prop32
280
     0
102
RTVSPost2010PropOp32
 70
     1
102
RTVSPost2010Prop33
280
     0
102
RTVSPost2010PropOp33
 70
     1
102
RTVSPost2010Prop34
280
     0
102
RTVSPost2010PropOp34
 70
     1
102
RTVSPost2010Prop35
280
     0
102
RTVSPost2010PropOp35
 70
     1
102
RTVSPost2010Prop36
280
     0
102
RTVSPost2010PropOp36
 70
     1
102
RTVSPost2010Prop37
 90
       50
102
RTVSPost2010PropOp37
 70
     1
102
RTVSPost2010Prop38
140
0.0
102
RTVSPost2010PropOp38
 70
     1
102
RTVSPost2010Prop39
140
1.0
102
RTVSPost2010PropOp39
 70
     1
102
RTVSPost2010Prop40
 90
        0
102
RTVSPost2010PropOp40
 70
     1
102
RTVSPost2010Prop41ColorIndex
 90
       18
102
RTVSPost2010Prop41ColorRGB
 90
        0
102
RTVSPost2010PropOp41
 70
     1
102
RTVSPost2010Prop42
 90
       50
102
RTVSPost2010PropOp42
 70
     1
102
RTVSPost2010Prop43
 90
        3
102
RTVSPost2010PropOp43
 70
     1
102
RTVSPost2010Prop44ColorIndex
 90
        5
102
RTVSPost2010Prop44ColorRGB
 90
      255
102
RTVSPost2010PropOp44
 70
     1
102
RTVSPost2010Prop45
280
     0
102
RTVSPost2010PropOp45
 70
     1
102
RTVSPost2010Prop46
 90
       50
102
RTVSPost2010PropOp46
 70
     1
102
RTVSPost2010Prop47
 90
       50
102
RTVSPost2010PropOp47
 70
     1
102
RTVSPost2010Prop48
 90
       50
102
RTVSPost2010PropOp48
 70
     1
102
RTVSPost2010Prop49
280
     0
102
RTVSPost2010PropOp49
 70
     1
102
RTVSPost2010Prop50
 90
       50
102
RTVSPost2010PropOp50
 70
     1
102
RTVSPost2010Prop51ColorIndex
 90
      256
102
RTVSPost2010Prop51ColorRGB
 90
-16777216
102
RTVSPost2010PropOp51
 70
     0
102
RTVSPost2010Prop52
140
1.0
102
RTVSPost2010PropOp52
 70
     0
102
RTVSPost2010Prop53
 90
        2
102
RTVSPost2010PropOp53
 70
     1
102
RTVSPost2010Prop54
  1
strokes_ogs.tif
102
RTVSPost2010PropOp54
 70
     1
102
RTVSPost2010Prop55
280
     0
102
RTVSPost2010PropOp55
 70
     1
102
RTVSPost2010Prop56
140
1.0
102
RTVSPost2010PropOp56
 70
     1
102
RTVSPost2010Prop57
140
1.0
102
RTVSPost2010PropOp57
 70
     1
  0
XRECORD
  5
8ED
102
{ACAD_REACTORS
330
8EC
102
}
330
8EC
100
AcDbXrecord
280
     1
102
RTVSPost2010Prop28
280
     0
102
RTVSPost2010PropOp28
 70
     1
102
RTVSPost2010Prop29
280
     1
102
RTVSPost2010PropOp29
 70
     1
102
RTVSPost2010Prop30
280
     1
102
RTVSPost2010PropOp30
 70
     1
102
RTVSPost2010Prop31
280
     0
102
RTVSPost2010PropOp31
 70
     1
102
RTVSPost2010Prop32
280
     0
102
RTVSPost2010PropOp32
 70
     1
102
RTVSPost2010Prop33
280
     0
102
RTVSPost2010PropOp33
 70
     1
102
RTVSPost2010Prop34
280
     0
102
RTVSPost2010PropOp34
 70
     1
102
RTVSPost2010Prop35
280
     0
102
RTVSPost2010PropOp35
 70
     1
102
RTVSPost2010Prop36
280
     0
102
RTVSPost2010PropOp36
 70
     1
102
RTVSPost2010Prop37
 90
       50
102
RTVSPost2010PropOp37
 70
     1
102
RTVSPost2010Prop38
140
0.0
102
RTVSPost2010PropOp38
 70
     1
102
RTVSPost2010Prop39
140
1.0
102
RTVSPost2010PropOp39
 70
     1
102
RTVSPost2010Prop40
 90
        0
102
RTVSPost2010PropOp40
 70
     1
102
RTVSPost2010Prop41ColorIndex
 90
       18
102
RTVSPost2010Prop41ColorRGB
 90
        0
102
RTVSPost2010PropOp41
 70
     1
102
RTVSPost2010Prop42
 90
       50
102
RTVSPost2010PropOp42
 70
     1
102
RTVSPost2010Prop43
 90
        3
102
RTVSPost2010PropOp43
 70
     1
102
RTVSPost2010Prop44ColorIndex
 90
        5
102
RTVSPost2010Prop44ColorRGB
 90
      255
102
RTVSPost2010PropOp44
 70
     1
102
RTVSPost2010Prop45
280
     0
102
RTVSPost2010PropOp45
 70
     1
102
RTVSPost2010Prop46
 90
       50
102
RTVSPost2010PropOp46
 70
     1
102
RTVSPost2010Prop47
 90
       50
102
RTVSPost2010PropOp47
 70
     1
102
RTVSPost2010Prop48
 90
       50
102
RTVSPost2010PropOp48
 70
     1
102
RTVSPost2010Prop49
280
     0
102
RTVSPost2010PropOp49
 70
     1
102
RTVSPost2010Prop50
 90
       50
102
RTVSPost2010PropOp50
 70
     1
102
RTVSPost2010Prop51ColorIndex
 90
      256
102
RTVSPost2010Prop51ColorRGB
 90
-16777216
102
RTVSPost2010PropOp51
 70
     0
102
RTVSPost2010Prop52
140
1.0
102
RTVSPost2010PropOp52
 70
     0
102
RTVSPost2010Prop53
 90
        2
102
RTVSPost2010PropOp53
 70
     1
102
RTVSPost2010Prop54
  1
strokes_ogs.tif
102
RTVSPost2010PropOp54
 70
     1
102
RTVSPost2010Prop55
280
     0
102
RTVSPost2010PropOp55
 70
     1
102
RTVSPost2010Prop56
140
1.0
102
RTVSPost2010PropOp56
 70
     1
102
RTVSPost2010Prop57
140
1.0
102
RTVSPost2010PropOp57
 70
     1
  0
XRECORD
  5
8DF
102
{ACAD_REACTORS
330
8DE
102
}
330
8DE
100
AcDbXrecord
280
     1
102
RTVSPost2010Prop28
280
     0
102
RTVSPost2010PropOp28
 70
     1
102
RTVSPost2010Prop29
280
     1
102
RTVSPost2010PropOp29
 70
     1
102
RTVSPost2010Prop30
280
     1
102
RTVSPost2010PropOp30
 70
     1
102
RTVSPost2010Prop31
280
     0
102
RTVSPost2010PropOp31
 70
     1
102
RTVSPost2010Prop32
280
     0
102
RTVSPost2010PropOp32
 70
     1
102
RTVSPost2010Prop33
280
     0
102
RTVSPost2010PropOp33
 70
     1
102
RTVSPost2010Prop34
280
     0
102
RTVSPost2010PropOp34
 70
     1
102
RTVSPost2010Prop35
280
     0
102
RTVSPost2010PropOp35
 70
     1
102
RTVSPost2010Prop36
280
     0
102
RTVSPost2010PropOp36
 70
     1
102
RTVSPost2010Prop37
 90
       50
102
RTVSPost2010PropOp37
 70
     1
102
RTVSPost2010Prop38
140
0.0
102
RTVSPost2010PropOp38
 70
     1
102
RTVSPost2010Prop39
140
1.0
102
RTVSPost2010PropOp39
 70
     1
102
RTVSPost2010Prop40
 90
        0
102
RTVSPost2010PropOp40
 70
     1
102
RTVSPost2010Prop41ColorIndex
 90
       18
102
RTVSPost2010Prop41ColorRGB
 90
        0
102
RTVSPost2010PropOp41
 70
     1
102
RTVSPost2010Prop42
 90
       50
102
RTVSPost2010PropOp42
 70
     1
102
RTVSPost2010Prop43
 90
        3
102
RTVSPost2010PropOp43
 70
     1
102
RTVSPost2010Prop44ColorIndex
 90
        5
102
RTVSPost2010Prop44ColorRGB
 90
      255
102
RTVSPost2010PropOp44
 70
     1
102
RTVSPost2010Prop45
280
     0
102
RTVSPost2010PropOp45
 70
     1
102
RTVSPost2010Prop46
 90
       50
102
RTVSPost2010PropOp46
 70
     1
102
RTVSPost2010Prop47
 90
       50
102
RTVSPost2010PropOp47
 70
     1
102
RTVSPost2010Prop48
 90
       50
102
RTVSPost2010PropOp48
 70
     1
102
RTVSPost2010Prop49
280
     0
102
RTVSPost2010PropOp49
 70
     1
102
RTVSPost2010Prop50
 90
       50
102
RTVSPost2010PropOp50
 70
     1
102
RTVSPost2010Prop51ColorIndex
 90
      256
102
RTVSPost2010Prop51ColorRGB
 90
-16777216
102
RTVSPost2010PropOp51
 70
     0
102
RTVSPost2010Prop52
140
1.0
102
RTVSPost2010PropOp52
 70
     0
102
RTVSPost2010Prop53
 90
        2
102
RTVSPost2010PropOp53
 70
     1
102
RTVSPost2010Prop54
  1
strokes_ogs.tif
102
RTVSPost2010PropOp54
 70
     1
102
RTVSPost2010Prop55
280
     0
102
RTVSPost2010PropOp55
 70
     1
102
RTVSPost2010Prop56
140
1.0
102
RTVSPost2010PropOp56
 70
     1
102
RTVSPost2010Prop57
140
1.0
102
RTVSPost2010PropOp57
 70
     1
  0
XRECORD
  5
8E7
102
{ACAD_REACTORS
330
8E6
102
}
330
8E6
100
AcDbXrecord
280
     1
102
RTVSPost2010Prop28
280
     0
102
RTVSPost2010PropOp28
 70
     1
102
RTVSPost2010Prop29
280
     1
102
RTVSPost2010PropOp29
 70
     1
102
RTVSPost2010Prop30
280
     1
102
RTVSPost2010PropOp30
 70
     1
102
RTVSPost2010Prop31
280
     0
102
RTVSPost2010PropOp31
 70
     1
102
RTVSPost2010Prop32
280
     0
102
RTVSPost2010PropOp32
 70
     1
102
RTVSPost2010Prop33
280
     0
102
RTVSPost2010PropOp33
 70
     1
102
RTVSPost2010Prop34
280
     0
102
RTVSPost2010PropOp34
 70
     1
102
RTVSPost2010Prop35
280
     0
102
RTVSPost2010PropOp35
 70
     1
102
RTVSPost2010Prop36
280
     0
102
RTVSPost2010PropOp36
 70
     1
102
RTVSPost2010Prop37
 90
       50
102
RTVSPost2010PropOp37
 70
     1
102
RTVSPost2010Prop38
140
0.0
102
RTVSPost2010PropOp38
 70
     1
102
RTVSPost2010Prop39
140
1.0
102
RTVSPost2010PropOp39
 70
     1
102
RTVSPost2010Prop40
 90
        0
102
RTVSPost2010PropOp40
 70
     1
102
RTVSPost2010Prop41ColorIndex
 90
       18
102
RTVSPost2010Prop41ColorRGB
 90
        0
102
RTVSPost2010PropOp41
 70
     1
102
RTVSPost2010Prop42
 90
       50
102
RTVSPost2010PropOp42
 70
     1
102
RTVSPost2010Prop43
 90
        3
102
RTVSPost2010PropOp43
 70
     1
102
RTVSPost2010Prop44ColorIndex
 90
        5
102
RTVSPost2010Prop44ColorRGB
 90
      255
102
RTVSPost2010PropOp44
 70
     1
102
RTVSPost2010Prop45
280
     0
102
RTVSPost2010PropOp45
 70
     1
102
RTVSPost2010Prop46
 90
       50
102
RTVSPost2010PropOp46
 70
     1
102
RTVSPost2010Prop47
 90
       50
102
RTVSPost2010PropOp47
 70
     1
102
RTVSPost2010Prop48
 90
       50
102
RTVSPost2010PropOp48
 70
     1
102
RTVSPost2010Prop49
280
     0
102
RTVSPost2010PropOp49
 70
     1
102
RTVSPost2010Prop50
 90
       50
102
RTVSPost2010PropOp50
 70
     1
102
RTVSPost2010Prop51ColorIndex
 90
      256
102
RTVSPost2010Prop51ColorRGB
 90
-16777216
102
RTVSPost2010PropOp51
 70
     0
102
RTVSPost2010Prop52
140
1.0
102
RTVSPost2010PropOp52
 70
     0
102
RTVSPost2010Prop53
 90
        2
102
RTVSPost2010PropOp53
 70
     1
102
RTVSPost2010Prop54
  1
strokes_ogs.tif
102
RTVSPost2010PropOp54
 70
     1
102
RTVSPost2010Prop55
280
     0
102
RTVSPost2010PropOp55
 70
     1
102
RTVSPost2010Prop56
140
1.0
102
RTVSPost2010PropOp56
 70
     1
102
RTVSPost2010Prop57
140
1.0
102
RTVSPost2010PropOp57
 70
     1
  0
XRECORD
  5
8EF
102
{ACAD_REACTORS
330
8EE
102
}
330
8EE
100
AcDbXrecord
280
     1
102
RTVSPost2010Prop28
280
     0
102
RTVSPost2010PropOp28
 70
     1
102
RTVSPost2010Prop29
280
     1
102
RTVSPost2010PropOp29
 70
     1
102
RTVSPost2010Prop30
280
     1
102
RTVSPost2010PropOp30
 70
     1
102
RTVSPost2010Prop31
280
     0
102
RTVSPost2010PropOp31
 70
     1
102
RTVSPost2010Prop32
280
     0
102
RTVSPost2010PropOp32
 70
     1
102
RTVSPost2010Prop33
280
     0
102
RTVSPost2010PropOp33
 70
     1
102
RTVSPost2010Prop34
280
     0
102
RTVSPost2010PropOp34
 70
     1
102
RTVSPost2010Prop35
280
     0
102
RTVSPost2010PropOp35
 70
     1
102
RTVSPost2010Prop36
280
     0
102
RTVSPost2010PropOp36
 70
     1
102
RTVSPost2010Prop37
 90
       50
102
RTVSPost2010PropOp37
 70
     1
102
RTVSPost2010Prop38
140
0.0
102
RTVSPost2010PropOp38
 70
     1
102
RTVSPost2010Prop39
140
1.0
102
RTVSPost2010PropOp39
 70
     1
102
RTVSPost2010Prop40
 90
        0
102
RTVSPost2010PropOp40
 70
     1
102
RTVSPost2010Prop41ColorIndex
 90
       18
102
RTVSPost2010Prop41ColorRGB
 90
        0
102
RTVSPost2010PropOp41
 70
     1
102
RTVSPost2010Prop42
 90
       50
102
RTVSPost2010PropOp42
 70
     1
102
RTVSPost2010Prop43
 90
        3
102
RTVSPost2010PropOp43
 70
     1
102
RTVSPost2010Prop44ColorIndex
 90
        5
102
RTVSPost2010Prop44ColorRGB
 90
      255
102
RTVSPost2010PropOp44
 70
     1
102
RTVSPost2010Prop45
280
     0
102
RTVSPost2010PropOp45
 70
     1
102
RTVSPost2010Prop46
 90
       50
102
RTVSPost2010PropOp46
 70
     1
102
RTVSPost2010Prop47
 90
       50
102
RTVSPost2010PropOp47
 70
     1
102
RTVSPost2010Prop48
 90
       50
102
RTVSPost2010PropOp48
 70
     1
102
RTVSPost2010Prop49
280
     0
102
RTVSPost2010PropOp49
 70
     1
102
RTVSPost2010Prop50
 90
       50
102
RTVSPost2010PropOp50
 70
     1
102
RTVSPost2010Prop51ColorIndex
 90
      256
102
RTVSPost2010Prop51ColorRGB
 90
-16777216
102
RTVSPost2010PropOp51
 70
     0
102
RTVSPost2010Prop52
140
1.0
102
RTVSPost2010PropOp52
 70
     0
102
RTVSPost2010Prop53
 90
        2
102
RTVSPost2010PropOp53
 70
     1
102
RTVSPost2010Prop54
  1
strokes_ogs.tif
102
RTVSPost2010PropOp54
 70
     1
102
RTVSPost2010Prop55
280
     0
102
RTVSPost2010PropOp55
 70
     1
102
RTVSPost2010Prop56
140
1.0
102
RTVSPost2010PropOp56
 70
     1
102
RTVSPost2010Prop57
140
1.0
102
RTVSPost2010PropOp57
 70
     1
  0
ACDBASSOCGEOMDEPENDENCY
  5
439
330
435
100
AcDbAssocDependency
 90
        2
 90
        0
290
     1
290
     1
290
     1
290
     1
 90
   -10000
330
42A
290
     0
330
0
330
43C
360
0
 90
        3
100
AcDbAssocGeomDependency
 90
        0
290
     1
  1
AcDbAssocEdgePersSubentId
 90
        0
 90
        4
 90
        5
290
     0
  0
ACDBASSOCGEOMDEPENDENCY
  5
43C
330
435
100
AcDbAssocDependency
 90
        2
 90
        0
290
     1
290
     1
290
     1
290
     1
 90
   -10000
330
42A
290
     0
330
439
330
440
360
0
 90
        6
100
AcDbAssocGeomDependency
 90
        0
290
     1
  1
AcDbAssocEdgePersSubentId
 90
        0
 90
        6
 90
        7
290
     0
  0
ACDBASSOCGEOMDEPENDENCY
  5
43E
330
435
100
AcDbAssocDependency
 90
        2
 90
        0
290
     1
290
     1
290
     1
290
     1
 90
   -10000
330
41
290
     0
330
0
330
0
360
0
 90
        8
100
AcDbAssocGeomDependency
 90
        0
290
     1
  1
AcDbAssocEdgePersSubentId
 90
        0
 90
        8
 90
        9
290
     0
  0
ACDBASSOCGEOMDEPENDENCY
  5
440
330
435
100
AcDbAssocDependency
 90
        2
 90
        0
290
     1
290
     1
290
     1
290
     1
 90
   -10000
330
42A
290
     0
330
43C
330
442
360
0
 90
        9
100
AcDbAssocGeomDependency
 90
        0
290
     1
  1
AcDbAssocEdgePersSubentId
 90
        0
 90
        7
 90
       11
290
     0
  0
ACDBASSOCGEOMDEPENDENCY
  5
442
330
435
100
AcDbAssocDependency
 90
        2
 90
        0
290
     1
290
     1
290
     1
290
     1
 90
   -10000
330
42A
290
     0
330
440
330
0
360
0
 90
       11
100
AcDbAssocGeomDependency
 90
        0
290
     1
  1
AcDbAssocEdgePersSubentId
 90
        0
 90
       11
 90
       12
290
     0
  0
ACDBASSOCGEOMDEPENDENCY
  5
4B4
330
435
100
AcDbAssocDependency
 90
        2
 90
        0
290
     1
290
     1
290
     1
290
     1
 90
   -10000
330
49C
290
     0
330
0
330
0
360
0
 90
       12
100
AcDbAssocGeomDependency
 90
        0
290
     1
  1
AcDbAssocSingleEdgePersSubentId
290
     0
  0
ACDBASSOCGEOMDEPENDENCY
  5
4B5
330
435
100
AcDbAssocDependency
 90
        2
 90
        0
290
     1
290
     1
290
     1
290
     1
 90
   -10000
330
49A
290
     0
330
0
330
0
360
0
 90
       13
100
AcDbAssocGeomDependency
 90
        0
290
     1
  1
AcDbAssocSingleEdgePersSubentId
290
     0
  0
ENDSEC
  0
EOF
