999
DXF file: 101-100-45_plain_bend.dxf
999
Pro/ENGINEER 2006320 by Parametric Technology Corporation
  0
SECTION
  2
HEADER
  9
$ACADVER
  1
AC1012
  9
$DWGCODEPAGE
  3
ANSI_1252
  9
$EXTMAX
 10
420.0
 20
297.0
 30
0.0
  9
$EXTMIN
 10
0.0
 20
0.0
 30
0.0
  9
$LIMMIN
 10
0.0
 20
0.0
  9
$LIMMAX
 10
420.0
 20
297.0
  9
$VIEWCTR
 10
210.0
 20
148.5
  9
$VIEWSIZE
 40
297.0
  9
$CLAYER
  8
0
  9
$LTSCALE
 40
23.1
  9
$CELTYPE
  6
BYLAYER
  9
$DIMSCALE
 40
1.0
  9
$DIMASZ
 40
3.0
  9
$DIMEXO
 40
2.625
  9
$DIMDLI
 40
15.96
  9
$DIMEXE
 40
7.56
  9
$DIMCEN
 40
3.78
  9
$DIMLFAC
 40
1.0
  9
$DIMBLK
  1
_FILLED
  9
$DIMTXT
 40
3.0
  9
$DIMTOL
 70
0
  9
$DIMLIM
 70
0
  9
$DIMTFAC
 40
1.0
  9
$PDMODE
 70
3
  9
$PDSIZE
 40
0.3125
  9
$HANDSEED
  5
268
  0
ENDSEC
  0
SECTION
  2
CLASSES
  0
ENDSEC
  0
SECTION
  2
TABLES
  0
TABLE
  2
VPORT
  5
8
100
AcDbSymbolTable
 70
2
  0
VPORT
  5
1F4
100
AcDbSymbolTableRecord
100
AcDbViewportTableRecord
  2
*ACTIVE
 70
0
 10
0.0
 20
0.0
 11
1.0
 21
1.0
 12
210.0
 22
148.5
 13
0.0
 23
0.0
 14
1.0
 24
1.0
 15
0.0
 25
0.0
 16
0.0
 26
0.0
 36
1.0
 17
0.0
 27
0.0
 37
0.0
 40
297.0
 41
1.4141414141
 42
50.0
 43
0.0
 44
0.0
 50
0.0
 51
0.0
 71
0
 72
100
 73
1
 74
1
 75
0
 76
0
 77
0
 78
0
  0
ENDTAB
  0
TABLE
  2
LTYPE
  5
5
100
AcDbSymbolTable
 70
6
  0
LTYPE
  5
14
100
AcDbSymbolTableRecord
100
AcDbLinetypeTableRecord
  2
BYBLOCK
 70
0
  3

 72
65
 73
0
 40
0.0
  0
LTYPE
  5
15
100
AcDbSymbolTableRecord
100
AcDbLinetypeTableRecord
  2
BYLAYER
 70
0
  3

 72
65
 73
0
 40
0.0
  0
LTYPE
  5
16
100
AcDbSymbolTableRecord
100
AcDbLinetypeTableRecord
  2
CONTINUOUS
 70
64
  3
Solid line
 72
65
 73
0
 40
0.0
  0
LTYPE
  5
1F5
100
AcDbSymbolTableRecord
100
AcDbLinetypeTableRecord
  2
CENTER
 70
64
  3
____ _ ____ _ ____ _ ____ _ ____ _ ____ _ ____
 72
65
 73
4
 40
0.6
 49
0.375
 74
0
 49
-0.075
 74
0
 49
0.075
 74
0
 49
-0.075
 74
0
  0
LTYPE
  5
1F6
100
AcDbSymbolTableRecord
100
AcDbLinetypeTableRecord
  2
HIDDEN
 70
64
  3
- - - - - - - - - - - - - - - - - - - -
 72
65
 73
2
 40
0.2
 49
0.1
 74
0
 49
-0.1
 74
0
  0
LTYPE
  5
1F7
100
AcDbSymbolTableRecord
100
AcDbLinetypeTableRecord
  2
PHANTOM
 70
64
  3
_____ _ _ _____ _ _ _____ _ _ _____
 72
65
 73
6
 40
0.8
 49
0.45
 74
0
 49
-0.05
 74
0
 49
0.1
 74
0
 49
-0.05
 74
0
 49
0.1
 74
0
 49
-0.05
 74
0
  0
LTYPE
  5
1F8
100
AcDbSymbolTableRecord
100
AcDbLinetypeTableRecord
  2
DOT
 70
64
  3
. . . . . . . . . . . . . . . . . . . .
 72
65
 73
2
 40
0.2
 49
0.1
 74
0
 49
-0.1
 74
0
  0
LTYPE
  5
1F9
100
AcDbSymbolTableRecord
100
AcDbLinetypeTableRecord
  2
DASHED
 70
64
  3
- - - - - - - - - - - - - - - - - - - -
 72
65
 73
2
 40
0.2
 49
0.1
 74
0
 49
-0.1
 74
0
  0
ENDTAB
  0
TABLE
  2
LAYER
  5
2
100
AcDbSymbolTable
 70
36
  0
LAYER
  5
10
100
AcDbSymbolTableRecord
100
AcDbLayerTableRecord
  2
0
 70
0
 62
7
  6
CONTINUOUS
  0
LAYER
  5
1FA
100
AcDbSymbolTableRecord
100
AcDbLayerTableRecord
  2
DEFAULT_1
 70
0
 62
7
  6
CENTER
  0
LAYER
  5
1FB
100
AcDbSymbolTableRecord
100
AcDbLayerTableRecord
  2
DEFAULT_2
 70
0
 62
8
  6
HIDDEN
  0
LAYER
  5
1FC
100
AcDbSymbolTableRecord
100
AcDbLayerTableRecord
  2
DEFAULT_3
 70
0
 62
7
  6
PHANTOM
  0
LAYER
  5
1FD
100
AcDbSymbolTableRecord
100
AcDbLayerTableRecord
  2
_2D_DELETED_OBJS
 70
0
 62
7
  6
CONTINUOUS
  0
LAYER
  5
1FE
100
AcDbSymbolTableRecord
100
AcDbLayerTableRecord
  2
01___PRT_ALL_DTM_PLN
 70
0
 62
7
  6
CONTINUOUS
  0
LAYER
  5
1FF
100
AcDbSymbolTableRecord
100
AcDbLayerTableRecord
  2
01___PRT_DEF_DTM_PLN
 70
0
 62
7
  6
CONTINUOUS
  0
LAYER
  5
200
100
AcDbSymbolTableRecord
100
AcDbLayerTableRecord
  2
02___PRT_ALL_AXES
 70
0
 62
7
  6
CONTINUOUS
  0
LAYER
  5
201
100
AcDbSymbolTableRecord
100
AcDbLayerTableRecord
  2
03___PRT_ALL_CURVES
 70
0
 62
7
  6
CONTINUOUS
  0
LAYER
  5
202
100
AcDbSymbolTableRecord
100
AcDbLayerTableRecord
  2
04___PRT_ALL_DTM_PNT
 70
0
 62
7
  6
CONTINUOUS
  0
LAYER
  5
203
100
AcDbSymbolTableRecord
100
AcDbLayerTableRecord
  2
05___PRT_ALL_DTM_CSYS
 70
0
 62
7
  6
CONTINUOUS
  0
LAYER
  5
204
100
AcDbSymbolTableRecord
100
AcDbLayerTableRecord
  2
05___PRT_DEF_DTM_CSYS
 70
0
 62
7
  6
CONTINUOUS
  0
LAYER
  5
205
100
AcDbSymbolTableRecord
100
AcDbLayerTableRecord
  2
06___PRT_ALL_SURFS
 70
0
 62
7
  6
CONTINUOUS
  0
LAYER
  5
206
100
AcDbSymbolTableRecord
100
AcDbLayerTableRecord
  2
CURVES
 70
0
 62
7
  6
CONTINUOUS
  0
ENDTAB
  0
TABLE
  2
STYLE
  5
3
100
AcDbSymbolTable
 70
1
  0
STYLE
  5
11
100
AcDbSymbolTableRecord
100
AcDbTextStyleTableRecord
  2
STANDARD
 70
0
 40
0.0
 41
0.6
 50
0.0
 71
0
 42
0.2
  3
txt
  4

  0
ENDTAB
  0
TABLE
  2
VIEW
  5
6
100
AcDbSymbolTable
 70
0
  0
ENDTAB
  0
TABLE
  2
UCS
  5
7
100
AcDbSymbolTable
 70
0
  0
ENDTAB
  0
TABLE
  2
APPID
  5
9
100
AcDbSymbolTable
 70
1
  0
APPID
  5
207
100
AcDbSymbolTableRecord
100
AcDbRegAppTableRecord
  2
ACAD
 70
0
  0
ENDTAB
  0
TABLE
  2
BLOCK_RECORD
  5
1
100
AcDbSymbolTable
 70
0
  0
BLOCK_RECORD
  5
1F
100
AcDbSymbolTableRecord
100
AcDbBlockTableRecord
  2
*MODEL_SPACE
  0
BLOCK_RECORD
  5
1B
100
AcDbSymbolTableRecord
100
AcDbBlockTableRecord
  2
*PAPER_SPACE
  0
BLOCK_RECORD
  5
208
100
AcDbSymbolTableRecord
100
AcDbBlockTableRecord
  2
_FILLED
  0
BLOCK_RECORD
  5
209
100
AcDbSymbolTableRecord
100
AcDbBlockTableRecord
  2
*D0
  0
BLOCK_RECORD
  5
20A
100
AcDbSymbolTableRecord
100
AcDbBlockTableRecord
  2
*D1
  0
BLOCK_RECORD
  5
20B
100
AcDbSymbolTableRecord
100
AcDbBlockTableRecord
  2
*D2
  0
BLOCK_RECORD
  5
20C
100
AcDbSymbolTableRecord
100
AcDbBlockTableRecord
  2
*D3
  0
ENDTAB
  0
TABLE
  2
DIMSTYLE
  5
A
100
AcDbSymbolTable
 70
1
  0
DIMSTYLE
105
20D
100
AcDbSymbolTableRecord
100
AcDbDimStyleTableRecord
  2
STANDARD
 70
0
  3

  4

  5
_FILLED
  6
_FILLED
  7
_FILLED
 40
1.0
 41
3.0
 42
0.0625
 43
0.38
 44
0.18
 45
0.0
 46
0.0
 47
0.03
 48
0.03
140
3.0
141
0.09
142
0.0
143
25.4
144
1.0
145
0.0
146
1.0
147
0.09
 71
0.0
 72
0.0
 73
1
 74
1
 75
0
 76
0
 77
0
 78
8
170
0
171
2
172
0
173
0
174
0
175
0
176
0
177
0
178
0
270
2
271
2
272
2
273
2
274
2
275
0
280
0
281
0
282
0
283
1
284
8
285
0
286
0
287
3
288
0
340
11
  0
DIMSTYLE
105
20E
100
AcDbSymbolTableRecord
100
AcDbDimStyleTableRecord
  2
DIMSTYLE_1
 70
0
  3

  4

  5
_FILLED
  6
_FILLED
  7
_FILLED
 40
1.0
 41
3.0
 42
0.0625
 43
0.38
 44
0.18
 45
0.0
 46
0.0
 47
0.0
 48
0.0
140
3.0
141
0.09
142
0.0
143
25.4
144
1.0
145
0.0
146
1.0
147
0.09
 71
0.0
 72
0.0
 73
1
 74
1
 75
0
 76
0
 77
0
 78
8
170
0
171
2
172
0
173
0
174
0
175
0
176
0
177
0
178
0
270
2
271
0
272
0
273
2
274
2
275
0
280
0
281
0
282
0
283
1
284
8
285
0
286
0
287
3
288
0
340
11
  0
DIMSTYLE
105
20F
100
AcDbSymbolTableRecord
100
AcDbDimStyleTableRecord
  2
DIMSTYLE_2
 70
0
  3

  4

  5
_FILLED
  6
_FILLED
  7
_FILLED
 40
1.0
 41
3.0
 42
0.0625
 43
0.38
 44
0.18
 45
0.0
 46
0.0
 47
0.0
 48
0.0
140
3.0
141
0.09
142
0.0
143
25.4
144
1.0
145
0.0
146
1.0
147
0.09
 71
0.0
 72
0.0
 73
1
 74
1
 75
0
 76
0
 77
0
 78
8
170
0
171
2
172
0
173
0
174
0
175
0
176
0
177
0
178
0
270
2
271
1
272
1
273
2
274
2
275
0
280
0
281
0
282
0
283
1
284
8
285
0
286
0
287
3
288
0
340
11
  0
ENDTAB
  0
ENDSEC
  0
SECTION
  2
BLOCKS
  0
BLOCK
  5
20
100
AcDbEntity
  8
0
100
AcDbBlockBegin
  2
*MODEL_SPACE
 70
0
 10
0.0
 20
0.0
 30
0.0
  3
*MODEL_SPACE
  1

  0
ENDBLK
  5
21
100
AcDbEntity
  8
0
100
AcDbBlockEnd
  0
BLOCK
  5
1C
100
AcDbEntity
  8
0
100
AcDbBlockBegin
  2
*PAPER_SPACE
 70
0
 10
0.0
 20
0.0
 30
0.0
  3
*PAPER_SPACE
  1

  0
ENDBLK
  5
1D
100
AcDbEntity
  8
0
100
AcDbBlockEnd
  0
BLOCK
  5
210
100
AcDbEntity
  8
0
100
AcDbBlockBegin
 62
2
  6
CONTINUOUS
  2
*D0
 70
65
 10
0.0
 20
0.0
  3
*D0
  1

  0
TEXT
  5
211
100
AcDbEntity
  8
0
100
AcDbText
 62
2
  6
CONTINUOUS
 10
79.0652579162
 20
148.089267418
  7
STANDARD
 40
3.0
  1
174
 41
0.6
 72
0
100
AcDbText
  0
LINE
  5
212
100
AcDbEntity
  8
0
100
AcDbLine
 62
2
  6
CONTINUOUS
 10
115.5030097336
 20
62.3430553934
 11
78.7652579162
 21
62.3430553934
  0
LINE
  5
213
100
AcDbEntity
  8
0
100
AcDbLine
 62
2
  6
CONTINUOUS
 10
187.7801383061
 20
236.8354794426
 11
78.7652579162
 21
236.8354794426
  0
LINE
  5
214
100
AcDbEntity
  8
0
100
AcDbLine
 62
2
  6
CONTINUOUS
 10
81.7652579162
 20
62.3430553934
 11
81.7652579162
 21
146.589267418
  0
LINE
  5
215
100
AcDbEntity
  8
0
100
AcDbLine
 62
2
  6
CONTINUOUS
 10
81.7652579162
 20
236.8354794426
 11
81.7652579162
 21
152.589267418
  0
INSERT
  5
216
100
AcDbEntity
  8
0
100
AcDbBlockReference
 62
2
  6
CONTINUOUS
  2
_FILLED
 10
81.7652579162
 20
62.3430553934
 41
3.0
 42
3.0
 43
3.0
 50
270.0
  0
INSERT
  5
217
100
AcDbEntity
  8
0
100
AcDbBlockReference
 62
2
  6
CONTINUOUS
  2
_FILLED
 10
81.7652579162
 20
236.8354794426
 41
3.0
 42
3.0
 43
3.0
 50
90.0
  0
ENDBLK
  5
218
100
AcDbEntity
  8
0
  6
BYBLOCK
 62
0
100
AcDbBlockEnd
  0
BLOCK
  5
219
100
AcDbEntity
  8
0
100
AcDbBlockBegin
 62
2
  6
CONTINUOUS
  2
*D1
 70
65
 10
0.0
 20
0.0
  3
*D1
  1

  0
TEXT
  5
21A
100
AcDbEntity
  8
0
100
AcDbText
 62
2
  6
CONTINUOUS
 10
173.3030097336
 20
46.9769193875
  7
STANDARD
 40
3.0
  1
121
 41
0.6
 72
0
100
AcDbText
  0
LINE
  5
21B
100
AcDbEntity
  8
0
100
AcDbLine
 62
2
  6
CONTINUOUS
 10
236.4846004531
 20
60.8430553934
 11
236.4846004531
 21
45.4769193875
  0
LINE
  5
21C
100
AcDbEntity
  8
0
100
AcDbLine
 62
2
  6
CONTINUOUS
 10
115.5214190141
 20
60.8430553934
 11
115.5214190141
 21
45.4769193875
  0
LINE
  5
21D
100
AcDbEntity
  8
0
100
AcDbLine
 62
2
  6
CONTINUOUS
 10
236.4846004531
 20
48.4769193875
 11
180.2030097336
 21
48.4769193875
  0
LINE
  5
21E
100
AcDbEntity
  8
0
100
AcDbLine
 62
2
  6
CONTINUOUS
 10
115.5214190141
 20
48.4769193875
 11
171.8030097336
 21
48.4769193875
  0
INSERT
  5
21F
100
AcDbEntity
  8
0
100
AcDbBlockReference
 62
2
  6
CONTINUOUS
  2
_FILLED
 10
236.4846004531
 20
48.4769193875
 41
3.0
 42
3.0
 43
3.0
  0
INSERT
  5
220
100
AcDbEntity
  8
0
100
AcDbBlockReference
 62
2
  6
CONTINUOUS
  2
_FILLED
 10
115.5214190141
 20
48.4769193875
 41
3.0
 42
3.0
 43
3.0
 50
180.0
  0
ENDBLK
  5
221
100
AcDbEntity
  8
0
  6
BYBLOCK
 62
0
100
AcDbBlockEnd
  0
BLOCK
  5
222
100
AcDbEntity
  8
0
100
AcDbBlockBegin
 62
2
  6
CONTINUOUS
  2
*D2
 70
65
 10
0.0
 20
0.0
  3
*D2
  1

  0
TEXT
  5
223
100
AcDbEntity
  8
0
100
AcDbText
 62
2
  6
CONTINUOUS
 10
243.5314728034
 20
218.4502188996
  7
STANDARD
 40
3.0
  1
45%%d
 41
0.6222222222
 72
0
100
AcDbText
  0
LINE
  5
224
100
AcDbEntity
  8
0
100
AcDbLine
 62
2
  6
CONTINUOUS
 10
224.9869707122
 20
189.1037116686
 11
253.3539664325
 21
217.470707389
  0
LINE
  5
225
100
AcDbEntity
  8
0
100
AcDbLine
 62
2
  6
CONTINUOUS
 10
176.0030097336
 20
205.8606773038
 11
176.0030097336
 21
249.5105227162
  0
ARC
  5
226
100
AcDbEntity
  8
0
100
AcDbCircle
 62
2
  6
CONTINUOUS
 10
176.0030097336
 20
140.1197506901
 40
106.3907720261
100
AcDbArc
 50
45.0
 51
46.2325646576
  0
ARC
  5
227
100
AcDbEntity
  8
0
100
AcDbCircle
 62
2
  6
CONTINUOUS
 10
176.0030097336
 20
140.1197506901
 40
106.3907720261
100
AcDbArc
 50
51.1279480268
 51
90.0
  0
SOLID
  5
228
100
AcDbEntity
  8
0
100
AcDbTrace
 62
2
  6
CONTINUOUS
 10
248.5588286276
 20
216.9028348828
 11
251.2326460889
 21
215.3493870454
 12
249.6044296641
 22
217.9783433543
 13
249.6044296641
 23
217.9783433543
  0
SOLID
  5
229
100
AcDbEntity
  8
0
100
AcDbTrace
 62
2
  6
CONTINUOUS
 10
179.0132854423
 20
247.2181526744
 11
176.0030097336
 21
246.5105227162
 12
178.9921376922
 22
245.7183017576
 13
178.9921376922
 23
245.7183017576
  0
ENDBLK
  5
22A
100
AcDbEntity
  8
0
  6
BYBLOCK
 62
0
100
AcDbBlockEnd
  0
BLOCK
  5
22B
100
AcDbEntity
  8
0
100
AcDbBlockBegin
 62
2
  6
CONTINUOUS
  2
*D3
 70
65
 10
0.0
 20
0.0
  3
*D3
  1

  0
TEXT
  5
22C
100
AcDbEntity
  8
0
100
AcDbText
 62
2
  6
CONTINUOUS
 10
191.4200787501
 20
35.7631045136
  7
STANDARD
 40
3.0
  1
157
 41
0.6
 72
0
100
AcDbText
  0
LINE
  5
22D
100
AcDbEntity
  8
0
100
AcDbLine
 62
2
  6
CONTINUOUS
 10
115.5214190141
 20
60.8430553934
 11
115.5214190141
 21
34.2631045136
  0
LINE
  5
22E
100
AcDbEntity
  8
0
100
AcDbLine
 62
2
  6
CONTINUOUS
 10
272.7187384861
 20
151.8968792626
 11
272.7187384861
 21
34.2631045136
  0
LINE
  5
22F
100
AcDbEntity
  8
0
100
AcDbLine
 62
2
  6
CONTINUOUS
 10
115.5214190141
 20
37.2631045136
 11
189.9200787501
 21
37.2631045136
  0
LINE
  5
230
100
AcDbEntity
  8
0
100
AcDbLine
 62
2
  6
CONTINUOUS
 10
272.7187384861
 20
37.2631045136
 11
198.3200787501
 21
37.2631045136
  0
INSERT
  5
231
100
AcDbEntity
  8
0
100
AcDbBlockReference
 62
2
  6
CONTINUOUS
  2
_FILLED
 10
115.5214190141
 20
37.2631045136
 41
3.0
 42
3.0
 43
3.0
 50
180.0
  0
INSERT
  5
232
100
AcDbEntity
  8
0
100
AcDbBlockReference
 62
2
  6
CONTINUOUS
  2
_FILLED
 10
272.7187384861
 20
37.2631045136
 41
3.0
 42
3.0
 43
3.0
  0
ENDBLK
  5
233
100
AcDbEntity
  8
0
  6
BYBLOCK
 62
0
100
AcDbBlockEnd
  0
BLOCK
  5
234
100
AcDbEntity
  8
0
100
AcDbBlockBegin
  2
_FILLED
 70
64
 10
0.0
 20
0.0
  3
_FILLED
  1

  0
SOLID
  5
235
100
AcDbEntity
  8
0
  6
BYBLOCK
 62
0
100
AcDbTrace
 10
0.0
 20
0.0
 11
-1.0
 21
0.25
 12
-1.0
 22
-0.25
 13
-1.0
 23
-0.25
  0
ENDBLK
  5
236
100
AcDbEntity
  8
0
  6
BYBLOCK
 62
0
100
AcDbBlockEnd
  0
ENDSEC
  0
SECTION
  2
ENTITIES
  0
DIMENSION
  5
237
100
AcDbEntity
  8
0
100
AcDbDimension
 62
2
  6
CONTINUOUS
  2
*D0
 10
81.7652579162
 20
236.8354794426
 11
81.7652579162
 21
149.589267418
 70
160
  3
DIMSTYLE_1
100
AcDbAlignedDimension
 13
115.5030097336
 23
62.3430553934
 14
187.7801383061
 24
236.8354794426
 50
90.0
100
AcDbRotatedDimension
  0
DIMENSION
  5
238
100
AcDbEntity
  8
0
100
AcDbDimension
 62
2
  6
CONTINUOUS
  2
*D1
 10
115.5214190141
 20
48.4769193875
 11
176.0030097336
 21
48.4769193875
 70
160
  3
DIMSTYLE_1
100
AcDbAlignedDimension
 13
236.4846004531
 23
60.8430553934
 14
115.5214190141
 24
60.8430553934
 50
180.0
100
AcDbRotatedDimension
  0
DIMENSION
  5
239
100
AcDbEntity
  8
0
100
AcDbDimension
 62
2
  6
CONTINUOUS
  2
*D2
 10
176.0030097336
 20
205.8606773038
 11
246.3314728034
 21
219.9502188996
 70
162
  3
DIMSTYLE_2
100
AcDb2LineAngularDimension
 13
224.9869707122
 23
189.1037116686
 14
253.3539664325
 24
217.470707389
 15
176.0030097336
 25
249.5105227162
 16
216.7169955445
 26
238.4120074131
  0
DIMENSION
  5
23A
100
AcDbEntity
  8
0
100
AcDbDimension
 62
2
  6
CONTINUOUS
  2
*D3
 10
272.7187384861
 20
37.2631045136
 11
194.1200787501
 21
37.2631045136
 70
160
  3
DIMSTYLE_1
100
AcDbAlignedDimension
 13
115.5214190141
 23
60.8430553934
 14
272.7187384861
 24
151.8968792626
100
AcDbRotatedDimension
  0
LINE
  5
23B
100
AcDbEntity
  8
0
100
AcDbLine
 62
7
  6
CONTINUOUS
 10
0.0
 20
0.0
 11
0.0
 21
297.0
  0
LINE
  5
23C
100
AcDbEntity
  8
0
100
AcDbLine
 62
7
  6
CONTINUOUS
 10
0.0
 20
0.0
 11
420.0
 21
0.0
  0
LINE
  5
23D
100
AcDbEntity
  8
0
100
AcDbLine
 62
7
  6
CONTINUOUS
 10
0.0
 20
297.0
 11
420.0
 21
297.0
  0
LINE
  5
23E
100
AcDbEntity
  8
0
100
AcDbLine
 62
7
  6
CONTINUOUS
 10
420.0
 20
0.0
 11
420.0
 21
297.0
  0
LINE
  5
23F
100
AcDbEntity
  8
0
100
AcDbLine
 62
7
  6
CONTINUOUS
 10
115.0030097336
 20
77.1883548551
 11
115.5214190141
 21
62.3430553934
  0
LINE
  5
240
100
AcDbEntity
  8
02___PRT_ALL_AXES
100
AcDbLine
 62
7
  6
CONTINUOUS
 10
117.0030097336
 20
116.3430553934
 11
117.0030097336
 21
78.3430553934
  0
LINE
  5
241
100
AcDbEntity
  8
0
100
AcDbLine
 62
7
  6
CONTINUOUS
 10
236.4846004531
 20
62.3430553934
 11
115.5214190141
 21
62.3430553934
  0
LINE
  5
242
100
AcDbEntity
  8
0
100
AcDbLine
 62
7
  6
CONTINUOUS
 10
127.8162514861
 20
109.3430553934
 11
127.8162514861
 21
105.8430553934
  0
LINE
  5
243
100
AcDbEntity
  8
0
100
AcDbLine
 62
7
  6
CONTINUOUS
 10
136.9897257191
 20
109.3430553934
 11
136.9897257191
 21
105.8430553934
  0
LINE
  5
244
100
AcDbEntity
  8
02___PRT_ALL_AXES
100
AcDbLine
 62
7
  6
CONTINUOUS
 10
189.2801383061
 20
236.8354794426
 11
151.0963721221
 21
198.6517132585
  0
LINE
  5
245
100
AcDbEntity
  8
0
100
AcDbLine
 62
7
  6
CONTINUOUS
 10
237.0030097336
 20
77.1883548551
 11
115.0030097336
 21
77.1883548551
  0
LINE
  5
246
100
AcDbEntity
  8
0
100
AcDbLine
 62
7
  6
CONTINUOUS
 10
235.0030097336
 20
78.3430553934
 11
117.0030097336
 21
78.3430553934
  0
LINE
  5
247
100
AcDbEntity
  8
0
100
AcDbLine
 62
7
  6
CONTINUOUS
 10
141.9583871098
 20
109.3430553934
 11
141.9583871098
 21
105.8430553934
  0
LINE
  5
248
100
AcDbEntity
  8
02___PRT_ALL_AXES
100
AcDbLine
 62
7
  6
CONTINUOUS
 10
151.0963721221
 20
198.6517132585
 11
150.5612908818
 21
192.5357066961
  0
LINE
  5
249
100
AcDbEntity
  8
02___PRT_ALL_AXES
100
AcDbLine
 62
7
  6
CONTINUOUS
 10
120.9493198742
 20
121.046084681
 11
117.0030097336
 21
116.3430553934
  0
LINE
  5
24A
100
AcDbEntity
  8
0
100
AcDbLine
 62
7
  6
CONTINUOUS
 10
224.1897679811
 20
105.8430553934
 11
210.0476323574
 21
105.8430553934
  0
LINE
  5
24B
100
AcDbEntity
  8
0
100
AcDbLine
 62
7
  6
CONTINUOUS
 10
141.9583871098
 20
105.8430553934
 11
127.8162514861
 21
105.8430553934
  0
LINE
  5
24C
100
AcDbEntity
  8
0
100
AcDbLine
 62
7
  6
CONTINUOUS
 10
235.0030097336
 20
78.3430553934
 11
237.0030097336
 21
77.1883548551
  0
LINE
  5
24D
100
AcDbEntity
  8
0
100
AcDbLine
 62
7
  6
CONTINUOUS
 10
224.1897679811
 20
109.3430553934
 11
210.0476323574
 21
109.3430553934
  0
LINE
  5
24E
100
AcDbEntity
  8
0
100
AcDbLine
 62
7
  6
CONTINUOUS
 10
141.9583871098
 20
109.3430553934
 11
127.8162514861
 21
109.3430553934
  0
LINE
  5
24F
100
AcDbEntity
  8
02___PRT_ALL_AXES
100
AcDbLine
 62
7
  6
CONTINUOUS
 10
233.4050299872
 20
116.3430553934
 11
117.0030097336
 21
116.3430553934
  0
LINE
  5
250
100
AcDbEntity
  8
02___PRT_ALL_AXES
100
AcDbLine
 62
7
  6
CENTER
 10
176.0030097336
 20
59.8430553934
 11
176.0030097336
 21
222.4980623906
  0
LINE
  5
251
100
AcDbEntity
  8
02___PRT_ALL_AXES
100
AcDbLine
 62
7
  6
CONTINUOUS
 10
135.9869071563
 20
121.3430553934
 11
165.2066250939
 21
121.3430553934
  0
LINE
  5
252
100
AcDbEntity
  8
02___PRT_ALL_AXES
100
AcDbLine
 62
7
  6
CENTER
 10
232.7672053491
 20
196.8839463056
 11
171.1807089197
 21
135.2974498762
  0
LINE
  5
253
100
AcDbEntity
  8
02___PRT_ALL_AXES
100
AcDbLine
 62
7
  6
CONTINUOUS
 10
181.6459415151
 20
161.0310760536
 11
160.9844808171
 21
181.6925367517
  0
LINE
  5
254
100
AcDbEntity
  8
02___PRT_ALL_AXES
100
AcDbLine
 62
7
  6
CONTINUOUS
 10
233.4050299872
 20
116.3430553934
 11
151.0963721221
 21
198.6517132585
  0
LINE
  5
255
100
AcDbEntity
  8
0
100
AcDbLine
 62
7
  6
CONTINUOUS
 10
210.0476323574
 20
109.3430553934
 11
210.0476323574
 21
105.8430553934
  0
LINE
  5
256
100
AcDbEntity
  8
0
100
AcDbLine
 62
7
  6
CONTINUOUS
 10
215.0162937481
 20
109.3430553934
 11
215.0162937481
 21
105.8430553934
  0
LINE
  5
257
100
AcDbEntity
  8
0
100
AcDbLine
 62
7
  6
CONTINUOUS
 10
224.1897679811
 20
109.3430553934
 11
224.1897679811
 21
105.8430553934
  0
LINE
  5
258
100
AcDbEntity
  8
0
100
AcDbLine
 62
7
  6
CONTINUOUS
 10
117.0030097336
 20
78.3430553934
 11
115.0030097336
 21
77.1883548551
  0
LINE
  5
259
100
AcDbEntity
  8
02___PRT_ALL_AXES
100
AcDbLine
 62
7
  6
CONTINUOUS
 10
235.0030097336
 20
115.6811505101
 11
235.0030097336
 21
78.3430553934
  0
LINE
  5
25A
100
AcDbEntity
  8
0
100
AcDbLine
 62
7
  6
CONTINUOUS
 10
237.0030097336
 20
77.1883548551
 11
236.4846004531
 21
62.3430553934
  0
LINE
  5
25B
100
AcDbEntity
  8
02___PRT_ALL_AXES
100
AcDbLine
 62
7
  6
CONTINUOUS
 10
272.7187384861
 20
153.3968792626
 11
235.0030097336
 21
115.6811505101
  0
LINE
  5
25C
100
AcDbEntity
  8
02___PRT_ALL_AXES
100
AcDbLine
 62
7
  6
CONTINUOUS
 10
272.7187384861
 20
153.3968792626
 11
189.2801383061
 21
236.8354794426
  0
ARC
  5
25D
100
AcDbEntity
  8
02___PRT_ALL_AXES
100
AcDbCircle
 62
7
  6
CONTINUOUS
 10
301.0030097336
 20
88.3430553934
 40
183.0
100
AcDbArc
 50
145.2959888203
 51
169.7040111797
  0
SPLINE
  5
25E
100
AcDbEntity
  8
02___PRT_ALL_AXES
100
AcDbSpline
 62
7
  6
CONTINUOUS
 70
0
 71
3
 72
29
 73
25
 74
23
 42
0.0000001
 43
0.0000001
 44
0.0000000001
 12
64.4735587584
 22
-0.924924429
 32
0.0
 13
64.163503226
 23
-6.3827985974
 33
0.0
 40
0.0
 40
0.0
 40
0.0
 40
0.0
 40
0.0544448266
 40
0.1095346178
 40
0.1650985922
 40
0.2208194234
 40
0.2763866268
 40
0.331610734
 40
0.3863838989
 40
0.4404410933
 40
0.4934635941
 40
0.5451698646
 40
0.5954603675
 40
0.6441747429
 40
0.6910325309
 40
0.7357690728
 40
0.7781955928
 40
0.8182257856
 40
0.8556617222
 40
0.8904001623
 40
0.9222982618
 40
0.951251915
 40
0.9771795789
 40
1.0
 40
1.0
 40
1.0
 40
1.0
 10
165.2066250939
 20
121.3430553934
 30
0.0
 10
166.3767090039
 20
121.32626961
 30
0.0
 10
168.7306786902
 20
121.288209972
 30
0.0
 10
172.2785135245
 20
121.2175787301
 30
0.0
 10
175.8534688342
 20
121.1326246983
 30
0.0
 10
179.4383177017
 20
121.0332446318
 30
0.0
 10
183.0154349417
 20
120.9196133278
 30
0.0
 10
186.5716996602
 20
120.7920096593
 30
0.0
 10
190.0949718537
 20
120.6508640727
 30
0.0
 10
193.5703424606
 20
120.4969227357
 30
0.0
 10
196.9791852314
 20
120.3313743602
 30
0.0
 10
200.3064431566
 20
120.1555357199
 30
0.0
 10
203.5404740345
 20
119.9707715677
 30
0.0
 10
206.6696740745
 20
119.7786265063
 30
0.0
 10
209.6789166967
 20
119.5810816489
 30
0.0
 10
212.5524906558
 20
119.38041913
 30
0.0
 10
215.2788726733
 20
119.1788575781
 30
0.0
 10
217.847991413
 20
118.9786616887
 30
0.0
 10
220.2516287019
 20
118.7820738022
 30
0.0
 10
222.480374455
 20
118.5915317144
 30
0.0
 10
224.526845213
 20
118.4093717891
 30
0.0
 10
226.3841359524
 20
118.2379191073
 30
0.0
 10
228.0466691961
 20
118.0793660026
 30
0.0
 10
229.0894221866
 20
117.9770222901
 30
0.0
 10
229.5775015731
 20
117.9284695729
 30
0.0
 11
165.2066250939
 21
121.3430553934
 31
0.0
 11
168.7167785556
 21
121.2862597493
 31
0.0
 11
172.2682742859
 21
121.2155104693
 31
0.0
 11
175.8500377378
 21
121.1303466789
 31
0.0
 11
179.4415464628
 21
121.0307314364
 31
0.0
 11
183.0227223613
 21
120.9169183484
 31
0.0
 11
186.5812914231
 21
120.7891768402
 31
0.0
 11
190.1102427109
 21
120.647746097
 31
0.0
 11
193.5924439492
 21
120.4934424463
 31
0.0
 11
197.0073174364
 21
120.327540074
 31
0.0
 11
200.3366983996
 21
120.1515275616
 31
0.0
 11
203.5741569978
 21
119.9665056689
 31
0.0
 11
206.7093605596
 21
119.7739304722
 31
0.0
 11
209.7242666095
 21
119.5759539885
 31
0.0
 11
212.6018760216
 21
119.3749527612
 31
0.0
 11
215.3300967159
 21
119.1732023181
 31
0.0
 11
217.9034464532
 21
118.9726283218
 31
0.0
 11
220.3092861734
 21
118.7758173458
 31
0.0
 11
222.5410830215
 21
118.5849773158
 31
0.0
 11
224.5897759122
 21
118.4025886957
 31
0.0
 11
226.4488064856
 21
118.2309506712
 31
0.0
 11
228.1130742303
 21
118.0722132445
 31
0.0
 11
229.5775015731
 21
117.9284695729
 31
0.0
  0
SPLINE
  5
25F
100
AcDbEntity
  8
02___PRT_ALL_AXES
100
AcDbSpline
 62
7
  6
CONTINUOUS
 70
0
 71
3
 72
11
 73
7
 74
5
 42
0.0000001
 43
0.0000001
 44
0.0000000001
 12
1.5979797464
 22
-0.6619048834
 32
0.0
 13
1.5979797464
 23
-0.6619048834
 33
0.0
 40
0.0
 40
0.0
 40
0.0
 40
0.0
 40
0.4371271257
 40
0.7499089927
 40
0.9375572425
 40
1.0
 40
1.0
 40
1.0
 40
1.0
 10
233.4050299872
 20
116.3430553934
 30
0.0
 10
233.637870085
 20
116.2466098671
 30
0.0
 10
234.0373165457
 20
116.0811537256
 30
0.0
 10
234.5367157072
 20
115.8742958198
 30
0.0
 10
234.8365355249
 20
115.7501063851
 30
0.0
 10
234.9697489797
 20
115.6949275654
 30
0.0
 10
235.0030097336
 20
115.6811505101
 30
0.0
 11
233.4050299872
 21
116.3430553934
 31
0.0
 11
234.1035502807
 21
116.0537188143
 31
0.0
 11
234.6033693692
 21
115.8466869691
 31
0.0
 11
234.9032274718
 21
115.7224816762
 31
0.0
 11
235.0030097336
 21
115.6811505101
 31
0.0
  0
SPLINE
  5
260
100
AcDbEntity
  8
02___PRT_ALL_AXES
100
AcDbSpline
 62
7
  6
CONTINUOUS
 70
0
 71
3
 72
18
 73
14
 74
12
 42
0.0000001
 43
0.0000001
 44
0.0000000001
 12
-15.0103442955
 22
-0.2028854743
 32
0.0
 13
-0.0000000555
 23
-0.0000000014
 33
0.0
 40
0.0
 40
0.0
 40
0.0
 40
0.0
 40
0.1611448948
 40
0.3095705572
 40
0.4447186204
 40
0.5660896342
 40
0.6732422
 40
0.7657924459
 40
0.8434131262
 40
0.9058329872
 40
0.9528360304
 40
0.9842608139
 40
1.0
 40
1.0
 40
1.0
 40
1.0
 10
135.9869071563
 20
121.3430553934
 30
0.0
 10
135.1806270388
 20
121.3321574073
 30
0.0
 10
133.6317206432
 20
121.3095973345
 30
0.0
 10
131.4067253365
 20
121.2727855519
 30
0.0
 10
129.3806603233
 20
121.2356504939
 30
0.0
 10
127.5615567378
 20
121.19942185
 30
0.0
 10
125.9543242512
 20
121.1651649251
 30
0.0
 10
124.5698920579
 20
121.1340045241
 30
0.0
 10
123.3979891829
 20
121.1064126292
 30
0.0
 10
122.4848385741
 20
121.0842065013
 30
0.0
 10
121.725251414
 20
121.065175954
 30
0.0
 10
121.36705631
 20
121.0561008076
 30
0.0
 10
120.9782226685
 20
121.046084681
 30
0.0
 10
120.9782226683
 20
121.046084681
 30
0.0
 11
135.9869071563
 21
121.3430553934
 31
0.0
 11
133.5681021994
 21
121.3078399694
 31
0.0
 11
131.3402830986
 21
121.2709928533
 31
0.0
 11
129.311819355
 21
121.2338235027
 31
0.0
 11
127.4901933717
 21
121.1975493091
 31
0.0
 11
125.8820146159
 21
121.1632811529
 31
0.0
 11
124.4930286007
 21
121.1320115562
 31
0.0
 11
123.3281313856
 21
121.10460537
 31
0.0
 11
122.3913799407
 21
121.0817924934
 31
0.0
 11
121.6860039213
 21
121.0641624423
 31
0.0
 11
121.2144167182
 21
121.0521604371
 31
0.0
 11
120.9782226683
 21
121.046084681
 31
0.0
  0
SPLINE
  5
261
100
AcDbEntity
  8
02___PRT_ALL_AXES
100
AcDbSpline
 62
7
  6
CONTINUOUS
 70
0
 71
3
 72
18
 73
14
 74
12
 42
0.0000001
 43
0.0000001
 44
0.0000000001
 12
-10.4704545442
 22
10.7573779335
 32
0.0
 13
0.0
 23
0.0
 33
0.0
 40
0.0
 40
0.0
 40
0.0
 40
0.0
 40
0.1611448911
 40
0.3095705551
 40
0.4447186225
 40
0.5660896333
 40
0.6732421995
 40
0.7657924454
 40
0.8434131264
 40
0.9058329872
 40
0.9528360302
 40
0.9842608138
 40
1.0
 40
1.0
 40
1.0
 40
1.0
 10
160.9844808171
 20
181.6925367517
 30
0.0
 10
160.4220607311
 20
182.270368917
 30
0.0
 10
159.3427709029
 20
183.3815635059
 30
0.0
 10
157.7954914874
 20
184.9809026437
 30
0.0
 10
156.3891056192
 20
186.439805415
 30
0.0
 10
155.1284226527
 20
187.7517234213
 30
0.0
 10
154.0161609754
 20
188.912431706
 30
0.0
 10
153.0592533106
 20
189.9134068326
 30
0.0
 10
152.250103255
 20
190.7615777202
 30
0.0
 10
151.6201103697
 20
191.4229748128
 30
0.0
 10
151.0964577683
 20
191.9735406724
 30
0.0
 10
150.8495926792
 20
192.2332399566
 30
0.0
 10
150.5817282437
 20
192.5152693342
 30
0.0
 10
150.5817282437
 20
192.5152693342
 30
0.0
 11
160.9844808171
 21
181.6925367517
 31
0.0
 11
159.2990285331
 21
183.4277911647
 31
0.0
 11
157.7497773683
 21
185.0291520213
 31
0.0
 11
156.3417195575
 21
186.4897752335
 31
0.0
 11
155.0792852303
 21
187.803509016
 31
0.0
 11
153.9663623686
 21
188.9648943691
 31
0.0
 11
153.0063118828
 21
189.9691667425
 31
0.0
 11
152.2019842547
 21
190.8122525713
 31
0.0
 11
151.5557320979
 21
191.4907670074
 31
0.0
 11
151.0694222619
 21
192.0020095007
 31
0.0
 11
150.7444464512
 21
192.34395871
 31
0.0
 11
150.5817282437
 21
192.5152693342
 31
0.0
  0
SPLINE
  5
262
100
AcDbEntity
  8
02___PRT_ALL_AXES
100
AcDbSpline
 62
7
  6
CONTINUOUS
 70
0
 71
3
 72
11
 73
7
 74
5
 42
0.0000001
 43
0.0000001
 44
0.0000000001
 12
3.827528414
 22
-1.5854141795
 32
0.0
 13
3.827528414
 23
-1.5854141795
 33
0.0
 40
0.0
 40
0.0
 40
0.0
 40
0.0
 40
0.2944194697
 40
0.5589416047
 40
0.7939536805
 40
1.0
 40
1.0
 40
1.0
 40
1.0
 10
229.5775015731
 20
117.9284695729
 30
0.0
 10
229.9531345351
 20
117.7728773056
 30
0.0
 10
230.6662561598
 20
117.477492657
 30
0.0
 10
231.6792162503
 20
117.0579108494
 30
0.0
 10
232.579426093
 20
116.6850317236
 30
0.0
 10
233.142147273
 20
116.451944979
 30
0.0
 10
233.4050299872
 20
116.3430553934
 30
0.0
 11
229.5775015731
 21
117.9284695729
 31
0.0
 11
230.7044004591
 21
117.4616927709
 31
0.0
 11
231.7168664471
 21
117.0423156272
 31
0.0
 11
232.6163818447
 21
116.66972415
 31
0.0
 11
233.4050299872
 21
116.3430553934
 31
0.0
  0
SPLINE
  5
263
100
AcDbEntity
  8
02___PRT_ALL_AXES
100
AcDbSpline
 62
7
  6
CONTINUOUS
 70
0
 71
3
 72
29
 73
25
 74
23
 42
0.0000001
 43
0.0000001
 44
0.0000000001
 12
-49.8837684069
 22
40.8571280646
 32
0.0
 13
-46.2437109412
 23
44.9356702694
 33
0.0
 40
0.0
 40
0.0
 40
0.0
 40
0.0
 40
0.0228203188
 40
0.0487480095
 40
0.0777015101
 40
0.1095996974
 40
0.1443382656
 40
0.1817739485
 40
0.2218046855
 40
0.264230141
 40
0.3089672897
 40
0.3558250588
 40
0.4045396569
 40
0.4548289191
 40
0.506536586
 40
0.5595588341
 40
0.6136158908
 40
0.6683876016
 40
0.7236122976
 40
0.7791806405
 40
0.8349006293
 40
0.8904638364
 40
0.9455559839
 40
1.0
 40
1.0
 40
1.0
 40
1.0
 10
229.5775015731
 20
117.9284695729
 30
0.0
 10
229.1980470733
 20
118.2392604692
 30
0.0
 10
228.3883426811
 20
118.9042292109
 30
0.0
 10
227.1006439448
 20
119.9677006311
 30
0.0
 10
225.6661063252
 20
121.1597676057
 30
0.0
 10
224.0902253865
 20
122.4780352804
 30
0.0
 10
222.3795311586
 20
123.9192623768
 30
0.0
 10
220.5408874213
 20
125.4798877733
 30
0.0
 10
218.5826989099
 20
127.1549583738
 30
0.0
 10
216.5123287041
 20
128.9402772097
 30
0.0
 10
214.3385228909
 20
130.8303041971
 30
0.0
 10
212.070968584
 20
132.8184862013
 30
0.0
 10
209.7224396206
 20
134.8952829118
 30
0.0
 10
207.3049802922
 20
137.0514453799
 30
0.0
 10
204.8279184117
 20
139.2798338281
 30
0.0
 10
202.3004261906
 20
141.5732038283
 30
0.0
 10
199.7341443226
 20
143.9217821956
 30
0.0
 10
197.1430253313
 20
146.313292043
 30
0.0
 10
194.5381324495
 20
148.7377252715
 30
0.0
 10
191.9283651512
 20
151.186792598
 30
0.0
 10
189.3232291639
 20
153.6513842116
 30
0.0
 10
186.7352706347
 20
156.1191986431
 30
0.0
 10
184.1766166097
 20
158.5779644137
 30
0.0
 10
182.4851726291
 20
160.2155832687
 30
0.0
 10
181.6459415151
 20
161.0310760536
 30
0.0
 11
229.5775015731
 21
117.9284695729
 31
0.0
 11
228.440358032
 21
118.8623297628
 31
0.0
 11
227.1512973782
 21
119.9269015409
 31
0.0
 11
225.7154053866
 21
121.1200619456
 31
0.0
 11
224.1377881558
 21
122.4397419499
 31
0.0
 11
222.4247188615
 21
123.8829216652
 31
0.0
 11
220.5843793532
 21
125.4449302606
 31
0.0
 11
218.6228924037
 21
127.1227588895
 31
0.0
 11
216.551141885
 21
128.9091982623
 31
0.0
 11
214.3742058111
 21
130.8018716367
 31
0.0
 11
212.1023556695
 21
132.793740791
 31
0.0
 11
209.7492499687
 21
134.8745027579
 31
0.0
 11
207.3292504021
 21
137.0328480795
 31
0.0
 11
204.8504958699
 21
139.2626764043
 31
0.0
 11
202.3185170536
 21
141.560034975
 31
0.0
 11
199.7471263116
 21
143.9132079027
 31
0.0
 11
197.1518430139
 21
146.3084828768
 31
0.0
 11
194.5451997768
 21
148.734469897
 31
0.0
 11
191.9323943304
 21
151.1863158408
 31
0.0
 11
189.3224149392
 21
153.6554200051
 31
0.0
 11
186.7295414243
 21
156.1278549819
 31
0.0
 11
184.1681177985
 21
158.5892196082
 31
0.0
 11
181.6459415151
 21
161.0310760536
 31
0.0
  0
ENDSEC
  0
SECTION
  2
OBJECTS
  0
DICTIONARY
  5
264
100
AcDbDictionary
  3
ACAD_GROUP
350
265
  3
ACAD_MLINESTYLE
350
266
  0
DICTIONARY
  5
265
102
{ACAD_REACTORS
330
264
102
}
100
AcDbDictionary
  0
DICTIONARY
  5
266
102
{ACAD_REACTORS
330
264
102
}
100
AcDbDictionary
  3
STANDARD
350
267
  0
MLINESTYLE
  5
267
102
{ACAD_REACTORS
330
266
102
}
100
AcDbMlineStyle
  2
STANDARD
 70
0
  3

 62
256
 51
90.0
 52
90.0
 71
2
 49
0.5
 62
256
  6
BYLAYER
 49
-0.5
 62
256
  6
BYLAYER
  0
ENDSEC
  0
EOF
