999
DXF file: 159-100-100p_gully.dxf
999
Pro/ENGINEER 2006320 by Parametric Technology Corporation
  0
SECTION
  2
HEADER
  9
$EXTMAX
 10
594.0
 20
420.0
 30
0.0
  9
$EXTMIN
 10
0.0
 20
0.0
 30
0.0
  9
$LIMMIN
 10
0.0
 20
0.0
  9
$LIMMAX
 10
594.0
 20
420.0
  9
$VIEWCTR
 10
297.0
 20
210.0
  9
$VIEWSIZE
 40
420.0
  9
$CLAYER
  8
0
  9
$LTSCALE
 40
32.67
  9
$CELTYPE
  6
BYLAYER
  9
$DIMSCALE
 40
1.0
  9
$DIMASZ
 40
3.0
  9
$DIMEXO
 40
3.7125
  9
$DIMDLI
 40
22.572
  9
$DIMEXE
 40
10.692
  9
$DIMCEN
 40
5.346
  9
$DIMLFAC
 40
1.0
  9
$DIMBLK
  1
_FILLED
  9
$DIMTXT
 40
3.0
  9
$PDMODE
 70
3
  9
$PDSIZE
 40
0.3125
  0
ENDSEC
  0
SECTION
  2
TABLES
  0
TABLE
  2
LTYPE
 70
6
  0
LTYPE
  2
BYBLOCK
 70
0
  3

 72
65
 73
0
 40
0.0
  0
LTYPE
  2
BYLAYER
 70
0
  3

 72
65
 73
0
 40
0.0
  0
LTYPE
  2
CONTINUOUS
 70
64
  3
Solid line
 72
65
 73
0
 40
0.0
  0
LTYPE
  2
CENTER
 70
64
  3
____ _ ____ _ ____ _ ____ _ ____ _ ____ _ ____
 72
65
 73
4
 40
0.6
 49
0.375
 49
-0.075
 49
0.075
 49
-0.075
  0
LTYPE
  2
HIDDEN
 70
64
  3
- - - - - - - - - - - - - - - - - - - -
 72
65
 73
2
 40
0.2
 49
0.1
 49
-0.1
  0
LTYPE
  2
PHANTOM
 70
64
  3
_____ _ _ _____ _ _ _____ _ _ _____
 72
65
 73
6
 40
0.8
 49
0.45
 49
-0.05
 49
0.1
 49
-0.05
 49
0.1
 49
-0.05
  0
LTYPE
  2
DOT
 70
64
  3
. . . . . . . . . . . . . . . . . . . .
 72
65
 73
2
 40
0.2
 49
0.1
 49
-0.1
  0
LTYPE
  2
DASHED
 70
64
  3
- - - - - - - - - - - - - - - - - - - -
 72
65
 73
2
 40
0.2
 49
0.1
 49
-0.1
  0
ENDTAB
  0
TABLE
  2
LAYER
 70
36
  0
LAYER
  2
0
 70
0
 62
7
  6
CONTINUOUS
  0
LAYER
  2
DEFAULT_1
 70
0
 62
7
  6
CENTER
  0
LAYER
  2
DEFAULT_2
 70
0
 62
8
  6
HIDDEN
  0
LAYER
  2
DEFAULT_3
 70
0
 62
7
  6
PHANTOM
  0
LAYER
  2
_2D_DELETED_OBJS
 70
0
 62
7
  6
CONTINUOUS
  0
LAYER
  2
01___PRT_ALL_DTM_PLN
 70
0
 62
7
  6
CONTINUOUS
  0
LAYER
  2
01___PRT_DEF_DTM_PLN
 70
0
 62
7
  6
CONTINUOUS
  0
LAYER
  2
02___PRT_ALL_AXES
 70
0
 62
7
  6
CONTINUOUS
  0
LAYER
  2
03___PRT_ALL_CURVES
 70
0
 62
7
  6
CONTINUOUS
  0
LAYER
  2
04___PRT_ALL_DTM_PNT
 70
0
 62
7
  6
CONTINUOUS
  0
LAYER
  2
05___PRT_ALL_DTM_CSYS
 70
0
 62
7
  6
CONTINUOUS
  0
LAYER
  2
05___PRT_DEF_DTM_CSYS
 70
0
 62
7
  6
CONTINUOUS
  0
LAYER
  2
06___PRT_ALL_SURFS
 70
0
 62
7
  6
CONTINUOUS
  0
LAYER
  2
CURVES
 70
0
 62
7
  6
CONTINUOUS
  0
LAYER
  2
DATUM_POINT
 70
0
 62
7
  6
CONTINUOUS
  0
ENDTAB
  0
TABLE
  2
STYLE
 70
1
  0
STYLE
  2
STANDARD
 70
0
 40
0.0
 41
0.6
 50
0.0
 71
0
 42
0.2
  3
txt
  4

  0
ENDTAB
  0
ENDSEC
  0
SECTION
  2
BLOCKS
  0
BLOCK
  8
0
 62
7
  6
CONTINUOUS
  2
*D0
 70
65
 10
0.0
 20
0.0
  0
TEXT
  8
0
 62
7
  6
CONTINUOUS
 10
316.7417488694
 20
55.5872510975
  7
STANDARD
 40
3.0
  1
240
 41
0.6
 72
0
  0
LINE
  8
0
 62
7
  6
CONTINUOUS
 10
199.4417488694
 20
179.5608065958
 11
199.4417488694
 21
54.0872510975
  0
LINE
  8
0
 62
7
  6
CONTINUOUS
 10
439.4417488694
 20
179.5608065958
 11
439.4417488694
 21
54.0872510975
  0
LINE
  8
0
 62
7
  6
CONTINUOUS
 10
199.4417488694
 20
57.0872510975
 11
315.2417488694
 21
57.0872510975
  0
LINE
  8
0
 62
7
  6
CONTINUOUS
 10
439.4417488694
 20
57.0872510975
 11
323.6417488694
 21
57.0872510975
  0
INSERT
  8
0
 62
7
  6
CONTINUOUS
  2
_FILLED
 10
199.4417488694
 20
57.0872510975
 41
3.0
 42
3.0
 43
3.0
 50
180.0
  0
INSERT
  8
0
 62
7
  6
CONTINUOUS
  2
_FILLED
 10
439.4417488694
 20
57.0872510975
 41
3.0
 42
3.0
 43
3.0
  0
ENDBLK
  8
0
  6
BYBLOCK
 62
0
  0
BLOCK
  8
0
 62
7
  6
CONTINUOUS
  2
*D1
 70
65
 10
0.0
 20
0.0
  0
TEXT
  8
0
 62
7
  6
CONTINUOUS
 10
290.2666842708
 20
42.4244972629
  7
STANDARD
 40
3.0
  1
293
 41
0.6
 72
0
  0
LINE
  8
0
 62
7
  6
CONTINUOUS
 10
439.4417488694
 20
179.5608065958
 11
439.4417488694
 21
40.9244972629
  0
LINE
  8
0
 62
7
  6
CONTINUOUS
 10
146.4916196722
 20
345.2075938681
 11
146.4916196722
 21
40.9244972629
  0
LINE
  8
0
 62
7
  6
CONTINUOUS
 10
439.4417488694
 20
43.9244972629
 11
297.1666842708
 21
43.9244972629
  0
LINE
  8
0
 62
7
  6
CONTINUOUS
 10
146.4916196722
 20
43.9244972629
 11
288.7666842708
 21
43.9244972629
  0
INSERT
  8
0
 62
7
  6
CONTINUOUS
  2
_FILLED
 10
439.4417488694
 20
43.9244972629
 41
3.0
 42
3.0
 43
3.0
  0
INSERT
  8
0
 62
7
  6
CONTINUOUS
  2
_FILLED
 10
146.4916196722
 20
43.9244972629
 41
3.0
 42
3.0
 43
3.0
 50
180.0
  0
ENDBLK
  8
0
  6
BYBLOCK
 62
0
  0
BLOCK
  8
0
 62
7
  6
CONTINUOUS
  2
*D2
 70
65
 10
0.0
 20
0.0
  0
TEXT
  8
0
 62
7
  6
CONTINUOUS
 10
467.9428448062
 20
150.3103945368
  7
STANDARD
 40
3.0
  1
167
 41
0.6
 72
0
  0
LINE
  8
0
 62
7
  6
CONTINUOUS
 10
440.9417488694
 20
235.0922321549
 11
473.6428448062
 21
235.0922321549
  0
LINE
  8
0
 62
7
  6
CONTINUOUS
 10
320.9417488694
 20
68.5285569187
 11
473.6428448062
 21
68.5285569187
  0
LINE
  8
0
 62
7
  6
CONTINUOUS
 10
470.6428448062
 20
235.0922321549
 11
470.6428448062
 21
154.8103945368
  0
LINE
  8
0
 62
7
  6
CONTINUOUS
 10
470.6428448062
 20
68.5285569187
 11
470.6428448062
 21
148.8103945368
  0
INSERT
  8
0
 62
7
  6
CONTINUOUS
  2
_FILLED
 10
470.6428448062
 20
235.0922321549
 41
3.0
 42
3.0
 43
3.0
 50
90.0
  0
INSERT
  8
0
 62
7
  6
CONTINUOUS
  2
_FILLED
 10
470.6428448062
 20
68.5285569187
 41
3.0
 42
3.0
 43
3.0
 50
270.0
  0
ENDBLK
  8
0
  6
BYBLOCK
 62
0
  0
BLOCK
  8
0
 62
7
  6
CONTINUOUS
  2
*D3
 70
65
 10
0.0
 20
0.0
  0
TEXT
  8
0
 62
7
  6
CONTINUOUS
 10
110.9331134041
 20
206.990562811
  7
STANDARD
 40
3.0
  1
280
 41
0.6
 72
0
  0
LINE
  8
0
 62
7
  6
CONTINUOUS
 10
317.9417488694
 20
68.5285569187
 11
110.6331134041
 21
68.5285569187
  0
LINE
  8
0
 62
7
  6
CONTINUOUS
 10
194.9611610232
 20
348.4525687033
 11
110.6331134041
 21
348.4525687033
  0
LINE
  8
0
 62
7
  6
CONTINUOUS
 10
113.6331134041
 20
68.5285569187
 11
113.6331134041
 21
205.490562811
  0
LINE
  8
0
 62
7
  6
CONTINUOUS
 10
113.6331134041
 20
348.4525687033
 11
113.6331134041
 21
211.490562811
  0
INSERT
  8
0
 62
7
  6
CONTINUOUS
  2
_FILLED
 10
113.6331134041
 20
68.5285569187
 41
3.0
 42
3.0
 43
3.0
 50
270.0
  0
INSERT
  8
0
 62
7
  6
CONTINUOUS
  2
_FILLED
 10
113.6331134041
 20
348.4525687033
 41
3.0
 42
3.0
 43
3.0
 50
90.0
  0
ENDBLK
  8
0
  6
BYBLOCK
 62
0
  0
BLOCK
  8
0
 62
7
  6
CONTINUOUS
  2
*D4
 70
65
 10
0.0
 20
0.0
  0
TEXT
  8
0
 62
7
  6
CONTINUOUS
 10
297.7676881514
 20
335.2046168507
  7
STANDARD
 40
3.0
  1
88%%d
 41
0.6222222222
 72
0
  0
LINE
  8
0
 62
7
  6
CONTINUOUS
 10
297.5402593951
 20
293.4466702565
 11
322.4843304556
 21
294.3177364122
  0
LINE
  8
0
 62
7
  6
CONTINUOUS
 10
257.4417488694
 20
336.6342623596
 11
257.4417488694
 21
357.1286273344
  0
ARC
  8
0
 62
7
  6
CONTINUOUS
 10
257.4417488694
 20
292.0463994134
 40
62.0822279209
 50
2.0
 51
42.1455898998
  0
ARC
  8
0
 62
7
  6
CONTINUOUS
 10
257.4417488694
 20
292.0463994134
 40
62.0822279209
 50
50.144472495
 51
90.0
  0
SOLID
  8
0
 62
7
  6
CONTINUOUS
 10
318.5603647441
 20
297.1635305749
 11
319.4861579745
 21
294.213037922
 12
320.0577487255
 22
297.2520811948
 13
320.0577487255
 23
297.2520811948
  0
SOLID
  8
0
 62
7
  6
CONTINUOUS
 10
260.4589926096
 20
354.8059309684
 11
257.4417488694
 21
354.1286273344
 12
260.4227538797
 22
353.3063687808
 13
260.4227538797
 23
353.3063687808
  0
ENDBLK
  8
0
  6
BYBLOCK
 62
0
  0
BLOCK
  8
0
 62
7
  6
CONTINUOUS
  2
*D5
 70
65
 10
0.0
 20
0.0
  0
TEXT
  8
0
 62
7
  6
CONTINUOUS
 10
378.7417488694
 20
250.4858899594
  7
STANDARD
 40
3.0
  1
116
 41
0.6
 72
0
  0
LINE
  8
0
 62
7
  6
CONTINUOUS
 10
323.4417488694
 20
236.5922321549
 11
323.4417488694
 21
254.9858899594
  0
LINE
  8
0
 62
7
  6
CONTINUOUS
 10
439.4417488694
 20
236.5922321549
 11
439.4417488694
 21
254.9858899594
  0
LINE
  8
0
 62
7
  6
CONTINUOUS
 10
323.4417488694
 20
251.9858899594
 11
377.2417488694
 21
251.9858899594
  0
LINE
  8
0
 62
7
  6
CONTINUOUS
 10
439.4417488694
 20
251.9858899594
 11
385.6417488694
 21
251.9858899594
  0
INSERT
  8
0
 62
7
  6
CONTINUOUS
  2
_FILLED
 10
323.4417488694
 20
251.9858899594
 41
3.0
 42
3.0
 43
3.0
 50
180.0
  0
INSERT
  8
0
 62
7
  6
CONTINUOUS
  2
_FILLED
 10
439.4417488694
 20
251.9858899594
 41
3.0
 42
3.0
 43
3.0
  0
ENDBLK
  8
0
  6
BYBLOCK
 62
0
  0
BLOCK
  8
0
 62
7
  6
CONTINUOUS
  2
*D6
 70
65
 10
0.0
 20
0.0
  0
TEXT
  8
0
 62
7
  6
CONTINUOUS
 10
120.9346699712
 20
285.8737532548
  7
STANDARD
 40
3.0
  1
117
 41
0.6
 72
0
  0
LINE
  8
0
 62
7
  6
CONTINUOUS
 10
149.0757745459
 20
229.7265178618
 11
122.6781180473
 21
228.8046913841
  0
LINE
  8
0
 62
7
  6
CONTINUOUS
 10
144.9925334317
 20
346.6552446231
 11
118.5948769331
 21
345.7334181454
  0
LINE
  8
0
 62
7
  6
CONTINUOUS
 10
125.6762905283
 20
228.9093898742
 11
123.7394322797
 21
284.3737532548
  0
LINE
  8
0
 62
7
  6
CONTINUOUS
 10
121.5930494141
 20
345.8381166355
 11
123.5299076627
 21
290.3737532548
  0
INSERT
  8
0
 62
7
  6
CONTINUOUS
  2
_FILLED
 10
125.6762905283
 20
228.9093898742
 41
3.0
 42
3.0
 43
3.0
 50
272.0
  0
INSERT
  8
0
 62
7
  6
CONTINUOUS
  2
_FILLED
 10
121.5930494141
 20
345.8381166355
 41
3.0
 42
3.0
 43
3.0
 50
92.0
  0
ENDBLK
  8
0
  6
BYBLOCK
 62
0
  0
BLOCK
  8
0
  2
_FILLED
 70
64
 10
0.0
 20
0.0
  0
SOLID
  8
0
  6
BYBLOCK
 62
0
 10
0.0
 20
0.0
 11
-1.0
 21
0.25
 12
-1.0
 22
-0.25
 13
-1.0
 23
-0.25
  0
ENDBLK
  8
0
  6
BYBLOCK
 62
0
  0
ENDSEC
  0
SECTION
  2
ENTITIES
  0
DIMENSION
  8
0
 62
7
  6
CONTINUOUS
  2
*D0
 10
439.4417488694
 20
57.0872510975
 11
319.4417488694
 21
57.0872510975
 70
128
 13
199.4417488694
 23
179.5608065958
 14
439.4417488694
 24
179.5608065958
  0
DIMENSION
  8
0
 62
7
  6
CONTINUOUS
  2
*D1
 10
146.4916196722
 20
43.9244972629
 11
292.9666842708
 21
43.9244972629
 70
128
 13
439.4417488694
 23
179.5608065958
 14
146.4916196722
 24
345.2075938681
 50
180.0
  0
DIMENSION
  8
0
 62
7
  6
CONTINUOUS
  2
*D2
 10
470.6428448062
 20
68.5285569187
 11
470.6428448062
 21
151.8103945368
 70
128
 13
440.9417488694
 23
235.0922321549
 14
320.9417488694
 24
68.5285569187
 50
270.0
  0
DIMENSION
  8
0
 62
7
  6
CONTINUOUS
  2
*D3
 10
113.6331134041
 20
348.4525687033
 11
113.6331134041
 21
208.490562811
 70
128
 13
317.9417488694
 23
68.5285569187
 14
194.9611610232
 24
348.4525687033
 50
90.0
  0
DIMENSION
  8
0
 62
7
  6
CONTINUOUS
  2
*D4
 10
257.4417488694
 20
336.6342623596
 11
300.5676881514
 21
336.7046168507
 70
130
 13
297.5402593951
 23
293.4466702565
 14
322.4843304556
 24
294.3177364122
 15
257.4417488694
 25
357.1286273344
 16
300.5676881514
 26
336.7046168507
  0
DIMENSION
  8
0
 62
7
  6
CONTINUOUS
  2
*D5
 10
439.4417488694
 20
251.9858899594
 11
381.4417488694
 21
251.9858899594
 70
128
 13
323.4417488694
 23
236.5922321549
 14
439.4417488694
 24
236.5922321549
  0
DIMENSION
  8
0
 62
7
  6
CONTINUOUS
  2
*D6
 10
121.5930494141
 20
345.8381166355
 11
123.6346699712
 21
287.3737532548
 70
128
 13
149.0757745459
 23
229.7265178618
 14
144.9925334317
 24
346.6552446231
 50
92.0
  0
LINE
  8
0
 62
7
  6
CONTINUOUS
 10
0.0
 20
0.0
 11
0.0
 21
420.0
  0
LINE
  8
0
 62
7
  6
CONTINUOUS
 10
0.0
 20
0.0
 11
594.0
 21
0.0
  0
LINE
  8
0
 62
7
  6
CONTINUOUS
 10
0.0
 20
420.0
 11
594.0
 21
420.0
  0
LINE
  8
0
 62
7
  6
CONTINUOUS
 10
594.0
 20
0.0
 11
594.0
 21
420.0
  0
LINE
  8
02___PRT_ALL_AXES
 62
7
  6
CONTINUOUS
 10
150.5748607864
 20
229.7788671069
 11
146.4916196722
 21
346.7075938681
  0
LINE
  8
02___PRT_ALL_AXES
 62
7
  6
CONTINUOUS
 10
199.4417488694
 20
181.0608065958
 11
199.4417488694
 21
231.4853364414
  0
LINE
  8
02___PRT_ALL_AXES
 62
7
  6
CONTINUOUS
 10
201.0305574618
 20
234.1454257678
 11
201.3433698655
 21
235.0922321549
  0
LINE
  8
02___PRT_ALL_AXES
 62
7
  6
CONTINUOUS
 10
200.5075306702
 20
232.5797026157
 11
201.0305574618
 21
234.1454257678
  0
LINE
  8
02___PRT_ALL_AXES
 62
7
  6
CONTINUOUS
 10
200.5075306702
 20
232.5797026157
 11
196.4611610232
 21
348.4525687033
  0
LINE
  8
02___PRT_ALL_AXES
 62
7
  6
CONTINUOUS
 10
202.4417488694
 20
235.0922321549
 11
198.6028042321
 21
345.025223127
  0
LINE
  8
0
 62
7
  6
CONTINUOUS
 10
202.4417488694
 20
235.0922321549
 11
257.441728747
 21
292.0464188779
  0
LINE
  8
02___PRT_ALL_AXES
 62
7
  6
CONTINUOUS
 10
199.4417488694
 20
231.4853364414
 11
200.5075306702
 21
232.5797026157
  0
LINE
  8
02___PRT_ALL_AXES
 62
7
  6
CONTINUOUS
 10
205.0287750511
 20
177.8351355259
 11
199.4417488694
 21
181.0608065958
  0
LINE
  8
02___PRT_ALL_AXES
 62
7
  6
CENTER
 10
257.4417488694
 20
174.5922321549
 11
257.4417488694
 21
351.7876331461
  0
POLYLINE
  8
02___PRT_ALL_AXES
 62
7
  6
CONTINUOUS
 66
1
 70
0
  0
VERTEX
  8
02___PRT_ALL_AXES
 62
7
  6
CONTINUOUS
 10
272.0971844019
 20
177.9245961413
  0
VERTEX
  8
02___PRT_ALL_AXES
 62
7
  6
CONTINUOUS
 10
275.4311351313
 20
177.9373682203
  0
VERTEX
  8
02___PRT_ALL_AXES
 62
7
  6
CONTINUOUS
 10
278.6935844274
 20
177.9518771577
  0
VERTEX
  8
02___PRT_ALL_AXES
 62
7
  6
CONTINUOUS
 10
281.8685908828
 20
177.9683518683
  0
VERTEX
  8
02___PRT_ALL_AXES
 62
7
  6
CONTINUOUS
 10
284.9461999761
 20
177.9870806022
  0
VERTEX
  8
02___PRT_ALL_AXES
 62
7
  6
CONTINUOUS
 10
287.9097873479
 20
178.0083411807
  0
VERTEX
  8
02___PRT_ALL_AXES
 62
7
  6
CONTINUOUS
 10
290.7499135247
 20
178.0324822558
  0
VERTEX
  8
02___PRT_ALL_AXES
 62
7
  6
CONTINUOUS
 10
293.4506620709
 20
178.0598129291
  0
VERTEX
  8
02___PRT_ALL_AXES
 62
7
  6
CONTINUOUS
 10
296.0032965084
 20
178.090700908
  0
VERTEX
  8
02___PRT_ALL_AXES
 62
7
  6
CONTINUOUS
 10
298.3924019576
 20
178.1253924146
  0
VERTEX
  8
02___PRT_ALL_AXES
 62
7
  6
CONTINUOUS
 10
300.6085970468
 20
178.1641017383
  0
VERTEX
  8
02___PRT_ALL_AXES
 62
7
  6
CONTINUOUS
 10
302.6261995574
 20
178.206496622
  0
VERTEX
  8
02___PRT_ALL_AXES
 62
7
  6
CONTINUOUS
 10
304.3894125875
 20
178.2508295422
  0
VERTEX
  8
02___PRT_ALL_AXES
 62
7
  6
CONTINUOUS
 10
305.9776275522
 20
178.2982973659
  0
VERTEX
  8
02___PRT_ALL_AXES
 62
7
  6
CONTINUOUS
 10
307.3689285213
 20
178.3474024559
  0
VERTEX
  8
02___PRT_ALL_AXES
 62
7
  6
CONTINUOUS
 10
308.5294616276
 20
178.3951520036
  0
VERTEX
  8
02___PRT_ALL_AXES
 62
7
  6
CONTINUOUS
 10
309.4185395807
 20
178.4368754358
  0
VERTEX
  8
02___PRT_ALL_AXES
 62
7
  6
CONTINUOUS
 10
310.0431691946
 20
178.4693551566
  0
VERTEX
  8
02___PRT_ALL_AXES
 62
7
  6
CONTINUOUS
 10
310.470569757
 20
178.4932947435
  0
VERTEX
  8
02___PRT_ALL_AXES
 62
7
  6
CONTINUOUS
 10
311.0558659877
 20
178.5286159334
  0
SEQEND
  0
LINE
  8
02___PRT_ALL_AXES
 62
7
  6
CONTINUOUS
 10
265.2680049675
 20
177.903431426
 11
272.0971844019
 21
177.9245961413
  0
LINE
  8
02___PRT_ALL_AXES
 62
7
  6
CONTINUOUS
 10
258.3210160637
 20
177.8869909411
 11
265.2680049675
 21
177.903431426
  0
LINE
  8
02___PRT_ALL_AXES
 62
7
  6
CONTINUOUS
 10
247.9375038075
 20
177.8689377032
 11
258.3210160637
 21
177.8869909411
  0
LINE
  8
02___PRT_ALL_AXES
 62
7
  6
CONTINUOUS
 10
234.7721789949
 20
177.8534298707
 11
247.9375038075
 21
177.8689377032
  0
LINE
  8
02___PRT_ALL_AXES
 62
7
  6
CONTINUOUS
 10
205.0287750511
 20
177.8351355259
 11
234.7721789949
 21
177.8534298707
  0
LINE
  8
02___PRT_ALL_AXES
 62
7
  6
CONTINUOUS
 10
315.4417488694
 20
181.0608065958
 11
199.4417488694
 21
181.0608065958
  0
LINE
  8
02___PRT_ALL_AXES
 62
7
  6
CONTINUOUS
 10
323.4417488694
 20
181.0608065958
 11
439.4417488694
 21
181.0608065958
  0
LINE
  8
0
 62
7
  6
CONTINUOUS
 10
433.8547226878
 20
177.8351355259
 11
421.5753933257
 21
177.8406852496
  0
POLYLINE
  8
0
 62
7
  6
CONTINUOUS
 66
1
 70
0
  0
VERTEX
  8
0
 62
7
  6
CONTINUOUS
 10
421.5753933257
 20
177.8406852496
  0
VERTEX
  8
0
 62
7
  6
CONTINUOUS
 10
416.4866263131
 20
177.8437097574
  0
VERTEX
  8
0
 62
7
  6
CONTINUOUS
 10
413.6770915456
 20
177.8455988252
  0
SEQEND
  0
LINE
  8
0
 62
7
  6
CONTINUOUS
 10
413.6770915456
 20
177.8455988252
 11
407.6001686983
 21
177.8502990102
  0
LINE
  8
0
 62
7
  6
CONTINUOUS
 10
407.6001686983
 20
177.8502990102
 11
397.5584460557
 21
177.8603298098
  0
LINE
  8
0
 62
7
  6
CONTINUOUS
 10
397.5584460557
 20
177.8603298098
 11
390.4323277841
 21
177.8696881305
  0
LINE
  8
0
 62
7
  6
CONTINUOUS
 10
390.4323277841
 20
177.8696881305
 11
383.1198150873
 21
177.8819208887
  0
LINE
  8
0
 62
7
  6
CONTINUOUS
 10
383.1198150873
 20
177.8819208887
 11
375.7603606858
 21
177.8978887894
  0
POLYLINE
  8
0
 62
7
  6
CONTINUOUS
 66
1
 70
0
  0
VERTEX
  8
0
 62
7
  6
CONTINUOUS
 10
375.7603606858
 20
177.8978887894
  0
VERTEX
  8
0
 62
7
  6
CONTINUOUS
 10
368.4919730194
 20
177.9187402083
  0
VERTEX
  8
0
 62
7
  6
CONTINUOUS
 10
364.9356338721
 20
177.9314538658
  0
VERTEX
  8
0
 62
7
  6
CONTINUOUS
 10
361.4526109346
 20
177.9459985528
  0
VERTEX
  8
0
 62
7
  6
CONTINUOUS
 10
358.0588369588
 20
177.9626466015
  0
VERTEX
  8
0
 62
7
  6
CONTINUOUS
 10
354.7726108553
 20
177.9816921106
  0
VERTEX
  8
0
 62
7
  6
CONTINUOUS
 10
351.6063396894
 20
178.0034977748
  0
VERTEX
  8
0
 62
7
  6
CONTINUOUS
 10
348.5793737037
 20
178.0284102556
  0
VERTEX
  8
0
 62
7
  6
CONTINUOUS
 10
345.7014244291
 20
178.0568711887
  0
VERTEX
  8
0
 62
7
  6
CONTINUOUS
 10
342.9919310676
 20
178.0892272549
  0
VERTEX
  8
0
 62
7
  6
CONTINUOUS
 10
340.4614656785
 20
178.1258645911
  0
VERTEX
  8
0
 62
7
  6
CONTINUOUS
 10
338.126780494
 20
178.166958665
  0
VERTEX
  8
0
 62
7
  6
CONTINUOUS
 10
336.0011973657
 20
178.2124689667
  0
VERTEX
  8
0
 62
7
  6
CONTINUOUS
 10
334.1306624642
 20
178.2609922154
  0
VERTEX
  8
0
 62
7
  6
CONTINUOUS
 10
332.5247745115
 20
178.3109722716
  0
VERTEX
  8
0
 62
7
  6
CONTINUOUS
 10
331.180107532
 20
178.3604643996
  0
VERTEX
  8
0
 62
7
  6
CONTINUOUS
 10
330.100934554
 20
178.4065342386
  0
VERTEX
  8
0
 62
7
  6
CONTINUOUS
 10
329.3136151499
 20
178.444488308
  0
SEQEND
  0
LINE
  8
0
 62
7
  6
CONTINUOUS
 10
329.3136151499
 20
178.444488308
 11
328.3688208665
 21
178.4958508584
  0
LINE
  8
0
 62
7
  6
CONTINUOUS
 10
328.3688208665
 20
178.4958508584
 11
327.8276317511
 21
178.5286159334
  0
LINE
  8
02___PRT_ALL_AXES
 62
7
  6
CONTINUOUS
 10
323.4417488694
 20
181.0608065958
 11
327.8276317511
 21
178.5286159334
  0
LINE
  8
02___PRT_ALL_AXES
 62
7
  6
CONTINUOUS
 10
196.4611610232
 20
348.4525687033
 11
198.6028042321
 21
345.025223127
  0
LINE
  8
0
 62
7
  6
CONTINUOUS
 10
312.4417488694
 20
240.2698837239
 11
312.4417488694
 21
235.0922321549
  0
LINE
  8
02___PRT_ALL_AXES
 62
7
  6
CONTINUOUS
 10
315.4417488694
 20
181.0608065958
 11
315.4417488694
 21
235.0922321549
  0
LINE
  8
02___PRT_ALL_AXES
 62
7
  6
CONTINUOUS
 10
150.5748607864
 20
229.7788671069
 11
199.4417488694
 21
231.4853364414
  0
LINE
  8
02___PRT_ALL_AXES
 62
7
  6
CONTINUOUS
 10
315.4417488694
 20
235.0922321549
 11
201.3433698655
 21
235.0922321549
  0
LINE
  8
02___PRT_ALL_AXES
 62
7
  6
CONTINUOUS
 10
323.4417488694
 20
235.0922321549
 11
439.4417488694
 21
235.0922321549
  0
LINE
  8
02___PRT_ALL_AXES
 62
7
  6
CONTINUOUS
 10
323.4417488694
 20
235.0922321549
 11
323.4417488694
 21
181.0608065958
  0
LINE
  8
02___PRT_ALL_AXES
 62
7
  6
CONTINUOUS
 10
311.0558659877
 20
178.5286159334
 11
315.4417488694
 21
181.0608065958
  0
LINE
  8
0
 62
9
  6
CONTINUOUS
 10
312.4417488694
 20
240.2698837239
 11
257.441728747
 21
292.0464188779
  0
LINE
  8
0
 62
9
  6
CONTINUOUS
 10
203.7773017156
 20
345.2059205609
 11
257.4417489151
 21
292.0463993682
  0
LINE
  8
02___PRT_ALL_AXES
 62
7
  6
CENTER
 10
381.4417488694
 20
174.5922321549
 11
381.4417488694
 21
237.5922321549
  0
LINE
  8
02___PRT_ALL_AXES
 62
7
  6
CENTER
 10
336.8175046505
 20
294.8182618843
 11
146.0347631618
 21
288.1559817457
  0
LINE
  8
02___PRT_ALL_AXES
 62
7
  6
CONTINUOUS
 10
439.4417488694
 20
181.0608065958
 11
433.8547226878
 21
177.8351355259
  0
LINE
  8
02___PRT_ALL_AXES
 62
7
  6
CONTINUOUS
 10
439.4417488694
 20
235.0922321549
 11
439.4417488694
 21
181.0608065958
  0
LINE
  8
02___PRT_ALL_AXES
 62
7
  6
CONTINUOUS
 10
198.6028042321
 20
345.025223127
 11
203.7773017156
 21
345.2059205609
  0
LINE
  8
02___PRT_ALL_AXES
 62
7
  6
CONTINUOUS
 10
146.4916196722
 20
346.7075938681
 11
196.4611610232
 21
348.4525687033
  0
ARC
  8
0
 62
7
  6
CONTINUOUS
 10
319.4417488694
 20
183.0608065958
 40
114.5322496771
 50
182.6150964302
 51
357.3849035698
  0
ARC
  8
0
 62
7
  6
CONTINUOUS
 10
207.4417490234
 20
240.2698838834
 40
104.9999996778
 50
359.9999999192
 51
92.0000000858
  0
ARC
  8
0
 62
7
  6
CONTINUOUS
 10
319.4417488694
 20
183.0608065958
 40
9.5322496771
 50
208.3892175627
 51
331.6107824373
  0
ENDSEC
  0
EOF
