999
DXF file: 171-100-88.dxf
999
Pro/ENGINEER 2006320 by Parametric Technology Corporation
  0
SECTION
  2
HEADER
  9
$EXTMAX
 10
420.0
 20
297.0
 30
0.0
  9
$EXTMIN
 10
0.0
 20
0.0
 30
0.0
  9
$LIMMIN
 10
0.0
 20
0.0
  9
$LIMMAX
 10
420.0
 20
297.0
  9
$VIEWCTR
 10
210.0
 20
148.5
  9
$VIEWSIZE
 40
297.0
  9
$CLAYER
  8
0
  9
$LTSCALE
 40
23.1
  9
$CELTYPE
  6
BYLAYER
  9
$DIMSCALE
 40
1.0
  9
$DIMASZ
 40
3.0
  9
$DIMEXO
 40
2.625
  9
$DIMDLI
 40
15.96
  9
$DIMEXE
 40
7.56
  9
$DIMCEN
 40
3.78
  9
$DIMLFAC
 40
1.0
  9
$DIMBLK
  1
_FILLED
  9
$DIMTXT
 40
3.0
  9
$PDMODE
 70
3
  9
$PDSIZE
 40
0.3125
  0
ENDSEC
  0
SECTION
  2
TABLES
  0
TABLE
  2
LTYPE
 70
6
  0
LTYPE
  2
BYBLOCK
 70
0
  3

 72
65
 73
0
 40
0.0
  0
LTYPE
  2
BYLAYER
 70
0
  3

 72
65
 73
0
 40
0.0
  0
LTYPE
  2
CONTINUOUS
 70
64
  3
Solid line
 72
65
 73
0
 40
0.0
  0
LTYPE
  2
CENTER
 70
64
  3
____ _ ____ _ ____ _ ____ _ ____ _ ____ _ ____
 72
65
 73
4
 40
0.6
 49
0.375
 49
-0.075
 49
0.075
 49
-0.075
  0
LTYPE
  2
HIDDEN
 70
64
  3
- - - - - - - - - - - - - - - - - - - -
 72
65
 73
2
 40
0.2
 49
0.1
 49
-0.1
  0
LTYPE
  2
PHANTOM
 70
64
  3
_____ _ _ _____ _ _ _____ _ _ _____
 72
65
 73
6
 40
0.8
 49
0.45
 49
-0.05
 49
0.1
 49
-0.05
 49
0.1
 49
-0.05
  0
LTYPE
  2
DOT
 70
64
  3
. . . . . . . . . . . . . . . . . . . .
 72
65
 73
2
 40
0.2
 49
0.1
 49
-0.1
  0
LTYPE
  2
DASHED
 70
64
  3
- - - - - - - - - - - - - - - - - - - -
 72
65
 73
2
 40
0.2
 49
0.1
 49
-0.1
  0
ENDTAB
  0
TABLE
  2
LAYER
 70
36
  0
LAYER
  2
0
 70
0
 62
7
  6
CONTINUOUS
  0
LAYER
  2
DEFAULT_1
 70
0
 62
7
  6
CENTER
  0
LAYER
  2
DEFAULT_2
 70
0
 62
8
  6
HIDDEN
  0
LAYER
  2
DEFAULT_3
 70
0
 62
7
  6
PHANTOM
  0
LAYER
  2
_2D_DELETED_OBJS
 70
0
 62
7
  6
CONTINUOUS
  0
LAYER
  2
01___PRT_ALL_DTM_PLN
 70
0
 62
7
  6
CONTINUOUS
  0
LAYER
  2
01___PRT_DEF_DTM_PLN
 70
0
 62
7
  6
CONTINUOUS
  0
LAYER
  2
02___PRT_ALL_AXES
 70
0
 62
7
  6
CONTINUOUS
  0
LAYER
  2
03___PRT_ALL_CURVES
 70
0
 62
7
  6
CONTINUOUS
  0
LAYER
  2
04___PRT_ALL_DTM_PNT
 70
0
 62
7
  6
CONTINUOUS
  0
LAYER
  2
05___PRT_ALL_DTM_CSYS
 70
0
 62
7
  6
CONTINUOUS
  0
LAYER
  2
05___PRT_DEF_DTM_CSYS
 70
0
 62
7
  6
CONTINUOUS
  0
LAYER
  2
06___PRT_ALL_SURFS
 70
0
 62
7
  6
CONTINUOUS
  0
LAYER
  2
CURVES
 70
0
 62
7
  6
CONTINUOUS
  0
ENDTAB
  0
TABLE
  2
STYLE
 70
1
  0
STYLE
  2
STANDARD
 70
0
 40
0.0
 41
0.6
 50
0.0
 71
0
 42
0.2
  3
txt
  4

  0
ENDTAB
  0
ENDSEC
  0
SECTION
  2
BLOCKS
  0
BLOCK
  8
0
 62
7
  6
CONTINUOUS
  2
*D0
 70
65
 10
0.0
 20
0.0
  0
TEXT
  8
0
 62
7
  6
CONTINUOUS
 10
170.4819480321
 20
32.5670546041
  7
STANDARD
 40
3.0
  1
117.5
 41
0.6
 72
0
  0
LINE
  8
0
 62
7
  6
CONTINUOUS
 10
116.2319480321
 20
44.2225142696
 11
116.2319480321
 21
31.0670546041
  0
LINE
  8
0
 62
7
  6
CONTINUOUS
 10
233.7319480321
 20
44.2225142696
 11
233.7319480321
 21
31.0670546041
  0
LINE
  8
0
 62
7
  6
CONTINUOUS
 10
116.2319480321
 20
34.0670546041
 11
168.9819480321
 21
34.0670546041
  0
LINE
  8
0
 62
7
  6
CONTINUOUS
 10
233.7319480321
 20
34.0670546041
 11
180.9819480321
 21
34.0670546041
  0
INSERT
  8
0
 62
7
  6
CONTINUOUS
  2
_FILLED
 10
116.2319480321
 20
34.0670546041
 41
3.0
 42
3.0
 43
3.0
 50
180.0
  0
INSERT
  8
0
 62
7
  6
CONTINUOUS
  2
_FILLED
 10
233.7319480321
 20
34.0670546041
 41
3.0
 42
3.0
 43
3.0
  0
ENDBLK
  8
0
  6
BYBLOCK
 62
0
  0
BLOCK
  8
0
 62
7
  6
CONTINUOUS
  2
*D1
 70
65
 10
0.0
 20
0.0
  0
TEXT
  8
0
 62
7
  6
CONTINUOUS
 10
215.8499117769
 20
23.446232991
  7
STANDARD
 40
3.0
  1
205
 41
0.6
 72
0
  0
LINE
  8
0
 62
7
  6
CONTINUOUS
 10
116.2319480321
 20
44.2225142696
 11
116.2319480321
 21
21.946232991
  0
LINE
  8
0
 62
7
  6
CONTINUOUS
 10
320.8678755216
 20
132.3376472819
 11
320.8678755216
 21
21.946232991
  0
LINE
  8
0
 62
7
  6
CONTINUOUS
 10
116.2319480321
 20
24.946232991
 11
214.3499117769
 21
24.946232991
  0
LINE
  8
0
 62
7
  6
CONTINUOUS
 10
320.8678755216
 20
24.946232991
 11
222.7499117769
 21
24.946232991
  0
INSERT
  8
0
 62
7
  6
CONTINUOUS
  2
_FILLED
 10
116.2319480321
 20
24.946232991
 41
3.0
 42
3.0
 43
3.0
 50
180.0
  0
INSERT
  8
0
 62
7
  6
CONTINUOUS
  2
_FILLED
 10
320.8678755216
 20
24.946232991
 41
3.0
 42
3.0
 43
3.0
  0
ENDBLK
  8
0
  6
BYBLOCK
 62
0
  0
BLOCK
  8
0
 62
7
  6
CONTINUOUS
  2
*D2
 70
65
 10
0.0
 20
0.0
  0
TEXT
  8
0
 62
7
  6
CONTINUOUS
 10
84.400755363
 20
142.7465762618
  7
STANDARD
 40
3.0
  1
199
 41
0.6
 72
0
  0
LINE
  8
0
 62
7
  6
CONTINUOUS
 10
114.7319480321
 20
44.7225142696
 11
84.100755363
 21
44.7225142696
  0
LINE
  8
0
 62
7
  6
CONTINUOUS
 10
315.5289308843
 20
243.770638254
 11
84.100755363
 21
243.770638254
  0
LINE
  8
0
 62
7
  6
CONTINUOUS
 10
87.100755363
 20
44.7225142696
 11
87.100755363
 21
141.2465762618
  0
LINE
  8
0
 62
7
  6
CONTINUOUS
 10
87.100755363
 20
243.770638254
 11
87.100755363
 21
147.2465762618
  0
INSERT
  8
0
 62
7
  6
CONTINUOUS
  2
_FILLED
 10
87.100755363
 20
44.7225142696
 41
3.0
 42
3.0
 43
3.0
 50
270.0
  0
INSERT
  8
0
 62
7
  6
CONTINUOUS
  2
_FILLED
 10
87.100755363
 20
243.770638254
 41
3.0
 42
3.0
 43
3.0
 50
90.0
  0
ENDBLK
  8
0
  6
BYBLOCK
 62
0
  0
BLOCK
  8
0
 62
7
  6
CONTINUOUS
  2
*D3
 70
65
 10
0.0
 20
0.0
  0
TEXT
  8
0
 62
7
  6
CONTINUOUS
 10
204.4907040296
 20
215.7334196087
  7
STANDARD
 40
3.0
  1
88%%d
 41
0.6222222222
 72
0
  0
LINE
  8
0
 62
7
  6
CONTINUOUS
 10
176.4810342727
 20
183.8290726175
 11
224.4620686901
 21
185.5046072603
  0
LINE
  8
0
 62
7
  6
CONTINUOUS
 10
174.9819480321
 20
185.2767233724
 11
174.9819480321
 21
233.2870043558
  0
ARC
  8
0
 62
7
  6
CONTINUOUS
 10
174.9819480321
 20
183.7767233724
 40
46.5102809834
 50
2.0
 51
40.9073622769
  0
ARC
  8
0
 62
7
  6
CONTINUOUS
 10
174.9819480321
 20
183.7767233724
 40
46.5102809834
 50
51.6136732977
 51
90.0
  0
SOLID
  8
0
 62
7
  6
CONTINUOUS
 10
220.5142657266
 20
188.3428158273
 11
221.463896209
 21
185.3999087702
 12
222.0108843985
 22
188.4434764006
 13
222.0108843985
 23
188.4434764006
  0
SOLID
  8
0
 62
7
  6
CONTINUOUS
 10
178.0045719908
 20
230.9398783133
 11
174.9819480321
 21
230.2870043558
 12
177.9562039757
 22
229.4406583378
 13
177.9562039757
 23
229.4406583378
  0
ENDBLK
  8
0
  6
BYBLOCK
 62
0
  0
BLOCK
  8
0
 62
7
  6
CONTINUOUS
  2
*D4
 70
65
 10
0.0
 20
0.0
  0
TEXT
  8
0
 62
7
  6
CONTINUOUS
 10
330.4790061711
 20
187.8010863739
  7
STANDARD
 40
3.0
  1
110
 41
0.6
 72
0
  0
LINE
  8
0
 62
7
  6
CONTINUOUS
 10
318.0283217113
 20
243.8055377507
 11
334.2577063335
 21
244.3722803501
  0
LINE
  8
0
 62
7
  6
CONTINUOUS
 10
321.8672663486
 20
133.8725467786
 11
338.0966509708
 21
134.439289378
  0
LINE
  8
0
 62
7
  6
CONTINUOUS
 10
331.2595338525
 20
244.26758186
 11
333.0742438626
 21
192.3010863739
  0
LINE
  8
0
 62
7
  6
CONTINUOUS
 10
335.0984784897
 20
134.3345908879
 11
333.2837684796
 21
186.3010863739
  0
INSERT
  8
0
 62
7
  6
CONTINUOUS
  2
_FILLED
 10
331.2595338525
 20
244.26758186
 41
3.0
 42
3.0
 43
3.0
 50
92.0
  0
INSERT
  8
0
 62
7
  6
CONTINUOUS
  2
_FILLED
 10
335.0984784897
 20
134.3345908879
 41
3.0
 42
3.0
 43
3.0
 50
272.0
  0
ENDBLK
  8
0
  6
BYBLOCK
 62
0
  0
BLOCK
  8
0
  2
_FILLED
 70
64
 10
0.0
 20
0.0
  0
SOLID
  8
0
  6
BYBLOCK
 62
0
 10
0.0
 20
0.0
 11
-1.0
 21
0.25
 12
-1.0
 22
-0.25
 13
-1.0
 23
-0.25
  0
ENDBLK
  8
0
  6
BYBLOCK
 62
0
  0
ENDSEC
  0
SECTION
  2
ENTITIES
  0
DIMENSION
  8
0
 62
7
  6
CONTINUOUS
  2
*D0
 10
233.7319480321
 20
34.0670546041
 11
174.9819480321
 21
34.0670546041
 70
128
 13
116.2319480321
 23
44.2225142696
 14
233.7319480321
 24
44.2225142696
  0
DIMENSION
  8
0
 62
7
  6
CONTINUOUS
  2
*D1
 10
320.8678755216
 20
24.946232991
 11
218.5499117769
 21
24.946232991
 70
128
 13
116.2319480321
 23
44.2225142696
 14
320.8678755216
 24
132.3376472819
  0
DIMENSION
  8
0
 62
7
  6
CONTINUOUS
  2
*D2
 10
87.100755363
 20
243.770638254
 11
87.100755363
 21
144.2465762618
 70
128
 13
114.7319480321
 23
44.7225142696
 14
315.5289308843
 24
243.770638254
 50
90.0
  0
DIMENSION
  8
0
 62
7
  6
CONTINUOUS
  2
*D3
 10
174.9819480321
 20
185.2767233724
 11
207.2907040296
 21
217.2334196087
 70
130
 13
176.4810342727
 23
183.8290726175
 14
224.4620686901
 24
185.5046072603
 15
174.9819480321
 25
233.2870043558
 16
207.2907040296
 26
217.2334196087
  0
DIMENSION
  8
0
 62
7
  6
CONTINUOUS
  2
*D4
 10
335.0984784897
 20
134.3345908879
 11
333.1790061711
 21
189.3010863739
 70
128
 13
318.0283217113
 23
243.8055377507
 14
321.8672663486
 24
133.8725467786
 50
272.0
  0
LINE
  8
0
 62
7
  6
CONTINUOUS
 10
0.0
 20
0.0
 11
0.0
 21
297.0
  0
LINE
  8
0
 62
7
  6
CONTINUOUS
 10
0.0
 20
0.0
 11
420.0
 21
0.0
  0
LINE
  8
0
 62
7
  6
CONTINUOUS
 10
0.0
 20
297.0
 11
420.0
 21
297.0
  0
LINE
  8
0
 62
7
  6
CONTINUOUS
 10
420.0
 20
0.0
 11
420.0
 21
297.0
  0
LINE
  8
02___PRT_ALL_AXES
 62
7
  6
CONTINUOUS
 10
116.2319480321
 20
95.5678137312
 11
116.2319480321
 21
45.7225142696
  0
LINE
  8
0
 62
7
  6
CONTINUOUS
 10
119.9819480321
 20
99.7225142696
 11
119.9819480321
 21
99.1762529136
  0
LINE
  8
0
 62
7
  6
CONTINUOUS
 10
117.2319480321
 20
44.7225142696
 11
232.7319480321
 21
44.7225142696
  0
LINE
  8
0
 62
9
  6
CONTINUOUS
 10
116.2319480321
 20
45.7225142696
 11
233.7319480321
 21
45.7225142696
  0
LINE
  8
0
 62
9
  6
CONTINUOUS
 10
116.2319480321
 20
95.5678137312
 11
233.7319480321
 21
95.5678137312
  0
LINE
  8
0
 62
9
  6
CONTINUOUS
 10
117.2319480321
 20
97.2998645388
 11
232.7319480321
 21
97.2998645388
  0
LINE
  8
02___PRT_ALL_AXES
 62
7
  6
CENTER
 10
174.9819480321
 20
42.2225142696
 11
174.9819480321
 21
229.8596898197
  0
LINE
  8
0
 62
9
  6
CONTINUOUS
 10
119.7319480321
 20
98.7432402117
 11
230.2319480321
 21
98.7432402117
  0
LINE
  8
0
 62
9
  6
CONTINUOUS
 10
119.9819480321
 20
99.1762529136
 11
229.9819480321
 21
99.1762529136
  0
LINE
  8
0
 62
9
  6
CONTINUOUS
 10
229.9819480321
 20
99.7225142696
 11
119.9819480321
 21
99.7225142696
  0
LINE
  8
02___PRT_ALL_AXES
 62
7
  6
CONTINUOUS
 10
230.2319480321
 20
98.7432402117
 11
232.7319480321
 21
97.2998645388
  0
LINE
  8
02___PRT_ALL_AXES
 62
7
  6
CONTINUOUS
 10
119.7319480321
 20
98.7432402117
 11
117.2319480321
 21
97.2998645388
  0
LINE
  8
0
 62
7
  6
CONTINUOUS
 10
320.3681801081
 20
133.8201975336
 11
260.9044259005
 21
131.7436774798
  0
LINE
  8
0
 62
7
  6
CONTINUOUS
 10
229.9819480321
 20
99.7225142696
 11
229.9819480321
 21
99.1762529136
  0
LINE
  8
02___PRT_ALL_AXES
 62
7
  6
CONTINUOUS
 10
233.7319480321
 20
95.5678137312
 11
233.7319480321
 21
45.7225142696
  0
LINE
  8
0
 62
9
  6
CONTINUOUS
 10
260.9044259005
 20
131.7436774798
 11
257.0654812632
 21
241.6766684519
  0
LINE
  8
02___PRT_ALL_AXES
 62
7
  6
CENTER
 10
316.4499261354
 20
188.7168940262
 11
132.6591342904
 21
182.2987781495
  0
LINE
  8
0
 62
7
  6
CONTINUOUS
 10
316.5292354708
 20
243.7531885057
 11
257.0654812632
 21
241.6766684519
  0
LINE
  8
0
 62
9
  6
CONTINUOUS
 10
316.5292354708
 20
243.7531885057
 11
320.3681801081
 21
133.8201975336
  0
LINE
  8
0
 62
7
  6
CONTINUOUS
 10
317.0463806327
 20
243.2709428405
 11
320.8504257733
 21
134.3373426954
  0
ARC
  8
0
 62
7
  6
CONTINUOUS
 10
262.0226295598
 20
99.7225142696
 40
142.0406815277
 50
92.0
 51
180.0
  0
ARC
  8
0
 62
7
  6
CONTINUOUS
 10
262.0226295598
 20
99.7225142696
 40
32.0406815277
 50
92.0
 51
180.0
  0
ARC
  8
0
 62
7
  6
CONTINUOUS
 10
231.7319480321
 20
95.5678137312
 40
2.0
 50
0.0
 51
60.0
  0
ARC
  8
0
 62
7
  6
CONTINUOUS
 10
118.2319480321
 20
95.5678137312
 40
2.0
 50
120.0
 51
180.0
  0
ARC
  8
0
 62
7
  6
CONTINUOUS
 10
232.7319480321
 20
45.7225142696
 40
1.0
 50
270.0
 51
360.0
  0
ARC
  8
0
 62
7
  6
CONTINUOUS
 10
117.2319480321
 20
45.7225142696
 40
1.0
 50
180.0
 51
270.0
  0
ARC
  8
0
 62
7
  6
CONTINUOUS
 10
320.3507303597
 20
134.3198929471
 40
0.5
 50
272.0
 51
2.0
  0
ARC
  8
0
 62
7
  6
CONTINUOUS
 10
316.5466852192
 20
243.2534930922
 40
0.5
 50
2.0
 51
92.0
  0
ARC
  8
0
 62
7
  6
CONTINUOUS
 10
230.4819480321
 20
99.1762529136
 40
0.5
 50
180.0
 51
240.0
  0
ARC
  8
0
 62
7
  6
CONTINUOUS
 10
119.4819480321
 20
99.1762529136
 40
0.5
 50
300.0
 51
360.0
  0
ENDSEC
  0
EOF
