999
DXF file: 104-65-85_plain_junction.dxf
999
Pro/ENGINEER 2006320 by Parametric Technology Corporation
  0
SECTION
  2
HEADER
  9
$EXTMAX
 10
420.0
 20
297.0
 30
0.0
  9
$EXTMIN
 10
0.0
 20
0.0
 30
0.0
  9
$LIMMIN
 10
0.0
 20
0.0
  9
$LIMMAX
 10
420.0
 20
297.0
  9
$VIEWCTR
 10
210.0
 20
148.5
  9
$VIEWSIZE
 40
297.0
  9
$CLAYER
  8
0
  9
$LTSCALE
 40
23.1
  9
$CELTYPE
  6
BYLAYER
  9
$DIMSCALE
 40
1.0
  9
$DIMASZ
 40
3.0
  9
$DIMEXO
 40
2.625
  9
$DIMDLI
 40
15.96
  9
$DIMEXE
 40
7.56
  9
$DIMCEN
 40
3.78
  9
$DIMLFAC
 40
1.0
  9
$DIMBLK
  1
_FILLED
  9
$DIMTXT
 40
3.0
  9
$PDMODE
 70
3
  9
$PDSIZE
 40
0.3125
  0
ENDSEC
  0
SECTION
  2
TABLES
  0
TABLE
  2
LTYPE
 70
6
  0
LTYPE
  2
BYBLOCK
 70
0
  3

 72
65
 73
0
 40
0.0
  0
LTYPE
  2
BYLAYER
 70
0
  3

 72
65
 73
0
 40
0.0
  0
LTYPE
  2
CONTINUOUS
 70
64
  3
Solid line
 72
65
 73
0
 40
0.0
  0
LTYPE
  2
CENTER
 70
64
  3
____ _ ____ _ ____ _ ____ _ ____ _ ____ _ ____
 72
65
 73
4
 40
0.6
 49
0.375
 49
-0.075
 49
0.075
 49
-0.075
  0
LTYPE
  2
HIDDEN
 70
64
  3
- - - - - - - - - - - - - - - - - - - -
 72
65
 73
2
 40
0.2
 49
0.1
 49
-0.1
  0
LTYPE
  2
PHANTOM
 70
64
  3
_____ _ _ _____ _ _ _____ _ _ _____
 72
65
 73
6
 40
0.8
 49
0.45
 49
-0.05
 49
0.1
 49
-0.05
 49
0.1
 49
-0.05
  0
LTYPE
  2
DOT
 70
64
  3
. . . . . . . . . . . . . . . . . . . .
 72
65
 73
2
 40
0.2
 49
0.1
 49
-0.1
  0
LTYPE
  2
DASHED
 70
64
  3
- - - - - - - - - - - - - - - - - - - -
 72
65
 73
2
 40
0.2
 49
0.1
 49
-0.1
  0
ENDTAB
  0
TABLE
  2
LAYER
 70
36
  0
LAYER
  2
0
 70
0
 62
7
  6
CONTINUOUS
  0
LAYER
  2
DEFAULT_1
 70
0
 62
7
  6
CENTER
  0
LAYER
  2
DEFAULT_2
 70
0
 62
8
  6
HIDDEN
  0
LAYER
  2
DEFAULT_3
 70
0
 62
7
  6
PHANTOM
  0
LAYER
  2
_2D_DELETED_OBJS
 70
0
 62
7
  6
CONTINUOUS
  0
LAYER
  2
01___PRT_ALL_DTM_PLN
 70
0
 62
7
  6
CONTINUOUS
  0
LAYER
  2
01___PRT_DEF_DTM_PLN
 70
0
 62
7
  6
CONTINUOUS
  0
LAYER
  2
02___PRT_ALL_AXES
 70
0
 62
7
  6
CONTINUOUS
  0
LAYER
  2
03___PRT_ALL_CURVES
 70
0
 62
7
  6
CONTINUOUS
  0
LAYER
  2
04___PRT_ALL_DTM_PNT
 70
0
 62
7
  6
CONTINUOUS
  0
LAYER
  2
05___PRT_ALL_DTM_CSYS
 70
0
 62
7
  6
CONTINUOUS
  0
LAYER
  2
05___PRT_DEF_DTM_CSYS
 70
0
 62
7
  6
CONTINUOUS
  0
LAYER
  2
06___PRT_ALL_SURFS
 70
0
 62
7
  6
CONTINUOUS
  0
LAYER
  2
CURVES
 70
0
 62
7
  6
CONTINUOUS
  0
ENDTAB
  0
TABLE
  2
STYLE
 70
1
  0
STYLE
  2
STANDARD
 70
0
 40
0.0
 41
0.6
 50
0.0
 71
0
 42
0.2
  3
txt
  4

  0
ENDTAB
  0
ENDSEC
  0
SECTION
  2
BLOCKS
  0
BLOCK
  8
0
 62
7
  6
CONTINUOUS
  2
*D0
 70
65
 10
0.0
 20
0.0
  0
TEXT
  8
0
 62
7
  6
CONTINUOUS
 10
68.3738413517
 20
118.1965691478
  7
STANDARD
 40
3.0
  1
104
 41
0.6
 72
0
  0
LINE
  8
0
 62
7
  6
CONTINUOUS
 10
173.6255457642
 20
67.7486593463
 11
68.0738413517
 21
67.7486593463
  0
LINE
  8
0
 62
7
  6
CONTINUOUS
 10
114.1633144824
 20
171.6444789494
 11
68.0738413517
 21
171.6444789494
  0
LINE
  8
0
 62
7
  6
CONTINUOUS
 10
71.0738413517
 20
67.7486593463
 11
71.0738413517
 21
116.6965691478
  0
LINE
  8
0
 62
7
  6
CONTINUOUS
 10
71.0738413517
 20
171.6444789494
 11
71.0738413517
 21
122.6965691478
  0
INSERT
  8
0
 62
7
  6
CONTINUOUS
  2
_FILLED
 10
71.0738413517
 20
67.7486593463
 41
3.0
 42
3.0
 43
3.0
 50
270.0
  0
INSERT
  8
0
 62
7
  6
CONTINUOUS
  2
_FILLED
 10
71.0738413517
 20
171.6444789494
 41
3.0
 42
3.0
 43
3.0
 50
90.0
  0
ENDBLK
  8
0
  6
BYBLOCK
 62
0
  0
BLOCK
  8
0
 62
7
  6
CONTINUOUS
  2
*D1
 70
65
 10
0.0
 20
0.0
  0
TEXT
  8
0
 62
7
  6
CONTINUOUS
 10
289.3620099286
 20
152.2486593463
  7
STANDARD
 40
3.0
  1
172
 41
0.6
 72
0
  0
LINE
  8
0
 62
7
  6
CONTINUOUS
 10
250.625545751
 20
67.7486593463
 11
295.0620099286
 21
67.7486593463
  0
LINE
  8
0
 62
7
  6
CONTINUOUS
 10
251.1415380462
 20
239.7486593463
 11
295.0620099286
 21
239.7486593463
  0
LINE
  8
0
 62
7
  6
CONTINUOUS
 10
292.0620099286
 20
67.7486593463
 11
292.0620099286
 21
150.7486593463
  0
LINE
  8
0
 62
7
  6
CONTINUOUS
 10
292.0620099286
 20
239.7486593463
 11
292.0620099286
 21
156.7486593463
  0
INSERT
  8
0
 62
7
  6
CONTINUOUS
  2
_FILLED
 10
292.0620099286
 20
67.7486593463
 41
3.0
 42
3.0
 43
3.0
 50
270.0
  0
INSERT
  8
0
 62
7
  6
CONTINUOUS
  2
_FILLED
 10
292.0620099286
 20
239.7486593463
 41
3.0
 42
3.0
 43
3.0
 50
90.0
  0
ENDBLK
  8
0
  6
BYBLOCK
 62
0
  0
BLOCK
  8
0
 62
7
  6
CONTINUOUS
  2
*D2
 70
65
 10
0.0
 20
0.0
  0
TEXT
  8
0
 62
7
  6
CONTINUOUS
 10
179.2813396827
 20
48.9438688878
  7
STANDARD
 40
3.0
  1
135
 41
0.6
 72
0
  0
LINE
  8
0
 62
7
  6
CONTINUOUS
 10
249.6255457576
 20
66.7486593463
 11
249.6255457576
 21
47.4438688878
  0
LINE
  8
0
 62
7
  6
CONTINUOUS
 10
114.3371336077
 20
132.1676275227
 11
114.3371336077
 21
47.4438688878
  0
LINE
  8
0
 62
7
  6
CONTINUOUS
 10
249.6255457576
 20
50.4438688878
 11
186.1813396827
 21
50.4438688878
  0
LINE
  8
0
 62
7
  6
CONTINUOUS
 10
114.3371336077
 20
50.4438688878
 11
177.7813396827
 21
50.4438688878
  0
INSERT
  8
0
 62
7
  6
CONTINUOUS
  2
_FILLED
 10
249.6255457576
 20
50.4438688878
 41
3.0
 42
3.0
 43
3.0
  0
INSERT
  8
0
 62
7
  6
CONTINUOUS
  2
_FILLED
 10
114.3371336077
 20
50.4438688878
 41
3.0
 42
3.0
 43
3.0
 50
180.0
  0
ENDBLK
  8
0
  6
BYBLOCK
 62
0
  0
BLOCK
  8
0
 62
7
  6
CONTINUOUS
  2
*D3
 70
65
 10
0.0
 20
0.0
  0
TEXT
  8
0
 62
7
  6
CONTINUOUS
 10
250.2334217663
 20
134.6659531527
  7
STANDARD
 40
3.0
  1
88%%d
 41
0.6222222222
 72
0
  0
LINE
  8
0
 62
7
  6
CONTINUOUS
 10
212.1255457576
 20
135.5350609756
 11
212.1255457576
 21
113.27108031
  0
LINE
  8
0
 62
7
  6
CONTINUOUS
 10
242.1611195873
 20
167.2270782561
 11
267.0969015775
 21
166.3563015611
  0
ARC
  8
0
 62
7
  6
CONTINUOUS
 10
212.1255457576
 20
168.2759436064
 40
52.0048632964
 50
270.0
 51
317.5358327464
  0
ARC
  8
0
 62
7
  6
CONTINUOUS
 10
212.1255457576
 20
168.2759436064
 40
52.0048632964
 50
325.9611330445
 51
358.0
  0
SOLID
  8
0
 62
7
  6
CONTINUOUS
 10
215.1026683339
 20
117.1072867234
 11
212.1255457576
 21
116.27108031
 12
215.1459275195
 22
115.6079106389
 13
215.1459275195
 23
115.6079106389
  0
SOLID
  8
0
 62
7
  6
CONTINUOUS
 10
264.6560849791
 20
163.4193139366
 11
264.0987290964
 21
166.4610000512
 12
263.1591319978
 22
163.5148742406
 13
263.1591319978
 23
163.5148742406
  0
ENDBLK
  8
0
  6
BYBLOCK
 62
0
  0
BLOCK
  8
0
 62
7
  6
CONTINUOUS
  2
*D4
 70
65
 10
0.0
 20
0.0
  0
TEXT
  8
0
 62
7
  6
CONTINUOUS
 10
210.3255457576
 20
57.838433428
  7
STANDARD
 40
3.0
  1
75
 41
0.6
 72
0
  0
LINE
  8
0
 62
7
  6
CONTINUOUS
 10
174.6255457576
 20
66.7486593463
 11
174.6255457576
 21
56.338433428
  0
LINE
  8
0
 62
7
  6
CONTINUOUS
 10
249.6255457576
 20
66.7486593463
 11
249.6255457576
 21
56.338433428
  0
LINE
  8
0
 62
7
  6
CONTINUOUS
 10
174.6255457576
 20
59.338433428
 11
208.8255457576
 21
59.338433428
  0
LINE
  8
0
 62
7
  6
CONTINUOUS
 10
249.6255457576
 20
59.338433428
 11
215.4255457576
 21
59.338433428
  0
INSERT
  8
0
 62
7
  6
CONTINUOUS
  2
_FILLED
 10
174.6255457576
 20
59.338433428
 41
3.0
 42
3.0
 43
3.0
 50
180.0
  0
INSERT
  8
0
 62
7
  6
CONTINUOUS
  2
_FILLED
 10
249.6255457576
 20
59.338433428
 41
3.0
 42
3.0
 43
3.0
 50
360.0
  0
ENDBLK
  8
0
  6
BYBLOCK
 62
0
  0
BLOCK
  8
0
  2
_FILLED
 70
64
 10
0.0
 20
0.0
  0
SOLID
  8
0
  6
BYBLOCK
 62
0
 10
0.0
 20
0.0
 11
-1.0
 21
0.25
 12
-1.0
 22
-0.25
 13
-1.0
 23
-0.25
  0
ENDBLK
  8
0
  6
BYBLOCK
 62
0
  0
ENDSEC
  0
SECTION
  2
ENTITIES
  0
DIMENSION
  8
0
 62
7
  6
CONTINUOUS
  2
*D0
 10
71.0738413517
 20
171.6444789494
 11
71.0738413517
 21
119.6965691478
 70
128
 13
173.6255457642
 23
67.7486593463
 14
114.1633144824
 24
171.6444789494
 50
90.0
  0
DIMENSION
  8
0
 62
7
  6
CONTINUOUS
  2
*D1
 10
292.0620099286
 20
239.7486593463
 11
292.0620099286
 21
153.7486593463
 70
128
 13
250.625545751
 23
67.7486593463
 14
251.1415380462
 24
239.7486593463
 50
90.0
  0
DIMENSION
  8
0
 62
7
  6
CONTINUOUS
  2
*D2
 10
114.3371336077
 20
50.4438688878
 11
181.9813396827
 21
50.4438688878
 70
128
 13
249.6255457576
 23
66.7486593463
 14
114.3371336077
 24
132.1676275227
 50
180.0
  0
DIMENSION
  8
0
 62
7
  6
CONTINUOUS
  2
*D3
 10
242.1611195873
 20
167.2270782561
 11
253.0334217663
 21
136.1659531527
 70
130
 13
212.1255457576
 23
135.5350609756
 14
212.1255457576
 24
113.27108031
 15
267.0969015775
 25
166.3563015611
 16
248.251159351
 26
130.8667756261
  0
DIMENSION
  8
0
 62
7
  6
CONTINUOUS
  2
*D4
 10
249.6255457576
 20
59.338433428
 11
212.1255457576
 21
59.338433428
 70
128
 13
174.6255457576
 23
66.7486593463
 14
249.6255457576
 24
66.7486593463
 50
360.0
  0
LINE
  8
0
 62
7
  6
CONTINUOUS
 10
0.0
 20
0.0
 11
0.0
 21
297.0
  0
LINE
  8
0
 62
7
  6
CONTINUOUS
 10
0.0
 20
0.0
 11
420.0
 21
0.0
  0
LINE
  8
0
 62
7
  6
CONTINUOUS
 10
0.0
 20
297.0
 11
420.0
 21
297.0
  0
LINE
  8
0
 62
7
  6
CONTINUOUS
 10
420.0
 20
0.0
 11
420.0
 21
297.0
  0
LINE
  8
0
 62
7
  6
CONTINUOUS
 10
249.1255457576
 20
67.7486593463
 11
175.1255457576
 21
67.7486593463
  0
LINE
  8
0
 62
9
  6
CONTINUOUS
 10
249.6255457576
 20
68.2486593463
 11
174.6255457576
 21
68.2486593463
  0
LINE
  8
0
 62
7
  6
CONTINUOUS
 10
116.9726037316
 20
209.1376175107
 11
114.3540252332
 21
134.1513403881
  0
LINE
  8
0
 62
9
  6
CONTINUOUS
 10
117.4735016672
 20
209.6201663162
 11
114.8200421035
 21
133.6350261735
  0
LINE
  8
0
 62
7
  6
CONTINUOUS
 10
129.6887854724
 20
132.6312312544
 11
132.3760467185
 21
209.5843249349
  0
LINE
  8
0
 62
7
  6
CONTINUOUS
 10
130.3448365884
 20
133.6089309889
 11
132.9622988411
 21
208.5632430154
  0
LINE
  8
0
 62
9
  6
CONTINUOUS
 10
212.0222782675
 20
109.7692216841
 11
212.0279273308
 21
109.7693869499
  0
LINE
  8
0
 62
9
  6
CONTINUOUS
 10
176.7885692205
 20
108.9974815248
 11
179.0108149385
 21
109.0409237147
  0
LINE
  8
0
 62
9
  6
CONTINUOUS
 10
179.0108149385
 20
109.0409237147
 11
181.2405998456
 21
109.079697301
  0
POLYLINE
  8
0
 62
9
  6
CONTINUOUS
 66
1
 70
0
  0
VERTEX
  8
0
 62
9
  6
CONTINUOUS
 10
181.2405998456
 20
109.079697301
  0
VERTEX
  8
0
 62
9
  6
CONTINUOUS
 10
184.1833785611
 20
109.1245144829
  0
VERTEX
  8
0
 62
9
  6
CONTINUOUS
 10
185.902349077
 20
109.1477686887
  0
VERTEX
  8
0
 62
9
  6
CONTINUOUS
 10
187.7737448192
 20
109.1709145495
  0
VERTEX
  8
0
 62
9
  6
CONTINUOUS
 10
189.7856130844
 20
109.1935142971
  0
VERTEX
  8
0
 62
9
  6
CONTINUOUS
 10
191.9271653385
 20
109.2152274587
  0
VERTEX
  8
0
 62
9
  6
CONTINUOUS
 10
194.1835822327
 20
109.2357551316
  0
VERTEX
  8
0
 62
9
  6
CONTINUOUS
 10
196.5434877738
 20
109.2549093658
  0
VERTEX
  8
0
 62
9
  6
CONTINUOUS
 10
198.9899954296
 20
109.2725261837
  0
VERTEX
  8
0
 62
9
  6
CONTINUOUS
 10
201.511373702
 20
109.2885425331
  0
VERTEX
  8
0
 62
9
  6
CONTINUOUS
 10
204.0895528847
 20
109.3029046799
  0
VERTEX
  8
0
 62
9
  6
CONTINUOUS
 10
206.71241367
 20
109.3156368964
  0
SEQEND
  0
LINE
  8
0
 62
9
  6
CONTINUOUS
 10
177.0265814899
 20
109.5393244839
 11
179.2346164698
 21
109.5704639132
  0
LINE
  8
0
 62
9
  6
CONTINUOUS
 10
179.2346164698
 20
109.5704639132
 11
181.4498814885
 21
109.5981289816
  0
LINE
  8
0
 62
9
  6
CONTINUOUS
 10
181.4498814885
 20
109.5981289816
 11
184.3731854627
 21
109.6298894592
  0
POLYLINE
  8
0
 62
9
  6
CONTINUOUS
 66
1
 70
0
  0
VERTEX
  8
0
 62
9
  6
CONTINUOUS
 10
184.3731854627
 20
109.6298894592
  0
VERTEX
  8
0
 62
9
  6
CONTINUOUS
 10
187.9394304327
 20
109.6624118089
  0
VERTEX
  8
0
 62
9
  6
CONTINUOUS
 10
189.937650032
 20
109.6780641429
  0
VERTEX
  8
0
 62
9
  6
CONTINUOUS
 10
192.0645903374
 20
109.692945356
  0
VERTEX
  8
0
 62
9
  6
CONTINUOUS
 10
194.3055345065
 20
109.7068336409
  0
SEQEND
  0
LINE
  8
0
 62
9
  6
CONTINUOUS
 10
194.3055345065
 20
109.7068336409
 11
199.0787773617
 21
109.7310936941
  0
LINE
  8
0
 62
9
  6
CONTINUOUS
 10
206.71241367
 20
109.3156368964
 11
212.0257081524
 21
109.3363721679
  0
LINE
  8
0
 62
9
  6
CONTINUOUS
 10
199.0787773617
 20
109.7310936941
 11
204.1429023408
 21
109.7501907575
  0
POLYLINE
  8
0
 62
9
  6
CONTINUOUS
 66
1
 70
0
  0
VERTEX
  8
0
 62
9
  6
CONTINUOUS
 10
204.1429023408
 20
109.7501907575
  0
VERTEX
  8
0
 62
9
  6
CONTINUOUS
 10
209.3781575562
 20
109.7640978055
  0
VERTEX
  8
0
 62
9
  6
CONTINUOUS
 10
212.0222784652
 20
109.7692206232
  0
SEQEND
  0
LINE
  8
0
 62
9
  6
CONTINUOUS
 10
249.6255457576
 20
107.1713090771
 11
174.6255457576
 21
107.1713090771
  0
LINE
  8
0
 62
9
  6
CONTINUOUS
 10
249.1255457576
 20
108.0373344809
 11
175.1255457576
 21
108.0373344809
  0
LINE
  8
0
 62
9
  6
CONTINUOUS
 10
212.0257081524
 20
109.3363721679
 11
246.8755457576
 21
109.3363725865
  0
LINE
  8
0
 62
9
  6
CONTINUOUS
 10
212.0279272449
 20
109.7693859071
 11
246.6255457576
 21
109.7693852884
  0
POLYLINE
  8
0
 62
9
  6
CONTINUOUS
 66
1
 70
0
  0
VERTEX
  8
0
 62
9
  6
CONTINUOUS
 10
180.2595428542
 20
197.72789932
  0
VERTEX
  8
0
 62
9
  6
CONTINUOUS
 10
180.1373604661
 20
197.6437592405
  0
VERTEX
  8
0
 62
9
  6
CONTINUOUS
 10
179.9663250671
 20
197.5728187161
  0
VERTEX
  8
0
 62
9
  6
CONTINUOUS
 10
179.7650025445
 20
197.5231708342
  0
VERTEX
  8
0
 62
9
  6
CONTINUOUS
 10
179.5538741052
 20
197.4958210852
  0
VERTEX
  8
0
 62
9
  6
CONTINUOUS
 10
179.3473395488
 20
197.4876423542
  0
VERTEX
  8
0
 62
9
  6
CONTINUOUS
 10
179.151291029
 20
197.4946049556
  0
VERTEX
  8
0
 62
9
  6
CONTINUOUS
 10
178.9638848209
 20
197.5140587409
  0
VERTEX
  8
0
 62
9
  6
CONTINUOUS
 10
178.785525899
 20
197.5444938241
  0
VERTEX
  8
0
 62
9
  6
CONTINUOUS
 10
178.6188970997
 20
197.5845331263
  0
VERTEX
  8
0
 62
9
  6
CONTINUOUS
 10
178.4648490187
 20
197.6331512858
  0
SEQEND
  0
LINE
  8
0
 62
7
  6
CONTINUOUS
 10
129.6887854724
 20
132.6312312544
 11
130.3448365884
 21
133.6089309889
  0
LINE
  8
0
 62
9
  6
CONTINUOUS
 10
158.4527769252
 20
205.2702044987
 11
158.4232404945
 21
202.7986605086
  0
LINE
  8
0
 62
9
  6
CONTINUOUS
 10
158.4232404945
 20
202.7986605086
 11
158.3914746678
 21
200.4695133781
  0
LINE
  8
0
 62
9
  6
CONTINUOUS
 10
158.1183905065
 20
205.523866397
 11
158.0819350511
 21
203.0350703992
  0
POLYLINE
  8
0
 62
9
  6
CONTINUOUS
 66
1
 70
0
  0
VERTEX
  8
0
 62
9
  6
CONTINUOUS
 10
158.3914746678
 20
200.4695133781
  0
VERTEX
  8
0
 62
9
  6
CONTINUOUS
 10
158.3444278778
 20
197.4328556909
  0
VERTEX
  8
0
 62
9
  6
CONTINUOUS
 10
158.3142052023
 20
195.6681243202
  0
VERTEX
  8
0
 62
9
  6
CONTINUOUS
 10
158.279014122
 20
193.7512553911
  0
VERTEX
  8
0
 62
9
  6
CONTINUOUS
 10
158.2385286364
 20
191.693163854
  0
VERTEX
  8
0
 62
9
  6
CONTINUOUS
 10
158.1924684214
 20
189.5052978664
  0
VERTEX
  8
0
 62
9
  6
CONTINUOUS
 10
158.1406371022
 20
187.2006708456
  0
VERTEX
  8
0
 62
9
  6
CONTINUOUS
 10
158.0829162506
 20
184.7927758303
  0
VERTEX
  8
0
 62
9
  6
CONTINUOUS
 10
158.0192952492
 20
182.2962844133
  0
VERTEX
  8
0
 62
9
  6
CONTINUOUS
 10
157.9498676259
 20
179.7263769575
  0
VERTEX
  8
0
 62
9
  6
CONTINUOUS
 10
157.8748426854
 20
177.0988688384
  0
VERTEX
  8
0
 62
9
  6
CONTINUOUS
 10
157.7945474738
 20
174.4300670278
  0
VERTEX
  8
0
 62
9
  6
CONTINUOUS
 10
157.7094148719
 20
171.73629315
  0
SEQEND
  0
LINE
  8
0
 62
9
  6
CONTINUOUS
 10
158.0819350511
 20
203.0350703992
 11
158.04365043
 21
200.6897752246
  0
POLYLINE
  8
0
 62
9
  6
CONTINUOUS
 66
1
 70
0
  0
VERTEX
  8
0
 62
9
  6
CONTINUOUS
 10
158.04365043
 20
200.6897752246
  0
VERTEX
  8
0
 62
9
  6
CONTINUOUS
 10
157.9881064794
 20
197.6322060352
  0
VERTEX
  8
0
 62
9
  6
CONTINUOUS
 10
157.9529464611
 20
195.8553887918
  0
VERTEX
  8
0
 62
9
  6
CONTINUOUS
 10
157.9123928192
 20
193.9254421672
  0
VERTEX
  8
0
 62
9
  6
CONTINUOUS
 10
157.8661500242
 20
191.8533622585
  0
VERTEX
  8
0
 62
9
  6
CONTINUOUS
 10
157.8139696432
 20
189.6506793089
  0
VERTEX
  8
0
 62
9
  6
CONTINUOUS
 10
157.7556915032
 20
187.330496631
  0
VERTEX
  8
0
 62
9
  6
CONTINUOUS
 10
157.6912346317
 20
184.9063972685
  0
VERTEX
  8
0
 62
9
  6
CONTINUOUS
 10
157.6206291758
 20
182.3931477741
  0
VERTEX
  8
0
 62
9
  6
CONTINUOUS
 10
157.5440105627
 20
179.8060242291
  0
VERTEX
  8
0
 62
9
  6
CONTINUOUS
 10
157.4616325173
 20
177.1609392269
  0
VERTEX
  8
0
 62
9
  6
CONTINUOUS
 10
157.3738657116
 20
174.4742993155
  0
VERTEX
  8
0
 62
9
  6
CONTINUOUS
 10
157.2811915146
 20
171.762551699
  0
SEQEND
  0
POLYLINE
  8
0
 62
9
  6
CONTINUOUS
 66
1
 70
0
  0
VERTEX
  8
0
 62
9
  6
CONTINUOUS
 10
157.7094148719
 20
171.73629315
  0
VERTEX
  8
0
 62
9
  6
CONTINUOUS
 10
157.6412965101
 20
169.666466012
  0
VERTEX
  8
0
 62
9
  6
CONTINUOUS
 10
157.5579546671
 20
167.2191845701
  0
VERTEX
  8
0
 62
9
  6
CONTINUOUS
 10
157.4671656232
 20
164.6566268723
  0
VERTEX
  8
0
 62
9
  6
CONTINUOUS
 10
157.3713572071
 20
162.0651774858
  0
VERTEX
  8
0
 62
9
  6
CONTINUOUS
 10
157.2713813035
 20
159.4795661875
  0
VERTEX
  8
0
 62
9
  6
CONTINUOUS
 10
157.1688675594
 20
156.9485966288
  0
VERTEX
  8
0
 62
9
  6
CONTINUOUS
 10
157.0645018572
 20
154.4912003544
  0
VERTEX
  8
0
 62
9
  6
CONTINUOUS
 10
156.958852942
 20
152.1202038081
  0
VERTEX
  8
0
 62
9
  6
CONTINUOUS
 10
156.8528194112
 20
149.8525805884
  0
VERTEX
  8
0
 62
9
  6
CONTINUOUS
 10
156.7472739873
 20
147.7010668273
  0
VERTEX
  8
0
 62
9
  6
CONTINUOUS
 10
156.6433729469
 20
145.6806757768
  0
VERTEX
  8
0
 62
9
  6
CONTINUOUS
 10
156.5422752624
 20
143.8029235771
  0
VERTEX
  8
0
 62
9
  6
CONTINUOUS
 10
156.4453429844
 20
142.080011254
  0
VERTEX
  8
0
 62
9
  6
CONTINUOUS
 10
156.353961931
 20
140.5218197006
  0
VERTEX
  8
0
 62
9
  6
CONTINUOUS
 10
156.2694639908
 20
139.135397552
  0
VERTEX
  8
0
 62
9
  6
CONTINUOUS
 10
156.1932578887
 20
137.9279341146
  0
SEQEND
  0
LINE
  8
0
 62
9
  6
CONTINUOUS
 10
153.7532178738
 20
132.7914923019
 11
156.3706801265
 21
207.7458043283
  0
LINE
  8
0
 62
9
  6
CONTINUOUS
 10
154.6361654667
 20
133.2609638647
 11
157.2187282227
 21
207.2158850641
  0
POLYLINE
  8
0
 62
9
  6
CONTINUOUS
 66
1
 70
0
  0
VERTEX
  8
0
 62
9
  6
CONTINUOUS
 10
157.2811915146
 20
171.762551699
  0
VERTEX
  8
0
 62
9
  6
CONTINUOUS
 10
157.2072520584
 20
169.6791051307
  0
VERTEX
  8
0
 62
9
  6
CONTINUOUS
 10
157.1166083854
 20
167.2156050777
  0
VERTEX
  8
0
 62
9
  6
CONTINUOUS
 10
157.0176510524
 20
164.6362039178
  0
VERTEX
  8
0
 62
9
  6
CONTINUOUS
 10
156.9129838365
 20
162.0278986472
  0
VERTEX
  8
0
 62
9
  6
CONTINUOUS
 10
156.8035019098
 20
159.4256362328
  0
VERTEX
  8
0
 62
9
  6
CONTINUOUS
 10
156.6909656408
 20
156.8785636453
  0
VERTEX
  8
0
 62
9
  6
CONTINUOUS
 10
156.5761113979
 20
154.4057405328
  0
VERTEX
  8
0
 62
9
  6
CONTINUOUS
 10
156.4595531775
 20
152.020074289
  0
VERTEX
  8
0
 62
9
  6
CONTINUOUS
 10
156.3422768596
 20
149.738651065
  0
VERTEX
  8
0
 62
9
  6
CONTINUOUS
 10
156.2252490006
 20
147.5742809713
  0
VERTEX
  8
0
 62
9
  6
CONTINUOUS
 10
156.1097615691
 20
145.5420630957
  0
VERTEX
  8
0
 62
9
  6
CONTINUOUS
 10
155.997121497
 20
143.6535656721
  0
VERTEX
  8
0
 62
9
  6
CONTINUOUS
 10
155.888874444
 20
141.921037048
  0
VERTEX
  8
0
 62
9
  6
CONTINUOUS
 10
155.7866050646
 20
140.3543796921
  0
VERTEX
  8
0
 62
9
  6
CONTINUOUS
 10
155.6918481984
 20
138.9606354235
  0
VERTEX
  8
0
 62
9
  6
CONTINUOUS
 10
155.6062332891
 20
137.7469782913
  0
VERTEX
  8
0
 62
9
  6
CONTINUOUS
 10
155.5311929063
 20
136.7173520581
  0
SEQEND
  0
LINE
  8
0
 62
9
  6
CONTINUOUS
 10
156.1932578887
 20
137.9279341146
 11
156.0712067501
 21
136.0747995662
  0
LINE
  8
0
 62
9
  6
CONTINUOUS
 10
156.0712067501
 20
136.0747995662
 11
155.9698252034
 21
134.6072601868
  0
LINE
  8
0
 62
9
  6
CONTINUOUS
 10
155.5311929063
 20
136.7173520581
 11
155.4215397446
 21
135.2676246889
  0
LINE
  8
0
 62
9
  6
CONTINUOUS
 10
155.4215397446
 20
135.2676246889
 11
155.3543629181
 21
134.4103200448
  0
LINE
  8
0
 62
9
  6
CONTINUOUS
 10
157.7094148719
 20
171.73629315
 11
164.7589723207
 21
203.8874912776
  0
LINE
  8
0
 62
7
  6
CONTINUOUS
 10
250.6255457576
 20
224.370189585
 11
249.6255457576
 21
223.7486593463
  0
LINE
  8
02___PRT_ALL_AXES
 62
7
  6
CONTINUOUS
 10
153.7532178738
 20
132.7914923019
 11
130.3448365884
 21
133.6089309889
  0
LINE
  8
0
 62
7
  6
CONTINUOUS
 10
114.8200421035
 20
133.6350261735
 11
129.6887854724
 21
132.6312312544
  0
POLYLINE
  8
0
 62
9
  6
CONTINUOUS
 66
1
 70
0
  0
VERTEX
  8
0
 62
9
  6
CONTINUOUS
 10
175.6808437053
 20
200.3260096155
  0
VERTEX
  8
0
 62
9
  6
CONTINUOUS
 10
175.659747573
 20
200.2201405585
  0
VERTEX
  8
0
 62
9
  6
CONTINUOUS
 10
175.6149646213
 20
200.1196662853
  0
VERTEX
  8
0
 62
9
  6
CONTINUOUS
 10
175.5487768849
 20
200.02970673
  0
VERTEX
  8
0
 62
9
  6
CONTINUOUS
 10
175.4645571365
 20
199.9548460214
  0
VERTEX
  8
0
 62
9
  6
CONTINUOUS
 10
175.3665970177
 20
199.8988988863
  0
VERTEX
  8
0
 62
9
  6
CONTINUOUS
 10
175.2598883474
 20
199.8647162598
  0
VERTEX
  8
0
 62
9
  6
CONTINUOUS
 10
175.1498687504
 20
199.8540400087
  0
VERTEX
  8
0
 62
9
  6
CONTINUOUS
 10
175.0421445685
 20
199.8674141696
  0
SEQEND
  0
LINE
  8
0
 62
7
  6
CONTINUOUS
 10
132.3760467185
 20
209.5843249349
 11
132.9622988411
 21
208.5632430154
  0
LINE
  8
02___PRT_ALL_AXES
 62
7
  6
CONTINUOUS
 10
174.6255457576
 20
223.7486593463
 11
174.6255457576
 21
201.8977145495
  0
LINE
  8
02___PRT_ALL_AXES
 62
7
  6
CONTINUOUS
 10
174.6255457576
 20
107.1713090771
 11
174.6255457576
 21
68.2486593463
  0
LINE
  8
0
 62
7
  6
CONTINUOUS
 10
174.1098175317
 20
239.2649072547
 11
173.6255457576
 21
224.370189585
  0
LINE
  8
02___PRT_ALL_AXES
 62
7
  6
CONTINUOUS
 10
155.3543629181
 20
134.4103200448
 11
154.6361654667
 21
133.2609638647
  0
LINE
  8
02___PRT_ALL_AXES
 62
7
  6
CONTINUOUS
 10
249.1255457576
 20
199.4599842117
 11
246.8755457561
 21
198.1609461051
  0
LINE
  8
02___PRT_ALL_AXES
 62
7
  6
CONTINUOUS
 10
246.8755457576
 20
109.3363725865
 11
249.1255457576
 21
108.0373344809
  0
LINE
  8
02___PRT_ALL_AXES
 62
7
  6
CONTINUOUS
 10
158.1183905065
 20
205.523866397
 11
157.2187282227
 21
207.2158850641
  0
POLYLINE
  8
0
 62
9
  6
CONTINUOUS
 66
1
 70
0
  0
VERTEX
  8
0
 62
9
  6
CONTINUOUS
 10
178.8655399386
 20
198.5054752602
  0
VERTEX
  8
0
 62
9
  6
CONTINUOUS
 10
178.8756432925
 20
198.4625053228
  0
VERTEX
  8
0
 62
9
  6
CONTINUOUS
 10
178.8720744126
 20
198.3977995938
  0
VERTEX
  8
0
 62
9
  6
CONTINUOUS
 10
178.8550321828
 20
198.3149639098
  0
VERTEX
  8
0
 62
9
  6
CONTINUOUS
 10
178.8254663102
 20
198.2186144304
  0
VERTEX
  8
0
 62
9
  6
CONTINUOUS
 10
178.7850244012
 20
198.1141203954
  0
VERTEX
  8
0
 62
9
  6
CONTINUOUS
 10
178.7359601465
 20
198.0073049147
  0
VERTEX
  8
0
 62
9
  6
CONTINUOUS
 10
178.681007733
 20
197.9041204651
  0
VERTEX
  8
0
 62
9
  6
CONTINUOUS
 10
178.6232294776
 20
197.8103171773
  0
VERTEX
  8
0
 62
9
  6
CONTINUOUS
 10
178.5658451741
 20
197.7311223994
  0
VERTEX
  8
0
 62
9
  6
CONTINUOUS
 10
178.5120526638
 20
197.6709493937
  0
VERTEX
  8
0
 62
9
  6
CONTINUOUS
 10
178.4648496254
 20
197.6331514037
  0
SEQEND
  0
LINE
  8
02___PRT_ALL_AXES
 62
7
  6
CENTER
 10
113.1648374149
 20
171.7317276912
 11
269.8836755053
 21
166.2589852712
  0
POLYLINE
  8
0
 62
9
  6
CONTINUOUS
 66
1
 70
0
  0
VERTEX
  8
0
 62
9
  6
CONTINUOUS
 10
157.2811910292
 20
171.7625517033
  0
VERTEX
  8
0
 62
9
  6
CONTINUOUS
 10
157.3419090746
 20
171.7566349867
  0
VERTEX
  8
0
 62
9
  6
CONTINUOUS
 10
157.4186488916
 20
171.7508084574
  0
VERTEX
  8
0
 62
9
  6
CONTINUOUS
 10
157.508109129
 20
171.7453227729
  0
VERTEX
  8
0
 62
9
  6
CONTINUOUS
 10
157.6064412025
 20
171.7404139277
  0
VERTEX
  8
0
 62
9
  6
CONTINUOUS
 10
157.7094148611
 20
171.7362931007
  0
SEQEND
  0
POLYLINE
  8
0
 62
9
  6
CONTINUOUS
 66
1
 70
0
  0
VERTEX
  8
0
 62
9
  6
CONTINUOUS
 10
176.9066425666
 20
199.4599849493
  0
VERTEX
  8
0
 62
9
  6
CONTINUOUS
 10
176.9241300841
 20
199.4146856383
  0
VERTEX
  8
0
 62
9
  6
CONTINUOUS
 10
176.9270903435
 20
199.3473376545
  0
VERTEX
  8
0
 62
9
  6
CONTINUOUS
 10
176.9153550608
 20
199.2617709478
  0
VERTEX
  8
0
 62
9
  6
CONTINUOUS
 10
176.8895916707
 20
199.1628515373
  0
VERTEX
  8
0
 62
9
  6
CONTINUOUS
 10
176.8512653686
 20
199.0562047891
  0
VERTEX
  8
0
 62
9
  6
CONTINUOUS
 10
176.8025557856
 20
198.9478955108
  0
VERTEX
  8
0
 62
9
  6
CONTINUOUS
 10
176.7462330331
 20
198.8440830563
  0
VERTEX
  8
0
 62
9
  6
CONTINUOUS
 10
176.6855001683
 20
198.7506710537
  0
VERTEX
  8
0
 62
9
  6
CONTINUOUS
 10
176.6238110405
 20
198.6729716752
  0
VERTEX
  8
0
 62
9
  6
CONTINUOUS
 10
176.5646738737
 20
198.6154035421
  0
VERTEX
  8
0
 62
9
  6
CONTINUOUS
 10
176.5114517592
 20
198.5812404451
  0
SEQEND
  0
LINE
  8
0
 62
9
  6
CONTINUOUS
 10
174.4117576359
 20
200.7881353057
 11
173.974365589
 21
201.4211177003
  0
LINE
  8
0
 62
9
  6
CONTINUOUS
 10
175.0421448482
 20
199.8674150095
 11
174.4117576359
 21
200.7881353057
  0
LINE
  8
0
 62
9
  6
CONTINUOUS
 10
175.0578667687
 20
201.2573626862
 11
174.6255457576
 21
201.8977145495
  0
LINE
  8
0
 62
9
  6
CONTINUOUS
 10
175.6808428456
 20
200.3260096155
 11
175.0578667687
 21
201.2573626862
  0
POLYLINE
  8
0
 62
9
  6
CONTINUOUS
 66
1
 70
0
  0
VERTEX
  8
0
 62
9
  6
CONTINUOUS
 10
212.0222784652
 20
109.7692206232
  0
VERTEX
  8
0
 62
9
  6
CONTINUOUS
 10
211.4645741863
 20
116.4723149537
  0
VERTEX
  8
0
 62
9
  6
CONTINUOUS
 10
210.576445775
 20
123.1742416359
  0
VERTEX
  8
0
 62
9
  6
CONTINUOUS
 10
209.3644830647
 20
129.8437363141
  0
VERTEX
  8
0
 62
9
  6
CONTINUOUS
 10
207.8566582403
 20
136.3896008344
  0
VERTEX
  8
0
 62
9
  6
CONTINUOUS
 10
206.0862693148
 20
142.7605182738
  0
VERTEX
  8
0
 62
9
  6
CONTINUOUS
 10
204.0889647083
 20
148.9245586207
  0
VERTEX
  8
0
 62
9
  6
CONTINUOUS
 10
201.9080794196
 20
154.8427743012
  0
VERTEX
  8
0
 62
9
  6
CONTINUOUS
 10
199.6102435734
 20
160.4352119968
  0
VERTEX
  8
0
 62
9
  6
CONTINUOUS
 10
197.2667340564
 20
165.6358094729
  0
VERTEX
  8
0
 62
9
  6
CONTINUOUS
 10
194.9677436542
 20
170.3550709326
  0
VERTEX
  8
0
 62
9
  6
CONTINUOUS
 10
192.7674361729
 20
174.5855531712
  0
VERTEX
  8
0
 62
9
  6
CONTINUOUS
 10
190.7008308678
 20
178.3461901547
  0
VERTEX
  8
0
 62
9
  6
CONTINUOUS
 10
188.7858901858
 20
181.6728374636
  0
VERTEX
  8
0
 62
9
  6
CONTINUOUS
 10
187.0249988505
 20
184.6139317467
  0
VERTEX
  8
0
 62
9
  6
CONTINUOUS
 10
185.4252313159
 20
187.1980832542
  0
VERTEX
  8
0
 62
9
  6
CONTINUOUS
 10
184.0065847375
 20
189.4258882958
  0
VERTEX
  8
0
 62
9
  6
CONTINUOUS
 10
182.7868375182
 20
191.2969886592
  0
VERTEX
  8
0
 62
9
  6
CONTINUOUS
 10
181.7490980567
 20
192.8586022516
  0
VERTEX
  8
0
 62
9
  6
CONTINUOUS
 10
180.8584768741
 20
194.1777675674
  0
VERTEX
  8
0
 62
9
  6
CONTINUOUS
 10
180.0944109069
 20
195.2946410162
  0
VERTEX
  8
0
 62
9
  6
CONTINUOUS
 10
179.4515961076
 20
196.2240373461
  0
VERTEX
  8
0
 62
9
  6
CONTINUOUS
 10
178.9155511419
 20
196.9921208691
  0
VERTEX
  8
0
 62
9
  6
CONTINUOUS
 10
178.4648498867
 20
197.6331511494
  0
SEQEND
  0
POLYLINE
  8
0
 62
9
  6
CONTINUOUS
 66
1
 70
0
  0
VERTEX
  8
0
 62
9
  6
CONTINUOUS
 10
212.0279272449
 20
109.7693859071
  0
VERTEX
  8
0
 62
9
  6
CONTINUOUS
 10
211.4733779192
 20
116.7388972698
  0
VERTEX
  8
0
 62
9
  6
CONTINUOUS
 10
210.5806628002
 20
123.7108497577
  0
VERTEX
  8
0
 62
9
  6
CONTINUOUS
 10
209.356402289
 20
130.6504893056
  0
VERTEX
  8
0
 62
9
  6
CONTINUOUS
 10
207.830026479
 20
137.4581032158
  0
VERTEX
  8
0
 62
9
  6
CONTINUOUS
 10
206.035886168
 20
144.0806525604
  0
VERTEX
  8
0
 62
9
  6
CONTINUOUS
 10
204.0116141904
 20
150.4825081631
  0
VERTEX
  8
0
 62
9
  6
CONTINUOUS
 10
201.8059009271
 20
156.6132730261
  0
VERTEX
  8
0
 62
9
  6
CONTINUOUS
 10
199.4949580841
 20
162.3743994242
  0
VERTEX
  8
0
 62
9
  6
CONTINUOUS
 10
197.1561552408
 20
167.6940241291
  0
VERTEX
  8
0
 62
9
  6
CONTINUOUS
 10
194.889616658
 20
172.4681719605
  0
VERTEX
  8
0
 62
9
  6
CONTINUOUS
 10
192.7322696493
 20
176.7302528022
  0
VERTEX
  8
0
 62
9
  6
CONTINUOUS
 10
190.7255858483
 20
180.4876876317
  0
VERTEX
  8
0
 62
9
  6
CONTINUOUS
 10
188.8741662626
 20
183.8018111564
  0
VERTEX
  8
0
 62
9
  6
CONTINUOUS
 10
187.1848021318
 20
186.713044663
  0
VERTEX
  8
0
 62
9
  6
CONTINUOUS
 10
185.670040891
 20
189.2409991624
  0
VERTEX
  8
0
 62
9
  6
CONTINUOUS
 10
184.3614009342
 20
191.3675250868
  0
VERTEX
  8
0
 62
9
  6
CONTINUOUS
 10
183.253220425
 20
193.1295914884
  0
VERTEX
  8
0
 62
9
  6
CONTINUOUS
 10
182.308809251
 20
194.6048513804
  0
VERTEX
  8
0
 62
9
  6
CONTINUOUS
 10
181.5005428013
 20
195.8490620952
  0
VERTEX
  8
0
 62
9
  6
CONTINUOUS
 10
180.8228540402
 20
196.8797180099
  0
VERTEX
  8
0
 62
9
  6
CONTINUOUS
 10
180.2595202852
 20
197.7279333343
  0
SEQEND
  0
POLYLINE
  8
0
 62
9
  6
CONTINUOUS
 66
1
 70
0
  0
VERTEX
  8
0
 62
9
  6
CONTINUOUS
 10
212.0244106829
 20
109.3363721677
  0
VERTEX
  8
0
 62
9
  6
CONTINUOUS
 10
212.0241682188
 20
109.3683560227
  0
VERTEX
  8
0
 62
9
  6
CONTINUOUS
 10
212.0257013844
 20
109.4057840995
  0
SEQEND
  0
LINE
  8
0
 62
9
  6
CONTINUOUS
 10
212.0239191379
 20
109.4057836262
 11
212.0222773353
 21
109.7692216639
  0
LINE
  8
02___PRT_ALL_AXES
 62
7
  6
CENTER
 10
212.1255457576
 20
65.2486593463
 11
212.1255457576
 21
242.2486593463
  0
POLYLINE
  8
0
 62
9
  6
CONTINUOUS
 66
1
 70
0
  0
VERTEX
  8
0
 62
9
  6
CONTINUOUS
 10
212.0257013844
 20
109.4057840995
  0
VERTEX
  8
0
 62
9
  6
CONTINUOUS
 10
212.0276715524
 20
109.4826775179
  0
VERTEX
  8
0
 62
9
  6
CONTINUOUS
 10
212.0279272166
 20
109.7693852884
  0
SEQEND
  0
LINE
  8
02___PRT_ALL_AXES
 62
7
  6
CONTINUOUS
 10
176.7885692205
 20
108.9974815248
 11
175.1255457576
 21
108.0373344809
  0
POLYLINE
  8
0
 62
9
  6
CONTINUOUS
 66
1
 70
0
  0
VERTEX
  8
0
 62
9
  6
CONTINUOUS
 10
176.5114526574
 20
198.5812429907
  0
VERTEX
  8
0
 62
9
  6
CONTINUOUS
 10
176.3587355392
 20
198.6607391183
  0
VERTEX
  8
0
 62
9
  6
CONTINUOUS
 10
176.2143993355
 20
198.7459117159
  0
VERTEX
  8
0
 62
9
  6
CONTINUOUS
 10
176.0787700943
 20
198.8347750516
  0
VERTEX
  8
0
 62
9
  6
CONTINUOUS
 10
175.9520374058
 20
198.9256639345
  0
VERTEX
  8
0
 62
9
  6
CONTINUOUS
 10
175.8366619192
 20
199.0152464189
  0
VERTEX
  8
0
 62
9
  6
CONTINUOUS
 10
175.7327118443
 20
199.101831264
  0
VERTEX
  8
0
 62
9
  6
CONTINUOUS
 10
175.6381373004
 20
199.1857583792
  0
VERTEX
  8
0
 62
9
  6
CONTINUOUS
 10
175.5498569991
 20
199.2688653052
  0
VERTEX
  8
0
 62
9
  6
CONTINUOUS
 10
175.4645528189
 20
199.353924558
  0
VERTEX
  8
0
 62
9
  6
CONTINUOUS
 10
175.3799382062
 20
199.4433842377
  0
VERTEX
  8
0
 62
9
  6
CONTINUOUS
 10
175.2947001706
 20
199.5392523015
  0
VERTEX
  8
0
 62
9
  6
CONTINUOUS
 10
175.2088188288
 20
199.6425484172
  0
VERTEX
  8
0
 62
9
  6
CONTINUOUS
 10
175.1239616372
 20
199.7524347391
  0
VERTEX
  8
0
 62
9
  6
CONTINUOUS
 10
175.0421448482
 20
199.8674150095
  0
SEQEND
  0
POLYLINE
  8
0
 62
9
  6
CONTINUOUS
 66
1
 70
0
  0
VERTEX
  8
0
 62
9
  6
CONTINUOUS
 10
180.028671742
 20
198.1609460211
  0
VERTEX
  8
0
 62
9
  6
CONTINUOUS
 10
180.1067810938
 20
198.0995045095
  0
VERTEX
  8
0
 62
9
  6
CONTINUOUS
 10
180.1713841311
 20
198.0218236077
  0
VERTEX
  8
0
 62
9
  6
CONTINUOUS
 10
180.2196575828
 20
197.9312988841
  0
VERTEX
  8
0
 62
9
  6
CONTINUOUS
 10
180.2494920926
 20
197.8318871354
  0
VERTEX
  8
0
 62
9
  6
CONTINUOUS
 10
180.2595843599
 20
197.7279334041
  0
SEQEND
  0
LINE
  8
0
 62
9
  6
CONTINUOUS
 10
246.6255457576
 20
197.7279334041
 11
180.2595202852
 21
197.7279333343
  0
LINE
  8
0
 62
9
  6
CONTINUOUS
 10
246.8755457561
 20
198.1609461051
 11
180.0286717421
 21
198.1609460211
  0
POLYLINE
  8
0
 62
9
  6
CONTINUOUS
 66
1
 70
0
  0
VERTEX
  8
0
 62
9
  6
CONTINUOUS
 10
180.0286717421
 20
198.1609460211
  0
VERTEX
  8
0
 62
9
  6
CONTINUOUS
 10
179.9350758731
 20
198.1671732518
  0
VERTEX
  8
0
 62
9
  6
CONTINUOUS
 10
179.812509056
 20
198.1865597869
  0
VERTEX
  8
0
 62
9
  6
CONTINUOUS
 10
179.6744244145
 20
198.2170155189
  0
VERTEX
  8
0
 62
9
  6
CONTINUOUS
 10
179.5341941981
 20
198.2544312958
  0
VERTEX
  8
0
 62
9
  6
CONTINUOUS
 10
179.4005411424
 20
198.2950441307
  0
VERTEX
  8
0
 62
9
  6
CONTINUOUS
 10
179.2765510804
 20
198.3366851267
  0
VERTEX
  8
0
 62
9
  6
CONTINUOUS
 10
179.1605688041
 20
198.3791106266
  0
VERTEX
  8
0
 62
9
  6
CONTINUOUS
 10
179.0526044791
 20
198.4218850133
  0
VERTEX
  8
0
 62
9
  6
CONTINUOUS
 10
178.9540856856
 20
198.4641501253
  0
VERTEX
  8
0
 62
9
  6
CONTINUOUS
 10
178.8655399619
 20
198.505475303
  0
SEQEND
  0
POLYLINE
  8
0
 62
7
  6
CONTINUOUS
 66
1
 70
0
  0
VERTEX
  8
0
 62
7
  6
CONTINUOUS
 10
158.4527768602
 20
205.2702042071
  0
VERTEX
  8
0
 62
7
  6
CONTINUOUS
 10
158.415615942
 20
205.2798614309
  0
VERTEX
  8
0
 62
7
  6
CONTINUOUS
 10
158.3125888493
 20
205.3240275406
  0
VERTEX
  8
0
 62
7
  6
CONTINUOUS
 10
158.2219900599
 20
205.3900357381
  0
VERTEX
  8
0
 62
7
  6
CONTINUOUS
 10
158.1483731419
 20
205.4745683828
  0
VERTEX
  8
0
 62
7
  6
CONTINUOUS
 10
158.1183903784
 20
205.523866335
  0
SEQEND
  0
POLYLINE
  8
0
 62
9
  6
CONTINUOUS
 66
1
 70
0
  0
VERTEX
  8
0
 62
9
  6
CONTINUOUS
 10
176.9066537075
 20
199.459979316
  0
VERTEX
  8
0
 62
9
  6
CONTINUOUS
 10
176.792898529
 20
199.5134136775
  0
VERTEX
  8
0
 62
9
  6
CONTINUOUS
 10
176.6829560468
 20
199.5706364718
  0
VERTEX
  8
0
 62
9
  6
CONTINUOUS
 10
176.5773686232
 20
199.6304013354
  0
VERTEX
  8
0
 62
9
  6
CONTINUOUS
 10
176.4767479611
 20
199.6915470673
  0
VERTEX
  8
0
 62
9
  6
CONTINUOUS
 10
176.383436308
 20
199.7518323718
  0
VERTEX
  8
0
 62
9
  6
CONTINUOUS
 10
176.2978900773
 20
199.8101192236
  0
VERTEX
  8
0
 62
9
  6
CONTINUOUS
 10
176.2187636698
 20
199.8666312351
  0
VERTEX
  8
0
 62
9
  6
CONTINUOUS
 10
176.1436979618
 20
199.9226042372
  0
VERTEX
  8
0
 62
9
  6
CONTINUOUS
 10
176.0699548164
 20
199.9799034422
  0
VERTEX
  8
0
 62
9
  6
CONTINUOUS
 10
175.9955058901
 20
200.040178179
  0
VERTEX
  8
0
 62
9
  6
CONTINUOUS
 10
175.9190252651
 20
200.1047825806
  0
VERTEX
  8
0
 62
9
  6
CONTINUOUS
 10
175.8402225322
 20
200.1744048553
  0
VERTEX
  8
0
 62
9
  6
CONTINUOUS
 10
175.760302282
 20
200.2484824848
  0
VERTEX
  8
0
 62
9
  6
CONTINUOUS
 10
175.6808428456
 20
200.3260096155
  0
SEQEND
  0
LINE
  8
0
 62
9
  6
CONTINUOUS
 10
178.4648498867
 20
197.6331511494
 11
176.5114526574
 21
198.5812429907
  0
LINE
  8
0
 62
9
  6
CONTINUOUS
 10
178.8655399619
 20
198.505475303
 11
176.9066522136
 21
199.459979316
  0
LINE
  8
0
 62
9
  6
CONTINUOUS
 10
249.1255457576
 20
199.4599842117
 11
176.9066522136
 21
199.459979316
  0
LINE
  8
0
 62
9
  6
CONTINUOUS
 10
175.6808428456
 20
200.3260096155
 11
249.6255457576
 21
200.3260096155
  0
LINE
  8
0
 62
7
  6
CONTINUOUS
 10
164.7589723207
 20
203.8874912776
 11
158.4527769252
 21
205.2702044987
  0
LINE
  8
0
 62
7
  6
CONTINUOUS
 10
117.4735016672
 20
209.6201663162
 11
132.3760467185
 21
209.5843249349
  0
LINE
  8
02___PRT_ALL_AXES
 62
7
  6
CONTINUOUS
 10
156.3706801265
 20
207.7458043283
 11
132.9622988411
 21
208.5632430154
  0
LINE
  8
0
 62
7
  6
CONTINUOUS
 10
173.6255457576
 20
224.370189585
 11
174.6255457576
 21
223.7486593463
  0
LINE
  8
02___PRT_ALL_AXES
 62
7
  6
CONTINUOUS
 10
246.6255457576
 20
197.7279334041
 11
246.6255457576
 21
109.7693852884
  0
LINE
  8
0
 62
7
  6
CONTINUOUS
 10
250.1412739835
 20
239.2649072547
 11
250.6255457576
 21
224.370189585
  0
LINE
  8
02___PRT_ALL_AXES
 62
7
  6
CONTINUOUS
 10
249.6255457576
 20
223.7486593463
 11
249.6255457576
 21
200.3260096155
  0
LINE
  8
02___PRT_ALL_AXES
 62
7
  6
CONTINUOUS
 10
249.6255457576
 20
107.1713090771
 11
249.6255457576
 21
68.2486593463
  0
LINE
  8
0
 62
7
  6
CONTINUOUS
 10
249.6255457576
 20
223.7486593463
 11
174.6255457576
 21
223.7486593463
  0
LINE
  8
0
 62
7
  6
CONTINUOUS
 10
173.6255457576
 20
224.370189585
 11
250.6255457576
 21
224.370189585
  0
LINE
  8
0
 62
9
  6
CONTINUOUS
 10
250.1412739835
 20
239.2649072547
 11
174.1098175317
 21
239.2649072547
  0
LINE
  8
0
 62
7
  6
CONTINUOUS
 10
249.6415380477
 20
239.7486593463
 11
174.6095534675
 21
239.7486593463
  0
ARC
  8
0
 62
7
  6
CONTINUOUS
 10
142.3777103596
 20
101.8123762249
 40
104.5
 50
72.4005742625
 51
77.632883456
  0
ARC
  8
0
 62
7
  6
CONTINUOUS
 10
142.3777103596
 20
101.8123762249
 40
35.5
 50
12.571660805
 51
67.488027685
  0
ARC
  8
0
 62
7
  6
CONTINUOUS
 10
175.6255457576
 20
107.1713090771
 40
1.0
 50
120.0
 51
180.0
  0
ARC
  8
0
 62
7
  6
CONTINUOUS
 10
153.7881173705
 20
133.7908831289
 40
1.0
 50
268.0
 51
328.0
  0
ARC
  8
0
 62
7
  6
CONTINUOUS
 10
175.1255457576
 20
68.2486593463
 40
0.5
 50
180.0
 51
270.0
  0
ARC
  8
0
 62
7
  6
CONTINUOUS
 10
114.8537206467
 20
134.1338906398
 40
0.5
 50
178.0
 51
266.1377990079
  0
ARC
  8
0
 62
7
  6
CONTINUOUS
 10
155.7783869737
 20
134.1453604646
 40
0.4999999994
 50
67.4880262239
 51
148.0000055914
  0
ARC
  8
0
 62
7
  6
CONTINUOUS
 10
176.5385692686
 20
109.4304942291
 40
0.4999999994
 50
299.9999950366
 51
12.5716617297
  0
ARC
  8
0
 62
7
  6
CONTINUOUS
 10
156.3357806298
 20
206.7464135013
 40
1.0
 50
28.0
 51
88.0
  0
ARC
  8
0
 62
7
  6
CONTINUOUS
 10
117.4722991452
 20
209.1201677623
 40
0.5
 50
89.8622009921
 51
178.0
  0
ARC
  8
0
 62
7
  6
CONTINUOUS
 10
174.6095534675
 20
239.2486593463
 40
0.5
 50
90.0
 51
178.1377990079
  0
ARC
  8
0
 62
7
  6
CONTINUOUS
 10
174.1255458878
 20
201.8977143776
 40
0.4999999981
 50
252.4005537696
 51
0.0000194575
  0
ARC
  8
0
 62
7
  6
CONTINUOUS
 10
248.6255457576
 20
107.1713090771
 40
1.0
 50
0.0
 51
60.0
  0
ARC
  8
0
 62
7
  6
CONTINUOUS
 10
247.1255457576
 20
109.7693852884
 40
0.5
 50
180.0
 51
240.0
  0
ARC
  8
0
 62
7
  6
CONTINUOUS
 10
249.1255457576
 20
68.2486593463
 40
0.5
 50
270.0
 51
360.0
  0
ARC
  8
0
 62
7
  6
CONTINUOUS
 10
248.6255457576
 20
200.3260096155
 40
1.0
 50
300.0
 51
360.0
  0
ARC
  8
0
 62
7
  6
CONTINUOUS
 10
247.1255457576
 20
197.7279334041
 40
0.5
 50
120.0000002011
 51
180.0
  0
ARC
  8
0
 62
7
  6
CONTINUOUS
 10
249.6415380477
 20
239.2486593463
 40
0.5
 50
1.8622009921
 51
90.0
  0
ENDSEC
  0
EOF
