999
DXF file: 101-80-45_plain_bend.dxf
999
Pro/ENGINEER 2006320 by Parametric Technology Corporation
  0
SECTION
  2
HEADER
  9
$ACADVER
  1
AC1012
  9
$DWGCODEPAGE
  3
ANSI_1252
  9
$EXTMAX
 10
420.0
 20
297.0
 30
0.0
  9
$EXTMIN
 10
0.0
 20
0.0
 30
0.0
  9
$LIMMIN
 10
0.0
 20
0.0
  9
$LIMMAX
 10
420.0
 20
297.0
  9
$VIEWCTR
 10
210.0
 20
148.5
  9
$VIEWSIZE
 40
297.0
  9
$CLAYER
  8
0
  9
$LTSCALE
 40
23.1
  9
$CELTYPE
  6
BYLAYER
  9
$DIMSCALE
 40
1.0
  9
$DIMASZ
 40
3.0
  9
$DIMEXO
 40
2.625
  9
$DIMDLI
 40
15.96
  9
$DIMEXE
 40
7.56
  9
$DIMCEN
 40
3.78
  9
$DIMLFAC
 40
1.0
  9
$DIMBLK
  1
_FILLED
  9
$DIMTXT
 40
3.0
  9
$DIMTOL
 70
0
  9
$DIMLIM
 70
0
  9
$DIMTFAC
 40
1.0
  9
$PDMODE
 70
3
  9
$PDSIZE
 40
0.3125
  9
$HANDSEED
  5
264
  0
ENDSEC
  0
SECTION
  2
CLASSES
  0
ENDSEC
  0
SECTION
  2
TABLES
  0
TABLE
  2
VPORT
  5
8
100
AcDbSymbolTable
 70
2
  0
VPORT
  5
1F4
100
AcDbSymbolTableRecord
100
AcDbViewportTableRecord
  2
*ACTIVE
 70
0
 10
0.0
 20
0.0
 11
1.0
 21
1.0
 12
210.0
 22
148.5
 13
0.0
 23
0.0
 14
1.0
 24
1.0
 15
0.0
 25
0.0
 16
0.0
 26
0.0
 36
1.0
 17
0.0
 27
0.0
 37
0.0
 40
297.0
 41
1.4141414141
 42
50.0
 43
0.0
 44
0.0
 50
0.0
 51
0.0
 71
0
 72
100
 73
1
 74
1
 75
0
 76
0
 77
0
 78
0
  0
ENDTAB
  0
TABLE
  2
LTYPE
  5
5
100
AcDbSymbolTable
 70
6
  0
LTYPE
  5
14
100
AcDbSymbolTableRecord
100
AcDbLinetypeTableRecord
  2
BYBLOCK
 70
0
  3

 72
65
 73
0
 40
0.0
  0
LTYPE
  5
15
100
AcDbSymbolTableRecord
100
AcDbLinetypeTableRecord
  2
BYLAYER
 70
0
  3

 72
65
 73
0
 40
0.0
  0
LTYPE
  5
16
100
AcDbSymbolTableRecord
100
AcDbLinetypeTableRecord
  2
CONTINUOUS
 70
64
  3
Solid line
 72
65
 73
0
 40
0.0
  0
LTYPE
  5
1F5
100
AcDbSymbolTableRecord
100
AcDbLinetypeTableRecord
  2
CENTER
 70
64
  3
____ _ ____ _ ____ _ ____ _ ____ _ ____ _ ____
 72
65
 73
4
 40
0.6
 49
0.375
 74
0
 49
-0.075
 74
0
 49
0.075
 74
0
 49
-0.075
 74
0
  0
LTYPE
  5
1F6
100
AcDbSymbolTableRecord
100
AcDbLinetypeTableRecord
  2
HIDDEN
 70
64
  3
- - - - - - - - - - - - - - - - - - - -
 72
65
 73
2
 40
0.2
 49
0.1
 74
0
 49
-0.1
 74
0
  0
LTYPE
  5
1F7
100
AcDbSymbolTableRecord
100
AcDbLinetypeTableRecord
  2
PHANTOM
 70
64
  3
_____ _ _ _____ _ _ _____ _ _ _____
 72
65
 73
6
 40
0.8
 49
0.45
 74
0
 49
-0.05
 74
0
 49
0.1
 74
0
 49
-0.05
 74
0
 49
0.1
 74
0
 49
-0.05
 74
0
  0
LTYPE
  5
1F8
100
AcDbSymbolTableRecord
100
AcDbLinetypeTableRecord
  2
DOT
 70
64
  3
. . . . . . . . . . . . . . . . . . . .
 72
65
 73
2
 40
0.2
 49
0.1
 74
0
 49
-0.1
 74
0
  0
LTYPE
  5
1F9
100
AcDbSymbolTableRecord
100
AcDbLinetypeTableRecord
  2
DASHED
 70
64
  3
- - - - - - - - - - - - - - - - - - - -
 72
65
 73
2
 40
0.2
 49
0.1
 74
0
 49
-0.1
 74
0
  0
ENDTAB
  0
TABLE
  2
LAYER
  5
2
100
AcDbSymbolTable
 70
36
  0
LAYER
  5
10
100
AcDbSymbolTableRecord
100
AcDbLayerTableRecord
  2
0
 70
0
 62
7
  6
CONTINUOUS
  0
LAYER
  5
1FA
100
AcDbSymbolTableRecord
100
AcDbLayerTableRecord
  2
DEFAULT_1
 70
0
 62
7
  6
CENTER
  0
LAYER
  5
1FB
100
AcDbSymbolTableRecord
100
AcDbLayerTableRecord
  2
DEFAULT_2
 70
0
 62
8
  6
HIDDEN
  0
LAYER
  5
1FC
100
AcDbSymbolTableRecord
100
AcDbLayerTableRecord
  2
DEFAULT_3
 70
0
 62
7
  6
PHANTOM
  0
LAYER
  5
1FD
100
AcDbSymbolTableRecord
100
AcDbLayerTableRecord
  2
_2D_DELETED_OBJS
 70
0
 62
7
  6
CONTINUOUS
  0
LAYER
  5
1FE
100
AcDbSymbolTableRecord
100
AcDbLayerTableRecord
  2
01___PRT_ALL_DTM_PLN
 70
0
 62
7
  6
CONTINUOUS
  0
LAYER
  5
1FF
100
AcDbSymbolTableRecord
100
AcDbLayerTableRecord
  2
01___PRT_DEF_DTM_PLN
 70
0
 62
7
  6
CONTINUOUS
  0
LAYER
  5
200
100
AcDbSymbolTableRecord
100
AcDbLayerTableRecord
  2
02___PRT_ALL_AXES
 70
0
 62
7
  6
CONTINUOUS
  0
LAYER
  5
201
100
AcDbSymbolTableRecord
100
AcDbLayerTableRecord
  2
03___PRT_ALL_CURVES
 70
0
 62
7
  6
CONTINUOUS
  0
LAYER
  5
202
100
AcDbSymbolTableRecord
100
AcDbLayerTableRecord
  2
04___PRT_ALL_DTM_PNT
 70
0
 62
7
  6
CONTINUOUS
  0
LAYER
  5
203
100
AcDbSymbolTableRecord
100
AcDbLayerTableRecord
  2
05___PRT_ALL_DTM_CSYS
 70
0
 62
7
  6
CONTINUOUS
  0
LAYER
  5
204
100
AcDbSymbolTableRecord
100
AcDbLayerTableRecord
  2
05___PRT_DEF_DTM_CSYS
 70
0
 62
7
  6
CONTINUOUS
  0
LAYER
  5
205
100
AcDbSymbolTableRecord
100
AcDbLayerTableRecord
  2
06___PRT_ALL_SURFS
 70
0
 62
7
  6
CONTINUOUS
  0
LAYER
  5
206
100
AcDbSymbolTableRecord
100
AcDbLayerTableRecord
  2
CURVES
 70
0
 62
7
  6
CONTINUOUS
  0
ENDTAB
  0
TABLE
  2
STYLE
  5
3
100
AcDbSymbolTable
 70
1
  0
STYLE
  5
11
100
AcDbSymbolTableRecord
100
AcDbTextStyleTableRecord
  2
STANDARD
 70
0
 40
0.0
 41
0.6
 50
0.0
 71
0
 42
0.2
  3
txt
  4

  0
ENDTAB
  0
TABLE
  2
VIEW
  5
6
100
AcDbSymbolTable
 70
0
  0
ENDTAB
  0
TABLE
  2
UCS
  5
7
100
AcDbSymbolTable
 70
0
  0
ENDTAB
  0
TABLE
  2
APPID
  5
9
100
AcDbSymbolTable
 70
1
  0
APPID
  5
207
100
AcDbSymbolTableRecord
100
AcDbRegAppTableRecord
  2
ACAD
 70
0
  0
ENDTAB
  0
TABLE
  2
BLOCK_RECORD
  5
1
100
AcDbSymbolTable
 70
0
  0
BLOCK_RECORD
  5
1F
100
AcDbSymbolTableRecord
100
AcDbBlockTableRecord
  2
*MODEL_SPACE
  0
BLOCK_RECORD
  5
1B
100
AcDbSymbolTableRecord
100
AcDbBlockTableRecord
  2
*PAPER_SPACE
  0
BLOCK_RECORD
  5
208
100
AcDbSymbolTableRecord
100
AcDbBlockTableRecord
  2
_FILLED
  0
BLOCK_RECORD
  5
209
100
AcDbSymbolTableRecord
100
AcDbBlockTableRecord
  2
*D0
  0
BLOCK_RECORD
  5
20A
100
AcDbSymbolTableRecord
100
AcDbBlockTableRecord
  2
*D1
  0
BLOCK_RECORD
  5
20B
100
AcDbSymbolTableRecord
100
AcDbBlockTableRecord
  2
*D2
  0
BLOCK_RECORD
  5
20C
100
AcDbSymbolTableRecord
100
AcDbBlockTableRecord
  2
*D3
  0
ENDTAB
  0
TABLE
  2
DIMSTYLE
  5
A
100
AcDbSymbolTable
 70
1
  0
DIMSTYLE
105
20D
100
AcDbSymbolTableRecord
100
AcDbDimStyleTableRecord
  2
STANDARD
 70
0
  3

  4

  5
_FILLED
  6
_FILLED
  7
_FILLED
 40
1.0
 41
3.0
 42
0.0625
 43
0.38
 44
0.18
 45
0.0
 46
0.0
 47
0.03
 48
0.03
140
3.0
141
0.09
142
0.0
143
25.4
144
1.0
145
0.0
146
1.0
147
0.09
 71
0.0
 72
0.0
 73
1
 74
1
 75
0
 76
0
 77
0
 78
8
170
0
171
2
172
0
173
0
174
0
175
0
176
0
177
0
178
0
270
2
271
2
272
2
273
2
274
2
275
0
280
0
281
0
282
0
283
1
284
8
285
0
286
0
287
3
288
0
340
11
  0
DIMSTYLE
105
20E
100
AcDbSymbolTableRecord
100
AcDbDimStyleTableRecord
  2
DIMSTYLE_1
 70
0
  3

  4

  5
_FILLED
  6
_FILLED
  7
_FILLED
 40
1.0
 41
3.0
 42
0.0625
 43
0.38
 44
0.18
 45
0.0
 46
0.0
 47
0.0
 48
0.0
140
3.0
141
0.09
142
0.0
143
25.4
144
1.0
145
0.0
146
1.0
147
0.09
 71
0.0
 72
0.0
 73
1
 74
1
 75
0
 76
0
 77
0
 78
8
170
0
171
2
172
0
173
0
174
0
175
0
176
0
177
0
178
0
270
2
271
0
272
0
273
2
274
2
275
0
280
0
281
0
282
0
283
1
284
8
285
0
286
0
287
3
288
0
340
11
  0
DIMSTYLE
105
20F
100
AcDbSymbolTableRecord
100
AcDbDimStyleTableRecord
  2
DIMSTYLE_2
 70
0
  3

  4

  5
_FILLED
  6
_FILLED
  7
_FILLED
 40
1.0
 41
3.0
 42
0.0625
 43
0.38
 44
0.18
 45
0.0
 46
0.0
 47
0.0
 48
0.0
140
3.0
141
0.09
142
0.0
143
25.4
144
1.0
145
0.0
146
1.0
147
0.09
 71
0.0
 72
0.0
 73
1
 74
1
 75
0
 76
0
 77
0
 78
8
170
0
171
2
172
0
173
0
174
0
175
0
176
0
177
0
178
0
270
2
271
1
272
1
273
2
274
2
275
0
280
0
281
0
282
0
283
1
284
8
285
0
286
0
287
3
288
0
340
11
  0
ENDTAB
  0
ENDSEC
  0
SECTION
  2
BLOCKS
  0
BLOCK
  5
20
100
AcDbEntity
  8
0
100
AcDbBlockBegin
  2
*MODEL_SPACE
 70
0
 10
0.0
 20
0.0
 30
0.0
  3
*MODEL_SPACE
  1

  0
ENDBLK
  5
21
100
AcDbEntity
  8
0
100
AcDbBlockEnd
  0
BLOCK
  5
1C
100
AcDbEntity
  8
0
100
AcDbBlockBegin
  2
*PAPER_SPACE
 70
0
 10
0.0
 20
0.0
 30
0.0
  3
*PAPER_SPACE
  1

  0
ENDBLK
  5
1D
100
AcDbEntity
  8
0
100
AcDbBlockEnd
  0
BLOCK
  5
210
100
AcDbEntity
  8
0
100
AcDbBlockBegin
 62
2
  6
CONTINUOUS
  2
*D0
 70
65
 10
0.0
 20
0.0
  3
*D0
  1

  0
TEXT
  5
211
100
AcDbEntity
  8
0
100
AcDbText
 62
2
  6
CONTINUOUS
 10
104.0601680375
 20
152.0832479508
  7
STANDARD
 40
3.0
  1
139
 41
0.6
 72
0
100
AcDbText
  0
LINE
  5
212
100
AcDbEntity
  8
0
100
AcDbLine
 62
2
  6
CONTINUOUS
 10
131.2571866908
 20
84.2153151213
 11
103.7601680375
 21
84.2153151213
  0
LINE
  5
213
100
AcDbEntity
  8
0
100
AcDbLine
 62
2
  6
CONTINUOUS
 10
190.3742561394
 20
222.9511807803
 11
103.7601680375
 21
222.9511807803
  0
LINE
  5
214
100
AcDbEntity
  8
0
100
AcDbLine
 62
2
  6
CONTINUOUS
 10
106.7601680375
 20
84.2153151213
 11
106.7601680375
 21
150.5832479508
  0
LINE
  5
215
100
AcDbEntity
  8
0
100
AcDbLine
 62
2
  6
CONTINUOUS
 10
106.7601680375
 20
222.9511807803
 11
106.7601680375
 21
156.5832479508
  0
INSERT
  5
216
100
AcDbEntity
  8
0
100
AcDbBlockReference
 62
2
  6
CONTINUOUS
  2
_FILLED
 10
106.7601680375
 20
84.2153151213
 41
3.0
 42
3.0
 43
3.0
 50
270.0
  0
INSERT
  5
217
100
AcDbEntity
  8
0
100
AcDbBlockReference
 62
2
  6
CONTINUOUS
  2
_FILLED
 10
106.7601680375
 20
222.9511807803
 41
3.0
 42
3.0
 43
3.0
 50
90.0
  0
ENDBLK
  5
218
100
AcDbEntity
  8
0
  6
BYBLOCK
 62
0
100
AcDbBlockEnd
  0
BLOCK
  5
219
100
AcDbEntity
  8
0
100
AcDbBlockBegin
 62
2
  6
CONTINUOUS
  2
*D1
 70
65
 10
0.0
 20
0.0
  3
*D1
  1

  0
TEXT
  5
21A
100
AcDbEntity
  8
0
100
AcDbText
 62
2
  6
CONTINUOUS
 10
177.1079789959
 20
59.9396246409
  7
STANDARD
 40
3.0
  1
92
 41
0.6
 72
0
100
AcDbText
  0
LINE
  5
21B
100
AcDbEntity
  8
0
100
AcDbLine
 62
2
  6
CONTINUOUS
 10
225.058771301
 20
82.7153151213
 11
225.058771301
 21
58.4396246409
  0
LINE
  5
21C
100
AcDbEntity
  8
0
100
AcDbLine
 62
2
  6
CONTINUOUS
 10
132.7571866908
 20
82.7153151213
 11
132.7571866908
 21
58.4396246409
  0
LINE
  5
21D
100
AcDbEntity
  8
0
100
AcDbLine
 62
2
  6
CONTINUOUS
 10
225.058771301
 20
61.4396246409
 11
182.2079789959
 21
61.4396246409
  0
LINE
  5
21E
100
AcDbEntity
  8
0
100
AcDbLine
 62
2
  6
CONTINUOUS
 10
132.7571866908
 20
61.4396246409
 11
175.6079789959
 21
61.4396246409
  0
INSERT
  5
21F
100
AcDbEntity
  8
0
100
AcDbBlockReference
 62
2
  6
CONTINUOUS
  2
_FILLED
 10
225.058771301
 20
61.4396246409
 41
3.0
 42
3.0
 43
3.0
  0
INSERT
  5
220
100
AcDbEntity
  8
0
100
AcDbBlockReference
 62
2
  6
CONTINUOUS
  2
_FILLED
 10
132.7571866908
 20
61.4396246409
 41
3.0
 42
3.0
 43
3.0
 50
180.0
  0
ENDBLK
  5
221
100
AcDbEntity
  8
0
  6
BYBLOCK
 62
0
100
AcDbBlockEnd
  0
BLOCK
  5
222
100
AcDbEntity
  8
0
100
AcDbBlockBegin
 62
2
  6
CONTINUOUS
  2
*D2
 70
65
 10
0.0
 20
0.0
  3
*D2
  1

  0
TEXT
  5
223
100
AcDbEntity
  8
0
100
AcDbText
 62
2
  6
CONTINUOUS
 10
191.0819731779
 20
50.0128692657
  7
STANDARD
 40
3.0
  1
122
 41
0.6
 72
0
100
AcDbText
  0
LINE
  5
224
100
AcDbEntity
  8
0
100
AcDbLine
 62
2
  6
CONTINUOUS
 10
132.7571866908
 20
82.7153151213
 11
132.7571866908
 21
48.5128692657
  0
LINE
  5
225
100
AcDbEntity
  8
0
100
AcDbLine
 62
2
  6
CONTINUOUS
 10
254.806759665
 20
158.5186772547
 11
254.806759665
 21
48.5128692657
  0
LINE
  5
226
100
AcDbEntity
  8
0
100
AcDbLine
 62
2
  6
CONTINUOUS
 10
132.7571866908
 20
51.5128692657
 11
189.5819731779
 21
51.5128692657
  0
LINE
  5
227
100
AcDbEntity
  8
0
100
AcDbLine
 62
2
  6
CONTINUOUS
 10
254.806759665
 20
51.5128692657
 11
197.9819731779
 21
51.5128692657
  0
INSERT
  5
228
100
AcDbEntity
  8
0
100
AcDbBlockReference
 62
2
  6
CONTINUOUS
  2
_FILLED
 10
132.7571866908
 20
51.5128692657
 41
3.0
 42
3.0
 43
3.0
 50
180.0
  0
INSERT
  5
229
100
AcDbEntity
  8
0
100
AcDbBlockReference
 62
2
  6
CONTINUOUS
  2
_FILLED
 10
254.806759665
 20
51.5128692657
 41
3.0
 42
3.0
 43
3.0
 50
360.0
  0
ENDBLK
  5
22A
100
AcDbEntity
  8
0
  6
BYBLOCK
 62
0
100
AcDbBlockEnd
  0
BLOCK
  5
22B
100
AcDbEntity
  8
0
100
AcDbBlockBegin
 62
2
  6
CONTINUOUS
  2
*D3
 70
65
 10
0.0
 20
0.0
  3
*D3
  1

  0
TEXT
  5
22C
100
AcDbEntity
  8
0
100
AcDbText
 62
2
  6
CONTINUOUS
 10
208.4746934073
 20
223.6925610126
  7
STANDARD
 40
3.0
  1
45%%d
 41
0.6222222222
 72
0
100
AcDbText
  0
LINE
  5
22D
100
AcDbEntity
  8
0
100
AcDbLine
 62
2
  6
CONTINUOUS
 10
211.6843321468
 20
179.8287532621
 11
240.8351892981
 21
208.9796104134
  0
LINE
  5
22E
100
AcDbEntity
  8
0
100
AcDbLine
 62
2
  6
CONTINUOUS
 10
178.9079789959
 20
200.4048755008
 11
178.9079789959
 21
234.6307008005
  0
ARC
  5
22F
100
AcDbEntity
  8
0
100
AcDbCircle
 62
2
  6
CONTINUOUS
 10
178.9079789959
 20
147.0524001112
 40
84.5783006893
100
AcDbArc
 50
45.0
 51
64.3085957911
  0
ARC
  5
230
100
AcDbEntity
  8
0
100
AcDbCircle
 62
2
  6
CONTINUOUS
 10
178.9079789959
 20
147.0524001112
 40
84.5783006893
100
AcDbArc
 50
70.6193255639
 51
90.0
  0
SOLID
  5
231
100
AcDbEntity
  8
0
100
AcDbTrace
 62
2
  6
CONTINUOUS
 10
236.0344207231
 20
208.40200545
 11
238.7138689545
 21
206.8582900698
 12
237.0761042234
 22
209.4813086907
 13
237.0761042234
 23
209.4813086907
  0
SOLID
  5
232
100
AcDbEntity
  8
0
100
AcDbTrace
 62
2
  6
CONTINUOUS
 10
181.9208077973
 20
232.3273805071
 11
178.9079789959
 21
231.6307008005
 12
181.8942066238
 22
230.8276163998
 13
181.8942066238
 23
230.8276163998
  0
ENDBLK
  5
233
100
AcDbEntity
  8
0
  6
BYBLOCK
 62
0
100
AcDbBlockEnd
  0
BLOCK
  5
234
100
AcDbEntity
  8
0
100
AcDbBlockBegin
  2
_FILLED
 70
64
 10
0.0
 20
0.0
  3
_FILLED
  1

  0
SOLID
  5
235
100
AcDbEntity
  8
0
  6
BYBLOCK
 62
0
100
AcDbTrace
 10
0.0
 20
0.0
 11
-1.0
 21
0.25
 12
-1.0
 22
-0.25
 13
-1.0
 23
-0.25
  0
ENDBLK
  5
236
100
AcDbEntity
  8
0
  6
BYBLOCK
 62
0
100
AcDbBlockEnd
  0
ENDSEC
  0
SECTION
  2
ENTITIES
  0
DIMENSION
  5
237
100
AcDbEntity
  8
0
100
AcDbDimension
 62
2
  6
CONTINUOUS
  2
*D0
 10
106.7601680375
 20
222.9511807803
 11
106.7601680375
 21
153.5832479508
 70
160
  3
DIMSTYLE_1
100
AcDbAlignedDimension
 13
131.2571866908
 23
84.2153151213
 14
190.3742561394
 24
222.9511807803
 50
90.0
100
AcDbRotatedDimension
  0
DIMENSION
  5
238
100
AcDbEntity
  8
0
100
AcDbDimension
 62
2
  6
CONTINUOUS
  2
*D1
 10
132.7571866908
 20
61.4396246409
 11
178.9079789959
 21
61.4396246409
 70
160
  3
DIMSTYLE_1
100
AcDbAlignedDimension
 13
225.058771301
 23
82.7153151213
 14
132.7571866908
 24
82.7153151213
 50
180.0
100
AcDbRotatedDimension
  0
DIMENSION
  5
239
100
AcDbEntity
  8
0
100
AcDbDimension
 62
2
  6
CONTINUOUS
  2
*D2
 10
254.806759665
 20
51.5128692657
 11
193.7819731779
 21
51.5128692657
 70
160
  3
DIMSTYLE_1
100
AcDbAlignedDimension
 13
132.7571866908
 23
82.7153151213
 14
254.806759665
 24
158.5186772547
100
AcDbRotatedDimension
  0
DIMENSION
  5
23A
100
AcDbEntity
  8
0
100
AcDbDimension
 62
2
  6
CONTINUOUS
  2
*D3
 10
178.9079789959
 20
200.4048755008
 11
211.2746934073
 21
225.1925610126
 70
162
  3
DIMSTYLE_2
100
AcDb2LineAngularDimension
 13
211.6843321468
 23
179.8287532621
 14
240.8351892981
 24
208.9796104134
 15
178.9079789959
 25
234.6307008005
 16
211.2746934073
 26
225.1925610126
  0
LINE
  5
23B
100
AcDbEntity
  8
0
100
AcDbLine
 62
7
  6
CONTINUOUS
 10
0.0
 20
0.0
 11
0.0
 21
297.0
  0
LINE
  5
23C
100
AcDbEntity
  8
0
100
AcDbLine
 62
7
  6
CONTINUOUS
 10
0.0
 20
0.0
 11
420.0
 21
0.0
  0
LINE
  5
23D
100
AcDbEntity
  8
0
100
AcDbLine
 62
7
  6
CONTINUOUS
 10
0.0
 20
297.0
 11
420.0
 21
297.0
  0
LINE
  5
23E
100
AcDbEntity
  8
0
100
AcDbLine
 62
7
  6
CONTINUOUS
 10
420.0
 20
0.0
 11
420.0
 21
297.0
  0
LINE
  5
23F
100
AcDbEntity
  8
0
100
AcDbLine
 62
7
  6
CONTINUOUS
 10
225.058771301
 20
84.2153151213
 11
132.7571866908
 21
84.2153151213
  0
LINE
  5
240
100
AcDbEntity
  8
0
100
AcDbLine
 62
7
  6
CONTINUOUS
 10
132.4079789959
 20
94.2153151213
 11
132.7571866908
 21
84.2153151213
  0
LINE
  5
241
100
AcDbEntity
  8
02___PRT_ALL_AXES
100
AcDbLine
 62
7
  6
CONTINUOUS
 10
134.4079789959
 20
129.2153151213
 11
134.4079789959
 21
95.3700156597
  0
LINE
  5
242
100
AcDbEntity
  8
0
100
AcDbLine
 62
7
  6
CONTINUOUS
 10
138.6377977199
 20
122.7153151213
 11
138.6377977199
 21
125.7153151213
  0
LINE
  5
243
100
AcDbEntity
  8
0
100
AcDbLine
 62
7
  6
CONTINUOUS
 10
225.4079789959
 20
94.2153151213
 11
132.4079789959
 21
94.2153151213
  0
LINE
  5
244
100
AcDbEntity
  8
0
100
AcDbLine
 62
7
  6
CONTINUOUS
 10
223.4079789959
 20
95.3700156597
 11
134.4079789959
 21
95.3700156597
  0
LINE
  5
245
100
AcDbEntity
  8
02___PRT_ALL_AXES
100
AcDbLine
 62
7
  6
CONTINUOUS
 10
191.8742561394
 20
222.9511807803
 11
160.054450986
 21
191.1313756269
  0
LINE
  5
246
100
AcDbEntity
  8
0
100
AcDbLine
 62
7
  6
CONTINUOUS
 10
155.6579789959
 20
122.7153151213
 11
155.6579789959
 21
125.7153151213
  0
LINE
  5
247
100
AcDbEntity
  8
0
100
AcDbLine
 62
7
  6
CONTINUOUS
 10
156.6579789959
 20
125.7153151213
 11
156.6579789959
 21
122.7153151213
  0
LINE
  5
248
100
AcDbEntity
  8
0
100
AcDbLine
 62
7
  6
CONTINUOUS
 10
156.6579789959
 20
122.7153151213
 11
138.6377977199
 21
122.7153151213
  0
LINE
  5
249
100
AcDbEntity
  8
0
100
AcDbLine
 62
7
  6
CONTINUOUS
 10
201.1579789959
 20
122.7153151213
 11
219.1781602719
 21
122.7153151213
  0
LINE
  5
24A
100
AcDbEntity
  8
0
100
AcDbLine
 62
7
  6
CONTINUOUS
 10
223.4079789959
 20
95.3700156597
 11
225.4079789959
 21
94.2153151213
  0
LINE
  5
24B
100
AcDbEntity
  8
0
100
AcDbLine
 62
7
  6
CONTINUOUS
 10
219.1781602719
 20
125.7153151213
 11
201.1579789959
 21
125.7153151213
  0
LINE
  5
24C
100
AcDbEntity
  8
0
100
AcDbLine
 62
7
  6
CONTINUOUS
 10
138.6377977199
 20
125.7153151213
 11
156.6579789959
 21
125.7153151213
  0
LINE
  5
24D
100
AcDbEntity
  8
02___PRT_ALL_AXES
100
AcDbLine
 62
7
  6
CONTINUOUS
 10
221.9705114916
 20
129.2153151213
 11
134.4079789959
 21
129.2153151213
  0
LINE
  5
24E
100
AcDbEntity
  8
02___PRT_ALL_AXES
100
AcDbLine
 62
7
  6
CONTINUOUS
 10
160.054450986
 20
191.1313756269
 11
161.5074426231
 21
185.7087370143
  0
LINE
  5
24F
100
AcDbEntity
  8
02___PRT_ALL_AXES
100
AcDbLine
 62
7
  6
CENTER
 10
178.9079789959
 20
81.7153151213
 11
178.9079789959
 21
190.2695333149
  0
LINE
  5
250
100
AcDbEntity
  8
02___PRT_ALL_AXES
100
AcDbLine
 62
7
  6
CENTER
 10
225.1082748552
 20
193.2526959705
 11
164.9893627903
 21
133.1337839056
  0
LINE
  5
251
100
AcDbEntity
  8
02___PRT_ALL_AXES
100
AcDbLine
 62
7
  6
CONTINUOUS
 10
139.2705160815
 20
132.0227022167
 11
134.4079789959
 21
129.2153151213
  0
LINE
  5
252
100
AcDbEntity
  8
0
100
AcDbLine
 62
7
  6
CONTINUOUS
 10
201.1579789959
 20
125.7153151213
 11
201.1579789959
 21
122.7153151213
  0
LINE
  5
253
100
AcDbEntity
  8
0
100
AcDbLine
 62
7
  6
CONTINUOUS
 10
202.1579789959
 20
122.7153151213
 11
202.1579789959
 21
125.7153151213
  0
LINE
  5
254
100
AcDbEntity
  8
02___PRT_ALL_AXES
100
AcDbLine
 62
7
  6
CONTINUOUS
 10
221.9705114916
 20
129.2153151213
 11
160.054450986
 21
191.1313756269
  0
LINE
  5
255
100
AcDbEntity
  8
0
100
AcDbLine
 62
7
  6
CONTINUOUS
 10
219.1781602719
 20
122.7153151213
 11
219.1781602719
 21
125.7153151213
  0
LINE
  5
256
100
AcDbEntity
  8
0
100
AcDbLine
 62
7
  6
CONTINUOUS
 10
134.4079789959
 20
95.3700156597
 11
132.4079789959
 21
94.2153151213
  0
LINE
  5
257
100
AcDbEntity
  8
02___PRT_ALL_AXES
100
AcDbLine
 62
7
  6
CONTINUOUS
 10
223.4079789959
 20
128.6198965856
 11
223.4079789959
 21
95.3700156597
  0
LINE
  5
258
100
AcDbEntity
  8
0
100
AcDbLine
 62
7
  6
CONTINUOUS
 10
225.4079789959
 20
94.2153151213
 11
225.058771301
 21
84.2153151213
  0
LINE
  5
259
100
AcDbEntity
  8
02___PRT_ALL_AXES
100
AcDbLine
 62
7
  6
CONTINUOUS
 10
254.806759665
 20
160.0186772547
 11
223.4079789959
 21
128.6198965856
  0
LINE
  5
25A
100
AcDbEntity
  8
02___PRT_ALL_AXES
100
AcDbLine
 62
7
  6
CONTINUOUS
 10
254.806759665
 20
160.0186772547
 11
191.8742561394
 21
222.9511807803
  0
ARC
  5
25B
100
AcDbEntity
  8
0
100
AcDbCircle
 62
7
  6
CONTINUOUS
 10
258.9079789959
 20
113.9153151213
 40
121.0
100
AcDbArc
 50
143.6083995214
 51
171.39348181
  0
SPLINE
  5
25C
100
AcDbEntity
  8
0
100
AcDbSpline
 62
7
  6
CONTINUOUS
 70
0
 71
3
 72
9
 73
5
 74
3
 42
0.0000001
 43
0.0000001
 44
0.0000000001
 12
0.7266151528
 22
-0.3009738509
 32
0.0
 13
0.7266151528
 23
-0.3009738509
 33
0.0
 40
0.0
 40
0.0
 40
0.0
 40
0.0
 40
0.5121957683
 40
1.0
 40
1.0
 40
1.0
 40
1.0
 10
221.2438963388
 20
129.5162889722
 30
0.0
 10
221.367952741
 20
129.464903128
 30
0.0
 10
221.6101577919
 20
129.364578511
 30
0.0
 10
221.8523628428
 20
129.264253894
 30
0.0
 10
221.9705114916
 20
129.2153151213
 30
0.0
 11
221.2438963388
 21
129.5162889722
 31
0.0
 11
221.6160655453
 21
129.3621314394
 31
0.0
 11
221.9705114916
 21
129.2153151213
 31
0.0
  0
SPLINE
  5
25D
100
AcDbEntity
  8
0
100
AcDbSpline
 62
7
  6
CONTINUOUS
 70
0
 71
3
 72
44
 73
40
 74
38
 42
0.0000001
 43
0.0000001
 44
0.0000000001
 12
-61.7101382616
 22
53.9838800168
 32
0.0
 13
0.0
 23
-0.0
 33
0.0
 40
0.0
 40
0.0
 40
0.0
 40
0.0
 40
0.012681737
 40
0.0281250837
 40
0.0462836952
 40
0.0670854814
 40
0.0904302441
 40
0.1161895205
 40
0.1442084989
 40
0.1743094133
 40
0.20629579
 40
0.2399568529
 40
0.2750716287
 40
0.3114124151
 40
0.3487476266
 40
0.3868440991
 40
0.4254688975
 40
0.4643906225
 40
0.5033804079
 40
0.5422128484
 40
0.5806668348
 40
0.6185262645
 40
0.6555806796
 40
0.6916259729
 40
0.7264650664
 40
0.7599086913
 40
0.7917760552
 40
0.821895541
 40
0.8501054308
 40
0.8762546578
 40
0.900203448
 40
0.9218239596
 40
0.9410008758
 40
0.9576320016
 40
0.9716287626
 40
0.9829166343
 40
0.9914355287
 40
0.997140103
 40
1.0
 40
1.0
 40
1.0
 40
1.0
 10
221.2438963388
 20
129.5162889722
 30
0.0
 10
220.9830324242
 20
129.7444920951
 30
0.0
 10
220.405026257
 20
130.2511964531
 30
0.0
 10
219.4556763938
 20
131.0871413057
 30
0.0
 10
218.3422117784
 20
132.0725095891
 30
0.0
 10
217.0700672017
 20
133.2044110633
 30
0.0
 10
215.6463216499
 20
134.4784169239
 30
0.0
 10
214.0796550341
 20
135.8884871373
 30
0.0
 10
212.3801972814
 20
137.4270151361
 30
0.0
 10
210.5593012885
 20
139.0849688386
 30
0.0
 10
208.6292799872
 20
140.8520939642
 30
0.0
 10
206.6031427128
 20
142.717145539
 30
0.0
 10
204.4943585653
 20
144.6681170901
 30
0.0
 10
202.3166593568
 20
146.6924493925
 30
0.0
 10
200.0838838442
 20
148.7772107846
 30
0.0
 10
197.8098578079
 20
150.9092487497
 30
0.0
 10
195.5083054947
 20
153.0753129437
 30
0.0
 10
193.1927864222
 20
155.2621525606
 30
0.0
 10
190.8766481679
 20
157.4565952486
 30
0.0
 10
188.5729866302
 20
159.6456149213
 30
0.0
 10
186.2946100249
 20
161.8163918967
 30
0.0
 10
184.0540066996
 20
163.9563654756
 30
0.0
 10
181.8633137607
 20
166.0532821704
 30
0.0
 10
179.734284825
 20
168.0952416536
 30
0.0
 10
177.678253521
 20
170.0707441372
 30
0.0
 10
175.7060971932
 20
171.9687353584
 30
0.0
 10
173.828197389
 20
173.7786528589
 30
0.0
 10
172.0544073148
 20
175.4904640018
 30
0.0
 10
170.3939943079
 20
177.0947270329
 30
0.0
 10
168.8556597715
 20
178.5825759118
 30
0.0
 10
167.4473042539
 20
179.9459519673
 30
0.0
 10
166.1766340298
 20
181.1770173306
 30
0.0
 10
165.0490787815
 20
182.2701803252
 30
0.0
 10
164.0741181006
 20
183.2159505871
 30
0.0
 10
163.2461730081
 20
184.0195059674
 30
0.0
 10
162.5992687695
 20
184.6475843951
 30
0.0
 10
162.060077741
 20
185.1712654942
 30
0.0
 10
161.8054118378
 20
185.4186386265
 30
0.0
 10
161.528704615
 20
185.6874750225
 30
0.0
 10
161.528704615
 20
185.6874750225
 30
0.0
 11
221.2438963388
 21
129.5162889722
 31
0.0
 11
220.4620080235
 21
130.2017016125
 31
0.0
 11
219.5116889834
 21
131.0384607031
 31
0.0
 11
218.3967212005
 21
132.0251008217
 31
0.0
 11
217.1224928542
 21
133.1587766939
 31
0.0
 11
215.696082656
 21
134.4350658259
 31
0.0
 11
214.1262132601
 21
135.8478976729
 31
0.0
 11
212.4230876562
 21
137.3896084367
 31
0.0
 11
210.5981488752
 21
139.0510928752
 31
0.0
 11
208.6638025809
 21
140.8220199068
 31
0.0
 11
206.6331439842
 21
142.6910722967
 31
0.0
 11
204.5197143476
 21
144.6461820355
 31
0.0
 11
202.3373042712
 21
146.6747389062
 31
0.0
 11
200.0997996957
 21
148.7637693964
 31
0.0
 11
197.8210629528
 21
150.9000876661
 31
0.0
 11
195.5148443226
 21
153.0704187887
 31
0.0
 11
193.1947227732
 21
155.2614927248
 31
0.0
 11
190.8740636251
 21
157.4601188763
 31
0.0
 11
188.5659784751
 21
159.6532543935
 31
0.0
 11
186.2832885802
 21
161.8280650567
 31
0.0
 11
184.0384938297
 21
163.9719768871
 31
0.0
 11
181.8437441609
 21
166.0727218082
 31
0.0
 11
179.710805438
 21
168.1183854482
 31
0.0
 11
177.651025643
 21
170.0974519906
 31
0.0
 11
175.6752939621
 21
171.9988536327
 31
0.0
 11
173.7940055954
 21
173.8120127274
 31
0.0
 11
172.0170239678
 21
175.5268849094
 31
0.0
 11
170.353640845
 21
177.1340030237
 31
0.0
 11
168.8125342585
 21
178.6245221957
 31
0.0
 11
167.4017325719
 21
179.9902581739
 31
0.0
 11
166.1285783233
 21
181.2237252338
 31
0.0
 11
164.9996945487
 21
182.3181711487
 31
0.0
 11
164.0209506328
 21
183.2676121906
 31
0.0
 11
163.1974337445
 21
184.0668623603
 31
0.0
 11
162.5334242401
 21
184.7115584684
 31
0.0
 11
162.0323733901
 21
185.1981827029
 31
0.0
 11
161.6968856125
 21
185.5240806002
 31
0.0
 11
161.528704615
 21
185.6874750225
 31
0.0
  0
SPLINE
  5
25E
100
AcDbEntity
  8
0
100
AcDbSpline
 62
7
  6
CONTINUOUS
 70
0
 71
3
 72
43
 73
39
 74
37
 42
0.0000001
 43
0.0000001
 44
0.0000000001
 12
-81.8372984723
 22
5.465244543
 32
0.0
 13
-0.0000020805
 23
0.0000000299
 33
0.0
 40
0.0
 40
0.0
 40
0.0
 40
0.0
 40
0.0132657226
 40
0.0295250946
 40
0.0487239502
 40
0.0707775983
 40
0.0955681492
 40
0.1229446555
 40
0.1527259606
 40
0.1847050928
 40
0.2186545535
 40
0.2543316426
 40
0.2914833248
 40
0.3298501392
 40
0.369169296
 40
0.4091772175
 40
0.449611528
 40
0.490212503
 40
0.5307239558
 40
0.5708943822
 40
0.6104779382
 40
0.6492354211
 40
0.6869348587
 40
0.7233523014
 40
0.7582728517
 40
0.7914917161
 40
0.8228148448
 40
0.8520596984
 40
0.8790562878
 40
0.9036480661
 40
0.9256926959
 40
0.945062602
 40
0.9616458254
 40
0.9753465138
 40
0.9860855461
 40
0.9938008841
 40
0.998447981
 40
1.0
 40
1.0
 40
1.0
 40
1.0
 10
221.2438963388
 20
129.5162889722
 30
0.0
 10
220.8820193721
 20
129.5404557783
 30
0.0
 10
220.0765424122
 20
129.5933634129
 30
0.0
 10
218.7471015136
 20
129.6776068453
 30
0.0
 10
217.1776266318
 20
129.7729583042
 30
0.0
 10
215.3750376302
 20
129.877371942
 30
0.0
 10
213.3489084512
 20
129.9887267283
 30
0.0
 10
211.1114634492
 20
130.1049260842
 30
0.0
 10
208.6773782304
 20
130.223986941
 30
0.0
 10
206.0634377839
 20
130.3441091516
 30
0.0
 10
203.2881252158
 20
130.463720406
 30
0.0
 10
200.371196488
 20
130.5814970672
 30
0.0
 10
197.3332923035
 20
130.6963642648
 30
0.0
 10
194.1956108526
 20
130.8074807615
 30
0.0
 10
190.9796443455
 20
130.9142144323
 30
0.0
 10
187.7069684287
 20
131.0161133791
 30
0.0
 10
184.3990770607
 20
131.1128761443
 30
0.0
 10
181.0772630477
 20
131.2043230733
 30
0.0
 10
177.7625220241
 20
131.2903706077
 30
0.0
 10
174.475469621
 20
131.3710090879
 30
0.0
 10
171.2362562719
 20
131.4462843148
 30
0.0
 10
168.0644973373
 20
131.5162820993
 30
0.0
 10
164.9792084952
 20
131.5811156977
 30
0.0
 10
161.9987396016
 20
131.6409158417
 30
0.0
 10
159.140696932
 20
131.6958231027
 30
0.0
 10
156.4218661993
 20
131.7459819007
 30
0.0
 10
153.8581545792
 20
131.7915356087
 30
0.0
 10
151.4644927272
 20
131.8326233825
 30
0.0
 10
149.2548657692
 20
131.869376056
 30
0.0
 10
147.2418941492
 20
131.9019192262
 30
0.0
 10
145.4378902498
 20
131.9303556243
 30
0.0
 10
143.8512742781
 20
131.9548148362
 30
0.0
 10
142.4973104054
 20
131.9752970556
 30
0.0
 10
141.3663179965
 20
131.9921299075
 30
0.0
 10
140.5120628085
 20
132.004693811
 30
0.0
 10
139.8241053052
 20
132.0147015356
 30
0.0
 10
139.5431789601
 20
132.0187713764
 30
0.0
 10
139.2705160826
 20
132.0227022167
 30
0.0
 10
139.2705160816
 20
132.0227022167
 30
0.0
 11
221.2438963388
 21
129.5162889722
 31
0.0
 11
220.1581882179
 21
129.5876236631
 31
0.0
 11
218.8272728707
 21
129.6719947614
 31
0.0
 11
217.2554918792
 21
129.7675376581
 31
0.0
 11
215.4496917629
 21
129.872207315
 31
0.0
 11
213.4194498207
 21
129.9838766818
 31
0.0
 11
211.177067559
 21
130.1004376757
 31
0.0
 11
208.7373399557
 21
130.2198932153
 31
0.0
 11
206.1171958534
 21
130.3404285897
 31
0.0
 11
203.3352633808
 21
130.4604582232
 31
0.0
 11
200.4114311352
 21
130.5786474666
 31
0.0
 11
197.3664464528
 21
130.6939132763
 31
0.0
 11
194.2215920714
 21
130.805408719
 31
0.0
 11
190.9984296756
 21
130.9124979354
 31
0.0
 11
187.718589354
 21
131.0147269786
 31
0.0
 11
184.4036048012
 21
131.1117937191
 31
0.0
 11
181.0747931852
 21
131.2035189387
 31
0.0
 11
177.7531815686
 21
131.2898197762
 31
0.0
 11
174.4594124431
 21
131.3706877207
 31
0.0
 11
171.2136631832
 21
131.4461699219
 31
0.0
 11
168.0355653849
 21
131.5163538837
 31
0.0
 11
164.9441564393
 21
131.5813544399
 31
0.0
 11
161.9578145717
 21
131.6413037343
 31
0.0
 11
159.0941744233
 21
131.6963436951
 31
0.0
 11
156.3700408638
 21
131.7466201974
 31
0.0
 11
153.8013365882
 21
131.792277986
 31
0.0
 11
151.4030393307
 21
131.8334569882
 31
0.0
 11
149.1890966435
 21
131.8702899203
 31
0.0
 11
147.1723528334
 21
131.9029003728
 31
0.0
 11
145.3644860858
 21
131.9314013087
 31
0.0
 11
143.7759632297
 21
131.9558937714
 31
0.0
 11
142.4159697226
 21
131.9764663729
 31
0.0
 11
141.2923694645
 21
131.9931946269
 31
0.0
 11
140.4116536405
 21
132.0061407167
 31
0.0
 11
139.7789118836
 21
132.015353152
 31
0.0
 11
139.3977988012
 21
132.0208666924
 31
0.0
 11
139.2705160816
 21
132.0227022167
 31
0.0
  0
SPLINE
  5
25F
100
AcDbEntity
  8
02___PRT_ALL_AXES
100
AcDbSpline
 62
7
  6
CONTINUOUS
 70
0
 71
3
 72
11
 73
7
 74
5
 42
0.0000001
 43
0.0000001
 44
0.0000000001
 12
1.4374675043
 22
-0.5954185358
 32
0.0
 13
1.4374675043
 23
-0.5954185358
 33
0.0
 40
0.0
 40
0.0
 40
0.0
 40
0.0
 40
0.4370549692
 40
0.7498909095
 40
0.9375685082
 40
1.0
 40
1.0
 40
1.0
 40
1.0
 10
221.9705114916
 20
129.2153151213
 30
0.0
 10
222.1799289302
 20
129.1285715781
 30
0.0
 10
222.5392435349
 20
128.9797385956
 30
0.0
 10
222.9884849561
 20
128.7936567062
 30
0.0
 10
223.2582233523
 20
128.6819274042
 30
0.0
 10
223.3780645823
 20
128.6322875414
 30
0.0
 10
223.4079789959
 20
128.6198965856
 30
0.0
 11
221.9705114916
 21
129.2153151213
 31
0.0
 11
222.5987638074
 21
128.9550844915
 31
0.0
 11
223.0484553058
 21
128.768816174
 31
0.0
 11
223.3182357552
 21
128.657069453
 31
0.0
 11
223.4079789959
 21
128.6198965856
 31
0.0
  0
ENDSEC
  0
SECTION
  2
OBJECTS
  0
DICTIONARY
  5
260
100
AcDbDictionary
  3
ACAD_GROUP
350
261
  3
ACAD_MLINESTYLE
350
262
  0
DICTIONARY
  5
261
102
{ACAD_REACTORS
330
260
102
}
100
AcDbDictionary
  0
DICTIONARY
  5
262
102
{ACAD_REACTORS
330
260
102
}
100
AcDbDictionary
  3
STANDARD
350
263
  0
MLINESTYLE
  5
263
102
{ACAD_REACTORS
330
262
102
}
100
AcDbMlineStyle
  2
STANDARD
 70
0
  3

 62
256
 51
90.0
 52
90.0
 71
2
 49
0.5
 62
256
  6
BYLAYER
 49
-0.5
 62
256
  6
BYLAYER
  0
ENDSEC
  0
EOF
