999
DXF file: 104-100-88_plain_junction.dxf
999
Pro/ENGINEER 2006320 by Parametric Technology Corporation
  0
SECTION
  2
HEADER
  9
$EXTMAX
 10
420.0
 20
297.0
 30
0.0
  9
$EXTMIN
 10
0.0
 20
0.0
 30
0.0
  9
$LIMMIN
 10
0.0
 20
0.0
  9
$LIMMAX
 10
420.0
 20
297.0
  9
$VIEWCTR
 10
210.0
 20
148.5
  9
$VIEWSIZE
 40
297.0
  9
$CLAYER
  8
0
  9
$LTSCALE
 40
23.1
  9
$CELTYPE
  6
BYLAYER
  9
$DIMSCALE
 40
1.0
  9
$DIMASZ
 40
3.0
  9
$DIMEXO
 40
2.625
  9
$DIMDLI
 40
15.96
  9
$DIMEXE
 40
7.56
  9
$DIMCEN
 40
3.78
  9
$DIMLFAC
 40
1.0
  9
$DIMBLK
  1
_FILLED
  9
$DIMTXT
 40
3.0
  9
$PDMODE
 70
3
  9
$PDSIZE
 40
0.3125
  0
ENDSEC
  0
SECTION
  2
TABLES
  0
TABLE
  2
LTYPE
 70
6
  0
LTYPE
  2
BYBLOCK
 70
0
  3

 72
65
 73
0
 40
0.0
  0
LTYPE
  2
BYLAYER
 70
0
  3

 72
65
 73
0
 40
0.0
  0
LTYPE
  2
CONTINUOUS
 70
64
  3
Solid line
 72
65
 73
0
 40
0.0
  0
LTYPE
  2
CENTER
 70
64
  3
____ _ ____ _ ____ _ ____ _ ____ _ ____ _ ____
 72
65
 73
4
 40
0.6
 49
0.375
 49
-0.075
 49
0.075
 49
-0.075
  0
LTYPE
  2
HIDDEN
 70
64
  3
- - - - - - - - - - - - - - - - - - - -
 72
65
 73
2
 40
0.2
 49
0.1
 49
-0.1
  0
LTYPE
  2
PHANTOM
 70
64
  3
_____ _ _ _____ _ _ _____ _ _ _____
 72
65
 73
6
 40
0.8
 49
0.45
 49
-0.05
 49
0.1
 49
-0.05
 49
0.1
 49
-0.05
  0
LTYPE
  2
DOT
 70
64
  3
. . . . . . . . . . . . . . . . . . . .
 72
65
 73
2
 40
0.2
 49
0.1
 49
-0.1
  0
LTYPE
  2
DASHED
 70
64
  3
- - - - - - - - - - - - - - - - - - - -
 72
65
 73
2
 40
0.2
 49
0.1
 49
-0.1
  0
ENDTAB
  0
TABLE
  2
LAYER
 70
36
  0
LAYER
  2
0
 70
0
 62
7
  6
CONTINUOUS
  0
LAYER
  2
DEFAULT_1
 70
0
 62
7
  6
CENTER
  0
LAYER
  2
DEFAULT_2
 70
0
 62
8
  6
HIDDEN
  0
LAYER
  2
DEFAULT_3
 70
0
 62
7
  6
PHANTOM
  0
LAYER
  2
01___PRT_ALL_DTM_PLN
 70
0
 62
7
  6
CONTINUOUS
  0
LAYER
  2
01___PRT_DEF_DTM_PLN
 70
0
 62
7
  6
CONTINUOUS
  0
LAYER
  2
02___PRT_ALL_AXES
 70
0
 62
7
  6
CONTINUOUS
  0
LAYER
  2
03___PRT_ALL_CURVES
 70
0
 62
7
  6
CONTINUOUS
  0
LAYER
  2
04___PRT_ALL_DTM_PNT
 70
0
 62
7
  6
CONTINUOUS
  0
LAYER
  2
05___PRT_ALL_DTM_CSYS
 70
0
 62
7
  6
CONTINUOUS
  0
LAYER
  2
05___PRT_DEF_DTM_CSYS
 70
0
 62
7
  6
CONTINUOUS
  0
LAYER
  2
06___PRT_ALL_SURFS
 70
0
 62
7
  6
CONTINUOUS
  0
LAYER
  2
CURVES
 70
0
 62
7
  6
CONTINUOUS
  0
ENDTAB
  0
TABLE
  2
STYLE
 70
1
  0
STYLE
  2
STANDARD
 70
0
 40
0.0
 41
0.6
 50
0.0
 71
0
 42
0.2
  3
txt
  4

  0
ENDTAB
  0
ENDSEC
  0
SECTION
  2
BLOCKS
  0
BLOCK
  8
0
 62
7
  6
CONTINUOUS
  2
*D0
 70
65
 10
0.0
 20
0.0
  0
TEXT
  8
0
 62
7
  6
CONTINUOUS
 10
65.6937626775
 20
146.6090997776
  7
STANDARD
 40
3.0
  1
237
 41
0.6
 72
0
  0
LINE
  8
0
 62
7
  6
CONTINUOUS
 10
99.4911453612
 20
266.6090997776
 11
65.3937626775
 21
266.6090997776
  0
LINE
  8
0
 62
7
  6
CONTINUOUS
 10
100.6002131134
 20
29.6090997776
 11
65.3937626775
 21
29.6090997776
  0
LINE
  8
0
 62
7
  6
CONTINUOUS
 10
68.3937626775
 20
266.6090997776
 11
68.3937626775
 21
151.1090997776
  0
LINE
  8
0
 62
7
  6
CONTINUOUS
 10
68.3937626775
 20
29.6090997776
 11
68.3937626775
 21
145.1090997776
  0
INSERT
  8
0
 62
7
  6
CONTINUOUS
  2
_FILLED
 10
68.3937626775
 20
266.6090997776
 41
3.0
 42
3.0
 43
3.0
 50
90.0
  0
INSERT
  8
0
 62
7
  6
CONTINUOUS
  2
_FILLED
 10
68.3937626775
 20
29.6090997776
 41
3.0
 42
3.0
 43
3.0
 50
270.0
  0
ENDBLK
  8
0
  6
BYBLOCK
 62
0
  0
BLOCK
  8
0
 62
7
  6
CONTINUOUS
  2
*D1
 70
65
 10
0.0
 20
0.0
  0
TEXT
  8
0
 62
7
  6
CONTINUOUS
 10
197.0017475257
 20
7.165003066
  7
STANDARD
 40
3.0
  1
195
 41
0.6
 72
0
  0
LINE
  8
0
 62
7
  6
CONTINUOUS
 10
102.1002131134
 20
28.1090997776
 11
102.1002131134
 21
5.665003066
  0
LINE
  8
0
 62
7
  6
CONTINUOUS
 10
297.3032819381
 20
108.0552178633
 11
297.3032819381
 21
5.665003066
  0
LINE
  8
0
 62
7
  6
CONTINUOUS
 10
102.1002131134
 20
8.665003066
 11
195.5017475257
 21
8.665003066
  0
LINE
  8
0
 62
7
  6
CONTINUOUS
 10
297.3032819381
 20
8.665003066
 11
203.9017475257
 21
8.665003066
  0
INSERT
  8
0
 62
7
  6
CONTINUOUS
  2
_FILLED
 10
102.1002131134
 20
8.665003066
 41
3.0
 42
3.0
 43
3.0
 50
180.0
  0
INSERT
  8
0
 62
7
  6
CONTINUOUS
  2
_FILLED
 10
297.3032819381
 20
8.665003066
 41
3.0
 42
3.0
 43
3.0
  0
ENDBLK
  8
0
  6
BYBLOCK
 62
0
  0
BLOCK
  8
0
 62
7
  6
CONTINUOUS
  2
*D2
 70
65
 10
0.0
 20
0.0
  0
TEXT
  8
0
 62
7
  6
CONTINUOUS
 10
339.2180803041
 20
97.5641882175
  7
STANDARD
 40
3.0
  1
139
 41
0.6
 72
0
  0
LINE
  8
0
 62
7
  6
CONTINUOUS
 10
221.6002131134
 20
29.6090997776
 11
344.9180803041
 21
29.6090997776
  0
LINE
  8
0
 62
7
  6
CONTINUOUS
 10
296.7442116326
 20
168.5192766574
 11
344.9180803041
 21
168.5192766574
  0
LINE
  8
0
 62
7
  6
CONTINUOUS
 10
341.9180803041
 20
29.6090997776
 11
341.9180803041
 21
96.0641882175
  0
LINE
  8
0
 62
7
  6
CONTINUOUS
 10
341.9180803041
 20
168.5192766574
 11
341.9180803041
 21
102.0641882175
  0
INSERT
  8
0
 62
7
  6
CONTINUOUS
  2
_FILLED
 10
341.9180803041
 20
29.6090997776
 41
3.0
 42
3.0
 43
3.0
 50
270.0
  0
INSERT
  8
0
 62
7
  6
CONTINUOUS
  2
_FILLED
 10
341.9180803041
 20
168.5192766574
 41
3.0
 42
3.0
 43
3.0
 50
90.0
  0
ENDBLK
  8
0
  6
BYBLOCK
 62
0
  0
BLOCK
  8
0
 62
7
  6
CONTINUOUS
  2
*D3
 70
65
 10
0.0
 20
0.0
  0
TEXT
  8
0
 62
7
  6
CONTINUOUS
 10
158.4002131134
 20
16.7556295949
  7
STANDARD
 40
3.0
  1
118
 41
0.6
 72
0
  0
LINE
  8
0
 62
7
  6
CONTINUOUS
 10
102.1002131134
 20
28.1090997776
 11
102.1002131134
 21
15.2556295949
  0
LINE
  8
0
 62
7
  6
CONTINUOUS
 10
220.1002131134
 20
28.1090997776
 11
220.1002131134
 21
15.2556295949
  0
LINE
  8
0
 62
7
  6
CONTINUOUS
 10
102.1002131134
 20
18.2556295949
 11
156.9002131134
 21
18.2556295949
  0
LINE
  8
0
 62
7
  6
CONTINUOUS
 10
220.1002131134
 20
18.2556295949
 11
165.3002131134
 21
18.2556295949
  0
INSERT
  8
0
 62
7
  6
CONTINUOUS
  2
_FILLED
 10
102.1002131134
 20
18.2556295949
 41
3.0
 42
3.0
 43
3.0
 50
180.0
  0
INSERT
  8
0
 62
7
  6
CONTINUOUS
  2
_FILLED
 10
220.1002131134
 20
18.2556295949
 41
3.0
 42
3.0
 43
3.0
  0
ENDBLK
  8
0
  6
BYBLOCK
 62
0
  0
BLOCK
  8
0
 62
7
  6
CONTINUOUS
  2
*D4
 70
65
 10
0.0
 20
0.0
  0
TEXT
  8
0
 62
7
  6
CONTINUOUS
 10
183.3243480597
 20
198.90003433
  7
STANDARD
 40
3.0
  1
88%%d
 41
0.6222222222
 72
0
  0
LINE
  8
0
 62
7
  6
CONTINUOUS
 10
189.8155473267
 20
164.8376265734
 11
208.3796207414
 21
165.4858983019
  0
LINE
  8
0
 62
7
  6
CONTINUOUS
 10
161.1002131134
 20
191.0110745843
 11
161.1002131134
 21
211.1430915278
  0
ARC
  8
0
 62
7
  6
CONTINUOUS
 10
161.1002131134
 20
163.8348650064
 40
44.3082265214
 50
2.0
 51
49.2476394763
  0
ARC
  8
0
 62
7
  6
CONTINUOUS
 10
161.1002131134
 20
163.8348650064
 40
44.3082265214
 50
62.1131756176
 51
90.0
  0
SOLID
  8
0
 62
7
  6
CONTINUOUS
 10
204.4271020361
 20
168.3225809983
 11
205.3814482603
 21
165.3811998118
 12
205.9235574444
 22
168.4256402583
 13
205.9235574444
 23
168.4256402583
  0
SOLID
  8
0
 62
7
  6
CONTINUOUS
 10
164.1238796314
 20
208.7911199129
 11
161.1002131134
 21
208.1430915278
 12
164.0731086928
 22
207.2919793886
 13
164.0731086928
 23
207.2919793886
  0
ENDBLK
  8
0
  6
BYBLOCK
 62
0
  0
BLOCK
  8
0
  2
_FILLED
 70
64
 10
0.0
 20
0.0
  0
SOLID
  8
0
  6
BYBLOCK
 62
0
 10
0.0
 20
0.0
 11
-1.0
 21
0.25
 12
-1.0
 22
-0.25
 13
-1.0
 23
-0.25
  0
ENDBLK
  8
0
  6
BYBLOCK
 62
0
  0
ENDSEC
  0
SECTION
  2
ENTITIES
  0
DIMENSION
  8
0
 62
7
  6
CONTINUOUS
  2
*D0
 10
68.3937626775
 20
29.6090997776
 11
68.3937626775
 21
148.1090997776
 70
128
 13
99.4911453612
 23
266.6090997776
 14
100.6002131134
 24
29.6090997776
 50
270.0
  0
DIMENSION
  8
0
 62
7
  6
CONTINUOUS
  2
*D1
 10
297.3032819381
 20
8.665003066
 11
199.7017475257
 21
8.665003066
 70
128
 13
102.1002131134
 23
28.1090997776
 14
297.3032819381
 24
108.0552178633
  0
DIMENSION
  8
0
 62
7
  6
CONTINUOUS
  2
*D2
 10
341.9180803041
 20
168.5192766574
 11
341.9180803041
 21
99.0641882175
 70
128
 13
221.6002131134
 23
29.6090997776
 14
296.7442116326
 24
168.5192766574
 50
90.0
  0
DIMENSION
  8
0
 62
7
  6
CONTINUOUS
  2
*D3
 10
220.1002131134
 20
18.2556295949
 11
161.1002131134
 21
18.2556295949
 70
128
 13
102.1002131134
 23
28.1090997776
 14
220.1002131134
 24
28.1090997776
  0
DIMENSION
  8
0
 62
7
  6
CONTINUOUS
  2
*D4
 10
161.1002131134
 20
191.0110745843
 11
186.1243480597
 21
200.40003433
 70
130
 13
189.8155473267
 23
164.8376265734
 14
208.3796207414
 24
165.4858983019
 15
161.1002131134
 25
211.1430915278
 16
191.8792935467
 26
195.7075358257
  0
LINE
  8
0
 62
7
  6
CONTINUOUS
 10
0.0
 20
0.0
 11
0.0
 21
297.0
  0
LINE
  8
0
 62
7
  6
CONTINUOUS
 10
0.0
 20
0.0
 11
420.0
 21
0.0
  0
LINE
  8
0
 62
7
  6
CONTINUOUS
 10
0.0
 20
297.0
 11
420.0
 21
297.0
  0
LINE
  8
0
 62
7
  6
CONTINUOUS
 10
420.0
 20
0.0
 11
420.0
 21
297.0
  0
LINE
  8
02___PRT_ALL_AXES
 62
7
  6
CONTINUOUS
 10
220.1002131134
 20
29.6090997776
 11
102.1002131134
 21
29.6090997776
  0
LINE
  8
02___PRT_ALL_AXES
 62
7
  6
CONTINUOUS
 10
100.9911453612
 20
266.6090997776
 11
100.1002131134
 21
249.6090997776
  0
LINE
  8
0
 62
7
  6
CONTINUOUS
 10
102.1002131134
 20
248.4543992393
 11
102.1002131134
 21
216.6090997776
  0
LINE
  8
02___PRT_ALL_AXES
 62
7
  6
CONTINUOUS
 10
102.1002131134
 20
79.6090997776
 11
102.1002131134
 21
29.6090997776
  0
LINE
  8
0
 62
7
  6
CONTINUOUS
 10
106.1002131134
 20
214.2996987009
 11
106.1002131134
 21
84.376114148
  0
LINE
  8
0
 62
7
  6
CONTINUOUS
 10
108.2726634825
 20
221.6090997776
 11
108.2726634825
 21
224.6090997776
  0
LINE
  8
02___PRT_ALL_AXES
 62
7
  6
CONTINUOUS
 10
222.1002131134
 20
249.6090997776
 11
220.1002131134
 21
248.4543992393
  0
LINE
  8
0
 62
7
  6
CONTINUOUS
 10
130.6002131134
 20
221.6090997776
 11
130.6002131134
 21
224.6090997776
  0
LINE
  8
0
 62
7
  6
CONTINUOUS
 10
131.6002131134
 20
224.6090997776
 11
131.6002131134
 21
221.6090997776
  0
LINE
  8
02___PRT_ALL_AXES
 62
7
  6
CONTINUOUS
 10
220.1002131134
 20
79.6090997776
 11
102.1002131134
 21
79.6090997776
  0
LINE
  8
0
 62
7
  6
CONTINUOUS
 10
216.1002131134
 20
84.376114148
 11
106.1002131134
 21
84.376114148
  0
LINE
  8
0
 62
9
  6
CONTINUOUS
 10
216.1002131134
 20
84.6090997776
 11
161.1002131134
 21
84.6090997776
  0
POLYLINE
  8
0
 62
7
  6
CONTINUOUS
 66
1
 70
0
  0
VERTEX
  8
0
 62
7
  6
CONTINUOUS
 10
212.3542103251
 20
214.2996987009
  0
VERTEX
  8
0
 62
7
  6
CONTINUOUS
 10
216.0610543155
 20
215.9088460779
  0
VERTEX
  8
0
 62
7
  6
CONTINUOUS
 10
217.6776899465
 20
216.6090997776
  0
SEQEND
  0
LINE
  8
02___PRT_ALL_AXES
 62
7
  6
CONTINUOUS
 10
297.3032819381
 20
109.5552178633
 11
247.3337405871
 21
107.8102430282
  0
LINE
  8
02___PRT_ALL_AXES
 62
7
  6
CENTER
 10
161.1002131134
 20
27.1090997776
 11
161.1002131134
 21
278.1955920817
  0
POLYLINE
  8
0
 62
7
  6
CONTINUOUS
 66
1
 70
0
  0
VERTEX
  8
0
 62
7
  6
CONTINUOUS
 10
212.3542103251
 20
214.2996987009
  0
VERTEX
  8
0
 62
7
  6
CONTINUOUS
 10
211.6123450972
 20
213.357687861
  0
VERTEX
  8
0
 62
7
  6
CONTINUOUS
 10
210.8118152554
 20
212.3333922135
  0
VERTEX
  8
0
 62
7
  6
CONTINUOUS
 10
209.955288828
 20
211.2282722234
  0
VERTEX
  8
0
 62
7
  6
CONTINUOUS
 10
209.0455909774
 20
210.0438872341
  0
VERTEX
  8
0
 62
7
  6
CONTINUOUS
 10
208.0856886004
 20
208.7818895644
  0
VERTEX
  8
0
 62
7
  6
CONTINUOUS
 10
207.0786744395
 20
207.4440183113
  0
VERTEX
  8
0
 62
7
  6
CONTINUOUS
 10
206.0277508366
 20
206.0320928914
  0
VERTEX
  8
0
 62
7
  6
CONTINUOUS
 10
204.9362132663
 20
204.5480063592
  0
VERTEX
  8
0
 62
7
  6
CONTINUOUS
 10
203.8074337795
 20
202.9937185353
  0
VERTEX
  8
0
 62
7
  6
CONTINUOUS
 10
202.6448444885
 20
201.3712489841
  0
VERTEX
  8
0
 62
7
  6
CONTINUOUS
 10
201.4519212197
 20
199.682669877
  0
VERTEX
  8
0
 62
7
  6
CONTINUOUS
 10
200.2321674545
 20
197.9300987787
  0
VERTEX
  8
0
 62
7
  6
CONTINUOUS
 10
198.9890986715
 20
196.1156913947
  0
VERTEX
  8
0
 62
7
  6
CONTINUOUS
 10
197.7262271995
 20
194.241634315
  0
VERTEX
  8
0
 62
7
  6
CONTINUOUS
 10
196.4470476764
 20
192.310137793
  0
VERTEX
  8
0
 62
7
  6
CONTINUOUS
 10
195.155023205
 20
190.3234285929
  0
VERTEX
  8
0
 62
7
  6
CONTINUOUS
 10
193.8535722849
 20
188.2837429408
  0
VERTEX
  8
0
 62
7
  6
CONTINUOUS
 10
192.546056589
 20
186.1933196142
  0
VERTEX
  8
0
 62
7
  6
CONTINUOUS
 10
191.2357696433
 20
184.0543931994
  0
VERTEX
  8
0
 62
7
  6
CONTINUOUS
 10
189.9259264583
 20
181.8691875494
  0
VERTEX
  8
0
 62
7
  6
CONTINUOUS
 10
188.6196541479
 20
179.6399094708
  0
VERTEX
  8
0
 62
7
  6
CONTINUOUS
 10
187.3199835629
 20
177.3687426657
  0
VERTEX
  8
0
 62
7
  6
CONTINUOUS
 10
186.0298419546
 20
175.057841955
  0
VERTEX
  8
0
 62
7
  6
CONTINUOUS
 10
184.7520466735
 20
172.7093278058
  0
VERTEX
  8
0
 62
7
  6
CONTINUOUS
 10
183.4892998999
 20
170.3252811846
  0
VERTEX
  8
0
 62
7
  6
CONTINUOUS
 10
182.2441843913
 20
167.9077387542
  0
VERTEX
  8
0
 62
7
  6
CONTINUOUS
 10
181.0191602263
 20
165.4586884336
  0
VERTEX
  8
0
 62
7
  6
CONTINUOUS
 10
179.8165625136
 20
162.9800653326
  0
VERTEX
  8
0
 62
7
  6
CONTINUOUS
 10
178.6386000281
 20
160.4737480765
  0
VERTEX
  8
0
 62
7
  6
CONTINUOUS
 10
177.487354732
 20
157.9415555305
  0
VERTEX
  8
0
 62
7
  6
CONTINUOUS
 10
176.3647821293
 20
155.3852439307
  0
VERTEX
  8
0
 62
7
  6
CONTINUOUS
 10
175.272712399
 20
152.8065044304
  0
VERTEX
  8
0
 62
7
  6
CONTINUOUS
 10
174.2128522493
 20
150.2069610641
  0
VERTEX
  8
0
 62
7
  6
CONTINUOUS
 10
173.1867874286
 20
147.588169131
  0
VERTEX
  8
0
 62
7
  6
CONTINUOUS
 10
172.1959858291
 20
144.9516140002
  0
VERTEX
  8
0
 62
7
  6
CONTINUOUS
 10
171.2418011158
 20
142.2987103323
  0
VERTEX
  8
0
 62
7
  6
CONTINUOUS
 10
170.3254768119
 20
139.6308017177
  0
VERTEX
  8
0
 62
7
  6
CONTINUOUS
 10
169.4481507727
 20
136.9491607222
  0
VERTEX
  8
0
 62
7
  6
CONTINUOUS
 10
168.6108599782
 20
134.2549893357
  0
VERTEX
  8
0
 62
7
  6
CONTINUOUS
 10
167.8145455763
 20
131.5494198132
  0
VERTEX
  8
0
 62
7
  6
CONTINUOUS
 10
167.0600581099
 20
128.8335158986
  0
VERTEX
  8
0
 62
7
  6
CONTINUOUS
 10
166.3481628618
 20
126.1082744193
  0
VERTEX
  8
0
 62
7
  6
CONTINUOUS
 10
165.6795452547
 20
123.3746272377
  0
VERTEX
  8
0
 62
7
  6
CONTINUOUS
 10
165.0548162438
 20
120.6334435463
  0
VERTEX
  8
0
 62
7
  6
CONTINUOUS
 10
164.4745176456
 20
117.8855324893
  0
VERTEX
  8
0
 62
7
  6
CONTINUOUS
 10
163.9391273457
 20
115.1316460945
  0
VERTEX
  8
0
 62
7
  6
CONTINUOUS
 10
163.4490643348
 20
112.3724824975
  0
VERTEX
  8
0
 62
7
  6
CONTINUOUS
 10
163.0046935236
 20
109.608689439
  0
VERTEX
  8
0
 62
7
  6
CONTINUOUS
 10
162.6063302915
 20
106.8408680166
  0
VERTEX
  8
0
 62
7
  6
CONTINUOUS
 10
162.2542447284
 20
104.0695766678
  0
VERTEX
  8
0
 62
7
  6
CONTINUOUS
 10
161.9486655304
 20
101.2953353667
  0
VERTEX
  8
0
 62
7
  6
CONTINUOUS
 10
161.6897835181
 20
98.518630009
  0
VERTEX
  8
0
 62
7
  6
CONTINUOUS
 10
161.4777547456
 20
95.7399169652
  0
VERTEX
  8
0
 62
7
  6
CONTINUOUS
 10
161.3127031749
 20
92.9596277775
  0
VERTEX
  8
0
 62
7
  6
CONTINUOUS
 10
161.1947228973
 20
90.1781740585
  0
VERTEX
  8
0
 62
7
  6
CONTINUOUS
 10
161.1238797519
 20
87.395945419
  0
VERTEX
  8
0
 62
7
  6
CONTINUOUS
 10
161.1002131134
 20
84.6090997776
  0
SEQEND
  0
LINE
  8
02___PRT_ALL_AXES
 62
7
  6
CONTINUOUS
 10
106.1002131134
 20
84.376114148
 11
102.1002131134
 21
79.6090997776
  0
LINE
  8
0
 62
7
  6
CONTINUOUS
 10
242.4300321663
 20
111.6414399339
 11
242.1971884652
 21
111.6333088527
  0
POLYLINE
  8
0
 62
7
  6
CONTINUOUS
 66
1
 70
0
  0
VERTEX
  8
0
 62
7
  6
CONTINUOUS
 10
217.6776899465
 20
216.6090997776
  0
VERTEX
  8
0
 62
7
  6
CONTINUOUS
 10
218.3282082536
 20
217.4469423342
  0
VERTEX
  8
0
 62
7
  6
CONTINUOUS
 10
218.8750687708
 20
218.1465964833
  0
SEQEND
  0
LINE
  8
0
 62
7
  6
CONTINUOUS
 10
218.8750687708
 20
218.1465964833
 11
219.6621160467
 21
219.1462204413
  0
LINE
  8
0
 62
7
  6
CONTINUOUS
 10
219.6621160467
 20
219.1462204413
 11
220.1002131134
 21
219.6989787039
  0
LINE
  8
02___PRT_ALL_AXES
 62
7
  6
CONTINUOUS
 10
243.2155999762
 20
225.7383606164
 11
238.591087529
 21
221.574430906
  0
LINE
  8
02___PRT_ALL_AXES
 62
7
  6
CONTINUOUS
 10
216.1002131134
 20
84.376114148
 11
220.1002131134
 21
79.6090997776
  0
LINE
  8
02___PRT_ALL_AXES
 62
7
  6
CONTINUOUS
 10
190.6002131134
 20
224.6090997776
 11
190.6002131134
 21
221.6090997776
  0
LINE
  8
02___PRT_ALL_AXES
 62
7
  6
CONTINUOUS
 10
191.6002131134
 20
221.6090997776
 11
191.6002131134
 21
224.6090997776
  0
LINE
  8
02___PRT_ALL_AXES
 62
7
  6
CONTINUOUS
 10
247.3337405871
 20
107.8102430282
 11
242.4300321663
 21
111.6414399339
  0
LINE
  8
0
 62
7
  6
CONTINUOUS
 10
102.1002131134
 20
216.6090997776
 11
106.1002131134
 21
214.2996987009
  0
LINE
  8
02___PRT_ALL_AXES
 62
7
  6
CONTINUOUS
 10
213.9277627442
 20
221.6090997776
 11
213.9277627442
 21
224.6090997776
  0
LINE
  8
0
 62
7
  6
CONTINUOUS
 10
216.1002131134
 20
84.6090997776
 11
216.1002131134
 21
84.376114148
  0
LINE
  8
0
 62
7
  6
CONTINUOUS
 10
220.1002131134
 20
248.4543992393
 11
220.1002131134
 21
219.6989787039
  0
LINE
  8
02___PRT_ALL_AXES
 62
7
  6
CONTINUOUS
 10
220.1002131134
 20
79.6090997776
 11
220.1002131134
 21
29.6090997776
  0
LINE
  8
02___PRT_ALL_AXES
 62
7
  6
CENTER
 10
297.7426887002
 20
168.6065253992
 11
122.6694337294
 21
162.4928326182
  0
LINE
  8
02___PRT_ALL_AXES
 62
7
  6
CONTINUOUS
 10
221.2092808656
 20
266.6090997776
 11
222.1002131134
 21
249.6090997776
  0
LINE
  8
0
 62
9
  6
CONTINUOUS
 10
242.1971884652
 20
111.6333088527
 11
238.3582438279
 21
221.5662998248
  0
LINE
  8
0
 62
7
  6
CONTINUOUS
 10
242.4300321663
 20
111.6414399339
 11
238.591087529
 21
221.574430906
  0
LINE
  8
02___PRT_ALL_AXES
 62
7
  6
CONTINUOUS
 10
100.1002131134
 20
249.6090997776
 11
102.1002131134
 21
248.4543992393
  0
LINE
  8
02___PRT_ALL_AXES
 62
7
  6
CONTINUOUS
 10
247.3337405871
 20
107.8102430282
 11
243.2155999762
 21
225.7383606164
  0
LINE
  8
0
 62
7
  6
CONTINUOUS
 10
238.591087529
 20
221.574430906
 11
238.3582438279
 21
221.5662998248
  0
LINE
  8
0
 62
7
  6
CONTINUOUS
 10
212.3542103251
 20
214.2996987009
 11
106.1002131134
 21
214.2996987009
  0
LINE
  8
0
 62
7
  6
CONTINUOUS
 10
217.6776899465
 20
216.6090997776
 11
102.1002131134
 21
216.6090997776
  0
LINE
  8
02___PRT_ALL_AXES
 62
7
  6
CONTINUOUS
 10
293.1851413272
 20
227.4833354515
 11
243.2155999762
 21
225.7383606164
  0
LINE
  8
0
 62
7
  6
CONTINUOUS
 10
131.6002131134
 20
221.6090997776
 11
108.2726634825
 21
221.6090997776
  0
LINE
  8
02___PRT_ALL_AXES
 62
7
  6
CONTINUOUS
 10
190.6002131134
 20
221.6090997776
 11
213.9277627442
 21
221.6090997776
  0
LINE
  8
02___PRT_ALL_AXES
 62
7
  6
CONTINUOUS
 10
213.9277627442
 20
224.6090997776
 11
190.6002131134
 21
224.6090997776
  0
LINE
  8
0
 62
7
  6
CONTINUOUS
 10
108.2726634825
 20
224.6090997776
 11
131.6002131134
 21
224.6090997776
  0
LINE
  8
02___PRT_ALL_AXES
 62
7
  6
CONTINUOUS
 10
297.3032819381
 20
109.5552178633
 11
293.1851413272
 21
227.4833354515
  0
LINE
  8
02___PRT_ALL_AXES
 62
7
  6
CONTINUOUS
 10
220.1002131134
 20
248.4543992393
 11
102.1002131134
 21
248.4543992393
  0
LINE
  8
02___PRT_ALL_AXES
 62
7
  6
CONTINUOUS
 10
222.1002131134
 20
249.6090997776
 11
100.1002131134
 21
249.6090997776
  0
LINE
  8
02___PRT_ALL_AXES
 62
7
  6
CONTINUOUS
 10
221.2092808656
 20
266.6090997776
 11
100.9911453612
 21
266.6090997776
  0
ARC
  8
0
 62
7
  6
CONTINUOUS
 10
243.140894641
 20
84.6090997776
 40
137.0406815277
 50
92.0
 51
99.6791245325
  0
ARC
  8
0
 62
7
  6
CONTINUOUS
 10
243.140894641
 20
84.6090997776
 40
27.0406815277
 50
92.0
 51
180.0
  0
ENDSEC
  0
EOF
