  0
SECTION
  2
HEADER
  9
$ACADVER
  1
AC1015
  9
$ACADMAINTVER
 70
    20
  9
$DWGCODEPAGE
  3
ANSI_1252
  9
$INSBASE
 10
0.0
 20
0.0
 30
0.0
  9
$EXTMIN
 10
9436.949245776075
 20
462.7749651644262
 30
0.0
  9
$EXTMAX
 10
9810.090972862058
 20
1002.824580803222
 30
0.0
  9
$LIMMIN
 10
0.0
 20
0.0
  9
$LIMMAX
 10
12.0
 20
9.0
  9
$ORTHOMODE
 70
     1
  9
$REGENMODE
 70
     1
  9
$FILLMODE
 70
     1
  9
$QTEXTMODE
 70
     0
  9
$MIRRTEXT
 70
     1
  9
$LTSCALE
 40
5.0
  9
$ATTMODE
 70
     1
  9
$TEXTSIZE
 40
0.2
  9
$TRACEWID
 40
0.05
  9
$TEXTSTYLE
  7
Standard
  9
$CLAYER
  8
Specialized_Lines
  9
$CELTYPE
  6
ByLayer
  9
$CECOLOR
 62
   256
  9
$CELTSCALE
 40
1.0
  9
$DISPSILH
 70
     0
  9
$DIMSCALE
 40
1.0
  9
$DIMASZ
 40
0.18
  9
$DIMEXO
 40
0.0625
  9
$DIMDLI
 40
0.38
  9
$DIMRND
 40
0.0
  9
$DIMDLE
 40
0.0
  9
$DIMEXE
 40
0.18
  9
$DIMTP
 40
0.0
  9
$DIMTM
 40
0.0
  9
$DIMTXT
 40
0.18
  9
$DIMCEN
 40
0.09
  9
$DIMTSZ
 40
0.0
  9
$DIMTOL
 70
     0
  9
$DIMLIM
 70
     0
  9
$DIMTIH
 70
     1
  9
$DIMTOH
 70
     1
  9
$DIMSE1
 70
     0
  9
$DIMSE2
 70
     0
  9
$DIMTAD
 70
     0
  9
$DIMZIN
 70
     0
  9
$DIMBLK
  1

  9
$DIMASO
 70
     1
  9
$DIMSHO
 70
     1
  9
$DIMPOST
  1

  9
$DIMAPOST
  1

  9
$DIMALT
 70
     0
  9
$DIMALTD
 70
     2
  9
$DIMALTF
 40
25.4
  9
$DIMLFAC
 40
1.0
  9
$DIMTOFL
 70
     0
  9
$DIMTVP
 40
0.0
  9
$DIMTIX
 70
     0
  9
$DIMSOXD
 70
     0
  9
$DIMSAH
 70
     0
  9
$DIMBLK1
  1

  9
$DIMBLK2
  1

  9
$DIMSTYLE
  2
Standard
  9
$DIMCLRD
 70
     0
  9
$DIMCLRE
 70
     0
  9
$DIMCLRT
 70
     0
  9
$DIMTFAC
 40
1.0
  9
$DIMGAP
 40
0.09
  9
$DIMJUST
 70
     0
  9
$DIMSD1
 70
     0
  9
$DIMSD2
 70
     0
  9
$DIMTOLJ
 70
     1
  9
$DIMTZIN
 70
     0
  9
$DIMALTZ
 70
     0
  9
$DIMALTTZ
 70
     0
  9
$DIMUPT
 70
     0
  9
$DIMDEC
 70
     4
  9
$DIMTDEC
 70
     4
  9
$DIMALTU
 70
     2
  9
$DIMALTTD
 70
     2
  9
$DIMTXSTY
  7
Standard
  9
$DIMAUNIT
 70
     0
  9
$DIMADEC
 70
     0
  9
$DIMALTRND
 40
0.0
  9
$DIMAZIN
 70
     0
  9
$DIMDSEP
 70
    46
  9
$DIMATFIT
 70
     3
  9
$DIMFRAC
 70
     0
  9
$DIMLDRBLK
  1

  9
$DIMLUNIT
 70
     2
  9
$DIMLWD
 70
    -2
  9
$DIMLWE
 70
    -2
  9
$DIMTMOVE
 70
     0
  9
$LUNITS
 70
     2
  9
$LUPREC
 70
     4
  9
$SKETCHINC
 40
0.1
  9
$FILLETRAD
 40
0.5
  9
$AUNITS
 70
     0
  9
$AUPREC
 70
     0
  9
$MENU
  1
.
  9
$ELEVATION
 40
0.0
  9
$PELEVATION
 40
0.0
  9
$THICKNESS
 40
0.0
  9
$LIMCHECK
 70
     0
  9
$CHAMFERA
 40
0.5
  9
$CHAMFERB
 40
0.5
  9
$CHAMFERC
 40
1.0
  9
$CHAMFERD
 40
0.0
  9
$SKPOLY
 70
     0
  9
$TDCREATE
 40
2456216.552333727
  9
$TDUCREATE
 40
2456216.010667060
  9
$TDUPDATE
 40
2457071.443943831
  9
$TDUUPDATE
 40
2457070.902277164
  9
$TDINDWG
 40
0.0215613194
  9
$TDUSRTIMER
 40
0.0215613194
  9
$USRTIMER
 70
     1
  9
$ANGBASE
 50
0.0
  9
$ANGDIR
 70
     0
  9
$PDMODE
 70
     0
  9
$PDSIZE
 40
0.0
  9
$PLINEWID
 40
0.0
  9
$SPLFRAME
 70
     0
  9
$SPLINETYPE
 70
     6
  9
$SPLINESEGS
 70
     8
  9
$HANDSEED
  5
5E0
  9
$SURFTAB1
 70
     6
  9
$SURFTAB2
 70
     6
  9
$SURFTYPE
 70
     6
  9
$SURFU
 70
     6
  9
$SURFV
 70
     6
  9
$UCSBASE
  2

  9
$UCSNAME
  2

  9
$UCSORG
 10
0.0
 20
0.0
 30
0.0
  9
$UCSXDIR
 10
1.0
 20
0.0
 30
0.0
  9
$UCSYDIR
 10
0.0
 20
1.0
 30
0.0
  9
$UCSORTHOREF
  2

  9
$UCSORTHOVIEW
 70
     0
  9
$UCSORGTOP
 10
0.0
 20
0.0
 30
0.0
  9
$UCSORGBOTTOM
 10
0.0
 20
0.0
 30
0.0
  9
$UCSORGLEFT
 10
0.0
 20
0.0
 30
0.0
  9
$UCSORGRIGHT
 10
0.0
 20
0.0
 30
0.0
  9
$UCSORGFRONT
 10
0.0
 20
0.0
 30
0.0
  9
$UCSORGBACK
 10
0.0
 20
0.0
 30
0.0
  9
$PUCSBASE
  2

  9
$PUCSNAME
  2

  9
$PUCSORG
 10
0.0
 20
0.0
 30
0.0
  9
$PUCSXDIR
 10
1.0
 20
0.0
 30
0.0
  9
$PUCSYDIR
 10
0.0
 20
1.0
 30
0.0
  9
$PUCSORTHOREF
  2

  9
$PUCSORTHOVIEW
 70
     0
  9
$PUCSORGTOP
 10
0.0
 20
0.0
 30
0.0
  9
$PUCSORGBOTTOM
 10
0.0
 20
0.0
 30
0.0
  9
$PUCSORGLEFT
 10
0.0
 20
0.0
 30
0.0
  9
$PUCSORGRIGHT
 10
0.0
 20
0.0
 30
0.0
  9
$PUCSORGFRONT
 10
0.0
 20
0.0
 30
0.0
  9
$PUCSORGBACK
 10
0.0
 20
0.0
 30
0.0
  9
$USERI1
 70
     0
  9
$USERI2
 70
     0
  9
$USERI3
 70
     0
  9
$USERI4
 70
     0
  9
$USERI5
 70
     0
  9
$USERR1
 40
0.0
  9
$USERR2
 40
0.0
  9
$USERR3
 40
0.0
  9
$USERR4
 40
0.0
  9
$USERR5
 40
0.0
  9
$WORLDVIEW
 70
     1
  9
$SHADEDGE
 70
     3
  9
$SHADEDIF
 70
    70
  9
$TILEMODE
 70
     1
  9
$MAXACTVP
 70
    64
  9
$PINSBASE
 10
0.0
 20
0.0
 30
0.0
  9
$PLIMCHECK
 70
     0
  9
$PEXTMIN
 10
1.000000000000000E+20
 20
1.000000000000000E+20
 30
1.000000000000000E+20
  9
$PEXTMAX
 10
-1.000000000000000E+20
 20
-1.000000000000000E+20
 30
-1.000000000000000E+20
  9
$PLIMMIN
 10
0.0
 20
0.0
  9
$PLIMMAX
 10
12.0
 20
9.0
  9
$UNITMODE
 70
     0
  9
$VISRETAIN
 70
     1
  9
$PLINEGEN
 70
     0
  9
$PSLTSCALE
 70
     1
  9
$TREEDEPTH
 70
  3020
  9
$CMLSTYLE
  2
Standard
  9
$CMLJUST
 70
     0
  9
$CMLSCALE
 40
1.0
  9
$PROXYGRAPHICS
 70
     1
  9
$MEASUREMENT
 70
     0
  9
$CELWEIGHT
370
    -1
  9
$ENDCAPS
280
     0
  9
$JOINSTYLE
280
     0
  9
$LWDISPLAY
290
     1
  9
$INSUNITS
 70
     0
  9
$HYPERLINKBASE
  1

  9
$STYLESHEET
  1

  9
$XEDIT
290
     1
  9
$CEPSNTYPE
380
     0
  9
$PSTYLEMODE
290
     1
  9
$FINGERPRINTGUID
  2
{3DCE0FB3-5022-4339-AF8F-261B98BA2B75}
  9
$VERSIONGUID
  2
{C795AD74-687E-4044-B9CC-D4EA80C62B21}
  9
$EXTNAMES
290
     1
  9
$PSVPSCALE
 40
0.0
  9
$OLESTARTUP
290
     0
  0
ENDSEC
  0
SECTION
  2
CLASSES
  0
CLASS
  1
ACDBDICTIONARYWDFLT
  2
AcDbDictionaryWithDefault
  3
ObjectDBX Classes
 90
        0
280
     0
281
     0
  0
CLASS
  1
VISUALSTYLE
  2
AcDbVisualStyle
  3
ObjectDBX Classes
 90
     4095
280
     0
281
     0
  0
CLASS
  1
MATERIAL
  2
AcDbMaterial
  3
ObjectDBX Classes
 90
     1153
280
     0
281
     0
  0
CLASS
  1
SCALE
  2
AcDbScale
  3
ObjectDBX Classes
 90
     1153
280
     0
281
     0
  0
CLASS
  1
DICTIONARYVAR
  2
AcDbDictionaryVar
  3
ObjectDBX Classes
 90
        0
280
     0
281
     0
  0
CLASS
  1
TABLESTYLE
  2
AcDbTableStyle
  3
ObjectDBX Classes
 90
     4095
280
     0
281
     0
  0
CLASS
  1
MLEADERSTYLE
  2
AcDbMLeaderStyle
  3
ACDB_MLEADERSTYLE_CLASS
 90
     4095
280
     0
281
     0
  0
CLASS
  1
ACDBSECTIONVIEWSTYLE
  2
AcDbSectionViewStyle
  3
ObjectDBX Classes
 90
     1025
280
     0
281
     0
  0
CLASS
  1
ACDBDETAILVIEWSTYLE
  2
AcDbDetailViewStyle
  3
ObjectDBX Classes
 90
     1025
280
     0
281
     0
  0
CLASS
  1
EXACXREFPANELOBJECT
  2
ExAcXREFPanelObject
  3
EXAC_ESW
 90
     1025
280
     0
281
     0
  0
CLASS
  1
NPOCOLLECTION
  2
AcDbImpNonPersistentObjectsCollection
  3
ObjectDBX Classes
 90
     1153
280
     0
281
     0
  0
CLASS
  1
IMAGE
  2
AcDbRasterImage
  3
ISM
 90
    34943
280
     0
281
     1
  0
CLASS
  1
IMAGEDEF_REACTOR
  2
AcDbRasterImageDefReactor
  3
ISM
 90
        1
280
     0
281
     0
  0
CLASS
  1
SORTENTSTABLE
  2
AcDbSortentsTable
  3
ObjectDBX Classes
 90
        0
280
     0
281
     0
  0
CLASS
  1
IMAGEDEF
  2
AcDbRasterImageDef
  3
ISM
 90
    32768
280
     0
281
     0
  0
CLASS
  1
RASTERVARIABLES
  2
AcDbRasterVariables
  3
ISM
 90
        0
280
     0
281
     0
  0
CLASS
  1
ACAD_EVALUATION_GRAPH
  2
AcDbEvalGraph
  3
ObjectDBX Classes
 90
    33921
280
     0
281
     0
  0
CLASS
  1
ACAECUSTOBJ
  2
AcAeEditorObj
  3
AcAeEditorObj
 90
    33792
280
     0
281
     0
  0
CLASS
  1
ACDB_DYNAMICBLOCKPURGEPREVENTER_VERSION
  2
AcDbDynamicBlockPurgePreventer
  3
ObjectDBX Classes
 90
    33921
280
     0
281
     0
  0
CLASS
  1
ACDBASSOCNETWORK
  2
AcDbAssocNetwork
  3
ObjectDBX Classes
 90
     1025
280
     0
281
     0
  0
CLASS
  1
ACDBASSOC2DCONSTRAINTGROUP
  2
AcDbAssoc2dConstraintGroup
  3
ObjectDBX Classes
 90
     1025
280
     0
281
     0
  0
CLASS
  1
ACDBASSOCGEOMDEPENDENCY
  2
AcDbAssocGeomDependency
  3
ObjectDBX Classes
 90
     1025
280
     0
281
     0
  0
CLASS
  1
PDFDEFINITION
  2
AcDbPdfDefinition
  3
ObjectDBX Classes
 90
    33921
280
     0
281
     0
  0
CLASS
  1
PDFUNDERLAY
  2
AcDbPdfReference
  3
ObjectDBX Classes
 90
    36863
280
     0
281
     1
  0
CLASS
  1
SPATIAL_FILTER
  2
AcDbSpatialFilter
  3
ObjectDBX Classes
 90
        0
280
     0
281
     0
  0
CLASS
  1
CELLSTYLEMAP
  2
AcDbCellStyleMap
  3
ObjectDBX Classes
 90
     1152
280
     0
281
     0
  0
CLASS
  1
ACDBPLACEHOLDER
  2
AcDbPlaceHolder
  3
ObjectDBX Classes
 90
        0
280
     0
281
     0
  0
CLASS
  1
LAYOUT
  2
AcDbLayout
  3
ObjectDBX Classes
 90
        0
280
     0
281
     0
  0
ENDSEC
  0
SECTION
  2
TABLES
  0
TABLE
  2
VPORT
  5
8
330
0
100
AcDbSymbolTable
 70
     1
  0
VPORT
  5
29
330
8
100
AcDbSymbolTableRecord
100
AcDbViewportTableRecord
  2
*Active
 70
     0
 10
0.0
 20
0.0
 11
1.0
 21
1.0
 12
9715.523552723796
 22
860.2327940375834
 13
0.0
 23
0.0
 14
0.5
 24
0.5
 15
0.5
 25
0.5
 16
0.0
 26
0.0
 36
1.0
 17
0.0
 27
0.0
 37
0.0
 40
802.8929740680812
 41
1.710191082802547
 42
50.0
 43
0.0
 44
0.0
 50
0.0
 51
0.0
 71
     0
 72
   100
 73
     1
 74
     3
 75
     0
 76
     0
 77
     0
 78
     0
281
     0
 65
     1
110
0.0
120
0.0
130
0.0
111
1.0
121
0.0
131
0.0
112
0.0
122
1.0
132
0.0
 79
     0
146
0.0
1001
ACAD_NAV_VCDISPLAY
1070
     3
  0
ENDTAB
  0
TABLE
  2
LTYPE
  5
5
330
0
100
AcDbSymbolTable
 70
     8
  0
LTYPE
  5
14
330
5
100
AcDbSymbolTableRecord
100
AcDbLinetypeTableRecord
  2
ByBlock
 70
     0
  3

 72
    65
 73
     0
 40
0.0
  0
LTYPE
  5
15
330
5
100
AcDbSymbolTableRecord
100
AcDbLinetypeTableRecord
  2
ByLayer
 70
     0
  3

 72
    65
 73
     0
 40
0.0
  0
LTYPE
  5
16
330
5
100
AcDbSymbolTableRecord
100
AcDbLinetypeTableRecord
  2
Continuous
 70
     0
  3
Solid line
 72
    65
 73
     0
 40
0.0
  0
LTYPE
  5
1AB
330
5
100
AcDbSymbolTableRecord
100
AcDbLinetypeTableRecord
  2
Hidden
 70
     0
  3
- - - - - 
 72
    65
 73
     2
 40
4.938889980316162
 49
2.822222709655761
 74
     0
 49
-2.1166672706604
 74
     0
  0
LTYPE
  5
1CB
330
5
100
AcDbSymbolTableRecord
100
AcDbLinetypeTableRecord
  2
Above
 70
     0
  3
- - - - - 
 72
    65
 73
     2
 40
9.599999999999999
 49
6.0
 74
     0
 49
-3.6
 74
     0
  0
LTYPE
  5
1DB
330
5
100
AcDbSymbolTableRecord
100
AcDbLinetypeTableRecord
  2
Sketch
 70
     0
  3
??????????
 72
    65
 73
     3
 40
40.0
 49
0.0
 74
     4
 75
     1
340
1DC
 46
0.3174603174603174
 50
0.0
 44
0.0
 45
0.0
 49
-40.0
 74
     0
 49
0.0
 74
     0
  0
LTYPE
  5
286
330
5
100
AcDbSymbolTableRecord
100
AcDbLinetypeTableRecord
  2
ZIGZAG
 70
     0
  3
Zig zag /\/\/\/\/\/\/\/\/\/\/\/\/\/\/\/\/\/\/\/
 72
    65
 73
     4
 40
0.8001000000000001
 49
0.0001
 74
     0
 49
-0.2
 74
     4
 75
   131
340
285
 46
0.2
 50
0.0
 44
-0.2
 45
0.0
 49
-0.4
 74
     4
 75
   131
340
285
 46
0.2
 50
180.0
 44
0.2
 45
0.0
 49
-0.2
 74
     0
  0
LTYPE
  5
301
330
5
100
AcDbSymbolTableRecord
100
AcDbLinetypeTableRecord
  2
DASHEDX2
 70
     0
  3
Dashed (2x) ____  ____  ____  ____  ____  ___
 72
    65
 73
     2
 40
1.5
 49
1.0
 74
     0
 49
-0.5
 74
     0
  0
LTYPE
  5
372
330
5
100
AcDbSymbolTableRecord
100
AcDbLinetypeTableRecord
  2
PLASTER
 70
     0
  3
PLASTER
 72
    65
 73
     2
 40
2.379214999999999
 49
0.000024
 74
     4
 75
     1
340
373
 46
0.2
 50
0.0
 44
0.0
 45
0.0
 49
-2.379191
 74
     0
  0
LTYPE
  5
43A
330
5
100
AcDbSymbolTableRecord
100
AcDbLinetypeTableRecord
  2
ACAD_ISO03W100
 70
     0
  3
ISO dash space __    __    __    __    __    __
 72
    65
 73
     2
 40
30.0
 49
12.0
 74
     0
 49
-18.0
 74
     0
  0
ENDTAB
  0
TABLE
  2
LAYER
  5
2
102
{ACAD_XDICTIONARY
360
25C
102
}
330
0
100
AcDbSymbolTable
 70
     7
  0
LAYER
  5
10
102
{ACAD_XDICTIONARY
360
287
102
}
330
2
100
AcDbSymbolTableRecord
100
AcDbLayerTableRecord
  2
0
 70
     0
 62
     7
  6
Continuous
370
    -3
390
F
  0
LAYER
  5
40
102
{ACAD_XDICTIONARY
360
289
102
}
330
2
100
AcDbSymbolTableRecord
100
AcDbLayerTableRecord
  2
Specialized_Fills
 70
     0
 62
     7
  6
Continuous
370
    -3
390
F
  0
LAYER
  5
1A9
102
{ACAD_XDICTIONARY
360
28B
102
}
330
2
100
AcDbSymbolTableRecord
100
AcDbLayerTableRecord
  2
Specialized_Lines
 70
     0
 62
     7
  6
Continuous
370
    -3
390
F
  0
LAYER
  5
1F4
102
{ACAD_XDICTIONARY
360
28D
102
}
330
2
100
AcDbSymbolTableRecord
100
AcDbLayerTableRecord
  2
Specialized_Text
 70
     0
 62
     7
  6
Continuous
370
    -3
390
F
  0
LAYER
  5
253
102
{ACAD_XDICTIONARY
360
254
102
}
330
2
100
AcDbSymbolTableRecord
100
AcDbLayerTableRecord
  2
Viewport
 70
     0
 62
     7
  6
Continuous
370
    -3
390
F
1001
AcAecLayerStandard
1000

1000

1001
AcCmTransparency
1071
        0
  0
LAYER
  5
3D8
330
2
100
AcDbSymbolTableRecord
100
AcDbLayerTableRecord
  2
Defpoints
 70
     0
 62
     7
  6
Continuous
290
     0
370
    -3
390
F
  0
LAYER
  5
465
330
2
100
AcDbSymbolTableRecord
100
AcDbLayerTableRecord
  2
eps
 70
     0
 62
   254
  6
Continuous
370
    -3
390
F
1001
AcAecLayerStandard
1000

1000

1001
AcCmTransparency
1071
        0
  0
ENDTAB
  0
TABLE
  2
STYLE
  5
3
330
0
100
AcDbSymbolTable
 70
     6
  0
STYLE
  5
11
330
3
100
AcDbSymbolTableRecord
100
AcDbTextStyleTableRecord
  2
Standard
 70
     0
 40
0.0
 41
1.0
 50
0.0
 71
     0
 42
0.2
  3
txt
  4
BIGFONT.SHX
  0
STYLE
  5
1DC
330
3
100
AcDbSymbolTableRecord
100
AcDbTextStyleTableRecord
  2

 70
     1
 40
0.2
 41
1.0
 50
0.0
 71
     0
 42
0.2
  3
05C Wall_ Internal Corner - B.B WEATHERBOARD1.Shx
  4

  0
STYLE
  5
1EA
330
3
100
AcDbSymbolTableRecord
100
AcDbTextStyleTableRecord
  2
GENERATED_STYLE_1
 70
     0
 40
0.0
 41
1.0
 50
0.0
 71
     0
 42
0.2
  3
ARIALUNI.TTF
  4

1001
ACAD
1000
Arial Unicode MS
1071
       34
  0
STYLE
  5
255
330
3
100
AcDbSymbolTableRecord
100
AcDbTextStyleTableRecord
  2
GENERATED_STYLE_2
 70
     0
 40
0.0
 41
1.0
 50
0.0
 71
     0
 42
0.2
  3
ARIALUNI.TTF
  4

1001
ACAD
1000
Arial Unicode MS
1071
       34
  0
STYLE
  5
285
330
3
100
AcDbSymbolTableRecord
100
AcDbTextStyleTableRecord
  2

 70
     1
 40
0.0
 41
1.0
 50
0.0
 71
     0
 42
0.2
  3
ltypeshp.shx
  4

  0
STYLE
  5
373
330
3
100
AcDbSymbolTableRecord
100
AcDbTextStyleTableRecord
  2

 70
     1
 40
0.0
 41
1.0
 50
0.0
 71
     0
 42
0.2
  3
P:\VERT-X CONSULTING LTD\2013\10 OCT\1310-015- SPECIALIZED CONSTRUCTION PRODUCTS - CONTRACT DRAUGHTING\DRAWINGS\PLASTER.SHX
  4

  0
ENDTAB
  0
TABLE
  2
VIEW
  5
6
330
0
100
AcDbSymbolTable
 70
     0
  0
ENDTAB
  0
TABLE
  2
UCS
  5
7
330
0
100
AcDbSymbolTable
 70
     0
  0
ENDTAB
  0
TABLE
  2
APPID
  5
9
330
0
100
AcDbSymbolTable
 70
    17
  0
APPID
  5
12
330
9
100
AcDbSymbolTableRecord
100
AcDbRegAppTableRecord
  2
ACAD
 70
     0
  0
APPID
  5
256
330
9
100
AcDbSymbolTableRecord
100
AcDbRegAppTableRecord
  2
ACAD_PSEXT
 70
     0
  0
APPID
  5
257
330
9
100
AcDbSymbolTableRecord
100
AcDbRegAppTableRecord
  2
ACAD_NAV_VCDISPLAY
 70
     0
  0
APPID
  5
258
330
9
100
AcDbSymbolTableRecord
100
AcDbRegAppTableRecord
  2
AcAecLayerStandard
 70
     0
  0
APPID
  5
259
330
9
100
AcDbSymbolTableRecord
100
AcDbRegAppTableRecord
  2
AcCmTransparency
 70
     0
  0
APPID
  5
25A
330
9
100
AcDbSymbolTableRecord
100
AcDbRegAppTableRecord
  2
GradientColor1ACI
 70
     0
  0
APPID
  5
25B
330
9
100
AcDbSymbolTableRecord
100
AcDbRegAppTableRecord
  2
GradientColor2ACI
 70
     0
  0
APPID
  5
282
330
9
100
AcDbSymbolTableRecord
100
AcDbRegAppTableRecord
  2
ACAD_EXEMPT_FROM_CAD_STANDARDS
 70
     0
  0
APPID
  5
2AC
330
9
100
AcDbSymbolTableRecord
100
AcDbRegAppTableRecord
  2
ACAUTHENVIRON
 70
     0
  0
APPID
  5
2BD
330
9
100
AcDbSymbolTableRecord
100
AcDbRegAppTableRecord
  2
AcDbDynamicBlockTrueName
 70
     0
  0
APPID
  5
2BE
330
9
100
AcDbSymbolTableRecord
100
AcDbRegAppTableRecord
  2
AcDbDynamicBlockGUID
 70
     0
  0
APPID
  5
468
330
9
100
AcDbSymbolTableRecord
100
AcDbRegAppTableRecord
  2
AcadAnnotative
 70
     0
  0
APPID
  5
469
330
9
100
AcDbSymbolTableRecord
100
AcDbRegAppTableRecord
  2
ACAD_DSTYLE_DIMJAG
 70
     0
  0
APPID
  5
46A
330
9
100
AcDbSymbolTableRecord
100
AcDbRegAppTableRecord
  2
ACAD_DSTYLE_DIMTALN
 70
     0
  0
APPID
  5
477
330
9
100
AcDbSymbolTableRecord
100
AcDbRegAppTableRecord
  2
AdeskUnderlayLayerOverrideData
 70
     0
  0
APPID
  5
4BD
330
9
100
AcDbSymbolTableRecord
100
AcDbRegAppTableRecord
  2
BNS_SPRHATCH
 70
     0
  0
APPID
  5
5D4
330
9
100
AcDbSymbolTableRecord
100
AcDbRegAppTableRecord
  2
ACAD_MLEADERVER
 70
     0
  0
ENDTAB
  0
TABLE
  2
DIMSTYLE
  5
A
330
0
100
AcDbSymbolTable
 70
     5
100
AcDbDimStyleTable
 71
     1
340
27
  0
DIMSTYLE
105
27
330
A
100
AcDbSymbolTableRecord
100
AcDbDimStyleTableRecord
  2
Standard
 70
     0
340
11
  0
DIMSTYLE
105
1ED
102
{ACAD_REACTORS
330
1EC
102
}
330
A
100
AcDbSymbolTableRecord
100
AcDbDimStyleTableRecord
  2
GENERATED_STYLE__1
 70
     0
 41
3.799999999999999
 42
600.0
 73
     0
 74
     0
 77
     1
140
5.0
172
     1
176
     7
177
     7
178
     7
179
     2
271
     0
279
     2
340
1EA
342
1EE
343
1EE
344
1EE
  0
DIMSTYLE
105
1F6
330
A
100
AcDbSymbolTableRecord
100
AcDbDimStyleTableRecord
  2
GENERATED_STYLE__2
 70
     0
 41
7.295999999999999
172
     1
341
1F7
  0
DIMSTYLE
105
466
330
A
100
AcDbSymbolTableRecord
100
AcDbDimStyleTableRecord
  2
Annotative
 70
     0
 40
0.0
 41
2.5
 42
0.625
 43
3.75
 44
1.25
 73
     0
 74
     0
 77
     1
 78
     8
140
2.5
141
2.5
143
0.03937007874016
147
0.625
171
     3
172
     1
271
     2
272
     2
274
     3
278
    44
283
     0
284
     8
340
11
1001
AcadAnnotative
1000
AnnotativeData
1002
{
1070
     1
1070
     1
1002
}
1001
ACAD_DSTYLE_DIMJAG
1070
   388
1040
1.5
1001
ACAD_DSTYLE_DIMTALN
1070
   392
1070
     0
  0
DIMSTYLE
105
467
330
A
100
AcDbSymbolTableRecord
100
AcDbDimStyleTableRecord
  2
ISO-25
 70
     0
 41
2.5
 42
0.625
 43
3.75
 44
1.25
 73
     0
 74
     0
 77
     1
 78
     8
140
2.5
141
2.5
143
0.03937007874016
147
0.625
171
     3
172
     1
271
     2
272
     2
274
     3
278
    44
283
     0
284
     8
340
11
  0
ENDTAB
  0
TABLE
  2
BLOCK_RECORD
  5
1
330
0
100
AcDbSymbolTable
 70
     7
  0
BLOCK_RECORD
  5
1F
102
{ACAD_XDICTIONARY
360
31F
102
}
330
1
100
AcDbSymbolTableRecord
100
AcDbBlockTableRecord
  2
*Model_Space
340
22
  0
BLOCK_RECORD
  5
1B
330
1
100
AcDbSymbolTableRecord
100
AcDbBlockTableRecord
  2
*Paper_Space
340
1E
  0
BLOCK_RECORD
  5
23
330
1
100
AcDbSymbolTableRecord
100
AcDbBlockTableRecord
  2
*Paper_Space0
340
26
  0
BLOCK_RECORD
  5
50
102
{ACAD_XDICTIONARY
360
2AD
102
}
330
1
100
AcDbSymbolTableRecord
100
AcDbBlockTableRecord
  2
Fill_1
340
0
1001
AcDbDynamicBlockGUID
1000
{A34285B8-D5B8-4FC5-89EA-984B117E6A28}
  0
BLOCK_RECORD
  5
1E0
330
1
100
AcDbSymbolTableRecord
100
AcDbBlockTableRecord
  2
*D2
340
0
  0
BLOCK_RECORD
  5
1EE
330
1
100
AcDbSymbolTableRecord
100
AcDbBlockTableRecord
  2
ARROWHEAD_2
340
0
102
{BLKREFS
331
48C
331
48D
102
}
  0
BLOCK_RECORD
  5
1F7
330
1
100
AcDbSymbolTableRecord
100
AcDbBlockTableRecord
  2
ARROWHEAD_5
340
0
  0
BLOCK_RECORD
  5
20E
330
1
100
AcDbSymbolTableRecord
100
AcDbBlockTableRecord
  2
05C Wall_ Internal Corner - B.B_STORY_MARKER
340
0
  0
BLOCK_RECORD
  5
452
102
{ACAD_XDICTIONARY
360
5DB
102
}
330
1
100
AcDbSymbolTableRecord
100
AcDbBlockTableRecord
  2
therma
340
0
310
2800000020000000200000000100080000000000000400000000000000000000000000000000000000000000000080000080000000808000800000008000800080800000C0C0C000C0DCC000F0CAA6000020400000206000002080000020A0000020C0000020E00000400000004020000040400000406000004080000040A0
310
000040C0000040E00000600000006020000060400000606000006080000060A0000060C0000060E00000800000008020000080400000806000008080000080A0000080C0000080E00000A0000000A0200000A0400000A0600000A0800000A0A00000A0C00000A0E00000C0000000C0200000C0400000C0600000C0800000C0
310
A00000C0C00000C0E00000E0000000E0200000E0400000E0600000E0800000E0A00000E0C00000E0E00040000000400020004000400040006000400080004000A0004000C0004000E00040200000402020004020400040206000402080004020A0004020C0004020E000404000004040200040404000404060004040800040
310
40A0004040C0004040E00040600000406020004060400040606000406080004060A0004060C0004060E00040800000408020004080400040806000408080004080A0004080C0004080E00040A0000040A0200040A0400040A0600040A0800040A0A00040A0C00040A0E00040C0000040C0200040C0400040C0600040C08000
310
40C0A00040C0C00040C0E00040E0000040E0200040E0400040E0600040E0800040E0A00040E0C00040E0E00080000000800020008000400080006000800080008000A0008000C0008000E00080200000802020008020400080206000802080008020A0008020C0008020E00080400000804020008040400080406000804080
310
008040A0008040C0008040E00080600000806020008060400080606000806080008060A0008060C0008060E00080800000808020008080400080806000808080008080A0008080C0008080E00080A0000080A0200080A0400080A0600080A0800080A0A00080A0C00080A0E00080C0000080C0200080C0400080C0600080C0
310
800080C0A00080C0C00080C0E00080E0000080E0200080E0400080E0600080E0800080E0A00080E0C00080E0E000C0000000C0002000C0004000C0006000C0008000C000A000C000C000C000E000C0200000C0202000C0204000C0206000C0208000C020A000C020C000C020E000C0400000C0402000C0404000C0406000C0
310
408000C040A000C040C000C040E000C0600000C0602000C0604000C0606000C0608000C060A000C060C000C060E000C0800000C0802000C0804000C0806000C0808000C080A000C080C000C080E000C0A00000C0A02000C0A04000C0A06000C0A08000C0A0A000C0A0C000C0A0E000C0C00000C0C02000C0C04000C0C06000
310
C0C08000C0C0A000F0FBFF00A4A0A000808080000000FF0000FF000000FFFF00FF000000FF00FF00FFFF0000FFFFFF0049494949494949494949494949494949494949494949494949494949494949494949494949494949494949494949494949494949494949494949070749494949494949494949494949070707074949
310
49494907494949494949070707070749494949494949494949490749490707490707070707074949490707070707074949494949070707070749074949070749070707070707074949070707070707074949494907070707070707070707490707070707070707074907070707070707494949070707070707074907074949
310
07070707070707070749070707070707494949490707070707070749494949490707070707070707074949070707074949494949490707070707074907074949070707070707070707070707494949494949494949070707070707070707070749070707070707070707070749494949494949494949494949490707070707
310
07494907070707070707070707494949494949494907070707494907070707070749494949494949490707070749494949494949490707070749490707070707074949494949494949070707074949494949494907070707074949070707070707494949494949494949494949494949494949494907070707494949070707
310
07494949494949494949494949490749494949494949070707070707070749494949070707070749494949490707070707494949494949494907070707070749490707494949070749494949070707070707494949494949070707070707070749074949494949074949490707070707070749494949494907070707070707
310
07490749494949490749494907070707070707494949494949070707070707070749070749494907494949494907070707070749494949494907070707070707074949070707070707070707490707070707494949494949490707070707070707494949494949490707070749494949494949494949494949490707070707
310
07494949494949494907070707494907074949494949494949494949070707074949494949494949490707070707070707074949494949494907070707494949070707494949070707070707070707070707074949494949070707070707490707070707490707070707074907070707070707494949494907070707070749
310
07070707074907070707070749070707070707074949494949070707070707490707070707490707070707074907070707070749494949494907070707070749490707074949070707070707494907070707074949494949490707070707494949494949494949070707070749494949494949494949494949494907074949
310
4949494949494949490707494949494949494949494949494949494949494949494949494949494949494949494949494949494949494949
102
{BLKREFS
331
4C9
331
4CA
331
4CB
331
4CC
331
4CD
331
4CE
331
4CF
331
4D0
331
4D1
331
4D2
331
4D3
331
4D4
331
4D5
331
4D6
331
4D7
331
4D8
331
4D9
331
4DA
331
4DB
331
4DC
331
4DD
102
}
  0
ENDTAB
  0
ENDSEC
  0
SECTION
  2
BLOCKS
  0
BLOCK
  5
20
330
1F
100
AcDbEntity
  8
0
100
AcDbBlockBegin
  2
*Model_Space
 70
     0
 10
0.0
 20
0.0
 30
0.0
  3
*Model_Space
  1

  0
ENDBLK
  5
21
330
1F
100
AcDbEntity
  8
0
100
AcDbBlockEnd
  0
BLOCK
  5
1C
330
1B
100
AcDbEntity
 67
     1
  8
0
100
AcDbBlockBegin
  2
*Paper_Space
 70
     0
 10
0.0
 20
0.0
 30
0.0
  3
*Paper_Space
  1

  0
ENDBLK
  5
1D
330
1B
100
AcDbEntity
 67
     1
  8
0
100
AcDbBlockEnd
  0
BLOCK
  5
24
330
23
100
AcDbEntity
 67
     1
  8
0
100
AcDbBlockBegin
  2
*Paper_Space0
 70
     0
 10
0.0
 20
0.0
 30
0.0
  3
*Paper_Space0
  1

  0
ENDBLK
  5
25
330
23
100
AcDbEntity
 67
     1
  8
0
100
AcDbBlockEnd
  0
BLOCK
  5
51
330
50
100
AcDbEntity
  8
0
100
AcDbBlockBegin
  2
Fill_1
 70
     0
 10
0.0
 20
0.0
 30
0.0
  3
Fill_1
  1

  0
LINE
  5
2A6
102
{ACAD_REACTORS
330
2BC
102
}
330
50
100
AcDbEntity
  8
Specialized_Fills
  6
Continuous
100
AcDbLine
 10
9614.570768217683
 20
702.2024559510798
 30
0.0
 11
9614.702647805993
 21
709.6138027505519
 31
0.0
  0
LINE
  5
2A7
102
{ACAD_REACTORS
330
2BC
102
}
330
50
100
AcDbEntity
  8
Specialized_Fills
  6
Continuous
100
AcDbLine
 10
9614.702647805993
 20
709.6138027505519
 30
0.0
 11
9614.702647805993
 21
761.3209177611125
 31
0.0
  0
LINE
  5
2A8
102
{ACAD_REACTORS
330
2BC
102
}
330
50
100
AcDbEntity
  8
Specialized_Fills
  6
Continuous
100
AcDbLine
 10
9614.702647805993
 20
761.3209177611125
 30
0.0
 11
9564.57076821772
 21
761.3209177611125
 31
0.0
  0
LINE
  5
2A9
102
{ACAD_REACTORS
330
2BC
102
}
330
50
100
AcDbEntity
  8
Specialized_Fills
  6
Continuous
100
AcDbLine
 10
9564.57076821772
 20
761.3209177611125
 30
0.0
 11
9564.57076821772
 21
574.4169273584263
 31
0.0
  0
LINE
  5
2AA
102
{ACAD_REACTORS
330
2BC
102
}
330
50
100
AcDbEntity
  8
Specialized_Fills
  6
Continuous
100
AcDbLine
 10
9564.57076821772
 20
574.4169273584263
 30
0.0
 11
9614.570768217683
 21
574.4169273584263
 31
0.0
  0
LINE
  5
2AB
102
{ACAD_REACTORS
330
2BC
102
}
330
50
100
AcDbEntity
  8
Specialized_Fills
  6
Continuous
100
AcDbLine
 10
9614.570768217683
 20
574.4169273584263
 30
0.0
 11
9614.570768217683
 21
702.2024559510798
 31
0.0
  0
HATCH
  5
2BC
330
50
100
AcDbEntity
  8
0
 62
   251
100
AcDbHatch
 10
0.0
 20
0.0
 30
0.0
210
0.0
220
0.0
230
1.0
  2
HPCRC1E0
 70
     0
 71
     1
 91
        1
 92
        7
 72
     0
 73
     1
 93
        6
 10
9614.702647805993
 20
761.3209177611125
 10
9564.57076821772
 20
761.3209177611125
 10
9564.57076821772
 20
574.4169273584263
 10
9614.570768217683
 20
574.4169273584263
 10
9614.570768217683
 20
702.2024559510798
 10
9614.702647805993
 20
709.6138027505519
 97
        6
330
2A8
330
2A9
330
2AA
330
2AB
330
2A6
330
2A7
 75
     1
 76
     2
 52
0.0
 41
0.12
 77
     0
 78
    78
 53
82.8749847
 43
0.0
 44
4.2
 45
-0.0000004961129005
 46
8.399999852931037
 79
     2
 49
0.9674709324
 49
-66.75549316799998
 53
75.96376039999999
 43
0.12
 44
5.16
 45
-0.000000348785556
 46
8.399999709154096
 79
     2
 49
0.4947726600000001
 49
-34.139315184
 53
63.43495179999999
 43
0.24
 44
5.639999999999999
 45
-0.0000000286036308
 46
8.400000041591663
 79
     2
 49
1.073312639999999
 49
-17.70965881199999
 53
45.0
 43
0.72
 44
6.599999999999999
 45
0.0000000000000009
 46
8.400000002875099
 79
     2
 49
1.527350688
 49
-10.352043456
 53
33.6900673
 43
1.799999999999999
 44
7.679999999999999
 45
0.0000001596020127
 46
8.399999824188462
 79
     2
 49
0.4326661440000001
 49
-29.85396423600001
 53
33.6900673
 43
10.2
 44
7.679999999999999
 45
0.0000001596020127
 46
8.399999824188462
 79
     2
 49
0.4326661440000001
 49
-29.85396423600001
 53
33.6900673
 43
18.6
 44
7.679999999999999
 45
0.0000001596020127
 46
8.399999824188462
 79
     2
 49
0.4326661440000001
 49
-29.85396423600001
 53
26.5650501
 43
2.16
 44
7.919999999999999
 45
-0.0000000460215162
 46
8.400000143556356
 79
     2
 49
0.26832816
 49
-18.514643556
 53
26.5650501
 43
10.56
 44
7.919999999999999
 45
-0.0000000460215162
 46
8.400000143556356
 79
     2
 49
0.26832816
 49
-18.514643556
 53
18.434948
 43
2.399999999999999
 44
8.039999999999999
 45
0.0000002686412607
 46
8.399999851558131
 79
     2
 49
0.3794733239999999
 49
-26.183659056
 53
18.434948
 43
10.8
 44
8.039999999999999
 45
0.0000002686412607
 46
8.399999851558131
 79
     2
 49
0.3794733239999999
 49
-26.183659056
 53
18.434948
 43
19.2
 44
8.039999999999999
 45
0.0000002686412607
 46
8.399999851558131
 79
     2
 49
0.3794733239999999
 49
-26.183659056
 53
26.5650501
 43
2.759999999999999
 44
8.16
 45
-0.0000000460215162
 46
8.400000143556356
 79
     2
 49
0.26832816
 49
-18.514643556
 53
26.5650501
 43
11.16
 44
8.16
 45
-0.0000000460215162
 46
8.400000143556356
 79
     2
 49
0.26832816
 49
-18.514643556
 53
11.3099327
 43
3.0
 44
8.279999999999999
 45
-0.0000000543109101
 46
8.400000069389928
 79
     2
 49
0.6118823435999998
 49
-42.21988036799999
 53
11.3099327
 43
11.4
 44
8.279999999999999
 45
-0.0000000543109101
 46
8.400000069389928
 79
     2
 49
0.6118823435999998
 49
-42.21988036799999
 53
11.3099327
 43
19.8
 44
8.279999999999999
 45
-0.0000000543109101
 46
8.400000069389928
 79
     2
 49
0.6118823435999998
 49
-42.21988036799999
 53
11.3099327
 43
28.2
 44
8.279999999999999
 45
-0.0000000543109101
 46
8.400000069389928
 79
     2
 49
0.6118823435999998
 49
-42.21988036799999
 53
11.3099327
 43
36.6
 44
8.279999999999999
 45
-0.0000000543109101
 46
8.400000069389928
 79
     2
 49
0.6118823435999998
 49
-42.21988036799999
 53
0.0
 43
3.599999999999999
 44
8.4
 45
0.0
 46
8.4
 79
     2
 49
1.199999999999999
 49
-7.199999999999999
 53
348.6900673
 43
4.799999999999999
 44
8.4
 45
0.0000000543109101
 46
8.400000069389928
 79
     2
 49
0.6118823435999998
 49
-42.21988036799999
 53
348.6900673
 43
13.2
 44
8.4
 45
0.0000000543109101
 46
8.400000069389928
 79
     2
 49
0.6118823435999998
 49
-42.21988036799999
 53
348.6900673
 43
21.6
 44
8.4
 45
0.0000000543109101
 46
8.400000069389928
 79
     2
 49
0.6118823435999998
 49
-42.21988036799999
 53
348.6900673
 43
30.0
 44
8.4
 45
0.0000000543109101
 46
8.400000069389928
 79
     2
 49
0.6118823435999998
 49
-42.21988036799999
 53
348.6900673
 43
38.4
 44
8.4
 45
0.0000000543109101
 46
8.400000069389928
 79
     2
 49
0.6118823435999998
 49
-42.21988036799999
 53
333.4349499
 43
5.399999999999999
 44
8.279999999999999
 45
0.0000000460215162
 46
8.400000143556356
 79
     2
 49
0.2683281599999999
 49
-18.514643556
 53
333.4349499
 43
13.8
 44
8.279999999999999
 45
0.0000000460215162
 46
8.400000143556356
 79
     2
 49
0.2683281599999999
 49
-18.514643556
 53
341.565052
 43
5.639999999999999
 44
8.16
 45
-0.0000002686412607
 46
8.399999851558131
 79
     2
 49
0.379473324
 49
-26.183659056
 53
341.565052
 43
14.04
 44
8.16
 45
-0.0000002686412607
 46
8.399999851558131
 79
     2
 49
0.379473324
 49
-26.183659056
 53
341.565052
 43
22.44
 44
8.16
 45
-0.0000002686412607
 46
8.399999851558131
 79
     2
 49
0.379473324
 49
-26.183659056
 53
333.4349499
 43
6.0
 44
8.039999999999999
 45
0.0000000460215162
 46
8.400000143556356
 79
     2
 49
0.2683281599999999
 49
-18.514643556
 53
333.4349499
 43
14.4
 44
8.039999999999999
 45
0.0000000460215162
 46
8.400000143556356
 79
     2
 49
0.2683281599999999
 49
-18.514643556
 53
326.3099327
 43
6.24
 44
7.919999999999999
 45
-0.0000001596020127
 46
8.399999824188462
 79
     2
 49
0.4326661440000001
 49
-29.85396423600001
 53
326.3099327
 43
14.64
 44
7.919999999999999
 45
-0.0000001596020127
 46
8.399999824188462
 79
     2
 49
0.4326661440000001
 49
-29.85396423600001
 53
326.3099327
 43
23.04
 44
7.919999999999999
 45
-0.0000001596020127
 46
8.399999824188462
 79
     2
 49
0.4326661440000001
 49
-29.85396423600001
 53
315.0
 43
6.599999999999999
 44
7.679999999999999
 45
-0.0000000000000009
 46
8.400000002875099
 79
     2
 49
1.527350688
 49
-10.352043456
 53
296.5650482
 43
7.679999999999999
 44
6.599999999999999
 45
0.0000000286036308
 46
8.400000041591663
 79
     2
 49
1.073312639999999
 49
-17.70965881199999
 53
284.0362396
 43
8.16
 44
5.639999999999999
 45
0.000000348785556
 46
8.399999709154096
 79
     2
 49
0.4947726600000001
 49
-34.139315184
 53
277.1250153
 43
8.279999999999999
 44
5.16
 45
0.0000004961129005
 46
8.399999852931037
 79
     2
 49
0.9674709324
 49
-66.75549316799998
 53
277.1250153
 43
0.0
 44
4.2
 45
0.0000004961129005
 46
8.399999852931037
 79
     2
 49
0.9674709324
 49
-66.75549316799998
 53
284.0362396
 43
0.12
 44
3.239999999999999
 45
0.000000348785556
 46
8.399999709154096
 79
     2
 49
0.4947726600000001
 49
-34.139315184
 53
296.5650482
 43
0.24
 44
2.759999999999999
 45
0.0000000286036308
 46
8.400000041591663
 79
     2
 49
1.073312639999999
 49
-17.70965881199999
 53
315.0
 43
0.72
 44
1.799999999999999
 45
-0.0000000000000009
 46
8.400000002875099
 79
     2
 49
1.527350688
 49
-10.352043456
 53
326.3099327
 43
1.799999999999999
 44
0.72
 45
-0.0000001596020127
 46
8.399999824188462
 79
     2
 49
0.4326661440000001
 49
-29.85396423600001
 53
326.3099327
 43
10.2
 44
0.72
 45
-0.0000001596020127
 46
8.399999824188462
 79
     2
 49
0.4326661440000001
 49
-29.85396423600001
 53
326.3099327
 43
18.6
 44
0.72
 45
-0.0000001596020127
 46
8.399999824188462
 79
     2
 49
0.4326661440000001
 49
-29.85396423600001
 53
333.4349499
 43
2.16
 44
0.48
 45
0.0000000460215162
 46
8.400000143556356
 79
     2
 49
0.2683281599999999
 49
-18.514643556
 53
333.4349499
 43
10.56
 44
0.48
 45
0.0000000460215162
 46
8.400000143556356
 79
     2
 49
0.2683281599999999
 49
-18.514643556
 53
341.565052
 43
2.399999999999999
 44
0.36
 45
-0.0000002686412607
 46
8.399999851558131
 79
     2
 49
0.379473324
 49
-26.183659056
 53
341.565052
 43
10.8
 44
0.36
 45
-0.0000002686412607
 46
8.399999851558131
 79
     2
 49
0.379473324
 49
-26.183659056
 53
341.565052
 43
19.2
 44
0.36
 45
-0.0000002686412607
 46
8.399999851558131
 79
     2
 49
0.379473324
 49
-26.183659056
 53
333.4349499
 43
2.759999999999999
 44
0.24
 45
0.0000000460215162
 46
8.400000143556356
 79
     2
 49
0.2683281599999999
 49
-18.514643556
 53
333.4349499
 43
11.16
 44
0.24
 45
0.0000000460215162
 46
8.400000143556356
 79
     2
 49
0.2683281599999999
 49
-18.514643556
 53
348.6900673
 43
3.0
 44
0.12
 45
0.0000000543109101
 46
8.400000069389928
 79
     2
 49
0.6118823435999998
 49
-42.21988036799999
 53
348.6900673
 43
11.4
 44
0.12
 45
0.0000000543109101
 46
8.400000069389928
 79
     2
 49
0.6118823435999998
 49
-42.21988036799999
 53
348.6900673
 43
19.8
 44
0.12
 45
0.0000000543109101
 46
8.400000069389928
 79
     2
 49
0.6118823435999998
 49
-42.21988036799999
 53
348.6900673
 43
28.2
 44
0.12
 45
0.0000000543109101
 46
8.400000069389928
 79
     2
 49
0.6118823435999998
 49
-42.21988036799999
 53
348.6900673
 43
36.6
 44
0.12
 45
0.0000000543109101
 46
8.400000069389928
 79
     2
 49
0.6118823435999998
 49
-42.21988036799999
 53
0.0
 43
3.599999999999999
 44
0.0
 45
0.0
 46
8.4
 79
     2
 49
1.199999999999999
 49
-7.199999999999999
 53
11.3099327
 43
4.799999999999999
 44
0.0
 45
-0.0000000543109101
 46
8.400000069389928
 79
     2
 49
0.6118823435999998
 49
-42.21988036799999
 53
11.3099327
 43
13.2
 44
0.0
 45
-0.0000000543109101
 46
8.400000069389928
 79
     2
 49
0.6118823435999998
 49
-42.21988036799999
 53
11.3099327
 43
21.6
 44
0.0
 45
-0.0000000543109101
 46
8.400000069389928
 79
     2
 49
0.6118823435999998
 49
-42.21988036799999
 53
11.3099327
 43
30.0
 44
0.0
 45
-0.0000000543109101
 46
8.400000069389928
 79
     2
 49
0.6118823435999998
 49
-42.21988036799999
 53
11.3099327
 43
38.4
 44
0.0
 45
-0.0000000543109101
 46
8.400000069389928
 79
     2
 49
0.6118823435999998
 49
-42.21988036799999
 53
26.5650501
 43
5.399999999999999
 44
0.12
 45
-0.0000000460215162
 46
8.400000143556356
 79
     2
 49
0.26832816
 49
-18.514643556
 53
26.5650501
 43
13.8
 44
0.12
 45
-0.0000000460215162
 46
8.400000143556356
 79
     2
 49
0.26832816
 49
-18.514643556
 53
18.434948
 43
5.639999999999999
 44
0.24
 45
0.0000002686412607
 46
8.399999851558131
 79
     2
 49
0.3794733239999999
 49
-26.183659056
 53
18.434948
 43
14.04
 44
0.24
 45
0.0000002686412607
 46
8.399999851558131
 79
     2
 49
0.3794733239999999
 49
-26.183659056
 53
18.434948
 43
22.44
 44
0.24
 45
0.0000002686412607
 46
8.399999851558131
 79
     2
 49
0.3794733239999999
 49
-26.183659056
 53
26.5650501
 43
6.0
 44
0.36
 45
-0.0000000460215162
 46
8.400000143556356
 79
     2
 49
0.26832816
 49
-18.514643556
 53
26.5650501
 43
14.4
 44
0.36
 45
-0.0000000460215162
 46
8.400000143556356
 79
     2
 49
0.26832816
 49
-18.514643556
 53
33.6900673
 43
6.24
 44
0.48
 45
0.0000001596020127
 46
8.399999824188462
 79
     2
 49
0.4326661440000001
 49
-29.85396423600001
 53
33.6900673
 43
14.64
 44
0.48
 45
0.0000001596020127
 46
8.399999824188462
 79
     2
 49
0.4326661440000001
 49
-29.85396423600001
 53
33.6900673
 43
23.04
 44
0.48
 45
0.0000001596020127
 46
8.399999824188462
 79
     2
 49
0.4326661440000001
 49
-29.85396423600001
 53
45.0
 43
6.599999999999999
 44
0.72
 45
0.0000000000000009
 46
8.400000002875099
 79
     2
 49
1.527350688
 49
-10.352043456
 53
63.43495179999999
 43
7.679999999999999
 44
1.799999999999999
 45
-0.0000000286036308
 46
8.400000041591663
 79
     2
 49
1.073312639999999
 49
-17.70965881199999
 53
75.96376039999999
 43
8.16
 44
2.759999999999999
 45
-0.000000348785556
 46
8.399999709154096
 79
     2
 49
0.4947726600000001
 49
-34.139315184
 53
82.8749847
 43
8.279999999999999
 44
3.239999999999999
 45
-0.0000004961129005
 46
8.399999852931037
 79
     2
 49
0.9674709324
 49
-66.75549316799998
 47
0.2780718241910336
 98
        1
 10
9610.896018593374
 20
710.1358402007316
1001
GradientColor1ACI
1070
     5
1001
GradientColor2ACI
1070
     2
1001
ACAD
1010
0.0
1020
0.0
1030
0.0
  0
ENDBLK
  5
52
330
50
100
AcDbEntity
  8
0
100
AcDbBlockEnd
  0
BLOCK
  5
1E1
330
1E0
100
AcDbEntity
  8
0
100
AcDbBlockBegin
  2
*D2
 70
     1
 10
0.0
 20
0.0
 30
0.0
  3
*D2
  1

  0
LINE
  5
488
330
1E0
100
AcDbEntity
  8
Specialized_Lines
  6
Continuous
 62
     7
370
    -2
100
AcDbLine
 10
9594.348037832695
 20
761.3209177611125
 30
0.0
 11
9595.87337874754
 21
761.3209177611125
 31
0.0
  0
LINE
  5
489
330
1E0
100
AcDbEntity
  8
Specialized_Lines
  6
Continuous
 62
     7
370
    -2
100
AcDbLine
 10
9596.577681776393
 20
789.2827021821192
 30
0.0
 11
9595.87337874754
 21
789.2827021821192
 31
0.0
  0
LINE
  5
48A
330
1E0
100
AcDbEntity
  8
Specialized_Lines
  6
Continuous
 62
     7
370
    -2
100
AcDbLine
 10
9596.053378747541
 20
765.1209177611124
 30
0.0
 11
9596.053378747541
 21
785.4827021821193
 31
0.0
  0
MTEXT
  5
48B
330
1E0
100
AcDbEntity
  8
Specialized_Lines
  6
Continuous
 62
     7
100
AcDbMText
 10
9621.929478307123
 20
775.1932916345984
 30
0.0
 40
5.0
 41
0.0
 71
     5
 72
     1
  1
\A1;20mm min gap
  7
GENERATED_STYLE_1
 11
0.999999984769129
 21
0.0001745329243133
 31
0.0
 73
     1
 44
1.0
1001
ACAD
1000
MTEXTBEGIN
1070
    73
1070
     1
1070
    44
1040
1.0
1070
    74
1070
     0
1000
MTEXTEND
  0
INSERT
  5
48C
330
1E0
100
AcDbEntity
  8
Specialized_Lines
  6
Continuous
 62
     7
370
    -2
100
AcDbBlockReference
  2
ARROWHEAD_2
 10
9596.053378747541
 20
761.3209177611125
 30
0.0
 41
3.799999999999999
 42
3.799999999999999
 43
3.799999999999999
 50
270.0
  0
INSERT
  5
48D
330
1E0
100
AcDbEntity
  8
Specialized_Lines
  6
Continuous
 62
     7
370
    -2
100
AcDbBlockReference
  2
ARROWHEAD_2
 10
9596.053378747541
 20
789.2827021821192
 30
0.0
 41
3.799999999999999
 42
3.799999999999999
 43
3.799999999999999
 50
90.0
  0
POINT
  5
48E
330
1E0
100
AcDbEntity
  8
Defpoints
  6
Continuous
 62
     0
100
AcDbPoint
 10
9596.348037832695
 20
761.3209177611125
 30
0.0
  0
POINT
  5
48F
330
1E0
100
AcDbEntity
  8
Defpoints
  6
Continuous
 62
     0
100
AcDbPoint
 10
9598.577681776394
 20
789.2827021821192
 30
0.0
  0
POINT
  5
490
330
1E0
100
AcDbEntity
  8
Defpoints
  6
Continuous
 62
     0
100
AcDbPoint
 10
9596.053378747541
 20
789.2827021821192
 30
0.0
  0
ENDBLK
  5
1E2
330
1E0
100
AcDbEntity
  8
0
100
AcDbBlockEnd
  0
BLOCK
  5
1EF
330
1EE
100
AcDbEntity
  8
0
100
AcDbBlockBegin
  2
ARROWHEAD_2
 70
     0
 10
0.0
 20
0.0
 30
0.0
  3
ARROWHEAD_2
  1

  0
LINE
  5
1F1
330
1EE
100
AcDbEntity
  8
0
  6
Continuous
 62
     0
370
     0
100
AcDbLine
 10
-0.3781315
 20
-0.6550000000000001
 30
0.0
 11
0.3781315
 21
0.6550000000000001
 31
0.0
  0
LINE
  5
1F2
330
1EE
100
AcDbEntity
  8
0
  6
Continuous
 62
     0
370
     0
100
AcDbLine
 10
0.0
 20
0.0
 30
0.0
 11
-1.0
 21
0.0
 31
0.0
  0
ENDBLK
  5
1F0
330
1EE
100
AcDbEntity
  8
0
100
AcDbBlockEnd
  0
BLOCK
  5
1F8
330
1F7
100
AcDbEntity
  8
0
100
AcDbBlockBegin
  2
ARROWHEAD_5
 70
     0
 10
0.0
 20
0.0
 30
0.0
  3
ARROWHEAD_5
  1

  0
SOLID
  5
1FA
330
1F7
100
AcDbEntity
  8
0
  6
Continuous
 62
     0
370
     0
100
AcDbTrace
 10
-1.0
 20
0.2679
 30
0.0
 11
0.0
 21
0.0
 31
0.0
 12
-1.0
 22
-0.2679
 32
0.0
 13
-1.0
 23
0.2679
 33
0.0
  0
LINE
  5
1FB
330
1F7
100
AcDbEntity
  8
0
  6
Continuous
 62
     0
370
     0
100
AcDbLine
 10
0.0
 20
0.0
 30
0.0
 11
-1.0
 21
0.0
 31
0.0
  0
ENDBLK
  5
1F9
330
1F7
100
AcDbEntity
  8
0
100
AcDbBlockEnd
  0
BLOCK
  5
20F
330
20E
100
AcDbEntity
  8
0
100
AcDbBlockBegin
  2
05C Wall_ Internal Corner - B.B_STORY_MARKER
 70
     0
 10
0.0
 20
0.0
 30
0.0
  3
05C Wall_ Internal Corner - B.B_STORY_MARKER
  1

  0
ENDBLK
  5
210
330
20E
100
AcDbEntity
  8
0
100
AcDbBlockEnd
  0
BLOCK
  5
453
330
452
100
AcDbEntity
  8
0
 62
     7
100
AcDbBlockBegin
  2
therma
 70
     0
 10
0.0
 20
0.0
 30
0.0
  3
therma
  1

  0
HATCH
  5
454
330
452
100
AcDbEntity
  8
eps
 62
   254
100
AcDbHatch
 10
0.0
 20
0.0
 30
0.0
210
0.0
220
0.0
230
1.0
  2
SOLID
 70
     1
 71
     1
 91
       13
 92
        7
 72
     1
 73
     1
 93
        2
 10
5.153274474768295
 20
-2.088877458424576
 42
1.0
 10
-0.8467255252317045
 20
-2.088877458424576
 42
1.0
 97
        1
330
455
 92
        7
 72
     1
 73
     1
 93
        2
 10
11.18338068794492
 20
-3.150707591624268
 42
1.0
 10
7.183380687944918
 20
-3.150707591624268
 42
1.0
 97
        1
330
456
 92
        7
 72
     1
 73
     1
 93
        2
 10
1.50424343474242
 20
-10.22395803436757
 42
1.0
 10
9.50424343474242
 20
-10.22395803436757
 42
1.0
 97
        1
330
457
 92
        7
 72
     1
 73
     1
 93
        2
 10
3.121692185625761
 20
-16.43286101922513
 42
1.0
 10
-0.8783078143742386
 20
-16.43286101922513
 42
1.0
 97
        1
330
458
 92
        7
 72
     1
 73
     1
 93
        2
 10
20.23028334799255
 20
-23.4014379273367
 42
1.0
 10
12.23028334799255
 20
-23.4014379273367
 42
1.0
 97
        1
330
461
 92
        7
 72
     1
 73
     1
 93
        2
 10
5.872128148083902
 20
-23.17290683493138
 42
1.0
 10
-0.1278718519160975
 20
-23.17290683493138
 42
1.0
 97
        1
330
463
 92
        7
 72
     1
 73
     1
 93
        2
 10
5.625021722852579
 20
-18.32128648862363
 42
1.0
 10
11.62502172285258
 20
-18.32128648862363
 42
1.0
 97
        1
330
45C
 92
        7
 72
     1
 73
     1
 93
        2
 10
18.81562264413605
 20
-2.148910809607514
 42
1.0
 10
12.81562264413605
 20
-2.148910809607514
 42
1.0
 97
        1
330
45E
 92
        7
 72
     1
 73
     1
 93
        2
 10
21.01098252133033
 20
-7.164015699477204
 42
1.0
 10
17.01098252133033
 20
-7.164015699477204
 42
1.0
 97
        1
330
45B
 92
        7
 72
     1
 73
     1
 93
        2
 10
26.60587034827131
 20
-3.646358717532166
 42
1.0
 10
20.60587034827131
 20
-3.646358717532166
 42
1.0
 97
        1
330
460
 92
        7
 72
     1
 73
     1
 93
        2
 10
21.80413181950371
 20
-11.85245936021328
 42
1.0
 10
27.80413181950371
 20
-11.85245936021328
 42
1.0
 97
        1
330
462
 92
        7
 72
     1
 73
     1
 93
        2
 10
24.00715224641408
 20
-19.56290887698651
 42
1.0
 10
20.00715224641408
 20
-19.56290887698651
 42
1.0
 97
        1
330
45A
 92
        7
 72
     1
 73
     1
 93
        2
 10
22.40377860212266
 20
-25.5089748094988
 42
1.0
 10
28.40377860212266
 20
-25.5089748094988
 42
1.0
 97
        1
330
45F
 75
     1
 76
     1
 47
0.1543695318342555
 98
       13
 10
3.629268677542313
 20
-2.522538144440659
 10
9.4972407657051
 20
-3.564040262551316
 10
6.236338855102985
 20
-10.02363147243977
 10
1.887609562473699
 20
-16.96595259413243
 10
15.59743406924917
 20
-23.78728337988377
 10
3.820206121295086
 20
-23.42523594603063
 10
7.987802866017773
 20
-17.81103782758236
 10
15.65781158521804
 20
-2.175576020331391
 10
18.73758094779714
 20
-7.427726734728821
 10
24.41461559220716
 20
-4.04707803234578
 10
24.23348304430056
 20
-10.38567890629292
 10
22.36126400144804
 20
-17.69035534963132
 10
25.07928431521668
 20
-24.14963870152951
1001
GradientColor1ACI
1070
     5
1001
GradientColor2ACI
1070
     2
1001
ACAD
1010
0.0
1020
0.0
1030
0.0
  0
CIRCLE
  5
455
102
{ACAD_REACTORS
330
454
102
}
330
452
100
AcDbEntity
  8
eps
 62
   254
100
AcDbCircle
 10
2.153274474768295
 20
-2.088877458424576
 30
0.0
 40
3.0
  0
CIRCLE
  5
456
102
{ACAD_REACTORS
330
454
102
}
330
452
100
AcDbEntity
  8
eps
 62
   254
100
AcDbCircle
 10
9.183380687944918
 20
-3.150707591624268
 30
0.0
 40
2.0
  0
CIRCLE
  5
457
102
{ACAD_REACTORS
330
454
102
}
330
452
100
AcDbEntity
  8
eps
 62
   254
100
AcDbCircle
 10
5.50424343474242
 20
-10.22395803436757
 30
0.0
 40
4.0
  0
CIRCLE
  5
458
102
{ACAD_REACTORS
330
454
102
}
330
452
100
AcDbEntity
  8
eps
 62
   254
100
AcDbCircle
 10
1.121692185625761
 20
-16.43286101922513
 30
0.0
 40
2.0
  0
CIRCLE
  5
459
330
452
100
AcDbEntity
  8
eps
 62
   254
100
AcDbCircle
 10
8.703972890144541
 20
-26.21122040256978
 30
0.0
 40
2.0
  0
CIRCLE
  5
45A
102
{ACAD_REACTORS
330
454
102
}
330
452
100
AcDbEntity
  8
eps
 62
   254
100
AcDbCircle
 10
22.00715224641408
 20
-19.56290887698651
 30
0.0
 40
2.0
  0
CIRCLE
  5
45B
102
{ACAD_REACTORS
330
454
102
}
330
452
100
AcDbEntity
  8
eps
 62
   254
100
AcDbCircle
 10
19.01098252133033
 20
-7.164015699477204
 30
0.0
 40
2.0
  0
CIRCLE
  5
45C
102
{ACAD_REACTORS
330
454
102
}
330
452
100
AcDbEntity
  8
eps
 62
   254
100
AcDbCircle
 10
8.625021722852579
 20
-18.32128648862363
 30
0.0
 40
3.0
  0
CIRCLE
  5
45D
330
452
100
AcDbEntity
  8
eps
 62
   254
100
AcDbCircle
 10
14.19781484395298
 20
-11.79242597922803
 30
0.0
 40
3.0
  0
CIRCLE
  5
45E
102
{ACAD_REACTORS
330
454
102
}
330
452
100
AcDbEntity
  8
eps
 62
   254
100
AcDbCircle
 10
15.81562264413605
 20
-2.148910809607514
 30
0.0
 40
3.0
  0
CIRCLE
  5
45F
102
{ACAD_REACTORS
330
454
102
}
330
452
100
AcDbEntity
  8
eps
 62
   254
100
AcDbCircle
 10
25.40377860212266
 20
-25.5089748094988
 30
0.0
 40
3.0
  0
CIRCLE
  5
460
102
{ACAD_REACTORS
330
454
102
}
330
452
100
AcDbEntity
  8
eps
 62
   254
100
AcDbCircle
 10
23.60587034827131
 20
-3.646358717532166
 30
0.0
 40
3.0
  0
CIRCLE
  5
461
102
{ACAD_REACTORS
330
454
102
}
330
452
100
AcDbEntity
  8
eps
 62
   254
100
AcDbCircle
 10
16.23028334799255
 20
-23.4014379273367
 30
0.0
 40
4.0
  0
CIRCLE
  5
462
102
{ACAD_REACTORS
330
454
102
}
330
452
100
AcDbEntity
  8
eps
 62
   254
100
AcDbCircle
 10
24.80413181950371
 20
-11.85245936021328
 30
0.0
 40
3.0
  0
CIRCLE
  5
463
102
{ACAD_REACTORS
330
454
102
}
330
452
100
AcDbEntity
  8
eps
 62
   254
100
AcDbCircle
 10
2.872128148083902
 20
-23.17290683493138
 30
0.0
 40
3.0
  0
ENDBLK
  5
464
330
452
100
AcDbEntity
  8
0
 62
     7
100
AcDbBlockEnd
  0
ENDSEC
  0
SECTION
  2
ENTITIES
  0
HATCH
  5
3F
330
1F
100
AcDbEntity
  8
Specialized_Fills
  6
Continuous
 62
   254
370
    13
100
AcDbHatch
 10
0.0
 20
0.0
 30
0.0
210
0.0
220
0.0
230
1.0
  2
SOLID
 70
     1
 71
     1
 91
        1
 92
        2
 72
     0
 73
     1
 93
        4
 10
9541.652028081072
 20
745.5039344868469
 10
9451.652028081069
 20
745.5039344868469
 10
9451.652028081069
 20
790.5039344868344
 10
9541.652028081072
 20
790.5039344868344
 97
        1
330
41
 75
     0
 76
     1
 98
        0
  0
LWPOLYLINE
  5
41
102
{ACAD_REACTORS
330
3F
102
}
330
1F
100
AcDbEntity
  8
Specialized_Fills
  6
Continuous
100
AcDbPolyline
 90
        4
 70
   129
 43
0.0
 10
9541.652028081072
 20
745.5039344868469
 10
9451.652028081069
 20
745.5039344868469
 10
9451.652028081069
 20
790.5039344868344
 10
9541.652028081072
 20
790.5039344868344
  0
HATCH
  5
42
330
1F
100
AcDbEntity
  8
Specialized_Fills
  6
Continuous
 62
   254
370
    13
100
AcDbHatch
 10
0.0
 20
0.0
 30
0.0
210
0.0
220
0.0
230
1.0
  2
SOLID
 70
     1
 71
     1
 91
        1
 92
        2
 72
     0
 73
     1
 93
        4
 10
9541.652028081189
 20
700.5039344868312
 10
9451.652028081186
 20
700.5039344868312
 10
9451.652028081186
 20
745.5039344868187
 10
9541.652028081189
 20
745.5039344868187
 97
        1
330
43
 75
     0
 76
     1
 98
        0
  0
LWPOLYLINE
  5
43
102
{ACAD_REACTORS
330
42
102
}
330
1F
100
AcDbEntity
  8
Specialized_Fills
  6
Continuous
100
AcDbPolyline
 90
        4
 70
   129
 43
0.0
 10
9541.652028081189
 20
700.5039344868312
 10
9451.652028081186
 20
700.5039344868312
 10
9451.652028081186
 20
745.5039344868187
 10
9541.652028081189
 20
745.5039344868187
  0
HATCH
  5
44
330
1F
100
AcDbEntity
  8
Specialized_Fills
  6
Continuous
 62
   254
370
    13
100
AcDbHatch
 10
0.0
 20
0.0
 30
0.0
210
0.0
220
0.0
230
1.0
  2
SOLID
 70
     1
 71
     1
 91
        1
 92
        2
 72
     0
 73
     1
 93
        4
 10
9451.652028081186
 20
790.5039344868626
 10
9451.652028081186
 20
880.503934486866
 10
9496.652028081175
 20
880.503934486866
 10
9496.652028081175
 20
790.5039344868626
 97
        1
330
45
 75
     0
 76
     1
 98
        0
  0
LWPOLYLINE
  5
45
102
{ACAD_REACTORS
330
44
102
}
330
1F
100
AcDbEntity
  8
Specialized_Fills
  6
Continuous
100
AcDbPolyline
 90
        4
 70
   129
 43
0.0
 10
9451.652028081186
 20
790.5039344868626
 10
9451.652028081186
 20
880.503934486866
 10
9496.652028081175
 20
880.503934486866
 10
9496.652028081175
 20
790.5039344868626
  0
HATCH
  5
46
330
1F
100
AcDbEntity
  8
Specialized_Fills
  6
Continuous
 62
   254
370
    13
100
AcDbHatch
 10
0.0
 20
0.0
 30
0.0
210
0.0
220
0.0
230
1.0
  2
SOLID
 70
     1
 71
     1
 91
        1
 92
        2
 72
     0
 73
     1
 93
        4
 10
9541.652028081159
 20
790.5039344867747
 10
9541.652028081159
 20
880.5039344867781
 10
9586.652028081147
 20
880.5039344867781
 10
9586.652028081147
 20
790.5039344867747
 97
        1
330
47
 75
     0
 76
     1
 98
        0
  0
LWPOLYLINE
  5
47
102
{ACAD_REACTORS
330
46
102
}
330
1F
100
AcDbEntity
  8
Specialized_Fills
  6
Continuous
100
AcDbPolyline
 90
        4
 70
   129
 43
0.0
 10
9541.652028081159
 20
790.5039344867747
 10
9541.652028081159
 20
880.5039344867781
 10
9586.652028081147
 20
880.5039344867781
 10
9586.652028081147
 20
790.5039344867747
  0
HATCH
  5
48
330
1F
100
AcDbEntity
  8
Specialized_Fills
  6
Continuous
100
AcDbHatch
 10
0.0
 20
0.0
 30
0.0
210
0.0
220
0.0
230
1.0
  2
LINES___ANGLED
 70
     0
 71
     1
 91
        1
 92
        2
 72
     0
 73
     1
 93
        4
 10
9563.570768217687
 20
714.0226183962129
 10
9543.694803791368
 20
714.0226183962129
 10
9543.694803791368
 20
664.0226183962015
 10
9563.570768217687
 20
664.0226183962015
 97
        1
330
49
 75
     0
 76
     2
 52
0.0
 41
1.0
 77
     0
 78
     1
 53
44.99999999999999
 43
0.0
 44
0.0
 45
-1.838477563650065
 46
1.838477563650065
 79
     0
 98
        0
  0
LWPOLYLINE
  5
49
102
{ACAD_REACTORS
330
48
102
}
330
1F
100
AcDbEntity
  8
Specialized_Fills
  6
Continuous
100
AcDbPolyline
 90
        4
 70
   129
 43
0.0
 10
9563.570768217687
 20
714.0226183962129
 10
9543.694803791368
 20
714.0226183962129
 10
9543.694803791368
 20
664.0226183962015
 10
9563.570768217687
 20
664.0226183962015
  0
LWPOLYLINE
  5
4B
330
1F
100
AcDbEntity
  8
Specialized_Fills
  6
Continuous
100
AcDbPolyline
 90
        3
 70
   128
 43
0.0
 10
9714.82437380059
 20
761.3209177611125
 10
9655.518610408906
 20
761.3209177611125
 10
9714.82437380059
 20
782.5015475438704
  0
HATCH
  5
4C
330
1F
100
AcDbEntity
  8
Specialized_Fills
  6
Continuous
 62
   254
370
    13
100
AcDbHatch
 10
0.0
 20
0.0
 30
0.0
210
0.0
220
0.0
230
1.0
  2
SOLID
 70
     1
 71
     1
 91
        1
 92
        2
 72
     0
 73
     1
 93
        4
 10
9631.652028081161
 20
790.5039344867747
 10
9631.652028081161
 20
880.5039344867781
 10
9676.652028081148
 20
880.5039344867781
 10
9676.652028081148
 20
790.5039344867747
 97
        1
330
4D
 75
     0
 76
     1
 98
        0
  0
LWPOLYLINE
  5
4D
102
{ACAD_REACTORS
330
4C
102
}
330
1F
100
AcDbEntity
  8
Specialized_Fills
  6
Continuous
100
AcDbPolyline
 90
        4
 70
   129
 43
0.0
 10
9631.652028081161
 20
790.5039344867747
 10
9631.652028081161
 20
880.5039344867781
 10
9676.652028081148
 20
880.5039344867781
 10
9676.652028081148
 20
790.5039344867747
  0
HATCH
  5
4E
330
1F
100
AcDbEntity
  8
Specialized_Fills
  6
Continuous
100
AcDbHatch
 10
0.0
 20
0.0
 30
0.0
210
0.0
220
0.0
230
1.0
  2
APDCONC
 70
     0
 71
     1
 91
        1
 92
        1
 93
        6
 72
     1
 10
9648.208983145346
 20
725.5264159835095
 11
9648.208983145346
 21
726.9315604781569
 72
     2
 10
9645.926464660366
 20
726.2289882308485
 40
2.388199823500277
 50
17.10866487043856
 51
89.99999999995635
 73
     1
 72
     2
 10
9645.926464660369
 20
726.2289882308378
 40
2.388199823511286
 50
90.00000000004366
 51
140.9891971684836
 73
     1
 72
     1
 10
9644.070768217691
 20
727.7322809866387
 11
9644.070768217691
 21
724.7256954750048
 72
     2
 10
9645.926464660362
 20
726.2289882308579
 40
2.38819982353754
 50
219.0108028326012
 51
270.0000000001309
 73
     1
 72
     2
 10
9645.926464660366
 20
726.2289882308193
 40
2.388199823500144
 50
270.0000000000437
 51
342.8913351295275
 73
     1
 97
        1
330
4F
 75
     0
 76
     2
 52
0.0
 41
1.0
 77
     0
 78
     5
 53
0.0
 43
25.0
 44
0.0
 45
0.5
 46
0.5
 79
     2
 49
0.1
 49
-0.9000000000000001
 53
90.0
 43
25.09999999999991
 44
0.0
 45
-0.5
 46
0.5
 79
     2
 49
0.1
 49
-0.9000000000000001
 53
44.99999999999999
 43
25.0
 44
0.0
 45
0.0
 46
0.9999999997361818
 79
     2
 49
0.1414235625
 49
-0.5656854240000002
 53
7.600000000000001
 43
25.30000000000018
 44
0.0
 45
0.2147397874986048
 46
0.280867982627166
 79
     2
 49
0.0
 49
-0.4999999999999992
 53
352.4
 43
25.30000000000018
 44
0.0
 45
0.2808679826271661
 46
0.2147397874986046
 79
     2
 49
0.0
 49
-0.4999999999999992
 98
        0
  0
LWPOLYLINE
  5
4F
102
{ACAD_REACTORS
330
4E
102
}
330
1F
100
AcDbEntity
  8
Specialized_Fills
  6
Continuous
100
AcDbPolyline
 90
        6
 70
   129
 43
0.0
 10
9648.208983145346
 20
725.5264159835095
 10
9648.208983145346
 20
726.9315604781569
 42
0.3292249335292931
 10
9645.926464660369
 20
728.617188054349
 42
0.2262273491046422
 10
9644.070768217691
 20
727.7322809866387
 10
9644.070768217691
 20
724.7256954750048
 42
0.2262273491004596
 10
9645.926464660369
 20
723.8407884073192
 42
0.3292249335291946
  0
HATCH
  5
19E
330
1F
100
AcDbEntity
  8
Specialized_Fills
  6
Continuous
100
AcDbHatch
 10
0.0
 20
0.0
 30
0.0
210
0.0
220
0.0
230
1.0
  2
WOODFACE
 70
     0
 71
     1
 91
        1
 92
        1
 93
        4
 72
     1
 10
9658.114098780664
 20
739.4458897756031
 11
9648.114098780673
 21
739.4458897756031
 72
     1
 10
9648.114098780673
 20
739.4458897756031
 11
9648.114098780673
 21
714.9975889897294
 72
     2
 10
9653.114098780669
 20
714.9975889897294
 40
4.999999999994543
 50
180.0
 51
360.0
 73
     1
 72
     1
 10
9658.114098780664
 20
714.9975889897294
 11
9658.114098780664
 21
739.4458897756031
 97
        1
330
19F
 75
     0
 76
     2
 52
0.0
 41
1.0
 77
     0
 78
    38
 53
0.0
 43
25.0
 44
0.0
 45
100.0
 46
100.0
 79
     2
 49
5.0
 49
-95.00000000000001
 53
90.0
 43
65.0
 44
35.00000000000001
 45
-100.0
 46
100.0
 79
     2
 49
10.0
 49
-90.00000000000001
 53
44.99999999999999
 43
45.0
 44
25.0
 45
0.0
 46
100.0000000019025
 79
     6
 49
7.070000000000001
 49
-21.21
 49
7.070000000000001
 49
-14.14
 49
49.5
 49
-42.43135622999999
 53
44.99999999999999
 43
20.0
 44
-5.0
 45
0.0
 46
100.0000000019025
 79
     4
 49
7.071
 49
-14.142
 49
7.071
 49
-113.1373562
 53
44.99999999999999
 43
55.0
 44
5.0
 45
0.0
 46
100.0000000019025
 79
     2
 49
7.071
 49
-134.3503562
 53
44.99999999999999
 43
65.0
 44
0.0
 45
0.0
 46
100.0000000019025
 79
     2
 49
7.071
 49
-134.3503562
 53
44.99999999999999
 43
50.0
 44
10.0
 45
0.0
 46
100.0000000019025
 79
     2
 49
7.071
 49
-134.3503562
 53
44.99999999999999
 43
45.0
 44
15.0
 45
0.0
 46
100.0000000019025
 79
     2
 49
14.142
 49
-127.2793562
 53
44.99999999999999
 43
70.0
 44
90.00000000000001
 45
0.0
 46
100.0000000019025
 79
     2
 49
14.142
 49
-127.2793562
 53
44.99999999999999
 43
35.0
 44
20.0
 45
0.0
 46
100.0000000019025
 79
     2
 49
28.284
 49
-113.1373562
 53
44.99999999999999
 43
30.0
 44
25.0
 45
0.0
 46
100.0000000019025
 79
     2
 49
28.284
 49
-113.1373562
 53
44.99999999999999
 43
95.00000000000001
 44
55.0
 45
0.0
 46
100.0000000019025
 79
     2
 49
28.284
 49
-113.1373562
 53
44.99999999999999
 43
25.0
 44
35.00000000000001
 45
0.0
 46
100.0000000019025
 79
     2
 49
21.2132
 49
-120.2081562
 53
44.99999999999999
 43
5.0
 44
50.00000000000001
 45
0.0
 46
100.0000000019025
 79
     2
 49
21.2132
 49
-120.2081562
 53
44.99999999999999
 43
15.0
 44
40.0
 45
0.0
 46
100.0000000019025
 79
     2
 49
21.2132
 49
-120.2081562
 53
44.99999999999999
 43
80.0
 44
70.00000000000001
 45
0.0
 46
100.0000000019025
 79
     2
 49
35.35534
 49
-106.0660162
 53
44.99999999999999
 43
70.0
 44
75.0
 45
0.0
 46
100.0000000019025
 79
     2
 49
35.35534
 49
-106.0660162
 53
44.99999999999999
 43
80.0
 44
50.00000000000001
 45
0.0
 46
100.0000000019025
 79
     2
 49
49.49747460000001
 49
-91.92388150000001
 53
26.56505119999999
 43
35.0
 44
10.0
 45
100.0000000000093
 46
0.000000040006455
 79
     2
 49
11.180339
 49
-212.426458
 53
26.56505119999999
 43
55.0
 44
40.0
 45
100.0000000000093
 46
0.000000040006455
 79
     2
 49
11.180339
 49
-212.426458
 53
26.56505119999999
 43
50.0
 44
30.0
 45
100.0000000000093
 46
0.000000040006455
 79
     2
 49
11.180339
 49
-212.426458
 53
26.56505119999999
 43
30.0
 44
0.0
 45
100.0000000000093
 46
0.000000040006455
 79
     2
 49
22.36067999999999
 49
-201.2461177
 53
26.56505119999999
 43
50.0
 44
45.0
 45
100.0000000000093
 46
0.000000040006455
 79
     2
 49
33.5410196
 49
-190.0657781
 53
26.56505119999999
 43
40.0
 44
50.00000000000001
 45
100.0000000000093
 46
0.000000040006455
 79
     2
 49
44.72135950000001
 49
-178.8854382
 53
26.56505119999999
 43
30.0
 44
55.0
 45
100.0000000000093
 46
0.000000040006455
 79
     2
 49
44.72135950000001
 49
-178.8854382
 53
26.56505119999999
 43
15.0
 44
85.0
 45
100.0000000000093
 46
0.000000040006455
 79
     2
 49
44.72135950000001
 49
-178.8854382
 53
26.56505119999999
 43
15.0
 44
75.0
 45
100.0000000000093
 46
0.000000040006455
 79
     2
 49
55.90169999999999
 49
-167.7050977
 53
26.56505119999999
 43
20.0
 44
65.00000000000001
 45
100.0000000000093
 46
0.000000040006455
 79
     2
 49
55.90169999999999
 49
-167.7050977
 53
63.43494882000001
 43
55.0
 44
25.0
 45
0.0000000050998636
 46
100.0000000000093
 79
     2
 49
11.18033899999999
 49
-212.4264579999998
 53
63.43494882000001
 43
40.0
 44
15.0
 45
0.0000000050998636
 46
100.0000000000093
 79
     2
 49
11.18033899999999
 49
-212.4264579999998
 53
63.43494882000001
 43
25.0
 44
0.0
 45
0.0000000050998636
 46
100.0000000000093
 79
     2
 49
22.36067999999997
 49
-201.2461176999998
 53
63.43494882000001
 43
55.0
 44
15.0
 45
0.0000000050998636
 46
100.0000000000093
 79
     2
 49
22.36067999999997
 49
-201.2461176999998
 53
63.43494882000001
 43
15.0
 44
-5.0
 45
0.0000000050998636
 46
100.0000000000093
 79
     2
 49
33.54101959999996
 49
-190.0657780999998
 53
63.43494882000001
 43
5.0
 44
-5.0
 45
0.0000000050998636
 46
100.0000000000093
 79
     2
 49
44.72135949999996
 49
-178.8854381999998
 53
63.43494882000001
 43
95.00000000000001
 44
0.0
 45
0.0000000050998636
 46
100.0000000000093
 79
     2
 49
44.72135949999996
 49
-178.8854381999998
 53
63.43494882000001
 43
60.0
 44
10.0
 45
0.0000000050998636
 46
100.0000000000093
 79
     2
 49
44.72135949999996
 49
-178.8854381999998
 53
63.43494882000001
 43
80.0
 44
0.0
 45
0.0000000050998636
 46
100.0000000000093
 79
     2
 49
55.90169999999995
 49
-167.7050976999998
 53
63.43494882000001
 43
70.0
 44
5.0
 45
0.0000000050998636
 46
100.0000000000093
 79
     2
 49
55.90169999999995
 49
-167.7050976999998
 98
        0
  0
LWPOLYLINE
  5
19F
102
{ACAD_REACTORS
330
19E
102
}
330
1F
100
AcDbEntity
  8
Specialized_Fills
  6
Continuous
100
AcDbPolyline
 90
        4
 70
   129
 43
0.0
 10
9658.114098780664
 20
739.4458897756031
 10
9648.114098780673
 20
739.4458897756031
 10
9648.114098780673
 20
714.9975889897294
 42
0.9999999999999998
 10
9658.114098780664
 20
714.9975889897294
  0
HATCH
  5
1A0
330
1F
100
AcDbEntity
  8
Specialized_Fills
  6
Continuous
 62
   254
370
    13
100
AcDbHatch
 10
0.0
 20
0.0
 30
0.0
210
0.0
220
0.0
230
1.0
  2
SOLID
 70
     1
 71
     1
 91
        1
 92
        2
 72
     0
 73
     1
 93
        4
 10
9451.652028081186
 20
890.5039344868661
 10
9451.652028081186
 20
880.503934486866
 10
9714.82437380059
 20
880.503934486866
 10
9714.82437380059
 20
890.503934486866
 97
        1
330
1A1
 75
     0
 76
     1
 98
        0
  0
LWPOLYLINE
  5
1A1
102
{ACAD_REACTORS
330
1A0
102
}
330
1F
100
AcDbEntity
  8
Specialized_Fills
  6
Continuous
100
AcDbPolyline
 90
        4
 70
   129
 43
0.0
 10
9451.652028081186
 20
890.5039344868661
 10
9451.652028081186
 20
880.503934486866
 10
9714.82437380059
 20
880.503934486866
 10
9714.82437380059
 20
890.503934486866
  0
HATCH
  5
1A2
330
1F
100
AcDbEntity
  8
Specialized_Fills
  6
Continuous
 62
   254
370
    13
100
AcDbHatch
 10
0.0
 20
0.0
 30
0.0
210
0.0
220
0.0
230
1.0
  2
SOLID
 70
     1
 71
     1
 91
        1
 92
        2
 72
     1
 73
     1
 93
       11
 10
9441.652028081188
 20
890.5039344868661
 42
0.0
 10
9441.652028081188
 20
574.5437987944783
 42
0.0
 10
9451.652028081186
 20
574.5437987944783
 42
0.0
 10
9451.652028081186
 20
604.8136938415421
 42
-0.0447964756243305
 10
9451.590181770084
 20
608.8368270363273
 42
-0.0185425706464971
 10
9451.652028081186
 20
610.5039380278745
 42
0.0
 10
9451.652028081186
 20
652.1697199789839
 42
-0.0370978089056775
 10
9451.652028081186
 20
655.5039340809059
 42
0.0
 10
9451.652028081186
 20
697.1697193570134
 42
-0.0370978203737551
 10
9451.652028081186
 20
700.5039344868107
 42
0.0
 10
9451.652028081186
 20
890.5039344868661
 42
0.0
 97
        1
330
1A3
 75
     0
 76
     1
 98
        0
  0
LWPOLYLINE
  5
1A3
102
{ACAD_REACTORS
330
1A2
102
}
330
1F
100
AcDbEntity
  8
Specialized_Fills
  6
Continuous
100
AcDbPolyline
 90
       11
 70
   129
 43
0.0
 10
9441.652028081188
 20
890.5039344868661
 10
9441.652028081188
 20
574.5437987944783
 10
9451.652028081186
 20
574.5437987944783
 10
9451.652028081186
 20
604.8136938415421
 42
-0.0447964756243305
 10
9451.590181770084
 20
608.8368270363273
 42
-0.0185425706464971
 10
9451.652028081186
 20
610.5039380278745
 10
9451.652028081186
 20
652.1697199789839
 42
-0.0370978089056775
 10
9451.652028081186
 20
655.5039340809059
 10
9451.652028081186
 20
697.1697193570134
 42
-0.0370978203737551
 10
9451.652028081186
 20
700.5039344868107
 10
9451.652028081186
 20
890.5039344868661
  0
LWPOLYLINE
  5
1A5
330
1F
100
AcDbEntity
  8
Specialized_Fills
  6
Continuous
100
AcDbPolyline
 90
        4
 70
   128
 43
0.0
 10
9714.82437380059
 20
740.1743231020648
 10
9648.114098780673
 20
740.1743231020648
 10
9648.114098780673
 20
759.4674287278851
 10
9714.82437380059
 20
759.4674287278851
  0
HATCH
  5
1A6
330
1F
100
AcDbEntity
  8
Specialized_Fills
  6
Continuous
100
AcDbHatch
 10
0.0
 20
0.0
 30
0.0
210
0.0
220
0.0
230
1.0
  2
ANSI31
 70
     0
 71
     1
 91
        1
 92
        1
 93
        4
 72
     1
 10
9648.114098780673
 20
740.1743231020648
 11
9658.114098780664
 21
740.1743231020648
 72
     1
 10
9658.114098780664
 20
740.1743231020648
 11
9658.114098780664
 21
739.4458897756031
 72
     1
 10
9658.114098780664
 20
739.4458897756031
 11
9648.114098780673
 21
739.4458897756031
 72
     1
 10
9648.114098780673
 20
739.4458897756031
 11
9648.114098780673
 21
740.1743231020648
 97
        1
330
1A7
 75
     0
 76
     2
 52
0.0
 41
1.0
 77
     0
 78
     1
 53
45.0
 43
25.0
 44
0.0
 45
-0.4419417382415923
 46
0.4419417382415923
 79
     0
 98
        0
  0
LWPOLYLINE
  5
1A7
102
{ACAD_REACTORS
330
1A6
102
}
330
1F
100
AcDbEntity
  8
Specialized_Fills
  6
Continuous
100
AcDbPolyline
 90
        4
 70
   129
 43
0.0
 10
9648.114098780673
 20
740.1743231020648
 10
9658.114098780664
 20
740.1743231020648
 10
9658.114098780664
 20
739.4458897756031
 10
9648.114098780673
 20
739.4458897756031
  0
LINE
  5
1A8
330
1F
100
AcDbEntity
  8
Specialized_Lines
  6
Continuous
100
AcDbLine
 10
9676.652028081175
 20
880.503934486866
 30
0.0
 11
9631.652028081161
 21
790.5039344868344
 31
0.0
  0
LINE
  5
1AA
330
1F
100
AcDbEntity
  8
Specialized_Lines
  6
Continuous
100
AcDbLine
 10
9676.652028081175
 20
790.5039344868344
 30
0.0
 11
9631.652028081161
 21
880.5039344867781
 31
0.0
  0
LINE
  5
1AC
330
1F
100
AcDbEntity
  8
Specialized_Lines
  6
DASHEDX2
100
AcDbLine
 10
9641.912168140049
 20
758.5819328012853
 30
0.0
 11
9641.625013671303
 21
574.5437987944783
 31
0.0
  0
LINE
  5
1AD
330
1F
100
AcDbEntity
  8
Specialized_Lines
  6
Continuous
100
AcDbLine
 10
9586.652028081175
 20
880.503934486866
 30
0.0
 11
9541.652028081159
 21
790.5039344868344
 31
0.0
  0
LINE
  5
1AE
330
1F
100
AcDbEntity
  8
Specialized_Lines
  6
Continuous
100
AcDbLine
 10
9586.652028081175
 20
790.5039344868344
 30
0.0
 11
9541.652028081159
 21
880.5039344867781
 31
0.0
  0
LINE
  5
1AF
330
1F
100
AcDbEntity
  8
Specialized_Lines
  6
Continuous
100
AcDbLine
 10
9451.652028081069
 20
790.5039344868344
 30
0.0
 11
9541.652028081159
 21
745.5039344868184
 31
0.0
  0
LINE
  5
1B0
330
1F
100
AcDbEntity
  8
Specialized_Lines
  6
Continuous
100
AcDbLine
 10
9541.652028081159
 20
790.5039344868344
 30
0.0
 11
9451.652028081186
 21
745.5039344868187
 31
0.0
  0
LINE
  5
1B1
330
1F
100
AcDbEntity
  8
Specialized_Lines
  6
Continuous
100
AcDbLine
 10
9451.652028081186
 20
745.5039344868185
 30
0.0
 11
9541.652028081159
 21
700.5039344868025
 31
0.0
  0
LINE
  5
1B2
330
1F
100
AcDbEntity
  8
Specialized_Lines
  6
Continuous
100
AcDbLine
 10
9541.652028081159
 20
745.5039344868184
 30
0.0
 11
9451.652028081186
 21
700.5039344868024
 31
0.0
  0
LINE
  5
1B3
330
1F
100
AcDbEntity
  8
Specialized_Lines
  6
Continuous
100
AcDbLine
 10
9714.824373800592
 20
880.503934486866
 30
0.0
 11
9451.652028081186
 21
880.503934486866
 31
0.0
  0
LINE
  5
1B4
330
1F
100
AcDbEntity
  8
Specialized_Lines
  6
Continuous
100
AcDbLine
 10
9714.824373800592
 20
890.503934486866
 30
0.0
 11
9441.652028081188
 21
890.5039344868661
 31
0.0
  0
LINE
  5
1B5
330
1F
100
AcDbEntity
  8
Specialized_Lines
  6
Continuous
100
AcDbLine
 10
9496.652028081202
 20
880.503934486866
 30
0.0
 11
9451.652028081186
 21
790.5039344868344
 31
0.0
  0
LINE
  5
1B6
330
1F
100
AcDbEntity
  8
Specialized_Lines
  6
Continuous
100
AcDbLine
 10
9496.652028081202
 20
790.5039344868344
 30
0.0
 11
9451.652028081186
 21
880.5039344867781
 31
0.0
  0
LINE
  5
1B7
330
1F
100
AcDbEntity
  8
Specialized_Lines
  6
DASHEDX2
100
AcDbLine
 10
9542.873260385874
 20
789.2827021821192
 30
0.0
 11
9714.824373800594
 21
789.2827021821192
 31
0.0
  0
LINE
  5
1B8
330
1F
100
AcDbEntity
  8
Specialized_Lines
  6
Continuous
100
AcDbLine
 10
9451.652028081186
 20
574.5437987944783
 30
0.0
 11
9451.652028081186
 21
890.503934486866
 31
0.0
  0
LINE
  5
1B9
330
1F
100
AcDbEntity
  8
Specialized_Lines
  6
Continuous
100
AcDbLine
 10
9441.652028081188
 20
574.5437987944783
 30
0.0
 11
9441.652028081188
 21
890.5039344868661
 31
0.0
  0
LINE
  5
1BA
330
1F
100
AcDbEntity
  8
Specialized_Lines
  6
DASHEDX2
100
AcDbLine
 10
9542.873260385874
 20
574.543798794482
 30
0.0
 11
9542.873260385874
 21
789.2827021821192
 31
0.0
  0
LINE
  5
1BB
330
1F
100
AcDbEntity
  8
Specialized_Lines
  6
Continuous
100
AcDbLine
 10
9541.652028081159
 20
574.543798794482
 30
0.0
 11
9541.652028081159
 21
750.0596988746922
 31
0.0
  0
LINE
  5
1BC
330
1F
100
AcDbEntity
  8
Specialized_Lines
  6
Continuous
100
AcDbLine
 10
9541.652028081159
 20
575.5922810680674
 30
0.0
 11
9541.652028081159
 21
750.0596988746922
 31
0.0
  0
LINE
  5
1BD
330
1F
100
AcDbEntity
  8
Specialized_Lines
  6
Continuous
100
AcDbLine
 10
9714.824373800592
 20
790.5039344868344
 30
0.0
 11
9541.652028081159
 21
790.5039344868344
 31
0.0
  0
LINE
  5
1BE
330
1F
100
AcDbEntity
  8
Specialized_Lines
  6
Continuous
100
AcDbLine
 10
9655.518610408906
 20
761.3209177611125
 30
0.0
 11
9714.82437380059
 21
782.5015475438704
 31
0.0
  0
LINE
  5
1BF
330
1F
100
AcDbEntity
  8
Specialized_Lines
  6
Continuous
100
AcDbLine
 10
9714.82437380059
 20
765.1402879783885
 30
0.0
 11
9655.518610408906
 21
786.3209177611466
 31
0.0
  0
LWPOLYLINE
  5
1C0
330
1F
100
AcDbEntity
  8
Specialized_Lines
  6
Continuous
100
AcDbPolyline
 90
        4
 70
   128
 43
0.0
 10
9714.82437380059
 20
786.3209177611466
 10
9655.518610408906
 20
786.3209177611466
 10
9655.518610408906
 20
761.3209177611125
 10
9714.82437380059
 20
761.3209177611125
  0
LWPOLYLINE
  5
1C1
330
1F
100
AcDbEntity
  8
Specialized_Lines
  6
Continuous
100
AcDbPolyline
 90
        3
 70
   128
 43
0.0
 10
9451.652028081186
 20
880.5039344867804
 10
9451.652028081186
 20
790.5039344868344
 10
9496.652028081202
 20
790.5039344868344
  0
LWPOLYLINE
  5
1C2
330
1F
100
AcDbEntity
  8
Specialized_Lines
  6
Continuous
100
AcDbPolyline
 90
        2
 70
   128
 43
0.0
 10
9496.652028081202
 20
790.5039344868344
 10
9496.652028081202
 20
880.5039344868651
  0
LWPOLYLINE
  5
1C3
330
1F
100
AcDbEntity
  8
Specialized_Lines
  6
Continuous
100
AcDbPolyline
 90
        3
 70
   128
 43
0.0
 10
9541.652028081159
 20
880.5039344867804
 10
9541.652028081159
 20
790.5039344868344
 10
9586.652028081175
 20
790.5039344868344
  0
LWPOLYLINE
  5
1C4
330
1F
100
AcDbEntity
  8
Specialized_Lines
  6
Continuous
100
AcDbPolyline
 90
        2
 70
   128
 43
0.0
 10
9586.652028081175
 20
790.5039344868344
 10
9586.652028081175
 20
880.5039344868651
  0
LWPOLYLINE
  5
1C5
330
1F
100
AcDbEntity
  8
Specialized_Lines
  6
Continuous
100
AcDbPolyline
 90
        2
 70
   128
 43
0.0
 10
9541.652028081159
 20
790.5039344868344
 10
9451.652028081069
 20
790.5039344868344
  0
LWPOLYLINE
  5
1C6
330
1F
100
AcDbEntity
  8
Specialized_Lines
  6
Continuous
100
AcDbPolyline
 90
        2
 70
   128
 43
0.0
 10
9541.652028081159
 20
745.5039344868184
 10
9451.652028081186
 20
745.5039344868184
  0
LWPOLYLINE
  5
1C7
330
1F
100
AcDbEntity
  8
Specialized_Lines
  6
Continuous
100
AcDbPolyline
 90
        3
 70
   128
 43
0.0
 10
9451.652028081186
 20
700.5039344868025
 10
9541.652028081159
 20
700.5039344868025
 10
9541.652028081159
 20
745.5039344868184
  0
LWPOLYLINE
  5
1C8
330
1F
100
AcDbEntity
  8
Specialized_Lines
  6
Continuous
100
AcDbPolyline
 90
        4
 70
   129
 43
0.0
 10
9563.570768217687
 20
664.0226183962015
 10
9563.570768217687
 20
714.0226183962129
 10
9543.694803791368
 20
714.0226183962129
 10
9543.694803791368
 20
664.0226183962015
  0
LWPOLYLINE
  5
1C9
330
1F
100
AcDbEntity
  8
Specialized_Lines
  6
Continuous
100
AcDbPolyline
 90
        3
 70
   128
 43
0.0
 10
9541.652028081159
 20
790.5039344868344
 10
9541.652028081159
 20
745.5039344868184
 10
9453.967682224856
 20
745.5039344868184
  0
LWPOLYLINE
  5
1CC
330
1F
100
AcDbEntity
  8
Specialized_Fills
  6
DASHEDX2
 62
   253
370
    20
100
AcDbPolyline
 90
       10
 70
   128
 43
0.0
 10
9451.590181770084
 20
608.836827036348
 42
-0.6180339902741404
 10
9487.590182172182
 20
626.8368271379785
 10
9505.590182112579
 20
613.3368270585837
 42
2.000000011029643
 10
9505.590182112579
 20
649.3368270585833
 10
9487.590182133999
 20
635.8368270299451
 42
-2.000000003978641
 10
9487.590182133999
 20
671.8368270299447
 10
9505.590182074396
 20
658.3368269505499
 42
2.000000011029643
 10
9505.590182074396
 20
694.3368269505494
 10
9487.590182095814
 20
680.8368269219123
 42
-0.6439562055307875
 10
9451.652028081186
 20
700.5039344868312
  0
LWPOLYLINE
  5
1CD
330
1F
100
AcDbEntity
  8
Specialized_Fills
  6
DASHEDX2
 62
   253
370
    20
100
AcDbPolyline
 90
        3
 70
   128
 43
0.0
 10
9455.23652466827
 20
574.5437987944783
 42
-0.4322501766083309
 10
9487.528335822897
 20
580.1697195794615
 10
9495.029563467253
 20
574.5437987944789
  0
LWPOLYLINE
  5
1CE
330
1F
100
AcDbEntity
  8
Specialized_Fills
  6
DASHEDX2
 62
   253
370
    20
100
AcDbPolyline
 90
        4
 70
   128
 43
0.0
 10
9539.121014484676
 20
574.5437987944823
 42
0.7927053815468627
 10
9505.528335763292
 20
602.6697195000663
 10
9487.528335784713
 20
589.1697194714291
 42
-0.6439562055307875
 10
9451.590181770084
 20
608.836827036348
  0
LWPOLYLINE
  5
1CF
330
1F
100
AcDbEntity
  8
Specialized_Fills
  6
DASHEDX2
 62
   253
370
    20
100
AcDbPolyline
 90
        3
 70
   128
 43
0.0
 10
9703.061915036506
 20
807.8231832497941
 42
-0.2210472529641937
 10
9706.986242988516
 20
826.3802422284859
 10
9714.824373800588
 20
836.8310832151777
  0
LWPOLYLINE
  5
1D0
330
1F
100
AcDbEntity
  8
Specialized_Fills
  6
DASHEDX2
 62
   253
370
    20
100
AcDbPolyline
 90
        4
 70
   128
 43
0.0
 10
9714.82437380059
 20
876.6956756755272
 42
0.8400262633236039
 10
9684.486243067912
 20
844.3802421688809
 10
9697.986243096551
 20
826.3802421903013
 42
-0.2306000292685104
 10
9701.712264583944
 20
807.0296018781977
  0
LWPOLYLINE
  5
1D1
330
1F
100
AcDbEntity
  8
Specialized_Fills
  6
Above
 62
   253
370
    20
100
AcDbPolyline
 90
        2
 70
   128
 43
0.0
 10
9701.357519536877
 20
805.843300727596
 42
-0.3444444298408269
 10
9678.31913553163
 20
790.4420881756729
  0
LWPOLYLINE
  5
1D2
330
1F
100
AcDbEntity
  8
Specialized_Fills
  6
Above
 62
   253
370
    20
100
AcDbPolyline
 90
        2
 70
   128
 43
0.0
 10
9714.824373800594
 20
792.8057206248916
 42
-0.1985763636847229
 10
9703.614966560762
 20
805.8433007275956
  0
LWPOLYLINE
  5
1D3
330
1F
100
AcDbEntity
  8
Specialized_Fills
  6
DASHEDX2
 62
   253
370
    20
100
AcDbPolyline
 90
        4
 70
   128
 43
0.0
 10
9631.652028081161
 20
866.4415353475247
 42
1.137027983736391
 10
9592.819135617428
 20
844.4420884799827
 10
9606.319135646067
 20
826.4420885014031
 42
-0.6439562055307875
 10
9586.652028081147
 20
790.5039344867747
  0
LWPOLYLINE
  5
1D4
330
1F
100
AcDbEntity
  8
Specialized_Fills
  6
DASHEDX2
 62
   253
370
    20
100
AcDbPolyline
 90
        4
 70
   128
 43
0.0
 10
9634.986242589826
 20
790.5039344868344
 42
-0.6439561974429261
 10
9615.319135538033
 20
826.4420885395876
 10
9628.819135617428
 20
844.4420884799827
 42
0.0641208186225082
 10
9631.652028081161
 20
849.4426418606085
  0
LWPOLYLINE
  5
1D5
330
1F
100
AcDbEntity
  8
Specialized_Fills
  6
Above
 62
   253
370
    20
100
AcDbPolyline
 90
        2
 70
   128
 43
0.0
 10
9678.31913553163
 20
790.4420881756729
 42
-0.0185425706554205
 10
9676.652024539301
 20
790.5039344868342
  0
LWPOLYLINE
  5
1D6
330
1F
100
AcDbEntity
  8
Specialized_Fills
  6
DASHEDX2
 62
   253
370
    20
100
AcDbPolyline
 90
        2
 70
   128
 43
0.0
 10
9676.652028081148
 20
849.4426421635646
 42
0.1961430673018023
 10
9676.652028081148
 20
866.4415351209358
  0
LWPOLYLINE
  5
1D7
330
1F
100
AcDbEntity
  8
Specialized_Fills
  6
DASHEDX2
 62
   253
370
    20
100
AcDbPolyline
 90
        4
 70
   128
 43
0.0
 10
9541.652028081186
 20
866.4415353475247
 42
1.137027983736391
 10
9502.819135617455
 20
844.4420884799827
 10
9516.319135646092
 20
826.4420885014031
 42
-0.6439562055307875
 10
9496.652028081175
 20
790.5039344867747
  0
LWPOLYLINE
  5
1D8
330
1F
100
AcDbEntity
  8
Specialized_Fills
  6
DASHEDX2
 62
   253
370
    20
100
AcDbPolyline
 90
        4
 70
   128
 43
0.0
 10
9544.986242589855
 20
790.5039344868344
 42
-0.6439561974429261
 10
9525.31913553806
 20
826.4420885395876
 10
9538.819135617456
 20
844.4420884799827
 42
0.0641208186225082
 10
9541.652028081186
 20
849.4426418606085
  0
LWPOLYLINE
  5
1DA
330
1F
100
AcDbEntity
  8
Specialized_Lines
  6
Continuous
100
AcDbPolyline
 90
        4
 70
   128
 43
0.0
 10
9714.82437380059
 20
759.4674287278851
 10
9648.114098780673
 20
759.4674287278851
 10
9648.114098780673
 20
740.1743231020648
 10
9714.82437380059
 20
740.1743231020648
  0
LWPOLYLINE
  5
1DD
330
1F
100
AcDbEntity
  8
Specialized_Lines
  6
PLASTER
 48
3.0
100
AcDbPolyline
 90
        3
 70
   128
 43
0.0
 10
9644.070768217691
 20
574.543798794482
 10
9644.070768217691
 20
760.9955867639822
 10
9639.702647805993
 20
760.9955867639822
  0
LWPOLYLINE
  5
1DE
102
{ACAD_XDICTIONARY
360
5BA
102
}
102
{ACAD_REACTORS
330
49C
102
}
330
1F
100
AcDbEntity
  8
0
  6
Continuous
100
AcDbPolyline
 90
        6
 70
   128
 43
0.0
 10
9650.042288955892
 20
574.5437987944783
 10
9524.02956346725
 20
574.5437987944783
 10
9522.029563467253
 20
580.0387536333873
 10
9518.029563467251
 20
569.0488439555694
 10
9516.029563467254
 20
574.5437987944783
 10
9439.793339079136
 20
574.5437987944783
  0
LWPOLYLINE
  5
1DF
330
1F
100
AcDbEntity
  8
0
  6
Continuous
100
AcDbPolyline
 90
        6
 70
   128
 43
0.0
 10
9714.82437380059
 20
732.6869358464556
 10
9714.82437380059
 20
833.0044682693722
 10
9720.319328639497
 20
835.0044682693711
 10
9709.329418961679
 20
839.0044682693725
 10
9714.82437380059
 20
841.0044682693714
 10
9714.82437380059
 20
899.0426167431419
  0
DIMENSION
  5
1EC
330
1F
100
AcDbEntity
  8
Specialized_Lines
  6
Continuous
100
AcDbDimension
  2
*D2
 10
9596.053378747541
 20
789.2827021821192
 30
0.0
 11
9621.929478307123
 21
775.1932916345984
 31
0.0
 70
   160
  1
20mm min gap
 71
     5
 42
27.96178442100677
 53
0.01
  3
GENERATED_STYLE__1
100
AcDbAlignedDimension
 13
9596.348037832695
 23
761.3209177611125
 33
0.0
 14
9598.577681776394
 24
789.2827021821192
 34
0.0
 50
90.0
100
AcDbRotatedDimension
1001
ACAD
1000
DSTYLE
1002
{
1070
    42
1040
2.0
1070
    77
1070
     0
1002
}
  0
MTEXT
  5
1F3
330
1F
100
AcDbEntity
  8
Specialized_Text
  6
Continuous
100
AcDbMText
 10
9727.758397595017
 20
560.5544688346917
 30
0.0
 40
5.5
 41
59.86663979154194
 71
     4
 72
     1
  1
{cavity insulation minimum R=0.9}
  7
GENERATED_STYLE_1
 73
     1
 44
1.0
1001
ACAD
1000
MTEXTBEGIN
1070
    73
1070
     1
1070
    44
1040
1.0
1070
    74
1070
     0
1000
MTEXTEND
  0
MTEXT
  5
1FC
102
{ACAD_REACTORS
330
1FD
102
}
330
1F
100
AcDbEntity
  8
Specialized_Text
  6
Continuous
100
AcDbMText
 10
9728.766975694249
 20
654.9980068354395
 30
0.0
 40
5.5
 41
79.67848311030362
 71
     4
 72
     1
  1
{mesh reinforcing and plaster}
  7
GENERATED_STYLE_1
 73
     1
 44
1.0
1001
ACAD
1000
MTEXTBEGIN
1070
    73
1070
     1
1070
    44
1040
1.0
1070
    74
1070
     0
1000
MTEXTEND
1000
ACAD_MTEXT_DEFINED_HEIGHT_BEGIN
1070
    46
1040
19.70738354241919
1000
ACAD_MTEXT_DEFINED_HEIGHT_END
  0
LEADER
  5
1FD
330
1F
100
AcDbEntity
  8
Specialized_Text
  6
Continuous
 62
   251
370
    13
100
AcDbLeader
  3
GENERATED_STYLE__2
 73
     0
 40
16.29115507048658
 41
70.71214188267394
 76
     2
 10
9641.597241176944
 20
654.983445502442
 30
0.0
 10
9728.676975694249
 20
654.9980068354395
 30
0.0
340
1FC
  0
MTEXT
  5
1FE
102
{ACAD_REACTORS
330
1FF
102
}
330
1F
100
AcDbEntity
  8
Specialized_Text
  6
Continuous
100
AcDbMText
 10
9728.59662205067
 20
754.3879166912288
 30
0.0
 40
5.5
 41
81.37939279423278
 71
     4
 72
     1
  1
{13mm timber scriber}
  7
GENERATED_STYLE_1
 73
     1
 44
1.0
1001
ACAD
1000
MTEXTBEGIN
1070
    73
1070
     1
1070
    44
1040
1.0
1070
    74
1070
     0
1000
MTEXTEND
  0
LEADER
  5
1FF
330
1F
100
AcDbEntity
  8
Specialized_Text
  6
Continuous
 62
   251
370
    13
100
AcDbLeader
  3
GENERATED_STYLE__2
 73
     0
 74
     0
 75
     1
 40
5.620054570259209
 41
69.26773533424285
 76
     3
 10
9655.815579137048
 20
728.6011319834084
 30
0.0
 10
9721.210622050669
 20
754.3879166912288
 30
0.0
 10
9728.506622050669
 20
754.3879166912288
 30
0.0
340
1FE
  0
MTEXT
  5
200
102
{ACAD_REACTORS
330
201
102
}
330
1F
100
AcDbEntity
  8
Specialized_Text
  6
Continuous
100
AcDbMText
 10
9728.554466242282
 20
619.5613170741762
 30
0.0
 40
5.5
 41
77.69743109175308
 71
     4
 72
     1
  1
{breather type building wrap continuous around corner as installed by builder}
  7
GENERATED_STYLE_1
 73
     1
 44
1.0
1001
ACAD
1000
MTEXTBEGIN
1070
    73
1070
     1
1070
    44
1040
1.0
1070
    74
1070
     0
1000
MTEXTEND
  0
LEADER
  5
201
330
1F
100
AcDbEntity
  8
Specialized_Text
  6
Continuous
 62
   251
370
    13
100
AcDbLeader
  3
GENERATED_STYLE__2
 73
     0
 40
34.61323328785812
 41
72.88437926330151
 76
     2
 10
9543.215308303723
 20
619.5326106756787
 30
0.0
 10
9728.464466242282
 20
619.5613170741762
 30
0.0
340
200
  0
MTEXT
  5
202
102
{ACAD_REACTORS
330
203
102
}
330
1F
100
AcDbEntity
  8
Specialized_Text
  6
Continuous
100
AcDbMText
 10
9728.668005263237
 20
681.5861998195487
 30
0.0
 40
5.5
 41
78.71304600473677
 71
     4
 72
     1
  1
{vertical 45 x 20mm ventilated EPS battens}
  7
GENERATED_STYLE_1
 73
     1
 44
1.0
1001
ACAD
1000
MTEXTBEGIN
1070
    73
1070
     1
1070
    44
1040
1.0
1070
    74
1070
     0
1000
MTEXTEND
1000
ACAD_MTEXT_DEFINED_HEIGHT_BEGIN
1070
    46
1040
28.62037257681093
1000
ACAD_MTEXT_DEFINED_HEIGHT_END
  0
LEADER
  5
203
330
1F
100
AcDbEntity
  8
Specialized_Text
  6
Continuous
 62
   251
370
    13
100
AcDbLeader
  3
GENERATED_STYLE__2
 73
     0
 40
14.88051386994088
 41
77.33765347885404
 76
     2
 10
9563.91232136262
 20
681.6044903450278
 30
0.0
 10
9728.578005263237
 20
681.5861998195487
 30
0.0
340
202
  0
MTEXT
  5
204
102
{ACAD_REACTORS
330
205
102
}
330
1F
100
AcDbEntity
  8
Specialized_Text
  6
Continuous
100
AcDbMText
 10
9728.657642809949
 20
773.9748851044883
 30
0.0
 40
5.5
 41
77.79305696408172
 71
     4
 72
     1
  1
{selected bevel backed weatherboard cladding}
  7
GENERATED_STYLE_1
 73
     1
 44
1.0
1001
ACAD
1000
MTEXTBEGIN
1070
    73
1070
     1
1070
    44
1040
1.0
1070
    74
1070
     0
1000
MTEXTEND
1000
ACAD_MTEXT_DEFINED_HEIGHT_BEGIN
1070
    46
1040
38.47884953692793
1000
ACAD_MTEXT_DEFINED_HEIGHT_END
  0
LEADER
  5
205
330
1F
100
AcDbEntity
  8
Specialized_Text
  6
Continuous
 62
   251
370
    13
100
AcDbLeader
  3
GENERATED_STYLE__2
 73
     0
 74
     0
 75
     1
 40
16.27989995452478
 41
77.20634379263302
 76
     3
 10
9687.74821780461
 20
755.5424373793645
 30
0.0
 10
9721.271642809949
 20
773.9748851044883
 30
0.0
 10
9728.567642809949
 20
773.9748851044883
 30
0.0
340
204
  0
MTEXT
  5
206
102
{ACAD_REACTORS
330
207
102
}
330
1F
100
AcDbEntity
  8
Specialized_Text
  6
Continuous
100
AcDbMText
 10
9728.657642809949
 20
804.0684576926684
 30
0.0
 40
5.5
 41
86.90524036496682
 71
     4
 72
     1
  1
{vertical 20mm H3.1 timber batten}
  7
GENERATED_STYLE_1
 73
     1
 44
1.0
1001
ACAD
1000
MTEXTBEGIN
1070
    73
1070
     1
1070
    44
1040
1.0
1070
    74
1070
     0
1000
MTEXTEND
  0
LEADER
  5
207
330
1F
100
AcDbEntity
  8
Specialized_Text
  6
Continuous
 62
   251
370
    13
100
AcDbLeader
  3
GENERATED_STYLE__2
 73
     0
 74
     0
 75
     1
 40
14.78672123692587
 41
64.69065484311051
 76
     3
 10
9700.518610408956
 20
782.1273202258193
 30
0.0
 10
9721.271642809949
 20
804.0684576926684
 30
0.0
 10
9728.567642809949
 20
804.0684576926684
 30
0.0
340
206
  0
MTEXT
  5
208
102
{ACAD_XDICTIONARY
360
5BD
102
}
102
{ACAD_REACTORS
330
209
102
}
330
1F
100
AcDbEntity
  8
Specialized_Text
  6
Continuous
100
AcDbMText
 10
9728.429494308143
 20
585.1309314834777
 30
0.0
 40
5.5
 41
72.33603274472066
 71
     4
 72
     1
  1
{\C30;75mm Neopor\U+00AE EPS}
  7
GENERATED_STYLE_1
 73
     1
 44
1.0
1001
ACAD
1000
MTEXTBEGIN
1070
    73
1070
     1
1070
    44
1040
1.0
1070
    74
1070
     0
1000
MTEXTEND
  0
LEADER
  5
209
330
1F
100
AcDbEntity
  8
Specialized_Text
  6
Continuous
 62
   251
370
    13
100
AcDbLeader
  3
GENERATED_STYLE__2
 73
     0
 40
7.124488403819918
 41
71.08731241473397
 76
     2
 10
9589.222408600154
 20
585.1884279758137
 30
0.0
 10
9728.429494308143
 20
585.1309314834777
 30
0.0
340
208
213
0.0900000000001455
223
0.0
233
0.0
  0
HATCH
  5
20A
330
1F
100
AcDbEntity
  8
Specialized_Fills
  6
Continuous
 62
   253
100
AcDbHatch
 10
0.0
 20
0.0
 30
0.0
210
0.0
220
0.0
230
1.0
  2
ANSI31
 70
     0
 71
     1
 91
        1
 92
        1
 93
        4
 72
     1
 10
9644.008072533695
 20
724.4125197901568
 11
9644.008072533695
 21
716.266520501077
 72
     2
 10
9645.878294863301
 20
713.5396200542118
 40
3.306617245655052
 50
235.5560413206467
 51
312.4094372565921
 73
     0
 72
     1
 10
9648.108356926648
 20
715.9810419355923
 11
9648.108356926648
 21
724.6979983556419
 72
     2
 10
9645.878294863301
 20
727.1394202370227
 40
3.306617245655143
 50
47.59056274341189
 51
124.4439586793466
 73
     0
 97
        1
330
20B
 75
     0
 76
     1
 52
0.0
 41
10.0
 77
     0
 78
     1
 53
45.0
 43
0.0
 44
0.0
 45
-0.8838834764831842
 46
0.8838834764831844
 79
     0
 98
        0
  0
LWPOLYLINE
  5
20B
102
{ACAD_REACTORS
330
20A
102
}
330
1F
100
AcDbEntity
  8
Specialized_Fills
  6
Continuous
100
AcDbPolyline
 90
        4
 70
   129
 43
0.0
 10
9644.008072533695
 20
724.4125197901568
 10
9644.008072533695
 20
716.266520501077
 42
-0.3484981026235578
 10
9648.108356926648
 20
715.9810419355923
 10
9648.108356926648
 20
724.6979983556419
 42
-0.348498102623507
  0
MTEXT
  5
20C
102
{ACAD_REACTORS
330
20D
102
}
330
1F
100
AcDbEntity
  8
Specialized_Text
  6
Continuous
100
AcDbMText
 10
9728.602335652123
 20
717.9686787736373
 30
0.0
 40
5.5
 41
80.12778821420306
 71
     4
 72
     1
  1
{8-10mm MS sealant and PEF backing rod supplied and installed by others}
  7
GENERATED_STYLE_1
 73
     1
 44
1.0
1001
ACAD
1000
MTEXTBEGIN
1070
    73
1070
     1
1070
    44
1040
1.0
1070
    74
1070
     0
1000
MTEXTEND
1000
ACAD_MTEXT_DEFINED_HEIGHT_BEGIN
1070
    46
1040
36.46808738360844
1000
ACAD_MTEXT_DEFINED_HEIGHT_END
  0
LEADER
  5
20D
330
1F
100
AcDbEntity
  8
Specialized_Text
  6
Continuous
 62
   251
370
    13
100
AcDbLeader
  3
GENERATED_STYLE__2
 73
     0
 40
34.70702592087312
 41
73.12448840381993
 76
     3
 10
9646.559747773746
 20
714.457593083193
 30
0.0
 10
9651.696815084909
 20
698.9855855597333
 30
0.0
 10
9728.512335652123
 20
717.9686787736373
 30
0.0
340
20C
  0
LINE
  5
275
330
1F
100
AcDbEntity
  8
Viewport
 62
     7
100
AcDbLine
 10
9810.090972862058
 20
1002.824580803222
 30
0.0
 11
9810.090972862058
 21
462.7749651644262
 31
0.0
  0
LINE
  5
276
330
1F
100
AcDbEntity
  8
Viewport
 62
     7
100
AcDbLine
 10
9810.090972862058
 20
462.7749651644262
 30
0.0
 11
9436.949245776075
 21
462.7749651644262
 31
0.0
  0
MTEXT
  5
279
330
1F
100
AcDbEntity
  8
Specialized_Lines
 62
    30
100
AcDbMText
 10
9515.245610566552
 20
504.1078312990102
 30
0.0
 40
7.0
 41
63.23088711380842
 71
     1
 72
     5
  1
THERMASHELL
  7
GENERATED_STYLE_2
 73
     1
 44
1.0
1001
ACAD
1000
ACAD_MTEXT_COLUMN_INFO_BEGIN
1070
    75
1070
     2
1070
    79
1070
     0
1070
    76
1070
     1
1070
    78
1070
     0
1070
    48
1040
63.23088711380842
1070
    49
1040
12.5
1070
    50
1070
     1
1040
0.0
1000
ACAD_MTEXT_COLUMN_INFO_END
1000
MTEXTBEGIN
1070
    73
1070
     1
1070
    44
1040
1.0
1070
    74
1070
     0
1000
MTEXTEND
  0
LINE
  5
27A
102
{ACAD_REACTORS
330
481
102
}
330
1F
100
AcDbEntity
  8
Viewport
 62
     7
100
AcDbLine
 10
9436.949245776075
 20
462.7749651644262
 30
0.0
 11
9436.949245776075
 21
1002.824580803222
 31
0.0
  0
LINE
  5
27B
102
{ACAD_REACTORS
330
480
102
}
330
1F
100
AcDbEntity
  8
Viewport
 62
     7
100
AcDbLine
 10
9810.090972862058
 20
1002.824580803222
 30
0.0
 11
9436.949245776075
 21
1002.824580803222
 31
0.0
  0
MTEXT
  5
27C
330
1F
100
AcDbEntity
  8
Specialized_Lines
100
AcDbMText
 10
9513.778645581002
 20
519.7031182781811
 30
0.0
 40
9.5
 41
325.8507270170958
 71
     1
 72
     5
  1
{\fArial|b1|i0|c0|p34;Wall: Internal Corner - B.B WEATHERBOARD}
 73
     1
 44
1.0
1001
ACAD
1000
ACAD_MTEXT_COLUMN_INFO_BEGIN
1070
    75
1070
     2
1070
    79
1070
     0
1070
    76
1070
     1
1070
    78
1070
     0
1070
    48
1040
325.8507270170958
1070
    49
1040
12.5
1070
    50
1070
     1
1040
0.0
1000
ACAD_MTEXT_COLUMN_INFO_END
1000
MTEXTBEGIN
1070
    73
1070
     1
1070
    44
1040
1.0
1070
    74
1070
     0
1000
MTEXTEND
  0
MTEXT
  5
27D
330
1F
100
AcDbEntity
  8
Specialized_Lines
 62
    30
100
AcDbMText
 10
9484.993790099634
 20
500.160146758526
 30
0.0
 40
4.0
 41
34.37092666967328
 71
     5
 72
     5
  1
SCALE: 1:2
  7
GENERATED_STYLE_2
 73
     1
 44
1.0
1001
ACAD
1000
ACAD_MTEXT_COLUMN_INFO_BEGIN
1070
    75
1070
     2
1070
    79
1070
     0
1070
    76
1070
     1
1070
    78
1070
     0
1070
    48
1040
34.37092666967328
1070
    49
1040
12.5
1070
    50
1070
     1
1040
0.0
1000
ACAD_MTEXT_COLUMN_INFO_END
1000
MTEXTBEGIN
1070
    73
1070
     1
1070
    44
1040
1.0
1070
    74
1070
     0
1000
MTEXTEND
  0
HATCH
  5
27E
330
1F
100
AcDbEntity
  8
0
 62
    30
370
     5
100
AcDbHatch
 10
0.0
 20
0.0
 30
0.0
210
0.0
220
0.0
230
1.0
  2
SOLID
 70
     1
 71
     0
 91
        1
 92
        1
 93
        4
 72
     1
 10
9508.14777548115
 20
505.1831062589172
 11
9508.14777548115
 21
525.1831062589172
 72
     1
 10
9508.14777548115
 20
525.1831062589172
 11
9463.14777548115
 21
525.1831062589172
 72
     1
 10
9463.14777548115
 20
525.1831062589172
 11
9463.14777548115
 21
505.1831062589172
 72
     1
 10
9463.14777548115
 20
505.1831062589172
 11
9508.14777548115
 21
505.1831062589172
 97
        0
 75
     1
 76
     1
 98
        1
 10
9493.562948670678
 20
511.3167867620413
1001
GradientColor1ACI
1070
     5
1001
GradientColor2ACI
1070
     2
1001
ACAD
1010
0.0
1020
0.0
1030
0.0
  0
LWPOLYLINE
  5
27F
330
1F
100
AcDbEntity
  8
0
370
     5
100
AcDbPolyline
 90
        5
 70
     0
 43
0.0
 10
9463.14777548115
 20
525.1831062589172
 10
9463.14777548115
 20
505.1831062589172
 10
9508.14777548115
 20
505.1831062589172
 10
9508.14777548115
 20
525.1831062589172
 10
9463.14777548115
 20
525.1831062589172
  0
MTEXT
  5
280
330
1F
100
AcDbEntity
  8
Specialized_Lines
100
AcDbMText
 10
9485.852590570038
 20
514.9882616125287
 30
0.0
 40
10.0
 41
90.34063603881987
 71
     5
 72
     5
  1
{\fArial|b1|i0|c0|p34;05C}
 73
     1
 44
1.0
1001
ACAD
1000
ACAD_MTEXT_COLUMN_INFO_BEGIN
1070
    75
1070
     2
1070
    79
1070
     0
1070
    76
1070
     1
1070
    78
1070
     0
1070
    48
1040
90.34063603881987
1070
    49
1040
12.5
1070
    50
1070
     1
1040
0.0
1000
ACAD_MTEXT_COLUMN_INFO_END
1000
MTEXTBEGIN
1070
    73
1070
     1
1070
    44
1040
1.0
1070
    74
1070
     0
1000
MTEXTEND
  0
LWPOLYLINE
  5
281
330
1F
100
AcDbEntity
  8
0
370
     5
100
AcDbPolyline
 90
        4
 70
     0
 43
0.0
 10
9463.14777548115
 20
505.1831062589172
 10
9463.14777548115
 20
495.1831062589171
 10
9508.14777548115
 20
495.1831062589171
 10
9508.14777548115
 20
505.1831062589172
  0
LEADER
  5
327
330
1F
100
AcDbEntity
  8
Specialized_Text
  6
Continuous
 62
   251
370
    13
100
AcDbLeader
  3
GENERATED_STYLE__2
 73
     0
 40
34.70702592087312
 41
73.12448840381993
 76
     3
 10
9500.357323843186
 20
595.9156682155726
 30
0.0
 10
9500.311246705797
 20
560.2541704581194
 30
0.0
 10
9727.758397595017
 20
560.187261195605
 30
0.0
340
20C
  0
HATCH
  5
3B5
330
1F
100
AcDbEntity
  8
0
 62
    30
100
AcDbHatch
 10
0.0
 20
0.0
 30
0.0
210
0.0
220
0.0
230
1.0
  2
SOLID
 70
     1
 71
     1
 91
        1
 92
        7
 72
     0
 73
     1
 93
        4
 10
9463.068852440995
 20
481.3615055310542
 10
9463.068852440995
 20
476.3615055310542
 10
9468.068852440998
 20
476.3615055310546
 10
9468.068852440991
 20
481.3615055310547
 97
        1
330
3B6
 75
     1
 76
     1
 47
0.0321901215665183
 98
        1
 10
9464.858300569694
 20
479.938524940811
1001
GradientColor1ACI
1070
     5
1001
GradientColor2ACI
1070
     2
1001
ACAD
1010
0.0
1020
0.0
1030
0.0
  0
LWPOLYLINE
  5
3B6
102
{ACAD_REACTORS
330
3B5
102
}
330
1F
100
AcDbEntity
  8
0
 62
    30
100
AcDbPolyline
 90
        4
 70
     1
 43
0.0
 10
9463.068852440995
 20
481.3615055310542
 10
9468.068852440991
 20
481.3615055310547
 10
9468.068852440998
 20
476.3615055310546
 10
9463.068852440995
 20
476.3615055310542
  0
LINE
  5
3B7
330
1F
100
AcDbEntity
  8
0
 62
    30
100
AcDbLine
 10
9463.068852440995
 20
481.3615055310542
 30
0.0
 11
9468.068852440994
 21
481.3615055310542
 31
0.0
  0
LWPOLYLINE
  5
3B8
330
1F
100
AcDbEntity
  8
0
370
     5
100
AcDbPolyline
 90
        2
 70
     0
 43
0.0
 10
9468.068852440994
 20
478.8615055310542
 10
9789.222910364674
 20
478.8615055310542
  0
MTEXT
  5
3B9
102
{ACAD_XDICTIONARY
360
5D9
102
}
330
1F
100
AcDbEntity
  8
Specialized_Text
  6
Continuous
100
AcDbMText
 10
9471.632531756128
 20
481.3879725646461
 30
0.0
 40
3.0
 41
163.0041735515597
 71
     4
 72
     1
  1
\U+00A9 copyright 2013 Specialized Construction Products Ltd
  7
GENERATED_STYLE_2
 73
     1
 44
1.0
1001
ACAD
1000
MTEXTBEGIN
1070
    73
1070
     1
1070
    44
1040
1.0
1070
    74
1070
     0
1000
MTEXTEND
  0
MTEXT
  5
3BA
330
1F
100
AcDbEntity
  8
Specialized_Text
  6
Continuous
100
AcDbMText
 10
9649.533532429808
 20
481.3879725646461
 30
0.0
 40
3.0
 41
163.0041735515597
 71
     4
 72
     1
  1
All Dimensions to be site checked before construction & installation
  7
GENERATED_STYLE_2
 73
     1
 44
1.0
1001
ACAD
1000
MTEXTBEGIN
1070
    73
1070
     1
1070
    44
1040
1.0
1070
    74
1070
     0
1000
MTEXTEND
  0
MTEXT
  5
3BE
330
1F
100
AcDbEntity
  8
Specialized_Text
  6
Continuous
 62
    30
370
    20
100
AcDbMText
 10
9688.088906219018
 20
468.2640687445327
 30
0.0
 40
5.5
 41
111.9228601720179
 71
     7
 72
     1
  1
{\fArial Unicode MS|b1|i0|c0|p34;web \fArial Unicode MS|b0|i0|c0|p34;\C256;www.specialized.co.nz}
  7
GENERATED_STYLE_2
 73
     1
 44
1.12662050634974
1001
ACAD
1000
MTEXTBEGIN
1070
    73
1070
     1
1070
    44
1040
1.12662050634974
1070
    74
1070
     0
1000
MTEXTEND
  0
LWPOLYLINE
  5
433
330
1F
100
AcDbEntity
  8
Specialized_Lines
  6
DASHEDX2
 48
0.5
100
AcDbPolyline
 90
        3
 70
     0
 43
0.0
 10
9658.114098780664
 20
740.1743231020648
 10
9658.114098780664
 20
748.5841306896686
 10
9648.114098780673
 20
748.5841306896686
  0
LINE
  5
492
102
{ACAD_REACTORS
330
49B
102
}
330
1F
100
AcDbEntity
  8
Specialized_Lines
  6
Continuous
100
AcDbLine
 10
9639.702647805993
 20
761.4477891971644
 30
0.0
 11
9564.702647805992
 21
761.4477891971644
 31
0.0
  0
LINE
  5
495
330
1F
100
AcDbEntity
  8
Specialized_Lines
  6
Continuous
100
AcDbLine
 10
9639.570768217684
 20
574.5437987944783
 30
0.0
 11
9639.570768217684
 21
702.2024559510798
 31
0.0
  0
LINE
  5
496
330
1F
100
AcDbEntity
  8
Specialized_Lines
  6
Continuous
100
AcDbLine
 10
9639.570768217684
 20
702.2024559510798
 30
0.0
 11
9639.702647805993
 21
709.6138027505519
 31
0.0
  0
LINE
  5
497
330
1F
100
AcDbEntity
  8
Specialized_Lines
  6
Continuous
100
AcDbLine
 10
9639.702647805993
 20
709.6138027505519
 30
0.0
 11
9639.702647805993
 21
761.4477891971644
 31
0.0
  0
LINE
  5
499
102
{ACAD_REACTORS
330
49A
102
}
330
1F
100
AcDbEntity
  8
Specialized_Lines
100
AcDbLine
 10
9564.702647805992
 20
761.4477891971644
 30
0.0
 11
9564.702647805992
 21
574.5437987944783
 31
0.0
  0
HATCH
  5
4BC
330
1F
100
AcDbEntity
  8
Specialized_Lines
 62
   254
100
AcDbHatch
 10
0.0
 20
0.0
 30
0.0
210
0.0
220
0.0
230
1.0
  2
SOLID
 70
     1
 71
     0
 91
        4
 92
        7
 72
     0
 73
     1
 93
        4
 10
9690.518610408933
 20
773.8209177611295
 10
9655.518610408906
 20
761.3209177611125
 10
9714.82437380059
 20
761.3209177611125
 10
9714.82437380059
 20
765.1402879783885
 97
        0
 92
        7
 72
     0
 73
     1
 93
        3
 10
9714.82437380059
 20
782.5015475438704
 10
9690.518610408933
 20
773.8209177611296
 10
9714.82437380059
 20
765.1402879783885
 97
        0
 92
        7
 72
     0
 73
     1
 93
        4
 10
9714.82437380059
 20
782.5015475438704
 10
9714.82437380059
 20
786.3209177611466
 10
9655.518610408906
 20
786.3209177611466
 10
9690.518610408933
 20
773.8209177611294
 97
        0
 92
        7
 72
     0
 73
     1
 93
        3
 10
9690.518610408933
 20
773.8209177611295
 10
9655.518610408906
 20
786.3209177611466
 10
9655.518610408906
 20
761.3209177611125
 97
        0
 75
     1
 76
     1
 47
0.1961867573137034
 98
        4
 10
9692.81042595108
 20
769.1790878769375
 10
9706.549548818038
 20
775.2608762189345
 10
9690.455146700839
 20
780.165546102495
 10
9669.06136895859
 20
773.6913832644843
1001
GradientColor1ACI
1070
     5
1001
GradientColor2ACI
1070
     2
1001
ACAD
1010
0.0
1020
0.0
1030
0.0
  0
INSERT
  5
4C9
102
{ACAD_XDICTIONARY
360
4DE
102
}
102
{ACAD_REACTORS
330
50E
102
}
330
1F
100
AcDbEntity
  8
Specialized_Lines
100
AcDbBlockReference
  2
therma
 10
9564.702647805992
 20
584.927204970719
 30
0.0
1001
BNS_SPRHATCH
1010
-0.8783078243741329
1020
-28.50897481949881
1030
-0.00000001
1010
28.40377861212255
1020
-28.50897481949881
1030
-0.00000001
1010
28.40377861212255
1020
0.9111225515754313
1030
-0.00000001
1010
-0.8783078243741329
1020
0.9111225515754313
1030
-0.00000001
  0
INSERT
  5
4CA
102
{ACAD_XDICTIONARY
360
4E1
102
}
102
{ACAD_REACTORS
330
50E
102
}
330
1F
100
AcDbEntity
  8
Specialized_Lines
100
AcDbBlockReference
  2
therma
 10
9593.984734242489
 20
584.927204970719
 30
0.0
1001
BNS_SPRHATCH
1010
-0.8783078243741329
1020
-28.50897481949881
1030
-0.00000001
1010
28.40377861212255
1020
-28.50897481949881
1030
-0.00000001
1010
28.40377861212255
1020
0.9111225515754313
1030
-0.00000001
1010
-0.8783078243741329
1020
0.9111225515754313
1030
-0.00000001
  0
INSERT
  5
4CB
102
{ACAD_XDICTIONARY
360
4E4
102
}
102
{ACAD_REACTORS
330
50E
102
}
330
1F
100
AcDbEntity
  8
Specialized_Lines
100
AcDbBlockReference
  2
therma
 10
9623.266820678987
 20
584.927204970719
 30
0.0
1001
BNS_SPRHATCH
1010
-0.8783078243741329
1020
-28.50897481949881
1030
-0.00000001
1010
28.40377861212255
1020
-28.50897481949881
1030
-0.00000001
1010
28.40377861212255
1020
0.9111225515754313
1030
-0.00000001
1010
-0.8783078243741329
1020
0.9111225515754313
1030
-0.00000001
  0
INSERT
  5
4CC
102
{ACAD_XDICTIONARY
360
4E7
102
}
102
{ACAD_REACTORS
330
50E
102
}
330
1F
100
AcDbEntity
  8
Specialized_Lines
100
AcDbBlockReference
  2
therma
 10
9564.702647805992
 20
614.3473023417932
 30
0.0
1001
BNS_SPRHATCH
1010
-0.8783078243741329
1020
-28.50897481949881
1030
-0.00000001
1010
28.40377861212255
1020
-28.50897481949881
1030
-0.00000001
1010
28.40377861212255
1020
0.9111225515754313
1030
-0.00000001
1010
-0.8783078243741329
1020
0.9111225515754313
1030
-0.00000001
  0
INSERT
  5
4CD
102
{ACAD_XDICTIONARY
360
4EA
102
}
102
{ACAD_REACTORS
330
50E
102
}
330
1F
100
AcDbEntity
  8
Specialized_Lines
100
AcDbBlockReference
  2
therma
 10
9623.266820678987
 20
614.3473023417932
 30
0.0
1001
BNS_SPRHATCH
1010
-0.8783078243741329
1020
-28.50897481949881
1030
-0.00000001
1010
28.40377861212255
1020
-28.50897481949881
1030
-0.00000001
1010
28.40377861212255
1020
0.9111225515754313
1030
-0.00000001
1010
-0.8783078243741329
1020
0.9111225515754313
1030
-0.00000001
  0
INSERT
  5
4CE
102
{ACAD_XDICTIONARY
360
4ED
102
}
102
{ACAD_REACTORS
330
50E
102
}
330
1F
100
AcDbEntity
  8
Specialized_Lines
100
AcDbBlockReference
  2
therma
 10
9564.702647805992
 20
643.7673997128674
 30
0.0
1001
BNS_SPRHATCH
1010
-0.8783078243741329
1020
-28.50897481949881
1030
-0.00000001
1010
28.40377861212255
1020
-28.50897481949881
1030
-0.00000001
1010
28.40377861212255
1020
0.9111225515754313
1030
-0.00000001
1010
-0.8783078243741329
1020
0.9111225515754313
1030
-0.00000001
  0
INSERT
  5
4CF
102
{ACAD_XDICTIONARY
360
4F0
102
}
102
{ACAD_REACTORS
330
50E
102
}
330
1F
100
AcDbEntity
  8
Specialized_Lines
100
AcDbBlockReference
  2
therma
 10
9623.266820678987
 20
643.7673997128674
 30
0.0
1001
BNS_SPRHATCH
1010
-0.8783078243741329
1020
-28.50897481949881
1030
-0.00000001
1010
28.40377861212255
1020
-28.50897481949881
1030
-0.00000001
1010
28.40377861212255
1020
0.9111225515754313
1030
-0.00000001
1010
-0.8783078243741329
1020
0.9111225515754313
1030
-0.00000001
  0
INSERT
  5
4D0
102
{ACAD_XDICTIONARY
360
4F3
102
}
102
{ACAD_REACTORS
330
50E
102
}
330
1F
100
AcDbEntity
  8
Specialized_Lines
100
AcDbBlockReference
  2
therma
 10
9564.702647805992
 20
673.1874970839417
 30
0.0
1001
BNS_SPRHATCH
1010
-0.8783078243741329
1020
-28.50897481949881
1030
-0.00000001
1010
28.40377861212255
1020
-28.50897481949881
1030
-0.00000001
1010
28.40377861212255
1020
0.9111225515754313
1030
-0.00000001
1010
-0.8783078243741329
1020
0.9111225515754313
1030
-0.00000001
  0
INSERT
  5
4D1
102
{ACAD_XDICTIONARY
360
4F6
102
}
102
{ACAD_REACTORS
330
50E
102
}
330
1F
100
AcDbEntity
  8
Specialized_Lines
100
AcDbBlockReference
  2
therma
 10
9623.266820678987
 20
673.1874970839417
 30
0.0
1001
BNS_SPRHATCH
1010
-0.8783078243741329
1020
-28.50897481949881
1030
-0.00000001
1010
28.40377861212255
1020
-28.50897481949881
1030
-0.00000001
1010
28.40377861212255
1020
0.9111225515754313
1030
-0.00000001
1010
-0.8783078243741329
1020
0.9111225515754313
1030
-0.00000001
  0
INSERT
  5
4D2
102
{ACAD_XDICTIONARY
360
4F9
102
}
102
{ACAD_REACTORS
330
50E
102
}
330
1F
100
AcDbEntity
  8
Specialized_Lines
100
AcDbBlockReference
  2
therma
 10
9564.702647805992
 20
702.6075944550159
 30
0.0
1001
BNS_SPRHATCH
1010
-0.8783078243741329
1020
-28.50897481949881
1030
-0.00000001
1010
28.40377861212255
1020
-28.50897481949881
1030
-0.00000001
1010
28.40377861212255
1020
0.9111225515754313
1030
-0.00000001
1010
-0.8783078243741329
1020
0.9111225515754313
1030
-0.00000001
  0
INSERT
  5
4D3
102
{ACAD_XDICTIONARY
360
4FC
102
}
102
{ACAD_REACTORS
330
50E
102
}
330
1F
100
AcDbEntity
  8
Specialized_Lines
100
AcDbBlockReference
  2
therma
 10
9623.266820678987
 20
702.6075944550159
 30
0.0
1001
BNS_SPRHATCH
1010
-0.8783078243741329
1020
-28.50897481949881
1030
-0.00000001
1010
28.40377861212255
1020
-28.50897481949881
1030
-0.00000001
1010
28.40377861212255
1020
0.9111225515754313
1030
-0.00000001
1010
-0.8783078243741329
1020
0.9111225515754313
1030
-0.00000001
  0
INSERT
  5
4D4
102
{ACAD_XDICTIONARY
360
4FF
102
}
102
{ACAD_REACTORS
330
50E
102
}
330
1F
100
AcDbEntity
  8
Specialized_Lines
100
AcDbBlockReference
  2
therma
 10
9564.702647805992
 20
732.0276918260901
 30
0.0
1001
BNS_SPRHATCH
1010
-0.8783078243741329
1020
-28.50897481949881
1030
-0.00000001
1010
28.40377861212255
1020
-28.50897481949881
1030
-0.00000001
1010
28.40377861212255
1020
0.9111225515754313
1030
-0.00000001
1010
-0.8783078243741329
1020
0.9111225515754313
1030
-0.00000001
  0
INSERT
  5
4D5
102
{ACAD_XDICTIONARY
360
502
102
}
102
{ACAD_REACTORS
330
50E
102
}
330
1F
100
AcDbEntity
  8
Specialized_Lines
100
AcDbBlockReference
  2
therma
 10
9623.266820678987
 20
732.0276918260901
 30
0.0
1001
BNS_SPRHATCH
1010
-0.8783078243741329
1020
-28.50897481949881
1030
-0.00000001
1010
28.40377861212255
1020
-28.50897481949881
1030
-0.00000001
1010
28.40377861212255
1020
0.9111225515754313
1030
-0.00000001
1010
-0.8783078243741329
1020
0.9111225515754313
1030
-0.00000001
  0
INSERT
  5
4D6
102
{ACAD_XDICTIONARY
360
505
102
}
102
{ACAD_REACTORS
330
50E
102
}
330
1F
100
AcDbEntity
  8
Specialized_Lines
100
AcDbBlockReference
  2
therma
 10
9564.702647805992
 20
761.4477891971644
 30
0.0
1001
BNS_SPRHATCH
1010
-0.8783078243741329
1020
-28.50897481949881
1030
-0.00000001
1010
28.40377861212255
1020
-28.50897481949881
1030
-0.00000001
1010
28.40377861212255
1020
0.9111225515754313
1030
-0.00000001
1010
-0.8783078243741329
1020
0.9111225515754313
1030
-0.00000001
  0
INSERT
  5
4D7
102
{ACAD_XDICTIONARY
360
508
102
}
102
{ACAD_REACTORS
330
50E
102
}
330
1F
100
AcDbEntity
  8
Specialized_Lines
100
AcDbBlockReference
  2
therma
 10
9593.984734242489
 20
761.4477891971644
 30
0.0
1001
BNS_SPRHATCH
1010
-0.8783078243741329
1020
-28.50897481949881
1030
-0.00000001
1010
28.40377861212255
1020
-28.50897481949881
1030
-0.00000001
1010
28.40377861212255
1020
0.9111225515754313
1030
-0.00000001
1010
-0.8783078243741329
1020
0.9111225515754313
1030
-0.00000001
  0
INSERT
  5
4D8
102
{ACAD_XDICTIONARY
360
50B
102
}
102
{ACAD_REACTORS
330
50E
102
}
330
1F
100
AcDbEntity
  8
Specialized_Lines
100
AcDbBlockReference
  2
therma
 10
9623.266820678987
 20
761.4477891971644
 30
0.0
1001
BNS_SPRHATCH
1010
-0.8783078243741329
1020
-28.50897481949881
1030
-0.00000001
1010
28.40377861212255
1020
-28.50897481949881
1030
-0.00000001
1010
28.40377861212255
1020
0.9111225515754313
1030
-0.00000001
1010
-0.8783078243741329
1020
0.9111225515754313
1030
-0.00000001
  0
INSERT
  5
4D9
102
{ACAD_REACTORS
330
50E
102
}
330
1F
100
AcDbEntity
  8
Specialized_Lines
100
AcDbBlockReference
  2
therma
 10
9593.984734242489
 20
614.3473023417932
 30
0.0
1001
BNS_SPRHATCH
1010
-0.8783078243741329
1020
-28.50897481949881
1030
-0.00000001
1010
28.40377861212255
1020
-28.50897481949881
1030
-0.00000001
1010
28.40377861212255
1020
0.9111225515754313
1030
-0.00000001
1010
-0.8783078243741329
1020
0.9111225515754313
1030
-0.00000001
  0
INSERT
  5
4DA
102
{ACAD_REACTORS
330
50E
102
}
330
1F
100
AcDbEntity
  8
Specialized_Lines
100
AcDbBlockReference
  2
therma
 10
9593.984734242489
 20
643.7673997128674
 30
0.0
1001
BNS_SPRHATCH
1010
-0.8783078243741329
1020
-28.50897481949881
1030
-0.00000001
1010
28.40377861212255
1020
-28.50897481949881
1030
-0.00000001
1010
28.40377861212255
1020
0.9111225515754313
1030
-0.00000001
1010
-0.8783078243741329
1020
0.9111225515754313
1030
-0.00000001
  0
INSERT
  5
4DB
102
{ACAD_REACTORS
330
50E
102
}
330
1F
100
AcDbEntity
  8
Specialized_Lines
100
AcDbBlockReference
  2
therma
 10
9593.984734242489
 20
673.1874970839417
 30
0.0
1001
BNS_SPRHATCH
1010
-0.8783078243741329
1020
-28.50897481949881
1030
-0.00000001
1010
28.40377861212255
1020
-28.50897481949881
1030
-0.00000001
1010
28.40377861212255
1020
0.9111225515754313
1030
-0.00000001
1010
-0.8783078243741329
1020
0.9111225515754313
1030
-0.00000001
  0
INSERT
  5
4DC
102
{ACAD_REACTORS
330
50E
102
}
330
1F
100
AcDbEntity
  8
Specialized_Lines
100
AcDbBlockReference
  2
therma
 10
9593.984734242489
 20
702.6075944550159
 30
0.0
1001
BNS_SPRHATCH
1010
-0.8783078243741329
1020
-28.50897481949881
1030
-0.00000001
1010
28.40377861212255
1020
-28.50897481949881
1030
-0.00000001
1010
28.40377861212255
1020
0.9111225515754313
1030
-0.00000001
1010
-0.8783078243741329
1020
0.9111225515754313
1030
-0.00000001
  0
INSERT
  5
4DD
102
{ACAD_REACTORS
330
50E
102
}
330
1F
100
AcDbEntity
  8
Specialized_Lines
100
AcDbBlockReference
  2
therma
 10
9593.984734242489
 20
732.0276918260901
 30
0.0
1001
BNS_SPRHATCH
1010
-0.8783078243741329
1020
-28.50897481949881
1030
-0.00000001
1010
28.40377861212255
1020
-28.50897481949881
1030
-0.00000001
1010
28.40377861212255
1020
0.9111225515754313
1030
-0.00000001
1010
-0.8783078243741329
1020
0.9111225515754313
1030
-0.00000001
  0
ENDSEC
  0
SECTION
  2
OBJECTS
  0
DICTIONARY
  5
C
330
0
100
AcDbDictionary
281
     1
  3
ACAD_2007HEADERVARS_RT
350
584
  3
ACAD_ASSOCNETWORK
350
47D
  3
ACAD_CIP_PREVIOUS_PRODUCT_INFO
350
24F
  3
ACAD_COLOR
350
243
  3
ACAD_DETAILVIEWSTYLE
350
248
  3
ACAD_GROUP
350
D
  3
ACAD_IMAGE_DICT
350
270
  3
ACAD_IMAGE_VARS
350
274
  3
ACAD_LAYOUT
350
1A
  3
ACAD_MATERIAL
350
3B
  3
ACAD_MLEADERSTYLE
350
236
  3
ACAD_MLINESTYLE
350
17
  3
ACAD_PDFDEFINITIONS
350
46F
  3
ACAD_PLOTSETTINGS
350
19
  3
ACAD_PLOTSTYLENAME
350
E
  3
ACAD_SCALELIST
350
175
  3
ACAD_SECTIONVIEWSTYLE
350
246
  3
ACAD_TABLESTYLE
350
235
  3
ACAD_VISUALSTYLE
350
2A
  3
ACDB_RECOMPOSE_DATA
350
582
  3
AcDbVariableDictionary
350
213
  3
AcDsDecomposeData
350
58B
  3
DWGPROPS
350
583
  3
WATERMARKS
350
211
  0
DICTIONARY
  5
25C
330
2
100
AcDbDictionary
280
     1
281
     1
  3
ACAD_LAYERSTATES
360
25D
  0
DICTIONARY
  5
287
330
10
100
AcDbDictionary
280
     1
281
     1
  3
ADSK_XREC_LAYER_RECONCILED
360
288
  0
DICTIONARY
  5
289
330
40
100
AcDbDictionary
280
     1
281
     1
  3
ADSK_XREC_LAYER_RECONCILED
360
28A
  0
DICTIONARY
  5
28B
330
1A9
100
AcDbDictionary
280
     1
281
     1
  3
ADSK_XREC_LAYER_RECONCILED
360
28C
  0
DICTIONARY
  5
28D
330
1F4
100
AcDbDictionary
280
     1
281
     1
  3
ADSK_XREC_LAYER_RECONCILED
360
28E
  0
DICTIONARY
  5
254
330
253
100
AcDbDictionary
280
     1
281
     1
  3
ADSK_XREC_LAYER_RECONCILED
360
28F
  0
DICTIONARY
  5
31F
330
1F
100
AcDbDictionary
280
     1
281
     1
  3
ACAD_ASSOCNETWORK
360
47B
  3
ACAD_SORTENTS
360
498
  0
DICTIONARY
  5
2AD
330
50
100
AcDbDictionary
280
     1
281
     1
  3
ACAD_SORTENTS
360
2BA
  0
DICTIONARY
  5
5DB
330
452
100
AcDbDictionary
280
     1
281
     1
  3
AcDbBlockTableRecordData
360
5DC
  0
DICTIONARY
  5
5BA
330
1DE
100
AcDbDictionary
280
     1
281
     1
  3
ACAD_XREC_ROUNDTRIP
360
5BB
  0
DICTIONARY
  5
5BD
330
208
100
AcDbDictionary
280
     1
281
     1
  3
ACAD_MTEXT_RT
360
5BE
  0
DICTIONARY
  5
5D9
330
3B9
100
AcDbDictionary
280
     1
281
     1
  3
ACAD_MTEXT_RT
360
5DA
  0
DICTIONARY
  5
4DE
330
4C9
100
AcDbDictionary
280
     1
281
     1
  3
ACAD_FILTER
360
4DF
  0
DICTIONARY
  5
4E1
330
4CA
100
AcDbDictionary
280
     1
281
     1
  3
ACAD_FILTER
360
4E2
  0
DICTIONARY
  5
4E4
330
4CB
100
AcDbDictionary
280
     1
281
     1
  3
ACAD_FILTER
360
4E5
  0
DICTIONARY
  5
4E7
330
4CC
100
AcDbDictionary
280
     1
281
     1
  3
ACAD_FILTER
360
4E8
  0
DICTIONARY
  5
4EA
330
4CD
100
AcDbDictionary
280
     1
281
     1
  3
ACAD_FILTER
360
4EB
  0
DICTIONARY
  5
4ED
330
4CE
100
AcDbDictionary
280
     1
281
     1
  3
ACAD_FILTER
360
4EE
  0
DICTIONARY
  5
4F0
330
4CF
100
AcDbDictionary
280
     1
281
     1
  3
ACAD_FILTER
360
4F1
  0
DICTIONARY
  5
4F3
330
4D0
100
AcDbDictionary
280
     1
281
     1
  3
ACAD_FILTER
360
4F4
  0
DICTIONARY
  5
4F6
330
4D1
100
AcDbDictionary
280
     1
281
     1
  3
ACAD_FILTER
360
4F7
  0
DICTIONARY
  5
4F9
330
4D2
100
AcDbDictionary
280
     1
281
     1
  3
ACAD_FILTER
360
4FA
  0
DICTIONARY
  5
4FC
330
4D3
100
AcDbDictionary
280
     1
281
     1
  3
ACAD_FILTER
360
4FD
  0
DICTIONARY
  5
4FF
330
4D4
100
AcDbDictionary
280
     1
281
     1
  3
ACAD_FILTER
360
500
  0
DICTIONARY
  5
502
330
4D5
100
AcDbDictionary
280
     1
281
     1
  3
ACAD_FILTER
360
503
  0
DICTIONARY
  5
505
330
4D6
100
AcDbDictionary
280
     1
281
     1
  3
ACAD_FILTER
360
506
  0
DICTIONARY
  5
508
330
4D7
100
AcDbDictionary
280
     1
281
     1
  3
ACAD_FILTER
360
509
  0
DICTIONARY
  5
50B
330
4D8
100
AcDbDictionary
280
     1
281
     1
  3
ACAD_FILTER
360
50C
  0
DICTIONARY
  5
584
102
{ACAD_REACTORS
330
C
102
}
330
C
100
AcDbDictionary
281
     1
  3
INTERFERECOLOR
350
585
  0
DICTIONARY
  5
47D
102
{ACAD_REACTORS
330
C
102
}
330
C
100
AcDbDictionary
281
     1
  3
ACAD_ASSOCNETWORK
350
47E
  0
XRECORD
  5
24F
102
{ACAD_REACTORS
330
C
102
}
330
C
100
AcDbXrecord
280
     1
300
ACD
300
2014
300
BDSPRM_F_S
  0
DICTIONARY
  5
243
102
{ACAD_REACTORS
330
C
102
}
330
C
100
AcDbDictionary
281
     1
  0
DICTIONARY
  5
248
102
{ACAD_REACTORS
330
C
102
}
330
C
100
AcDbDictionary
281
     1
  3
Imperial24
350
249
  3
Metric50
350
46C
  0
DICTIONARY
  5
D
102
{ACAD_REACTORS
330
C
102
}
330
C
100
AcDbDictionary
281
     1
  3
*A1
350
50E
  0
DICTIONARY
  5
270
102
{ACAD_REACTORS
330
C
102
}
330
C
100
AcDbDictionary
281
     1
  0
RASTERVARIABLES
  5
274
102
{ACAD_REACTORS
330
C
102
}
330
C
100
AcDbRasterVariables
 90
        0
 70
     1
 71
     1
 72
     0
  0
DICTIONARY
  5
1A
102
{ACAD_REACTORS
330
C
102
}
330
C
100
AcDbDictionary
281
     1
  3
Layout1
350
1E
  3
Layout2
350
26
  3
Model
350
22
  0
DICTIONARY
  5
3B
102
{ACAD_REACTORS
330
C
102
}
330
C
100
AcDbDictionary
281
     1
  3
ByBlock
350
3D
  3
ByLayer
350
3C
  3
Global
350
3E
  0
DICTIONARY
  5
236
102
{ACAD_REACTORS
330
C
102
}
330
C
100
AcDbDictionary
281
     1
  3
Standard
350
245
  0
DICTIONARY
  5
17
102
{ACAD_REACTORS
330
C
102
}
330
C
100
AcDbDictionary
281
     1
  3
Standard
350
18
  0
DICTIONARY
  5
46F
102
{ACAD_REACTORS
330
C
102
}
330
C
100
AcDbDictionary
281
     1
  0
DICTIONARY
  5
19
102
{ACAD_REACTORS
330
C
102
}
330
C
100
AcDbDictionary
281
     1
  0
ACDBDICTIONARYWDFLT
  5
E
102
{ACAD_REACTORS
330
C
102
}
330
C
100
AcDbDictionary
281
     1
  3
Normal
350
F
100
AcDbDictionaryWithDefault
340
F
  0
DICTIONARY
  5
175
102
{ACAD_REACTORS
330
C
102
}
330
C
100
AcDbDictionary
281
     1
  3
A0
350
176
  3
A1
350
177
  3
A2
350
178
  3
A3
350
179
  3
A4
350
17A
  3
A5
350
17B
  3
A6
350
17C
  3
A7
350
17D
  3
A8
350
17E
  3
A9
350
17F
  3
B0
350
180
  3
B1
350
181
  3
B2
350
182
  3
B3
350
183
  3
B4
350
184
  3
B5
350
185
  3
B6
350
186
  3
B7
350
187
  3
B8
350
188
  3
B9
350
189
  3
C0
350
18A
  3
C1
350
18B
  3
C2
350
18C
  3
C3
350
18D
  3
C4
350
18E
  3
C5
350
18F
  3
C6
350
190
  3
C7
350
191
  3
C8
350
192
  3
C9
350
193
  3
D0
350
194
  3
D1
350
195
  3
D2
350
196
  0
DICTIONARY
  5
246
102
{ACAD_REACTORS
330
C
102
}
330
C
100
AcDbDictionary
281
     1
  3
Imperial24
350
247
  3
Metric50
350
46B
  0
DICTIONARY
  5
235
102
{ACAD_REACTORS
330
C
102
}
330
C
100
AcDbDictionary
281
     1
  3
Standard
350
244
  0
DICTIONARY
  5
2A
102
{ACAD_REACTORS
330
C
102
}
330
C
100
AcDbDictionary
281
     1
  3
2dWireframe
350
2F
  3
3D Hidden
350
31
  3
3dWireframe
350
30
  3
Basic
350
32
  3
Brighten
350
36
  3
ColorChange
350
3A
  3
Conceptual
350
34
  3
Dim
350
35
  3
EdgeColorOff
350
242
  3
Facepattern
350
39
  3
Flat
350
2B
  3
FlatWithEdges
350
2C
  3
Gouraud
350
2D
  3
GouraudWithEdges
350
2E
  3
Hidden
350
23A
  3
JitterOff
350
240
  3
Linepattern
350
38
  3
OverhangOff
350
241
  3
Realistic
350
33
  3
Shaded
350
23F
  3
Shaded with edges
350
23E
  3
Shades of Gray
350
23B
  3
Sketchy
350
23C
  3
Thicken
350
37
  3
Wireframe
350
239
  3
X-Ray
350
23D
  0
XRECORD
  5
582
102
{ACAD_REACTORS
330
C
102
}
330
C
100
AcDbXrecord
280
     1
 90
        1
330
244
330
279
330
27C
330
27D
330
280
  0
DICTIONARY
  5
213
102
{ACAD_REACTORS
330
C
102
}
330
C
100
AcDbDictionary
281
     1
  3
CANNOSCALE
350
214
  3
CMLEADERSTYLE
350
2F1
  3
CTABLESTYLE
350
2F0
  3
CVIEWDETAILSTYLE
350
2F2
  3
CVIEWSECTIONSTYLE
350
2F3
  3
DGNFRAME
350
57F
  3
DIMASSOC
350
57D
  3
HIDETEXT
350
57B
  3
HPCOLOR
350
2B3
  3
INDEXCTL
350
57A
  3
LAYEREVAL
350
2F4
  3
LAYERNOTIFY
350
2F5
  3
LIGHTINGUNITS
350
578
  3
MSLTSCALE
350
577
  3
SOLIDHIST
350
57E
  3
SORTENTS
350
579
  3
XCLIPFRAME
350
57C
  0
DICTIONARY
  5
58B
102
{ACAD_REACTORS
330
C
102
}
330
C
100
AcDbDictionary
281
     1
  3
AcDsRecords
350
58D
  3
AcDsSchemas
350
58C
1001
ACAD
1070
     2
  0
XRECORD
  5
583
102
{ACAD_REACTORS
330
C
102
}
330
C
100
AcDbXrecord
280
     1
  1
DWGPROPS COOKIE
  2

  3

  4

  6

  7

  8
Hayden
  9

300
=
301
=
302
=
303
=
304
=
305
=
306
=
307
=
308
=
309
=
 40
0.0215600810185185
 41
2456216.552333727
 42
2457071.443943831
  1

 90
        0
  0
DICTIONARY
  5
211
102
{ACAD_REACTORS
330
C
102
}
330
C
100
AcDbDictionary
281
     1
  3
AC_WATERMARK
350
212
  0
DICTIONARY
  5
25D
102
{ACAD_REACTORS
330
25C
102
}
330
25C
100
AcDbDictionary
281
     1
  0
XRECORD
  5
288
102
{ACAD_REACTORS
330
287
102
}
330
287
100
AcDbXrecord
280
     1
290
     1
  0
XRECORD
  5
28A
102
{ACAD_REACTORS
330
289
102
}
330
289
100
AcDbXrecord
280
     1
290
     1
  0
XRECORD
  5
28C
102
{ACAD_REACTORS
330
28B
102
}
330
28B
100
AcDbXrecord
280
     1
290
     1
  0
XRECORD
  5
28E
102
{ACAD_REACTORS
330
28D
102
}
330
28D
100
AcDbXrecord
280
     1
290
     1
  0
XRECORD
  5
28F
102
{ACAD_REACTORS
330
254
102
}
330
254
100
AcDbXrecord
280
     1
290
     1
  0
DICTIONARY
  5
47B
102
{ACAD_REACTORS
330
31F
102
}
330
31F
100
AcDbDictionary
281
     1
  3
ACAD_ASSOCNETWORK
350
47C
  0
SORTENTSTABLE
  5
498
102
{ACAD_REACTORS
330
31F
102
}
330
31F
100
AcDbSortentsTable
330
1F
331
1CE
  5
20C
331
3B6
  5
4D1
331
1C6
  5
202
331
205
  5
479
331
1C2
  5
1FE
331
201
  5
3BE
331
1FD
  5
3B9
331
1BE
  5
1EC
331
1BA
  5
1DA
331
1B6
  5
1D5
331
1B2
  5
1D1
331
1AE
  5
1C9
331
1AA
  5
1C6
331
1A6
  5
1C2
331
4DB
  5
1A6
331
4D7
  5
1A1
331
1A2
  5
1BF
331
4D3
  5
4F
331
4F
  5
1BA
331
4B
  5
1B6
331
47
  5
1B3
331
1DD
  5
281
331
43
  5
1AF
331
27F
  5
4CC
331
19E
  5
1BB
331
4CF
  5
46
331
27B
  5
4AC
331
1D5
  5
27C
331
4CB
  5
42
331
1D1
  5
276
331
20C
  5
499
331
3B9
  5
4D4
331
208
  5
494
331
3F
  5
1AC
331
1CD
  5
20B
331
1C9
  5
205
331
3B5
  5
4D0
331
1C5
  5
201
331
204
  5
478
331
200
  5
3BC
331
497
  5
209
331
1C1
  5
1FD
331
1FC
  5
3B8
331
1BD
  5
1DF
331
1B9
  5
1D8
331
1B5
  5
1D4
331
1B1
  5
1D0
331
1EC
  5
3B6
331
1AD
  5
1C8
331
1A5
  5
1C1
331
4DA
  5
1A5
331
4D6
  5
1A0
331
1A1
  5
1BE
331
4D2
  5
49
331
4E
  5
1B9
331
46
  5
1B2
331
42
  5
1AE
331
27E
  5
4CB
331
1D8
  5
27F
331
4CE
  5
45
331
27A
  5
4AB
331
276
  5
4A0
331
1D4
  5
27B
331
4CA
  5
41
331
1D0
  5
275
331
20B
  5
497
331
3B8
  5
4D3
331
1CC
  5
20A
331
1C8
  5
204
331
207
  5
493
331
1C4
  5
200
331
203
  5
433
331
496
  5
208
331
1C0
  5
1FC
331
492
  5
206
331
1FF
  5
3BB
331
1BC
  5
1DE
331
1B8
  5
1D7
331
1B4
  5
1D3
331
1F3
  5
3B7
331
1B0
  5
1CF
331
1AC
  5
1C7
331
1A8
  5
1C5
331
433
  5
4DA
331
4DD
  5
1A8
331
4D9
  5
1A3
331
4D5
  5
19F
331
281
  5
4CE
331
1A0
  5
1BD
331
4D1
  5
48
331
4D
  5
1B8
331
49
  5
1B5
331
45
  5
1B1
331
1DF
  5
3B5
331
41
  5
1AD
331
27D
  5
4CA
331
1D7
  5
27E
331
4CD
  5
44
331
279
  5
4AA
331
275
  5
49F
331
1D3
  5
27A
331
4C9
  5
3F
331
20A
  5
496
331
1CF
  5
20D
331
3B7
  5
4D2
331
1C7
  5
203
331
206
  5
492
331
499
  5
4DD
331
1C3
  5
1FF
331
202
  5
3BF
331
495
  5
207
331
1FE
  5
3BA
331
1BF
  5
1F3
331
1BB
  5
1DD
331
327
  5
4CF
331
1B7
  5
1D6
331
1B3
  5
1D2
331
1AF
  5
1CC
331
1A7
  5
1C3
331
4DC
  5
1A7
331
4D8
  5
1A2
331
1A3
  5
1C0
331
4D4
  5
19E
331
280
  5
4CD
331
4D0
  5
47
331
4C
  5
1B7
331
48
  5
1B4
331
1DE
  5
327
331
44
  5
1B0
331
19F
  5
1BC
331
1DA
  5
280
331
27C
  5
4C9
331
1D6
  5
27D
331
4CC
  5
43
331
1D2
  5
279
331
3BE
  5
4D8
331
20D
  5
49E
331
3BA
  5
4D5
331
209
  5
495
331
4BC
  5
1AA
  0
SORTENTSTABLE
  5
2BA
102
{ACAD_REACTORS
330
2AD
102
}
330
2AD
100
AcDbSortentsTable
330
50
331
2AB
  5
2B4
331
2BC
  5
2A7
331
2A6
  5
2A8
331
2A7
  5
2A9
331
2A8
  5
2AA
331
2A9
  5
2AB
331
2AA
  5
2B1
  0
DICTIONARY
  5
5DC
102
{ACAD_REACTORS
330
5DB
102
}
330
5DB
100
AcDbDictionary
280
     1
281
     1
  3
Edit
360
5DD
  0
XRECORD
  5
5BB
102
{ACAD_REACTORS
330
5BA
102
}
330
5BA
100
AcDbXrecord
280
     1
102
VERTEXIDENTIFIER
310
07000000000000000000000000000000000000009A0000009B000000
  0
XRECORD
  5
5BE
102
{ACAD_REACTORS
330
5BD
102
}
330
5BD
100
AcDbXrecord
280
     1
 40
33784.0
  1
{\C30;\c30975;75mm Neopor® EPS}
  0
XRECORD
  5
5DA
102
{ACAD_REACTORS
330
5D9
102
}
330
5D9
100
AcDbXrecord
280
     1
 40
173389.0
  1
© copyright 2013 Specialized Construction Products Ltd
  0
DICTIONARY
  5
4DF
102
{ACAD_REACTORS
330
4DE
102
}
330
4DE
100
AcDbDictionary
280
     1
281
     1
  3
SPATIAL
360
4E0
  0
DICTIONARY
  5
4E2
102
{ACAD_REACTORS
330
4E1
102
}
330
4E1
100
AcDbDictionary
280
     1
281
     1
  3
SPATIAL
360
4E3
  0
DICTIONARY
  5
4E5
102
{ACAD_REACTORS
330
4E4
102
}
330
4E4
100
AcDbDictionary
280
     1
281
     1
  3
SPATIAL
360
4E6
  0
DICTIONARY
  5
4E8
102
{ACAD_REACTORS
330
4E7
102
}
330
4E7
100
AcDbDictionary
280
     1
281
     1
  3
SPATIAL
360
4E9
  0
DICTIONARY
  5
4EB
102
{ACAD_REACTORS
330
4EA
102
}
330
4EA
100
AcDbDictionary
280
     1
281
     1
  3
SPATIAL
360
4EC
  0
DICTIONARY
  5
4EE
102
{ACAD_REACTORS
330
4ED
102
}
330
4ED
100
AcDbDictionary
280
     1
281
     1
  3
SPATIAL
360
4EF
  0
DICTIONARY
  5
4F1
102
{ACAD_REACTORS
330
4F0
102
}
330
4F0
100
AcDbDictionary
280
     1
281
     1
  3
SPATIAL
360
4F2
  0
DICTIONARY
  5
4F4
102
{ACAD_REACTORS
330
4F3
102
}
330
4F3
100
AcDbDictionary
280
     1
281
     1
  3
SPATIAL
360
4F5
  0
DICTIONARY
  5
4F7
102
{ACAD_REACTORS
330
4F6
102
}
330
4F6
100
AcDbDictionary
280
     1
281
     1
  3
SPATIAL
360
4F8
  0
DICTIONARY
  5
4FA
102
{ACAD_REACTORS
330
4F9
102
}
330
4F9
100
AcDbDictionary
280
     1
281
     1
  3
SPATIAL
360
4FB
  0
DICTIONARY
  5
4FD
102
{ACAD_REACTORS
330
4FC
102
}
330
4FC
100
AcDbDictionary
280
     1
281
     1
  3
SPATIAL
360
4FE
  0
DICTIONARY
  5
500
102
{ACAD_REACTORS
330
4FF
102
}
330
4FF
100
AcDbDictionary
280
     1
281
     1
  3
SPATIAL
360
501
  0
DICTIONARY
  5
503
102
{ACAD_REACTORS
330
502
102
}
330
502
100
AcDbDictionary
280
     1
281
     1
  3
SPATIAL
360
504
  0
DICTIONARY
  5
506
102
{ACAD_REACTORS
330
505
102
}
330
505
100
AcDbDictionary
280
     1
281
     1
  3
SPATIAL
360
507
  0
DICTIONARY
  5
509
102
{ACAD_REACTORS
330
508
102
}
330
508
100
AcDbDictionary
280
     1
281
     1
  3
SPATIAL
360
50A
  0
DICTIONARY
  5
50C
102
{ACAD_REACTORS
330
50B
102
}
330
50B
100
AcDbDictionary
280
     1
281
     1
  3
SPATIAL
360
50D
  0
XRECORD
  5
585
102
{ACAD_REACTORS
330
584
102
}
330
584
100
AcDbXrecord
280
     1
1004
1800000001000000000000C0000000000000000000000000
  0
ACDBASSOCNETWORK
  5
47E
102
{ACAD_REACTORS
330
47D
102
}
330
47D
100
AcDbAssocAction
 90
        1
 90
        0
330
0
360
0
 90
        0
 90
        0
 90
        0
100
AcDbAssocNetwork
 90
        0
 90
        1
 90
        1
330
47C
 90
        0
  0
ACDBDETAILVIEWSTYLE
  5
249
102
{ACAD_XDICTIONARY
360
2ED
102
}
102
{ACAD_REACTORS
330
248
102
}
330
248
100
AcDbModelDocViewStyle
 70
     0
  3
Imperial24
290
     0
100
AcDbDetailViewStyle
 70
     0
 71
     0
 90
        3
 71
     1
340
11
 40
0.24
340
0
 40
0.24
300

 40
0.36
280
     3
 71
     2
340
16
 90
       25
 71
     3
340
11
 40
0.24
 90
        1
 40
0.75
 90
        1
300
%<\AcVar ViewType \f "%tc1">% %<\AcVar ViewDetailId>%\PSCALE %<\AcVar ViewScale \f "%sn">%
 71
     4
340
16
 90
       25
340
16
 90
       25
280
     0
  0
ACDBDETAILVIEWSTYLE
  5
46C
102
{ACAD_XDICTIONARY
360
51B
102
}
102
{ACAD_REACTORS
330
248
102
}
330
248
100
AcDbModelDocViewStyle
 70
     0
  3
Metric50
290
     0
100
AcDbDetailViewStyle
 70
     0
 71
     0
 90
        3
 71
     1
340
11
 40
5.0
340
0
 40
5.0
300

 40
0.0
280
     1
 71
     2
340
16
 90
       25
 71
     3
340
11
 40
5.0
 90
        0
 40
15.0
 90
        1
300
%<\AcVar ViewDetailId>% (%<\AcVar ViewScale \f "%sn">%)
 71
     4
340
16
 90
       25
340
16
 90
       25
280
     0
  0
GROUP
  5
50E
102
{ACAD_REACTORS
330
D
102
}
330
D
100
AcDbGroup
300
Superhatch
 70
     1
 71
     1
340
4C9
340
4CA
340
4CB
340
4CC
340
4CD
340
4CE
340
4CF
340
4D0
340
4D1
340
4D2
340
4D3
340
4D4
340
4D5
340
4D6
340
4D7
340
4D8
340
4D9
340
4DA
340
4DB
340
4DC
340
4DD
  0
LAYOUT
  5
1E
102
{ACAD_XDICTIONARY
360
58E
102
}
102
{ACAD_REACTORS
330
1A
102
}
330
1A
100
AcDbPlotSettings
  1

  2
none_device
  4

  6

 40
0.0
 41
0.0
 42
0.0
 43
0.0
 44
0.0
 45
0.0
 46
0.0
 47
0.0
 48
0.0
 49
0.0
140
0.0
141
0.0
142
1.0
143
1.0
 70
   688
 72
     0
 73
     0
 74
     5
  7

 75
    16
147
1.0
148
0.0
149
0.0
100
AcDbLayout
  1
Layout1
 70
     1
 71
     1
 10
0.0
 20
0.0
 11
12.0
 21
9.0
 12
0.0
 22
0.0
 32
0.0
 14
1.000000000000000E+20
 24
1.000000000000000E+20
 34
1.000000000000000E+20
 15
-1.000000000000000E+20
 25
-1.000000000000000E+20
 35
-1.000000000000000E+20
146
0.0
 13
0.0
 23
0.0
 33
0.0
 16
1.0
 26
0.0
 36
0.0
 17
0.0
 27
1.0
 37
0.0
 76
     0
330
1B
  0
LAYOUT
  5
26
102
{ACAD_XDICTIONARY
360
592
102
}
102
{ACAD_REACTORS
330
1A
102
}
330
1A
100
AcDbPlotSettings
  1

  2
none_device
  4

  6

 40
0.0
 41
0.0
 42
0.0
 43
0.0
 44
0.0
 45
0.0
 46
0.0
 47
0.0
 48
0.0
 49
0.0
140
0.0
141
0.0
142
1.0
143
1.0
 70
   688
 72
     0
 73
     0
 74
     5
  7

 75
    16
147
1.0
148
0.0
149
0.0
100
AcDbLayout
  1
Layout2
 70
     1
 71
     2
 10
0.0
 20
0.0
 11
0.0
 21
0.0
 12
0.0
 22
0.0
 32
0.0
 14
0.0
 24
0.0
 34
0.0
 15
0.0
 25
0.0
 35
0.0
146
0.0
 13
0.0
 23
0.0
 33
0.0
 16
1.0
 26
0.0
 36
0.0
 17
0.0
 27
1.0
 37
0.0
 76
     0
330
23
  0
LAYOUT
  5
22
102
{ACAD_XDICTIONARY
360
590
102
}
102
{ACAD_REACTORS
330
1A
102
}
330
1A
100
AcDbPlotSettings
  1

  2
none_device
  4

  6

 40
0.0
 41
0.0
 42
0.0
 43
0.0
 44
0.0
 45
0.0
 46
0.0
 47
0.0
 48
0.0
 49
0.0
140
0.0
141
0.0
142
1.0
143
1.0
 70
  1712
 72
     0
 73
     0
 74
     0
  7

 75
     0
147
1.0
148
0.0
149
0.0
100
AcDbLayout
  1
Model
 70
     1
 71
     0
 10
0.0
 20
0.0
 11
12.0
 21
9.0
 12
0.0
 22
0.0
 32
0.0
 14
1.000000000000000E+20
 24
1.000000000000000E+20
 34
1.000000000000000E+20
 15
-1.000000000000000E+20
 25
-1.000000000000000E+20
 35
-1.000000000000000E+20
146
0.0
 13
0.0
 23
0.0
 33
0.0
 16
1.0
 26
0.0
 36
0.0
 17
0.0
 27
1.0
 37
0.0
 76
     0
330
1F
331
29
  0
MATERIAL
  5
3D
102
{ACAD_XDICTIONARY
360
5B6
102
}
102
{ACAD_REACTORS
330
3B
102
}
330
3B
100
AcDbMaterial
  1
ByBlock
 73
     1
 78
     1
172
     1
176
     1
270
     1
274
     1
  0
MATERIAL
  5
3C
102
{ACAD_XDICTIONARY
360
5B4
102
}
102
{ACAD_REACTORS
330
3B
102
}
330
3B
100
AcDbMaterial
  1
ByLayer
 73
     1
 78
     1
172
     1
176
     1
270
     1
274
     1
  0
MATERIAL
  5
3E
102
{ACAD_XDICTIONARY
360
5B8
102
}
102
{ACAD_REACTORS
330
3B
102
}
330
3B
100
AcDbMaterial
  1
Global
 73
     1
 78
     1
172
     1
176
     1
270
     1
274
     1
  0
MLEADERSTYLE
  5
245
102
{ACAD_XDICTIONARY
360
5D5
102
}
102
{ACAD_REACTORS
330
236
102
}
330
236
100
AcDbMLeaderStyle
170
     2
171
     1
172
     0
 90
        2
 40
0.0
 41
0.0
173
     1
 91
-1056964608
340
14
 92
       -2
290
     1
 42
0.09
291
     1
 43
0.36
  3
Standard
 44
0.18
300

342
11
174
     1
178
     6
175
     1
176
     0
 93
-1056964608
 45
0.18
292
     0
297
     0
 46
0.18
 94
-1056964608
 47
1.0
 49
1.0
140
1.0
293
     1
141
0.0
294
     1
177
     0
142
1.0
295
     0
296
     0
143
0.125
1001
ACAD_MLEADERVER
1070
     2
  0
MLINESTYLE
  5
18
102
{ACAD_REACTORS
330
17
102
}
330
17
100
AcDbMlineStyle
  2
STANDARD
 70
     0
  3

 62
   256
 51
90.0
 52
90.0
 71
     2
 49
0.5
 62
   256
  6
BYLAYER
 49
-0.5
 62
   256
  6
BYLAYER
  0
ACDBPLACEHOLDER
  5
F
102
{ACAD_REACTORS
330
E
102
}
330
E
  0
SCALE
  5
176
102
{ACAD_REACTORS
330
175
102
}
330
175
100
AcDbScale
 70
     0
300
1:1
140
1.0
141
1.0
290
     1
  0
SCALE
  5
177
102
{ACAD_REACTORS
330
175
102
}
330
175
100
AcDbScale
 70
     0
300
1:2
140
1.0
141
2.0
290
     0
  0
SCALE
  5
178
102
{ACAD_REACTORS
330
175
102
}
330
175
100
AcDbScale
 70
     0
300
1:4
140
1.0
141
4.0
290
     0
  0
SCALE
  5
179
102
{ACAD_REACTORS
330
175
102
}
330
175
100
AcDbScale
 70
     0
300
1:5
140
1.0
141
5.0
290
     0
  0
SCALE
  5
17A
102
{ACAD_REACTORS
330
175
102
}
330
175
100
AcDbScale
 70
     0
300
1:8
140
1.0
141
8.0
290
     0
  0
SCALE
  5
17B
102
{ACAD_REACTORS
330
175
102
}
330
175
100
AcDbScale
 70
     0
300
1:10
140
1.0
141
10.0
290
     0
  0
SCALE
  5
17C
102
{ACAD_REACTORS
330
175
102
}
330
175
100
AcDbScale
 70
     0
300
1:16
140
1.0
141
16.0
290
     0
  0
SCALE
  5
17D
102
{ACAD_REACTORS
330
175
102
}
330
175
100
AcDbScale
 70
     0
300
1:20
140
1.0
141
20.0
290
     0
  0
SCALE
  5
17E
102
{ACAD_REACTORS
330
175
102
}
330
175
100
AcDbScale
 70
     0
300
1:30
140
1.0
141
30.0
290
     0
  0
SCALE
  5
17F
102
{ACAD_REACTORS
330
175
102
}
330
175
100
AcDbScale
 70
     0
300
1:40
140
1.0
141
40.0
290
     0
  0
SCALE
  5
180
102
{ACAD_REACTORS
330
175
102
}
330
175
100
AcDbScale
 70
     0
300
1:50
140
1.0
141
50.0
290
     0
  0
SCALE
  5
181
102
{ACAD_REACTORS
330
175
102
}
330
175
100
AcDbScale
 70
     0
300
1:100
140
1.0
141
100.0
290
     0
  0
SCALE
  5
182
102
{ACAD_REACTORS
330
175
102
}
330
175
100
AcDbScale
 70
     0
300
2:1
140
2.0
141
1.0
290
     0
  0
SCALE
  5
183
102
{ACAD_REACTORS
330
175
102
}
330
175
100
AcDbScale
 70
     0
300
4:1
140
4.0
141
1.0
290
     0
  0
SCALE
  5
184
102
{ACAD_REACTORS
330
175
102
}
330
175
100
AcDbScale
 70
     0
300
8:1
140
8.0
141
1.0
290
     0
  0
SCALE
  5
185
102
{ACAD_REACTORS
330
175
102
}
330
175
100
AcDbScale
 70
     0
300
10:1
140
10.0
141
1.0
290
     0
  0
SCALE
  5
186
102
{ACAD_REACTORS
330
175
102
}
330
175
100
AcDbScale
 70
     0
300
100:1
140
100.0
141
1.0
290
     0
  0
SCALE
  5
187
102
{ACAD_REACTORS
330
175
102
}
330
175
100
AcDbScale
 70
     0
300
1/128" = 1'-0"
140
0.0078125
141
12.0
290
     0
  0
SCALE
  5
188
102
{ACAD_REACTORS
330
175
102
}
330
175
100
AcDbScale
 70
     0
300
1/64" = 1'-0"
140
0.015625
141
12.0
290
     0
  0
SCALE
  5
189
102
{ACAD_REACTORS
330
175
102
}
330
175
100
AcDbScale
 70
     0
300
1/32" = 1'-0"
140
0.03125
141
12.0
290
     0
  0
SCALE
  5
18A
102
{ACAD_REACTORS
330
175
102
}
330
175
100
AcDbScale
 70
     0
300
1/16" = 1'-0"
140
0.0625
141
12.0
290
     0
  0
SCALE
  5
18B
102
{ACAD_REACTORS
330
175
102
}
330
175
100
AcDbScale
 70
     0
300
3/32" = 1'-0"
140
0.09375
141
12.0
290
     0
  0
SCALE
  5
18C
102
{ACAD_REACTORS
330
175
102
}
330
175
100
AcDbScale
 70
     0
300
1/8" = 1'-0"
140
0.125
141
12.0
290
     0
  0
SCALE
  5
18D
102
{ACAD_REACTORS
330
175
102
}
330
175
100
AcDbScale
 70
     0
300
3/16" = 1'-0"
140
0.1875
141
12.0
290
     0
  0
SCALE
  5
18E
102
{ACAD_REACTORS
330
175
102
}
330
175
100
AcDbScale
 70
     0
300
1/4" = 1'-0"
140
0.25
141
12.0
290
     0
  0
SCALE
  5
18F
102
{ACAD_REACTORS
330
175
102
}
330
175
100
AcDbScale
 70
     0
300
3/8" = 1'-0"
140
0.375
141
12.0
290
     0
  0
SCALE
  5
190
102
{ACAD_REACTORS
330
175
102
}
330
175
100
AcDbScale
 70
     0
300
1/2" = 1'-0"
140
0.5
141
12.0
290
     0
  0
SCALE
  5
191
102
{ACAD_REACTORS
330
175
102
}
330
175
100
AcDbScale
 70
     0
300
3/4" = 1'-0"
140
0.75
141
12.0
290
     0
  0
SCALE
  5
192
102
{ACAD_REACTORS
330
175
102
}
330
175
100
AcDbScale
 70
     0
300
1" = 1'-0"
140
1.0
141
12.0
290
     0
  0
SCALE
  5
193
102
{ACAD_REACTORS
330
175
102
}
330
175
100
AcDbScale
 70
     0
300
1-1/2" = 1'-0"
140
1.5
141
12.0
290
     0
  0
SCALE
  5
194
102
{ACAD_REACTORS
330
175
102
}
330
175
100
AcDbScale
 70
     0
300
3" = 1'-0"
140
3.0
141
12.0
290
     0
  0
SCALE
  5
195
102
{ACAD_REACTORS
330
175
102
}
330
175
100
AcDbScale
 70
     0
300
6" = 1'-0"
140
6.0
141
12.0
290
     0
  0
SCALE
  5
196
102
{ACAD_REACTORS
330
175
102
}
330
175
100
AcDbScale
 70
     0
300
1'-0" = 1'-0"
140
12.0
141
12.0
290
     0
  0
ACDBSECTIONVIEWSTYLE
  5
247
102
{ACAD_XDICTIONARY
360
2EB
102
}
102
{ACAD_REACTORS
330
246
102
}
330
246
100
AcDbModelDocViewStyle
 70
     0
  3
Imperial24
290
     0
100
AcDbSectionViewStyle
 70
     0
 71
     0
 90
       78
 71
     1
340
11
 40
0.24
340
0
340
0
 40
0.24
300
I, O, Q, S, X, Z
 40
0.48
 90
        3
 40
0.18
 90
        1
 71
     2
340
16
 90
       25
340
16
 90
       50
 40
0.24
 40
0.0
 40
0.24
 71
     3
340
11
 40
0.24
 90
        1
 40
0.75
 90
        1
300
%<\AcVar ViewType \f "%tc1">% %<\AcVar ViewSectionStartId>%-%<\AcVar ViewSectionEndId>%\PSCALE %<\AcVar ViewScale \f "%sn">%
 71
     4
300
ANSI31
 40
1.0
 90
        0
290
     0
290
     0
 90
        6
 40
0.0
 40
1.570796326794896
 40
0.2617993877991494
 40
1.308996938995747
 40
-0.2617993877991494
 40
1.832595714594046
  0
ACDBSECTIONVIEWSTYLE
  5
46B
102
{ACAD_XDICTIONARY
360
519
102
}
102
{ACAD_REACTORS
330
246
102
}
330
246
100
AcDbModelDocViewStyle
 70
     0
  3
Metric50
290
     0
100
AcDbSectionViewStyle
 70
     0
 71
     0
 90
      102
 71
     1
340
11
 40
5.0
340
0
340
0
 40
5.0
300
I, O, Q, S, X, Z
 40
10.0
 90
        0
 40
2.5
 90
        0
 71
     2
340
16
 90
       25
340
16
 90
       50
 40
5.0
 40
2.5
 40
5.0
 71
     3
340
11
 40
5.0
 90
        0
 40
15.0
 90
        1
300
%<\AcVar ViewSectionStartId>%-%<\AcVar ViewSectionEndId>% (%<\AcVar ViewScale \f "%sn">%)
 71
     4
300
ANSI31
 40
1.0
 90
        0
290
     0
290
     0
 90
        6
 40
0.0
 40
1.570796326794896
 40
0.2617993877991494
 40
1.308996938995747
 40
-0.2617993877991494
 40
1.832595714594046
  0
TABLESTYLE
  5
244
102
{ACAD_XDICTIONARY
360
580
102
}
102
{ACAD_REACTORS
330
235
102
}
330
235
100
AcDbTableStyle
  3
Standard
 70
     0
 71
     0
 40
0.06
 41
0.06
280
     0
281
     0
  7
Standard
140
0.18
170
     2
 62
     0
 63
     7
283
     0
274
    -2
284
     1
 64
     0
275
    -2
285
     1
 65
     0
276
    -2
286
     1
 66
     0
277
    -2
287
     1
 67
     0
278
    -2
288
     1
 68
     0
279
    -2
289
     1
 69
     0
  7
Standard
140
0.25
170
     5
 62
     0
 63
     7
283
     0
274
    -2
284
     1
 64
     0
275
    -2
285
     1
 65
     0
276
    -2
286
     1
 66
     0
277
    -2
287
     1
 67
     0
278
    -2
288
     1
 68
     0
279
    -2
289
     1
 69
     0
  7
Standard
140
0.18
170
     5
 62
     0
 63
     7
283
     0
274
    -2
284
     1
 64
     0
275
    -2
285
     1
 65
     0
276
    -2
286
     1
 66
     0
277
    -2
287
     1
 67
     0
278
    -2
288
     1
 68
     0
279
    -2
289
     1
 69
     0
  0
VISUALSTYLE
  5
2F
102
{ACAD_XDICTIONARY
360
59C
102
}
102
{ACAD_REACTORS
330
2A
102
}
330
2A
100
AcDbVisualStyle
  2
2dWireframe
 70
     4
 71
     0
 72
     2
 73
     0
 90
        0
 40
-0.6
 41
-30.0
 62
     5
 63
     7
 74
     1
 91
        4
 64
     7
 65
   257
 75
     1
175
     1
 42
1.0
 92
        0
 66
   257
 43
1.0
 76
     1
 77
     6
 78
     2
 67
     7
 79
     5
170
     0
171
     0
290
     0
174
     0
 93
        1
 44
0.0
173
     0
291
     0
 45
0.0
1001
ACAD
1000
AcDbSavedByObjectVersion
1070
     0
  0
VISUALSTYLE
  5
31
102
{ACAD_XDICTIONARY
360
5A0
102
}
102
{ACAD_REACTORS
330
2A
102
}
330
2A
100
AcDbVisualStyle
  2
3D Hidden
 70
     6
 71
     1
 72
     2
 73
     2
 90
        0
 40
-0.6
 41
-30.0
 62
     5
 63
     7
 74
     2
 91
        2
 64
     7
 65
   257
 75
     2
175
     1
 42
40.0
 92
        0
 66
   257
 43
1.0
 76
     1
 77
     6
 78
     2
 67
     7
 79
     3
170
     0
171
     0
290
     0
174
     0
 93
        1
 44
0.0
173
     0
291
     0
 45
0.0
1001
ACAD
1000
AcDbSavedByObjectVersion
1070
     0
  0
VISUALSTYLE
  5
30
102
{ACAD_XDICTIONARY
360
59E
102
}
102
{ACAD_REACTORS
330
2A
102
}
330
2A
100
AcDbVisualStyle
  2
3dWireframe
 70
     5
 71
     0
 72
     2
 73
     0
 90
        0
 40
-0.6
 41
-30.0
 62
     5
 63
     7
 74
     1
 91
        4
 64
     7
 65
   257
 75
     1
175
     1
 42
1.0
 92
        0
 66
   257
 43
1.0
 76
     1
 77
     6
 78
     2
 67
     7
 79
     5
170
     0
171
     0
290
     0
174
     0
 93
        1
 44
0.0
173
     0
291
     0
 45
0.0
1001
ACAD
1000
AcDbSavedByObjectVersion
1070
     0
  0
VISUALSTYLE
  5
32
102
{ACAD_XDICTIONARY
360
5A2
102
}
102
{ACAD_REACTORS
330
2A
102
}
330
2A
100
AcDbVisualStyle
  2
Basic
 70
     7
 71
     1
 72
     0
 73
     1
 90
        0
 40
-0.6
 41
-30.0
 62
     5
 63
     7
 74
     0
 91
        4
 64
     7
 65
   257
 75
     1
175
     1
 42
1.0
 92
        8
 66
     7
 43
1.0
 76
     1
 77
     6
 78
     2
 67
     7
 79
     5
170
     0
171
     0
290
     0
174
     0
 93
        1
 44
0.0
173
     0
291
     1
 45
0.0
1001
ACAD
1000
AcDbSavedByObjectVersion
1070
     0
  0
VISUALSTYLE
  5
36
102
{ACAD_XDICTIONARY
360
5AA
102
}
102
{ACAD_REACTORS
330
2A
102
}
330
2A
100
AcDbVisualStyle
  2
Brighten
 70
    12
 71
     2
 72
     2
 73
     0
 90
        0
 40
-0.6
 41
-30.0
 62
     5
 63
     7
 74
     1
 91
        4
 64
     7
 65
   257
 75
     1
175
     1
 42
1.0
 92
        8
 66
     7
 43
1.0
 76
     1
 77
     6
 78
     2
 67
     7
 79
     5
170
     0
171
     0
290
     0
174
     0
 93
        1
 44
50.0
173
     0
291
     1
 45
0.0
1001
ACAD
1000
AcDbSavedByObjectVersion
1070
     0
  0
VISUALSTYLE
  5
3A
102
{ACAD_XDICTIONARY
360
5B2
102
}
102
{ACAD_REACTORS
330
2A
102
}
330
2A
100
AcDbVisualStyle
  2
ColorChange
 70
    16
 71
     2
 72
     2
 73
     3
 90
        0
 40
-0.6
 41
-30.0
 62
     5
 63
     8
 74
     1
 91
        4
 64
     7
 65
   257
 75
     1
175
     1
 42
1.0
 92
        8
 66
     8
 43
1.0
 76
     1
 77
     6
 78
     2
 67
     7
 79
     5
170
     0
171
     0
290
     0
174
     0
 93
        1
 44
0.0
173
     0
291
     1
 45
0.0
1001
ACAD
1000
AcDbSavedByObjectVersion
1070
     0
  0
VISUALSTYLE
  5
34
102
{ACAD_XDICTIONARY
360
5A6
102
}
102
{ACAD_REACTORS
330
2A
102
}
330
2A
100
AcDbVisualStyle
  2
Conceptual
 70
     9
 71
     3
 72
     2
 73
     0
 90
        0
 40
-0.6
 41
-30.0
 62
     5
 63
     7
 74
     2
 91
        2
 64
     7
 65
   257
 75
     1
175
     1
 42
40.0
 92
        8
 66
     7
 43
1.0
 76
     1
 77
     6
 78
     2
 67
     7
 79
     3
170
     0
171
     0
290
     0
174
     0
 93
        1
 44
0.0
173
     0
291
     0
 45
0.0
1001
ACAD
1000
AcDbSavedByObjectVersion
1070
     0
  0
VISUALSTYLE
  5
35
102
{ACAD_XDICTIONARY
360
5A8
102
}
102
{ACAD_REACTORS
330
2A
102
}
330
2A
100
AcDbVisualStyle
  2
Dim
 70
    11
 71
     2
 72
     2
 73
     0
 90
        0
 40
-0.6
 41
-30.0
 62
     5
 63
     7
 74
     1
 91
        4
 64
     7
 65
   257
 75
     1
175
     1
 42
1.0
 92
        8
 66
     7
 43
1.0
 76
     1
 77
     6
 78
     2
 67
     7
 79
     5
170
     0
171
     0
290
     0
174
     0
 93
        1
 44
-50.0
173
     0
291
     1
 45
0.0
1001
ACAD
1000
AcDbSavedByObjectVersion
1070
     0
  0
VISUALSTYLE
  5
242
102
{ACAD_XDICTIONARY
360
5D1
102
}
102
{ACAD_REACTORS
330
2A
102
}
330
2A
100
AcDbVisualStyle
  2
EdgeColorOff
 70
    22
 71
     2
 72
     2
 73
     0
 90
        0
 40
-0.6
 41
-30.0
 62
     5
 63
     7
 74
     1
 91
        4
 64
     7
 65
   257
 75
     1
175
     1
 42
1.0
 92
        8
 66
     7
 43
1.0
 76
     1
 77
     6
 78
     2
 67
     7
 79
     5
170
     0
171
     0
290
     0
174
     0
 93
        1
 44
0.0
173
     0
291
     1
 45
0.0
1001
ACAD
1000
AcDbSavedByObjectVersion
1070
     0
  0
VISUALSTYLE
  5
39
102
{ACAD_XDICTIONARY
360
5B0
102
}
102
{ACAD_REACTORS
330
2A
102
}
330
2A
100
AcDbVisualStyle
  2
Facepattern
 70
    15
 71
     2
 72
     2
 73
     0
 90
        0
 40
-0.6
 41
-30.0
 62
     5
 63
     7
 74
     1
 91
        4
 64
     7
 65
   257
 75
     1
175
     1
 42
1.0
 92
        8
 66
     7
 43
1.0
 76
     1
 77
     6
 78
     2
 67
     7
 79
     5
170
     0
171
     0
290
     0
174
     0
 93
        1
 44
0.0
173
     0
291
     1
 45
0.0
1001
ACAD
1000
AcDbSavedByObjectVersion
1070
     0
  0
VISUALSTYLE
  5
2B
102
{ACAD_XDICTIONARY
360
594
102
}
102
{ACAD_REACTORS
330
2A
102
}
330
2A
100
AcDbVisualStyle
  2
Flat
 70
     0
 71
     2
 72
     1
 73
     1
 90
        2
 40
-0.6
 41
30.0
 62
     5
 63
     7
 74
     0
 91
        4
 64
     7
 65
   257
 75
     1
175
     1
 42
1.0
 92
        8
 66
     7
 43
1.0
 76
     1
 77
     6
 78
     2
 67
     7
 79
     5
170
     0
171
     0
290
     0
174
     0
 93
       13
 44
0.0
173
     0
291
     1
 45
0.0
1001
ACAD
1000
AcDbSavedByObjectVersion
1070
     0
  0
VISUALSTYLE
  5
2C
102
{ACAD_XDICTIONARY
360
596
102
}
102
{ACAD_REACTORS
330
2A
102
}
330
2A
100
AcDbVisualStyle
  2
FlatWithEdges
 70
     1
 71
     2
 72
     1
 73
     1
 90
        2
 40
-0.6
 41
30.0
 62
     5
 63
     7
 74
     1
 91
        4
 64
     7
 65
   257
 75
     1
175
     1
 42
1.0
 92
        0
 66
   257
 43
1.0
 76
     1
 77
     6
 78
     2
 67
     7
 79
     5
170
     0
171
     0
290
     0
174
     0
 93
       13
 44
0.0
173
     0
291
     1
 45
0.0
1001
ACAD
1000
AcDbSavedByObjectVersion
1070
     0
  0
VISUALSTYLE
  5
2D
102
{ACAD_XDICTIONARY
360
598
102
}
102
{ACAD_REACTORS
330
2A
102
}
330
2A
100
AcDbVisualStyle
  2
Gouraud
 70
     2
 71
     2
 72
     2
 73
     1
 90
        2
 40
-0.6
 41
30.0
 62
     5
 63
     7
 74
     0
 91
        4
 64
     7
 65
   257
 75
     1
175
     1
 42
1.0
 92
        0
 66
     7
 43
1.0
 76
     1
 77
     6
 78
     2
 67
     7
 79
     5
170
     0
171
     0
290
     0
174
     0
 93
       13
 44
0.0
173
     0
291
     1
 45
0.0
1001
ACAD
1000
AcDbSavedByObjectVersion
1070
     0
  0
VISUALSTYLE
  5
2E
102
{ACAD_XDICTIONARY
360
59A
102
}
102
{ACAD_REACTORS
330
2A
102
}
330
2A
100
AcDbVisualStyle
  2
GouraudWithEdges
 70
     3
 71
     2
 72
     2
 73
     1
 90
        2
 40
-0.6
 41
30.0
 62
     5
 63
     7
 74
     1
 91
        4
 64
     7
 65
   257
 75
     1
175
     1
 42
1.0
 92
        0
 66
   257
 43
1.0
 76
     1
 77
     6
 78
     2
 67
     7
 79
     5
170
     0
171
     0
290
     0
174
     0
 93
       13
 44
0.0
173
     0
291
     1
 45
0.0
1001
ACAD
1000
AcDbSavedByObjectVersion
1070
     0
  0
VISUALSTYLE
  5
23A
102
{ACAD_XDICTIONARY
360
5C1
102
}
102
{ACAD_REACTORS
330
2A
102
}
330
2A
100
AcDbVisualStyle
  2
Hidden
 70
     6
 71
     1
 72
     2
 73
     2
 90
        0
 40
-0.6
 41
-30.0
 62
     5
 63
     7
 74
     2
 91
        2
 64
     7
 65
   257
 75
     2
175
     1
 42
40.0
 92
        0
 66
   257
 43
1.0
 76
     1
 77
     6
 78
     2
 67
     7
 79
     3
170
     0
171
     0
290
     0
174
     0
 93
        1
 44
0.0
173
     0
291
     0
 45
0.0
1001
ACAD
1000
AcDbSavedByObjectVersion
1070
     0
  0
VISUALSTYLE
  5
240
102
{ACAD_XDICTIONARY
360
5CD
102
}
102
{ACAD_REACTORS
330
2A
102
}
330
2A
100
AcDbVisualStyle
  2
JitterOff
 70
    20
 71
     2
 72
     2
 73
     0
 90
        0
 40
-0.6
 41
-30.0
 62
     5
 63
     7
 74
     1
 91
        4
 64
     7
 65
   257
 75
     1
175
     1
 42
1.0
 92
       10
 66
     7
 43
1.0
 76
     1
 77
     6
 78
     2
 67
     7
 79
     5
170
     0
171
     0
290
     0
174
     0
 93
        1
 44
0.0
173
     0
291
     1
 45
0.0
1001
ACAD
1000
AcDbSavedByObjectVersion
1070
     0
  0
VISUALSTYLE
  5
38
102
{ACAD_XDICTIONARY
360
5AE
102
}
102
{ACAD_REACTORS
330
2A
102
}
330
2A
100
AcDbVisualStyle
  2
Linepattern
 70
    14
 71
     2
 72
     2
 73
     0
 90
        0
 40
-0.6
 41
-30.0
 62
     5
 63
     7
 74
     1
 91
        4
 64
     7
 65
   257
 75
     7
175
     7
 42
1.0
 92
        8
 66
     7
 43
1.0
 76
     1
 77
     6
 78
     2
 67
     7
 79
     5
170
     0
171
     0
290
     0
174
     0
 93
        1
 44
0.0
173
     0
291
     1
 45
0.0
1001
ACAD
1000
AcDbSavedByObjectVersion
1070
     0
  0
VISUALSTYLE
  5
241
102
{ACAD_XDICTIONARY
360
5CF
102
}
102
{ACAD_REACTORS
330
2A
102
}
330
2A
100
AcDbVisualStyle
  2
OverhangOff
 70
    21
 71
     2
 72
     2
 73
     0
 90
        0
 40
-0.6
 41
-30.0
 62
     5
 63
     7
 74
     1
 91
        4
 64
     7
 65
   257
 75
     1
175
     1
 42
1.0
 92
        9
 66
     7
 43
1.0
 76
     1
 77
     6
 78
     2
 67
     7
 79
     5
170
     0
171
     0
290
     0
174
     0
 93
        1
 44
0.0
173
     0
291
     1
 45
0.0
1001
ACAD
1000
AcDbSavedByObjectVersion
1070
     0
  0
VISUALSTYLE
  5
33
102
{ACAD_XDICTIONARY
360
5A4
102
}
102
{ACAD_REACTORS
330
2A
102
}
330
2A
100
AcDbVisualStyle
  2
Realistic
 70
     8
 71
     2
 72
     2
 73
     0
 90
        0
 40
-0.6
 41
-30.0
 62
     5
 63
     7
 74
     1
 91
        0
 64
     7
 65
   257
 75
     1
175
     1
 42
1.0
 92
        8
 66
     8
 43
1.0
 76
     1
 77
     6
 78
     2
 67
     7
 79
     5
170
     0
171
     0
290
     0
174
     0
 93
       13
 44
0.0
173
     0
291
     0
 45
0.0
1001
ACAD
1000
AcDbSavedByObjectVersion
1070
     0
  0
VISUALSTYLE
  5
23F
102
{ACAD_XDICTIONARY
360
5CB
102
}
102
{ACAD_REACTORS
330
2A
102
}
330
2A
100
AcDbVisualStyle
  2
Shaded
 70
    27
 71
     2
 72
     2
 73
     1
 90
        2
 40
-0.6
 41
30.0
 62
     5
 63
     7
 74
     0
 91
        4
 64
     7
 65
   257
 75
     1
175
     1
 42
1.0
 92
        8
 66
   257
 43
1.0
 76
     1
 77
     6
 78
     2
 67
     8
 79
     3
170
     0
171
     0
290
     0
174
     0
 93
        5
 44
0.0
173
     0
291
     0
 45
0.0
1001
ACAD
1000
AcDbSavedByObjectVersion
1070
     0
  0
VISUALSTYLE
  5
23E
102
{ACAD_XDICTIONARY
360
5C9
102
}
102
{ACAD_REACTORS
330
2A
102
}
330
2A
100
AcDbVisualStyle
  2
Shaded with edges
 70
    26
 71
     2
 72
     2
 73
     1
 90
        2
 40
-0.6
 41
30.0
 62
     5
 63
     7
 74
     1
 91
       10
 64
     7
 65
   257
 75
     2
175
     1
 42
1.0
 92
        8
 66
   257
 43
1.0
 76
     1
 77
     6
 78
     2
 67
     7
 79
     3
170
     0
171
     0
290
     0
174
     0
 93
        5
 44
0.0
173
     0
291
     0
 45
0.0
1001
ACAD
1000
AcDbSavedByObjectVersion
1070
     0
  0
VISUALSTYLE
  5
23B
102
{ACAD_XDICTIONARY
360
5C3
102
}
102
{ACAD_REACTORS
330
2A
102
}
330
2A
100
AcDbVisualStyle
  2
Shades of Gray
 70
    23
 71
     2
 72
     2
 73
     3
 90
        0
 40
-0.6
 41
-30.0
 62
     5
 63
     7
 74
     2
 91
        2
 64
     7
 65
     7
 75
     1
175
     1
 42
40.0
 92
        8
 66
     7
 43
1.0
 76
     1
 77
     6
 78
     2
 67
     7
 79
     3
170
     0
171
     0
290
     0
174
     0
 93
        1
 44
0.0
173
     0
291
     0
 45
0.0
1001
ACAD
1000
AcDbSavedByObjectVersion
1070
     0
  0
VISUALSTYLE
  5
23C
102
{ACAD_XDICTIONARY
360
5C5
102
}
102
{ACAD_REACTORS
330
2A
102
}
330
2A
100
AcDbVisualStyle
  2
Sketchy
 70
    24
 71
     1
 72
     2
 73
     2
 90
        0
 40
-0.6
 41
-30.0
 62
     5
 63
     7
 74
     2
 91
        2
 64
     7
 65
     7
 75
     1
175
     1
 42
40.0
 92
       11
 66
     7
 43
1.0
 76
     1
 77
     6
 78
     2
 67
     7
 79
     6
170
     0
171
     0
290
     0
174
     0
 93
        1
 44
0.0
173
     0
291
     0
 45
0.0
1001
ACAD
1000
AcDbSavedByObjectVersion
1070
     0
  0
VISUALSTYLE
  5
37
102
{ACAD_XDICTIONARY
360
5AC
102
}
102
{ACAD_REACTORS
330
2A
102
}
330
2A
100
AcDbVisualStyle
  2
Thicken
 70
    13
 71
     2
 72
     2
 73
     0
 90
        0
 40
-0.6
 41
-30.0
 62
     5
 63
     7
 74
     1
 91
        4
 64
     7
 65
   257
 75
     1
175
     1
 42
1.0
 92
       12
 66
     7
 43
1.0
 76
     1
 77
     6
 78
     2
 67
     7
 79
     5
170
     0
171
     0
290
     0
174
     0
 93
        1
 44
0.0
173
     0
291
     1
 45
0.0
1001
ACAD
1000
AcDbSavedByObjectVersion
1070
     0
  0
VISUALSTYLE
  5
239
102
{ACAD_XDICTIONARY
360
5BF
102
}
102
{ACAD_REACTORS
330
2A
102
}
330
2A
100
AcDbVisualStyle
  2
Wireframe
 70
     5
 71
     0
 72
     2
 73
     0
 90
        0
 40
-0.6
 41
-30.0
 62
     5
 63
     7
 74
     1
 91
        4
 64
     7
 65
   257
 75
     1
175
     1
 42
1.0
 92
        0
 66
   257
 43
1.0
 76
     1
 77
     6
 78
     2
 67
     7
 79
     3
170
     0
171
     0
290
     0
174
     0
 93
        1
 44
0.0
173
     0
291
     0
 45
0.0
1001
ACAD
1000
AcDbSavedByObjectVersion
1070
     0
  0
VISUALSTYLE
  5
23D
102
{ACAD_XDICTIONARY
360
5C7
102
}
102
{ACAD_REACTORS
330
2A
102
}
330
2A
100
AcDbVisualStyle
  2
X-Ray
 70
    25
 71
     2
 72
     2
 73
     1
 90
        1
 40
0.5
 41
-30.0
 62
     5
 63
     7
 74
     1
 91
        0
 64
     7
 65
   257
 75
     1
175
     1
 42
1.0
 92
        8
 66
     7
 43
1.0
 76
     1
 77
     6
 78
     2
 67
     7
 79
     3
170
     0
171
     0
290
     0
174
     0
 93
       13
 44
0.0
173
     0
291
     0
 45
0.0
1001
ACAD
1000
AcDbSavedByObjectVersion
1070
     0
  0
DICTIONARYVAR
  5
214
102
{ACAD_REACTORS
330
213
102
}
330
213
100
DictionaryVariables
280
     0
  1
1:1
  0
DICTIONARYVAR
  5
2F1
102
{ACAD_REACTORS
330
213
102
}
330
213
100
DictionaryVariables
280
     0
  1
STANDARD
  0
DICTIONARYVAR
  5
2F0
102
{ACAD_REACTORS
330
213
102
}
330
213
100
DictionaryVariables
280
     0
  1
STANDARD
  0
DICTIONARYVAR
  5
2F2
102
{ACAD_REACTORS
330
213
102
}
330
213
100
DictionaryVariables
280
     0
  1
Imperial24
  0
DICTIONARYVAR
  5
2F3
102
{ACAD_REACTORS
330
213
102
}
330
213
100
DictionaryVariables
280
     0
  1
Imperial24
  0
DICTIONARYVAR
  5
57F
102
{ACAD_REACTORS
330
213
102
}
330
213
100
DictionaryVariables
280
     0
  1
2
  0
DICTIONARYVAR
  5
57D
102
{ACAD_REACTORS
330
213
102
}
330
213
100
DictionaryVariables
280
     0
  1
2
  0
DICTIONARYVAR
  5
57B
102
{ACAD_REACTORS
330
213
102
}
330
213
100
DictionaryVariables
280
     0
  1
1
  0
DICTIONARYVAR
  5
2B3
102
{ACAD_REACTORS
330
213
102
}
330
213
100
DictionaryVariables
280
     0
  1
RGB:223,223,223
  0
DICTIONARYVAR
  5
57A
102
{ACAD_REACTORS
330
213
102
}
330
213
100
DictionaryVariables
280
     0
  1
0
  0
DICTIONARYVAR
  5
2F4
102
{ACAD_REACTORS
330
213
102
}
330
213
100
DictionaryVariables
280
     0
  1
1
  0
DICTIONARYVAR
  5
2F5
102
{ACAD_REACTORS
330
213
102
}
330
213
100
DictionaryVariables
280
     0
  1
15
  0
DICTIONARYVAR
  5
578
102
{ACAD_REACTORS
330
213
102
}
330
213
100
DictionaryVariables
280
     0
  1
2
  0
DICTIONARYVAR
  5
577
102
{ACAD_REACTORS
330
213
102
}
330
213
100
DictionaryVariables
280
     0
  1
1
  0
DICTIONARYVAR
  5
57E
102
{ACAD_REACTORS
330
213
102
}
330
213
100
DictionaryVariables
280
     0
  1
1
  0
DICTIONARYVAR
  5
579
102
{ACAD_REACTORS
330
213
102
}
330
213
100
DictionaryVariables
280
     0
  1
127
  0
DICTIONARYVAR
  5
57C
102
{ACAD_REACTORS
330
213
102
}
330
213
100
DictionaryVariables
280
     0
  1
0
  0
DICTIONARY
  5
58D
102
{ACAD_REACTORS
330
58B
102
}
330
58B
100
AcDbDictionary
281
     1
  0
DICTIONARY
  5
58C
102
{ACAD_REACTORS
330
58B
102
}
330
58B
100
AcDbDictionary
281
     1
  3
8796087826144
350
586
  3
8796087826160
350
587
  3
8796087826176
350
588
  3
8796087826192
350
589
  3
8796087826208
350
58A
  0
XRECORD
  5
212
102
{ACAD_REACTORS
330
211
102
}
330
211
100
AcDbXrecord
280
     1
1000
This DWG file was created in ArchiCAD(TM)®
  0
ACDBASSOCNETWORK
  5
47C
102
{ACAD_REACTORS
330
47B
102
}
330
47B
100
AcDbAssocAction
 90
        1
 90
        0
330
47E
360
0
 90
        1
 90
        0
 90
        0
100
AcDbAssocNetwork
 90
        0
 90
        1
 90
        1
360
47F
 90
        0
  0
XRECORD
  5
5DD
102
{ACAD_REACTORS
330
5DC
102
}
330
5DC
100
AcDbXrecord
280
     1
1070
     0
1070
     1
1070
     1
  0
SPATIAL_FILTER
  5
4E0
102
{ACAD_REACTORS
330
4DF
102
}
330
4DF
100
AcDbFilter
100
AcDbSpatialFilter
 70
     6
 10
9639.702647805993
 20
709.6138027505514
 10
9639.702647805993
 20
761.4477891971644
 10
9564.702647805992
 20
761.4477891971644
 10
9564.702647805992
 20
574.5437987944783
 10
9639.570768217684
 20
574.5437987944783
 10
9639.570768217684
 20
702.2024559510796
210
0.0
220
0.0
230
1.0
 11
0.0
 21
0.0
 31
0.0
 71
     1
 72
     0
 73
     0
 40
1.0
 40
0.0
 40
0.0
 40
-9564.702647805992
 40
0.0
 40
1.0
 40
0.0
 40
-584.927204970719
 40
0.0
 40
0.0
 40
1.0
 40
0.0
 40
1.0
 40
0.0
 40
0.0
 40
0.0
 40
0.0
 40
1.0
 40
0.0
 40
0.0
 40
0.0
 40
0.0
 40
1.0
 40
0.0
  0
SPATIAL_FILTER
  5
4E3
102
{ACAD_REACTORS
330
4E2
102
}
330
4E2
100
AcDbFilter
100
AcDbSpatialFilter
 70
     6
 10
9639.702647805993
 20
709.6138027505514
 10
9639.702647805993
 20
761.4477891971644
 10
9564.702647805992
 20
761.4477891971644
 10
9564.702647805992
 20
574.5437987944783
 10
9639.570768217684
 20
574.5437987944783
 10
9639.570768217684
 20
702.2024559510796
210
0.0
220
0.0
230
1.0
 11
0.0
 21
0.0
 31
0.0
 71
     1
 72
     0
 73
     0
 40
1.0
 40
0.0
 40
0.0
 40
-9593.984734242489
 40
0.0
 40
1.0
 40
0.0
 40
-584.927204970719
 40
0.0
 40
0.0
 40
1.0
 40
0.0
 40
1.0
 40
0.0
 40
0.0
 40
0.0
 40
0.0
 40
1.0
 40
0.0
 40
0.0
 40
0.0
 40
0.0
 40
1.0
 40
0.0
  0
SPATIAL_FILTER
  5
4E6
102
{ACAD_REACTORS
330
4E5
102
}
330
4E5
100
AcDbFilter
100
AcDbSpatialFilter
 70
     6
 10
9639.702647805993
 20
709.6138027505514
 10
9639.702647805993
 20
761.4477891971644
 10
9564.702647805992
 20
761.4477891971644
 10
9564.702647805992
 20
574.5437987944783
 10
9639.570768217684
 20
574.5437987944783
 10
9639.570768217684
 20
702.2024559510796
210
0.0
220
0.0
230
1.0
 11
0.0
 21
0.0
 31
0.0
 71
     1
 72
     0
 73
     0
 40
1.0
 40
0.0
 40
0.0
 40
-9623.266820678987
 40
0.0
 40
1.0
 40
0.0
 40
-584.927204970719
 40
0.0
 40
0.0
 40
1.0
 40
0.0
 40
1.0
 40
0.0
 40
0.0
 40
0.0
 40
0.0
 40
1.0
 40
0.0
 40
0.0
 40
0.0
 40
0.0
 40
1.0
 40
0.0
  0
SPATIAL_FILTER
  5
4E9
102
{ACAD_REACTORS
330
4E8
102
}
330
4E8
100
AcDbFilter
100
AcDbSpatialFilter
 70
     6
 10
9639.702647805993
 20
709.6138027505514
 10
9639.702647805993
 20
761.4477891971644
 10
9564.702647805992
 20
761.4477891971644
 10
9564.702647805992
 20
574.5437987944783
 10
9639.570768217684
 20
574.5437987944783
 10
9639.570768217684
 20
702.2024559510796
210
0.0
220
0.0
230
1.0
 11
0.0
 21
0.0
 31
0.0
 71
     1
 72
     0
 73
     0
 40
1.0
 40
0.0
 40
0.0
 40
-9564.702647805992
 40
0.0
 40
1.0
 40
0.0
 40
-614.3473023417932
 40
0.0
 40
0.0
 40
1.0
 40
0.0
 40
1.0
 40
0.0
 40
0.0
 40
0.0
 40
0.0
 40
1.0
 40
0.0
 40
0.0
 40
0.0
 40
0.0
 40
1.0
 40
0.0
  0
SPATIAL_FILTER
  5
4EC
102
{ACAD_REACTORS
330
4EB
102
}
330
4EB
100
AcDbFilter
100
AcDbSpatialFilter
 70
     6
 10
9639.702647805993
 20
709.6138027505514
 10
9639.702647805993
 20
761.4477891971644
 10
9564.702647805992
 20
761.4477891971644
 10
9564.702647805992
 20
574.5437987944783
 10
9639.570768217684
 20
574.5437987944783
 10
9639.570768217684
 20
702.2024559510796
210
0.0
220
0.0
230
1.0
 11
0.0
 21
0.0
 31
0.0
 71
     1
 72
     0
 73
     0
 40
1.0
 40
0.0
 40
0.0
 40
-9623.266820678987
 40
0.0
 40
1.0
 40
0.0
 40
-614.3473023417932
 40
0.0
 40
0.0
 40
1.0
 40
0.0
 40
1.0
 40
0.0
 40
0.0
 40
0.0
 40
0.0
 40
1.0
 40
0.0
 40
0.0
 40
0.0
 40
0.0
 40
1.0
 40
0.0
  0
SPATIAL_FILTER
  5
4EF
102
{ACAD_REACTORS
330
4EE
102
}
330
4EE
100
AcDbFilter
100
AcDbSpatialFilter
 70
     6
 10
9639.702647805993
 20
709.6138027505514
 10
9639.702647805993
 20
761.4477891971644
 10
9564.702647805992
 20
761.4477891971644
 10
9564.702647805992
 20
574.5437987944783
 10
9639.570768217684
 20
574.5437987944783
 10
9639.570768217684
 20
702.2024559510796
210
0.0
220
0.0
230
1.0
 11
0.0
 21
0.0
 31
0.0
 71
     1
 72
     0
 73
     0
 40
1.0
 40
0.0
 40
0.0
 40
-9564.702647805992
 40
0.0
 40
1.0
 40
0.0
 40
-643.7673997128674
 40
0.0
 40
0.0
 40
1.0
 40
0.0
 40
1.0
 40
0.0
 40
0.0
 40
0.0
 40
0.0
 40
1.0
 40
0.0
 40
0.0
 40
0.0
 40
0.0
 40
1.0
 40
0.0
  0
SPATIAL_FILTER
  5
4F2
102
{ACAD_REACTORS
330
4F1
102
}
330
4F1
100
AcDbFilter
100
AcDbSpatialFilter
 70
     6
 10
9639.702647805993
 20
709.6138027505514
 10
9639.702647805993
 20
761.4477891971644
 10
9564.702647805992
 20
761.4477891971644
 10
9564.702647805992
 20
574.5437987944783
 10
9639.570768217684
 20
574.5437987944783
 10
9639.570768217684
 20
702.2024559510796
210
0.0
220
0.0
230
1.0
 11
0.0
 21
0.0
 31
0.0
 71
     1
 72
     0
 73
     0
 40
1.0
 40
0.0
 40
0.0
 40
-9623.266820678987
 40
0.0
 40
1.0
 40
0.0
 40
-643.7673997128674
 40
0.0
 40
0.0
 40
1.0
 40
0.0
 40
1.0
 40
0.0
 40
0.0
 40
0.0
 40
0.0
 40
1.0
 40
0.0
 40
0.0
 40
0.0
 40
0.0
 40
1.0
 40
0.0
  0
SPATIAL_FILTER
  5
4F5
102
{ACAD_REACTORS
330
4F4
102
}
330
4F4
100
AcDbFilter
100
AcDbSpatialFilter
 70
     6
 10
9639.702647805993
 20
709.6138027505514
 10
9639.702647805993
 20
761.4477891971644
 10
9564.702647805992
 20
761.4477891971644
 10
9564.702647805992
 20
574.5437987944783
 10
9639.570768217684
 20
574.5437987944783
 10
9639.570768217684
 20
702.2024559510796
210
0.0
220
0.0
230
1.0
 11
0.0
 21
0.0
 31
0.0
 71
     1
 72
     0
 73
     0
 40
1.0
 40
0.0
 40
0.0
 40
-9564.702647805992
 40
0.0
 40
1.0
 40
0.0
 40
-673.1874970839417
 40
0.0
 40
0.0
 40
1.0
 40
0.0
 40
1.0
 40
0.0
 40
0.0
 40
0.0
 40
0.0
 40
1.0
 40
0.0
 40
0.0
 40
0.0
 40
0.0
 40
1.0
 40
0.0
  0
SPATIAL_FILTER
  5
4F8
102
{ACAD_REACTORS
330
4F7
102
}
330
4F7
100
AcDbFilter
100
AcDbSpatialFilter
 70
     6
 10
9639.702647805993
 20
709.6138027505514
 10
9639.702647805993
 20
761.4477891971644
 10
9564.702647805992
 20
761.4477891971644
 10
9564.702647805992
 20
574.5437987944783
 10
9639.570768217684
 20
574.5437987944783
 10
9639.570768217684
 20
702.2024559510796
210
0.0
220
0.0
230
1.0
 11
0.0
 21
0.0
 31
0.0
 71
     1
 72
     0
 73
     0
 40
1.0
 40
0.0
 40
0.0
 40
-9623.266820678987
 40
0.0
 40
1.0
 40
0.0
 40
-673.1874970839417
 40
0.0
 40
0.0
 40
1.0
 40
0.0
 40
1.0
 40
0.0
 40
0.0
 40
0.0
 40
0.0
 40
1.0
 40
0.0
 40
0.0
 40
0.0
 40
0.0
 40
1.0
 40
0.0
  0
SPATIAL_FILTER
  5
4FB
102
{ACAD_REACTORS
330
4FA
102
}
330
4FA
100
AcDbFilter
100
AcDbSpatialFilter
 70
     6
 10
9639.702647805993
 20
709.6138027505514
 10
9639.702647805993
 20
761.4477891971644
 10
9564.702647805992
 20
761.4477891971644
 10
9564.702647805992
 20
574.5437987944783
 10
9639.570768217684
 20
574.5437987944783
 10
9639.570768217684
 20
702.2024559510796
210
0.0
220
0.0
230
1.0
 11
0.0
 21
0.0
 31
0.0
 71
     1
 72
     0
 73
     0
 40
1.0
 40
0.0
 40
0.0
 40
-9564.702647805992
 40
0.0
 40
1.0
 40
0.0
 40
-702.6075944550159
 40
0.0
 40
0.0
 40
1.0
 40
0.0
 40
1.0
 40
0.0
 40
0.0
 40
0.0
 40
0.0
 40
1.0
 40
0.0
 40
0.0
 40
0.0
 40
0.0
 40
1.0
 40
0.0
  0
SPATIAL_FILTER
  5
4FE
102
{ACAD_REACTORS
330
4FD
102
}
330
4FD
100
AcDbFilter
100
AcDbSpatialFilter
 70
     6
 10
9639.702647805993
 20
709.6138027505514
 10
9639.702647805993
 20
761.4477891971644
 10
9564.702647805992
 20
761.4477891971644
 10
9564.702647805992
 20
574.5437987944783
 10
9639.570768217684
 20
574.5437987944783
 10
9639.570768217684
 20
702.2024559510796
210
0.0
220
0.0
230
1.0
 11
0.0
 21
0.0
 31
0.0
 71
     1
 72
     0
 73
     0
 40
1.0
 40
0.0
 40
0.0
 40
-9623.266820678987
 40
0.0
 40
1.0
 40
0.0
 40
-702.6075944550159
 40
0.0
 40
0.0
 40
1.0
 40
0.0
 40
1.0
 40
0.0
 40
0.0
 40
0.0
 40
0.0
 40
1.0
 40
0.0
 40
0.0
 40
0.0
 40
0.0
 40
1.0
 40
0.0
  0
SPATIAL_FILTER
  5
501
102
{ACAD_REACTORS
330
500
102
}
330
500
100
AcDbFilter
100
AcDbSpatialFilter
 70
     6
 10
9639.702647805993
 20
709.6138027505514
 10
9639.702647805993
 20
761.4477891971644
 10
9564.702647805992
 20
761.4477891971644
 10
9564.702647805992
 20
574.5437987944783
 10
9639.570768217684
 20
574.5437987944783
 10
9639.570768217684
 20
702.2024559510796
210
0.0
220
0.0
230
1.0
 11
0.0
 21
0.0
 31
0.0
 71
     1
 72
     0
 73
     0
 40
1.0
 40
0.0
 40
0.0
 40
-9564.702647805992
 40
0.0
 40
1.0
 40
0.0
 40
-732.0276918260901
 40
0.0
 40
0.0
 40
1.0
 40
0.0
 40
1.0
 40
0.0
 40
0.0
 40
0.0
 40
0.0
 40
1.0
 40
0.0
 40
0.0
 40
0.0
 40
0.0
 40
1.0
 40
0.0
  0
SPATIAL_FILTER
  5
504
102
{ACAD_REACTORS
330
503
102
}
330
503
100
AcDbFilter
100
AcDbSpatialFilter
 70
     6
 10
9639.702647805993
 20
709.6138027505514
 10
9639.702647805993
 20
761.4477891971644
 10
9564.702647805992
 20
761.4477891971644
 10
9564.702647805992
 20
574.5437987944783
 10
9639.570768217684
 20
574.5437987944783
 10
9639.570768217684
 20
702.2024559510796
210
0.0
220
0.0
230
1.0
 11
0.0
 21
0.0
 31
0.0
 71
     1
 72
     0
 73
     0
 40
1.0
 40
0.0
 40
0.0
 40
-9623.266820678987
 40
0.0
 40
1.0
 40
0.0
 40
-732.0276918260901
 40
0.0
 40
0.0
 40
1.0
 40
0.0
 40
1.0
 40
0.0
 40
0.0
 40
0.0
 40
0.0
 40
1.0
 40
0.0
 40
0.0
 40
0.0
 40
0.0
 40
1.0
 40
0.0
  0
SPATIAL_FILTER
  5
507
102
{ACAD_REACTORS
330
506
102
}
330
506
100
AcDbFilter
100
AcDbSpatialFilter
 70
     6
 10
9639.702647805993
 20
709.6138027505514
 10
9639.702647805993
 20
761.4477891971644
 10
9564.702647805992
 20
761.4477891971644
 10
9564.702647805992
 20
574.5437987944783
 10
9639.570768217684
 20
574.5437987944783
 10
9639.570768217684
 20
702.2024559510796
210
0.0
220
0.0
230
1.0
 11
0.0
 21
0.0
 31
0.0
 71
     1
 72
     0
 73
     0
 40
1.0
 40
0.0
 40
0.0
 40
-9564.702647805992
 40
0.0
 40
1.0
 40
0.0
 40
-761.4477891971644
 40
0.0
 40
0.0
 40
1.0
 40
0.0
 40
1.0
 40
0.0
 40
0.0
 40
0.0
 40
0.0
 40
1.0
 40
0.0
 40
0.0
 40
0.0
 40
0.0
 40
1.0
 40
0.0
  0
SPATIAL_FILTER
  5
50A
102
{ACAD_REACTORS
330
509
102
}
330
509
100
AcDbFilter
100
AcDbSpatialFilter
 70
     6
 10
9639.702647805993
 20
709.6138027505514
 10
9639.702647805993
 20
761.4477891971644
 10
9564.702647805992
 20
761.4477891971644
 10
9564.702647805992
 20
574.5437987944783
 10
9639.570768217684
 20
574.5437987944783
 10
9639.570768217684
 20
702.2024559510796
210
0.0
220
0.0
230
1.0
 11
0.0
 21
0.0
 31
0.0
 71
     1
 72
     0
 73
     0
 40
1.0
 40
0.0
 40
0.0
 40
-9593.984734242489
 40
0.0
 40
1.0
 40
0.0
 40
-761.4477891971644
 40
0.0
 40
0.0
 40
1.0
 40
0.0
 40
1.0
 40
0.0
 40
0.0
 40
0.0
 40
0.0
 40
1.0
 40
0.0
 40
0.0
 40
0.0
 40
0.0
 40
1.0
 40
0.0
  0
SPATIAL_FILTER
  5
50D
102
{ACAD_REACTORS
330
50C
102
}
330
50C
100
AcDbFilter
100
AcDbSpatialFilter
 70
     6
 10
9639.702647805993
 20
709.6138027505514
 10
9639.702647805993
 20
761.4477891971644
 10
9564.702647805992
 20
761.4477891971644
 10
9564.702647805992
 20
574.5437987944783
 10
9639.570768217684
 20
574.5437987944783
 10
9639.570768217684
 20
702.2024559510796
210
0.0
220
0.0
230
1.0
 11
0.0
 21
0.0
 31
0.0
 71
     1
 72
     0
 73
     0
 40
1.0
 40
0.0
 40
0.0
 40
-9623.266820678987
 40
0.0
 40
1.0
 40
0.0
 40
-761.4477891971644
 40
0.0
 40
0.0
 40
1.0
 40
0.0
 40
1.0
 40
0.0
 40
0.0
 40
0.0
 40
0.0
 40
1.0
 40
0.0
 40
0.0
 40
0.0
 40
0.0
 40
1.0
 40
0.0
  0
DICTIONARY
  5
2ED
330
249
100
AcDbDictionary
280
     1
281
     1
  3
ACAD_XREC_ROUNDTRIP
360
5D8
  0
DICTIONARY
  5
51B
330
46C
100
AcDbDictionary
280
     1
281
     1
  3
ACAD_XREC_ROUNDTRIP
360
5DF
  0
DICTIONARY
  5
58E
330
1E
100
AcDbDictionary
280
     1
281
     1
  3
ACAD_XREC_ROUNDTRIP
360
58F
  0
DICTIONARY
  5
592
330
26
100
AcDbDictionary
280
     1
281
     1
  3
ACAD_XREC_ROUNDTRIP
360
593
  0
DICTIONARY
  5
590
330
22
100
AcDbDictionary
280
     1
281
     1
  3
ACAD_XREC_ROUNDTRIP
360
591
  0
DICTIONARY
  5
5B6
330
3D
100
AcDbDictionary
280
     1
281
     1
  3
ACAD_XREC_ROUNDTRIP
360
5B7
  0
DICTIONARY
  5
5B4
330
3C
100
AcDbDictionary
280
     1
281
     1
  3
ACAD_XREC_ROUNDTRIP
360
5B5
  0
DICTIONARY
  5
5B8
330
3E
100
AcDbDictionary
280
     1
281
     1
  3
ACAD_XREC_ROUNDTRIP
360
5B9
  0
DICTIONARY
  5
5D5
330
245
100
AcDbDictionary
280
     1
281
     1
  3
ACAD_XREC_ROUNDTRIP
360
5D6
  0
DICTIONARY
  5
2EB
330
247
100
AcDbDictionary
280
     1
281
     1
  3
ACAD_XREC_ROUNDTRIP
360
5D7
  0
DICTIONARY
  5
519
330
46B
100
AcDbDictionary
280
     1
281
     1
  3
ACAD_XREC_ROUNDTRIP
360
5DE
  0
DICTIONARY
  5
580
330
244
100
AcDbDictionary
280
     1
281
     1
  3
ACAD_ROUNDTRIP_2008_TABLESTYLE_CELLSTYLEMAP
360
581
  3
ACAD_XREC_ROUNDTRIP
360
5D3
  0
DICTIONARY
  5
59C
330
2F
100
AcDbDictionary
280
     1
281
     1
  3
ACAD_XREC_ROUNDTRIP
360
59D
  0
DICTIONARY
  5
5A0
330
31
100
AcDbDictionary
280
     1
281
     1
  3
ACAD_XREC_ROUNDTRIP
360
5A1
  0
DICTIONARY
  5
59E
330
30
100
AcDbDictionary
280
     1
281
     1
  3
ACAD_XREC_ROUNDTRIP
360
59F
  0
DICTIONARY
  5
5A2
330
32
100
AcDbDictionary
280
     1
281
     1
  3
ACAD_XREC_ROUNDTRIP
360
5A3
  0
DICTIONARY
  5
5AA
330
36
100
AcDbDictionary
280
     1
281
     1
  3
ACAD_XREC_ROUNDTRIP
360
5AB
  0
DICTIONARY
  5
5B2
330
3A
100
AcDbDictionary
280
     1
281
     1
  3
ACAD_XREC_ROUNDTRIP
360
5B3
  0
DICTIONARY
  5
5A6
330
34
100
AcDbDictionary
280
     1
281
     1
  3
ACAD_XREC_ROUNDTRIP
360
5A7
  0
DICTIONARY
  5
5A8
330
35
100
AcDbDictionary
280
     1
281
     1
  3
ACAD_XREC_ROUNDTRIP
360
5A9
  0
DICTIONARY
  5
5D1
330
242
100
AcDbDictionary
280
     1
281
     1
  3
ACAD_XREC_ROUNDTRIP
360
5D2
  0
DICTIONARY
  5
5B0
330
39
100
AcDbDictionary
280
     1
281
     1
  3
ACAD_XREC_ROUNDTRIP
360
5B1
  0
DICTIONARY
  5
594
330
2B
100
AcDbDictionary
280
     1
281
     1
  3
ACAD_XREC_ROUNDTRIP
360
595
  0
DICTIONARY
  5
596
330
2C
100
AcDbDictionary
280
     1
281
     1
  3
ACAD_XREC_ROUNDTRIP
360
597
  0
DICTIONARY
  5
598
330
2D
100
AcDbDictionary
280
     1
281
     1
  3
ACAD_XREC_ROUNDTRIP
360
599
  0
DICTIONARY
  5
59A
330
2E
100
AcDbDictionary
280
     1
281
     1
  3
ACAD_XREC_ROUNDTRIP
360
59B
  0
DICTIONARY
  5
5C1
330
23A
100
AcDbDictionary
280
     1
281
     1
  3
ACAD_XREC_ROUNDTRIP
360
5C2
  0
DICTIONARY
  5
5CD
330
240
100
AcDbDictionary
280
     1
281
     1
  3
ACAD_XREC_ROUNDTRIP
360
5CE
  0
DICTIONARY
  5
5AE
330
38
100
AcDbDictionary
280
     1
281
     1
  3
ACAD_XREC_ROUNDTRIP
360
5AF
  0
DICTIONARY
  5
5CF
330
241
100
AcDbDictionary
280
     1
281
     1
  3
ACAD_XREC_ROUNDTRIP
360
5D0
  0
DICTIONARY
  5
5A4
330
33
100
AcDbDictionary
280
     1
281
     1
  3
ACAD_XREC_ROUNDTRIP
360
5A5
  0
DICTIONARY
  5
5CB
330
23F
100
AcDbDictionary
280
     1
281
     1
  3
ACAD_XREC_ROUNDTRIP
360
5CC
  0
DICTIONARY
  5
5C9
330
23E
100
AcDbDictionary
280
     1
281
     1
  3
ACAD_XREC_ROUNDTRIP
360
5CA
  0
DICTIONARY
  5
5C3
330
23B
100
AcDbDictionary
280
     1
281
     1
  3
ACAD_XREC_ROUNDTRIP
360
5C4
  0
DICTIONARY
  5
5C5
330
23C
100
AcDbDictionary
280
     1
281
     1
  3
ACAD_XREC_ROUNDTRIP
360
5C6
  0
DICTIONARY
  5
5AC
330
37
100
AcDbDictionary
280
     1
281
     1
  3
ACAD_XREC_ROUNDTRIP
360
5AD
  0
DICTIONARY
  5
5BF
330
239
100
AcDbDictionary
280
     1
281
     1
  3
ACAD_XREC_ROUNDTRIP
360
5C0
  0
DICTIONARY
  5
5C7
330
23D
100
AcDbDictionary
280
     1
281
     1
  3
ACAD_XREC_ROUNDTRIP
360
5C8
  0
XRECORD
  5
586
102
{ACAD_REACTORS
330
58C
102
}
330
58C
100
AcDbXrecord
280
     1
  1
AcDb_Thumbnail_Schema
102
{ATTRRECORD
341
587
  2
AcDbDs::TreatedAsObjectData
280
     1
291
     1
102
ATTRRECORD}
102
{ATTRRECORD
341
588
  2
AcDbDs::Legacy
280
     1
291
     1
102
ATTRRECORD}
  2
AcDbDs::ID
280
    10
 91
        8
102
{ATTRRECORD
341
589
  2
AcDs:Indexable
280
     1
291
     1
102
ATTRRECORD}
102
{ATTRRECORD
341
58A
  2
AcDbDs::HandleAttribute
280
     7
282
     1
102
ATTRRECORD}
  2
Thumbnail_Data
280
    15
 91
        0
  0
XRECORD
  5
587
102
{ACAD_REACTORS
330
58C
102
}
330
58C
100
AcDbXrecord
280
     1
  1
AcDbDs::TreatedAsObjectDataSchema
  2
AcDbDs::TreatedAsObjectData
280
     1
 91
        0
  0
XRECORD
  5
588
102
{ACAD_REACTORS
330
58C
102
}
330
58C
100
AcDbXrecord
280
     1
  1
AcDbDs::LegacySchema
  2
AcDbDs::Legacy
280
     1
 91
        0
  0
XRECORD
  5
589
102
{ACAD_REACTORS
330
58C
102
}
330
58C
100
AcDbXrecord
280
     1
  1
AcDbDs::IndexedPropertySchema
  2
AcDs:Indexable
280
     1
 91
        0
  0
XRECORD
  5
58A
102
{ACAD_REACTORS
330
58C
102
}
330
58C
100
AcDbXrecord
280
     1
  1
AcDbDs::HandleAttributeSchema
  2
AcDbDs::HandleAttribute
280
     7
 91
        1
284
     1
  0
ACDBASSOC2DCONSTRAINTGROUP
  5
47F
330
47C
100
AcDbAssocAction
 90
        1
 90
        0
330
47C
360
0
 90
        1
 90
        6
 90
        0
 90
        2
 70
     0
 10
0.0
 20
0.0
 30
0.0
 10
1.0
 20
0.0
 30
0.0
 10
0.0
 20
1.0
 30
0.0
360
0
 90
        5
360
480
360
481
360
49A
360
49B
360
49C
 90
       40
 90
       31
  1
AcConstrainedBoundedLine
330
47F
 90
        1
 70
     1
 90
        2
 90
        3
 90
        5
330
480
 90
        0
 10
9810.090972862058
 20
1002.824580803222
 30
0.0
 10
-1.0
 20
0.0
 30
0.0
290
     0
 10
9810.090972862058
 20
1002.824580803222
 30
0.0
 11
9436.949245776075
 21
1002.824580803222
 31
0.0
  1
AcConstrainedImplicitPoint
330
47F
 90
        2
 70
     1
 90
        1
 90
        3
330
0
 90
        0
280
     0
 90
       -1
 90
        1
  1
AcPointCurveConstraint
330
47F
 90
        3
 70
     0
 90
        2
 90
        2
 90
        1
 90
        0
290
     1
290
     1
  1
AcConstrainedImplicitPoint
330
47F
 90
        4
 70
     1
 90
        2
 90
        5
 90
       11
330
0
 90
        0
280
     1
 90
       -1
 90
        1
  1
AcPointCurveConstraint
330
47F
 90
        5
 70
     0
 90
        2
 90
        4
 90
        1
 90
        0
290
     1
290
     1
  1
AcConstrainedBoundedLine
330
47F
 90
        6
 70
     1
 90
        2
 90
        8
 90
       10
330
481
 90
        0
 10
9436.949245776075
 20
462.7749651644262
 30
0.0
 10
0.0
 20
1.0
 30
0.0
290
     0
 10
9436.949245776075
 20
462.7749651644262
 30
0.0
 11
9436.949245776075
 21
1002.824580803222
 31
0.0
  1
AcConstrainedImplicitPoint
330
47F
 90
        7
 70
     1
 90
        1
 90
        8
330
0
 90
        0
280
     0
 90
       -1
 90
        6
  1
AcPointCurveConstraint
330
47F
 90
        8
 70
     0
 90
        2
 90
        7
 90
        6
 90
        0
290
     1
290
     1
  1
AcConstrainedImplicitPoint
330
47F
 90
        9
 70
     1
 90
        2
 90
       10
 90
       11
330
0
 90
        0
280
     1
 90
       -1
 90
        6
  1
AcPointCurveConstraint
330
47F
 90
       10
 70
     0
 90
        2
 90
        9
 90
        6
 90
        0
290
     1
290
     1
  1
AcPointCoincidenceConstraint
330
47F
 90
       11
 70
     0
 90
        2
 90
        4
 90
        9
 90
        0
290
     0
290
     1
  1
AcConstrainedBoundedLine
330
47F
 90
       20
 70
     1
 90
        3
 90
       22
 90
       24
 90
       33
330
49A
 90
        0
 10
9564.702647805992
 20
761.4477891971644
 30
0.0
 10
0.0
 20
-1.0
 30
0.0
290
     0
 10
9564.702647805992
 20
761.4477891971644
 30
0.0
 11
9564.702647805992
 21
574.5437987944783
 31
0.0
  1
AcConstrainedImplicitPoint
330
47F
 90
       21
 70
     1
 90
        2
 90
       22
 90
       30
330
0
 90
        0
280
     0
 90
       -1
 90
       20
  1
AcPointCurveConstraint
330
47F
 90
       22
 70
     0
 90
        2
 90
       21
 90
       20
 90
        0
290
     1
290
     1
  1
AcConstrainedImplicitPoint
330
47F
 90
       23
 70
     1
 90
        1
 90
       24
330
0
 90
        0
280
     1
 90
       -1
 90
       20
  1
AcPointCurveConstraint
330
47F
 90
       24
 70
     0
 90
        2
 90
       23
 90
       20
 90
        0
290
     1
290
     1
  1
AcConstrainedBoundedLine
330
47F
 90
       25
 70
     1
 90
        2
 90
       27
 90
       29
330
49B
 90
        0
 10
9639.702647805993
 20
761.4477891971644
 30
0.0
 10
-1.0
 20
0.0
 30
0.0
290
     0
 10
9639.702647805993
 20
761.4477891971644
 30
0.0
 11
9564.702647805992
 21
761.4477891971644
 31
0.0
  1
AcConstrainedImplicitPoint
330
47F
 90
       26
 70
     1
 90
        1
 90
       27
330
0
 90
        0
280
     0
 90
       -1
 90
       25
  1
AcPointCurveConstraint
330
47F
 90
       27
 70
     0
 90
        2
 90
       26
 90
       25
 90
        0
290
     1
290
     1
  1
AcConstrainedImplicitPoint
330
47F
 90
       28
 70
     1
 90
        2
 90
       29
 90
       30
330
0
 90
        0
280
     1
 90
       -1
 90
       25
  1
AcPointCurveConstraint
330
47F
 90
       29
 70
     0
 90
        2
 90
       28
 90
       25
 90
        0
290
     1
290
     1
  1
AcPointCoincidenceConstraint
330
47F
 90
       30
 70
     0
 90
        2
 90
       21
 90
       28
 90
        0
290
     0
290
     1
  1
AcConstrainedDatumLine
330
47F
 90
       32
 70
     0
 90
        0
330
0
 90
        0
 10
0.0
 20
0.0
 30
0.0
 10
0.0
 20
1.0
 30
0.0
  1
AcVerticalConstraint
330
47F
 90
       33
 70
     0
 90
        1
 90
       20
 90
        0
290
     0
290
     1
 90
       32
  1
AcConstrainedBoundedLine
330
47F
 90
       34
 70
     1
 90
        3
 90
       36
 90
       38
 90
       40
330
49C
 90
        0
 10
9516.029563467254
 20
574.5437987944783
 30
0.0
 10
-1.0
 20
0.0
 30
0.0
290
     0
 10
9516.029563467254
 20
574.5437987944783
 30
0.0
 11
9439.793339079136
 21
574.5437987944783
 31
0.0
  1
AcConstrainedImplicitPoint
330
47F
 90
       35
 70
     1
 90
        1
 90
       36
330
0
 90
        0
280
     0
 90
       -1
 90
       34
  1
AcPointCurveConstraint
330
47F
 90
       36
 70
     0
 90
        2
 90
       35
 90
       34
 90
        0
290
     1
290
     1
  1
AcConstrainedImplicitPoint
330
47F
 90
       37
 70
     1
 90
        1
 90
       38
330
0
 90
        0
280
     1
 90
       -1
 90
       34
  1
AcPointCurveConstraint
330
47F
 90
       38
 70
     0
 90
        2
 90
       37
 90
       34
 90
        0
290
     1
290
     1
  1
AcConstrainedDatumLine
330
47F
 90
       39
 70
     0
 90
        0
330
0
 90
        0
 10
0.0
 20
0.0
 30
0.0
 10
1.0
 20
0.0
 30
0.0
  1
AcHorizontalConstraint
330
47F
 90
       40
 70
     0
 90
        1
 90
       34
 90
        0
290
     0
290
     1
 90
       39
  0
XRECORD
  5
5D8
102
{ACAD_REACTORS
330
2ED
102
}
330
2ED
100
AcDbXrecord
280
     1
102
DISPLAYNAME
  1
Imperial24
102
FLAGS
 90
        0
  0
XRECORD
  5
5DF
102
{ACAD_REACTORS
330
51B
102
}
330
51B
100
AcDbXrecord
280
     1
102
DISPLAYNAME
  1
Metric50
102
FLAGS
 90
        0
  0
XRECORD
  5
58F
102
{ACAD_REACTORS
330
58E
102
}
330
58E
100
AcDbXrecord
280
     1
102
SHADEPLOT
 70
     0
102
SHADEPLOTRESLEVEL
 70
     2
102
SHADEPLOTCUSTOMDPI
 70
   300
  0
XRECORD
  5
593
102
{ACAD_REACTORS
330
592
102
}
330
592
100
AcDbXrecord
280
     1
102
SHADEPLOT
 70
     0
102
SHADEPLOTRESLEVEL
 70
     2
102
SHADEPLOTCUSTOMDPI
 70
   300
  0
XRECORD
  5
591
102
{ACAD_REACTORS
330
590
102
}
330
590
100
AcDbXrecord
280
     1
102
SHADEPLOT
 70
     0
102
SHADEPLOTRESLEVEL
 70
     2
102
SHADEPLOTCUSTOMDPI
 70
   300
  0
XRECORD
  5
5B7
102
{ACAD_REACTORS
330
5B6
102
}
330
5B6
100
AcDbXrecord
280
     1
102
MATERIAL
148
0.0
149
0.0
149
0.0
 93
        0
 94
      127
282
     0
 72
     1
 77
     1
171
     1
175
     1
179
     1
273
     0
  0
XRECORD
  5
5B5
102
{ACAD_REACTORS
330
5B4
102
}
330
5B4
100
AcDbXrecord
280
     1
102
MATERIAL
148
0.0
149
0.0
149
0.0
 93
        0
 94
      127
282
     0
 72
     1
 77
     1
171
     1
175
     1
179
     1
273
     0
  0
XRECORD
  5
5B9
102
{ACAD_REACTORS
330
5B8
102
}
330
5B8
100
AcDbXrecord
280
     1
102
MATERIAL
148
0.0
149
0.0
149
0.0
 93
        0
 94
      127
282
     0
 72
     1
 77
     1
171
     1
175
     1
179
     1
273
     0
  0
XRECORD
  5
5D6
102
{ACAD_REACTORS
330
5D5
102
}
330
5D5
100
AcDbXrecord
280
     1
102
ACAD_ROUNDTRIP_2012_MLEADER_STYLE
298
     1
  0
XRECORD
  5
5D7
102
{ACAD_REACTORS
330
2EB
102
}
330
2EB
100
AcDbXrecord
280
     1
102
DISPLAYNAME
  1
Imperial24
102
FLAGS
 90
        0
  0
XRECORD
  5
5DE
102
{ACAD_REACTORS
330
519
102
}
330
519
100
AcDbXrecord
280
     1
102
DISPLAYNAME
  1
Metric50
102
FLAGS
 90
        0
  0
CELLSTYLEMAP
  5
581
102
{ACAD_REACTORS
330
580
102
}
330
580
100
AcDbCellStyleMap
 90
        3
300
CELLSTYLE
  1
TABLEFORMAT_BEGIN
 90
        5
170
     1
 91
        0
 92
    32768
 62
   257
 93
        1
300
CONTENTFORMAT
  1
CONTENTFORMAT_BEGIN
 90
        0
 91
        0
 92
      512
 93
        0
300

 40
0.0
140
1.0
 94
        5
 62
     0
340
11
144
0.25
309
CONTENTFORMAT_END
171
     0
 94
        0
309
TABLEFORMAT_END
  1
CELLSTYLE_BEGIN
 90
        1
 91
        1
300
_TITLE
309
CELLSTYLE_END
300
CELLSTYLE
  1
TABLEFORMAT_BEGIN
 90
        5
170
     1
 91
        0
 92
        0
 62
   257
 93
        1
300
CONTENTFORMAT
  1
CONTENTFORMAT_BEGIN
 90
        0
 91
        0
 92
      512
 93
        0
300

 40
0.0
140
1.0
 94
        5
 62
     0
340
11
144
0.18
309
CONTENTFORMAT_END
171
     0
 94
        0
309
TABLEFORMAT_END
  1
CELLSTYLE_BEGIN
 90
        2
 91
        1
300
_HEADER
309
CELLSTYLE_END
300
CELLSTYLE
  1
TABLEFORMAT_BEGIN
 90
        5
170
     1
 91
        0
 92
        0
 62
   257
 93
        1
300
CONTENTFORMAT
  1
CONTENTFORMAT_BEGIN
 90
        0
 91
        0
 92
      512
 93
        0
300

 40
0.0
140
1.0
 94
        2
 62
     0
340
11
144
0.18
309
CONTENTFORMAT_END
171
     0
 94
        0
309
TABLEFORMAT_END
  1
CELLSTYLE_BEGIN
 90
        3
 91
        2
300
_DATA
309
CELLSTYLE_END
  0
XRECORD
  5
5D3
102
{ACAD_REACTORS
330
580
102
}
330
580
100
AcDbXrecord
280
     1
102
ACAD_ROUNDTRIP_PRE2007_TABLESTYLE
 90
      512
 91
        0
  1

 92
      512
 93
        0
  2

 94
      512
 95
        0
  3

  0
XRECORD
  5
59D
102
{ACAD_REACTORS
330
59C
102
}
330
59C
100
AcDbXrecord
280
     1
102
RTVSPost2010Prop28
280
     1
102
RTVSPost2010PropOp28
 70
     1
102
RTVSPost2010Prop29
280
     1
102
RTVSPost2010PropOp29
 70
     1
102
RTVSPost2010Prop30
280
     0
102
RTVSPost2010PropOp30
 70
     1
102
RTVSPost2010Prop31
280
     0
102
RTVSPost2010PropOp31
 70
     1
102
RTVSPost2010Prop32
280
     0
102
RTVSPost2010PropOp32
 70
     1
102
RTVSPost2010Prop33
280
     0
102
RTVSPost2010PropOp33
 70
     1
102
RTVSPost2010Prop34
280
     0
102
RTVSPost2010PropOp34
 70
     1
102
RTVSPost2010Prop35
280
     0
102
RTVSPost2010PropOp35
 70
     1
102
RTVSPost2010Prop36
280
     0
102
RTVSPost2010PropOp36
 70
     1
102
RTVSPost2010Prop37
 90
       50
102
RTVSPost2010PropOp37
 70
     1
102
RTVSPost2010Prop38
140
0.0
102
RTVSPost2010PropOp38
 70
     1
102
RTVSPost2010Prop39
140
1.0
102
RTVSPost2010PropOp39
 70
     1
102
RTVSPost2010Prop40
 90
        0
102
RTVSPost2010PropOp40
 70
     1
102
RTVSPost2010Prop41ColorIndex
 90
       18
102
RTVSPost2010Prop41ColorRGB
 90
        0
102
RTVSPost2010PropOp41
 70
     1
102
RTVSPost2010Prop42
 90
       50
102
RTVSPost2010PropOp42
 70
     1
102
RTVSPost2010Prop43
 90
        3
102
RTVSPost2010PropOp43
 70
     1
102
RTVSPost2010Prop44ColorIndex
 90
        5
102
RTVSPost2010Prop44ColorRGB
 90
      255
102
RTVSPost2010PropOp44
 70
     1
102
RTVSPost2010Prop45
280
     0
102
RTVSPost2010PropOp45
 70
     1
102
RTVSPost2010Prop46
 90
       50
102
RTVSPost2010PropOp46
 70
     1
102
RTVSPost2010Prop47
 90
       50
102
RTVSPost2010PropOp47
 70
     1
102
RTVSPost2010Prop48
 90
       50
102
RTVSPost2010PropOp48
 70
     1
102
RTVSPost2010Prop49
280
     0
102
RTVSPost2010PropOp49
 70
     1
102
RTVSPost2010Prop50
 90
       50
102
RTVSPost2010PropOp50
 70
     1
102
RTVSPost2010Prop51ColorIndex
 90
      256
102
RTVSPost2010Prop51ColorRGB
 90
-16777216
102
RTVSPost2010PropOp51
 70
     0
102
RTVSPost2010Prop52
140
1.0
102
RTVSPost2010PropOp52
 70
     0
102
RTVSPost2010Prop53
 90
        2
102
RTVSPost2010PropOp53
 70
     1
102
RTVSPost2010Prop54
  1
strokes_ogs.tif
102
RTVSPost2010PropOp54
 70
     1
102
RTVSPost2010Prop55
280
     0
102
RTVSPost2010PropOp55
 70
     1
102
RTVSPost2010Prop56
140
1.0
102
RTVSPost2010PropOp56
 70
     1
102
RTVSPost2010Prop57
140
1.0
102
RTVSPost2010PropOp57
 70
     1
102
RTVSPropertyOp0
 70
     1
102
RTVSPropertyOp1
 70
     1
102
RTVSPropertyOp2
 70
     1
102
RTVSPropertyOp3
 70
     1
102
RTVSPropertyOp4
 70
     1
102
RTVSPropertyOp5
 70
     1
102
RTVSPropertyOp6
 70
     1
102
RTVSPropertyOp7
 70
     1
102
RTVSPropertyOp8
 70
     1
102
RTVSPropertyOp9
 70
     1
102
RTVSPropertyOp10
 70
     1
102
RTVSPropertyOp11
 70
     1
102
RTVSPropertyOp12
 70
     1
102
RTVSPropertyOp13
 70
     1
102
RTVSPropertyOp14
 70
     1
102
RTVSPropertyOp15
 70
     1
102
RTVSPropertyOp16
 70
     1
102
RTVSPropertyOp17
 70
     1
102
RTVSPropertyOp18
 70
     1
102
RTVSPropertyOp19
 70
     1
102
RTVSPropertyOp20
 70
     1
102
RTVSPropertyOp21
 70
     1
102
RTVSPropertyOp22
 70
     1
102
RTVSPropertyOp23
 70
     1
102
RTVSPropertyOp24
 70
     1
102
RTVSPropertyOp25
 70
     1
102
RTVSPropertyOp26
 70
     1
102
RTVSPropertyOp27
 70
     1
102
RTVSPropertyOp28
 70
     1
102
RTVSPropertyOp29
 70
     1
102
RTVSPropertyOp30
 70
     1
102
RTVSPropertyOp31
 70
     1
102
RTVSPropertyOp32
 70
     1
102
RTVSPropertyOp33
 70
     1
102
RTVSPropertyOp34
 70
     1
102
RTVSPropertyOp35
 70
     1
102
RTVSPropertyOp36
 70
     1
102
RTVSPropertyOp37
 70
     1
102
RTVSPropertyOp38
 70
     1
102
RTVSPropertyOp39
 70
     1
102
RTVSPropertyOp40
 70
     1
102
RTVSPropertyOp41
 70
     1
102
RTVSPropertyOp42
 70
     1
102
RTVSPropertyOp43
 70
     1
102
RTVSPropertyOp44
 70
     1
102
RTVSPropertyOp45
 70
     1
102
RTVSPropertyOp46
 70
     1
102
RTVSPropertyOp47
 70
     1
102
RTVSPropertyOp48
 70
     1
102
RTVSPropertyOp49
 70
     1
102
RTVSPropertyOp50
 70
     1
102
RTVSPropertyOp51
 70
     0
102
RTVSPropertyOp52
 70
     0
102
RTVSPropertyOp53
 70
     1
102
RTVSPropertyOp54
 70
     1
102
RTVSPropertyOp55
 70
     1
102
RTVSPropertyOp56
 70
     1
102
RTVSPropertyOp57
 70
     1
102
RTVSPropertyOp58
 70
     1
102
RTVSPropertyOp59
 70
     1
102
RTVSPropertyOp60
 70
     1
102
RTVSPropertyOp61
 70
     1
102
RTVSPropertyOp62
 70
     1
  0
XRECORD
  5
5A1
102
{ACAD_REACTORS
330
5A0
102
}
330
5A0
100
AcDbXrecord
280
     1
102
RTVSPost2010Prop28
280
     0
102
RTVSPost2010PropOp28
 70
     1
102
RTVSPost2010Prop29
280
     1
102
RTVSPost2010PropOp29
 70
     1
102
RTVSPost2010Prop30
280
     1
102
RTVSPost2010PropOp30
 70
     1
102
RTVSPost2010Prop31
280
     0
102
RTVSPost2010PropOp31
 70
     1
102
RTVSPost2010Prop32
280
     0
102
RTVSPost2010PropOp32
 70
     1
102
RTVSPost2010Prop33
280
     0
102
RTVSPost2010PropOp33
 70
     1
102
RTVSPost2010Prop34
280
     0
102
RTVSPost2010PropOp34
 70
     1
102
RTVSPost2010Prop35
280
     0
102
RTVSPost2010PropOp35
 70
     1
102
RTVSPost2010Prop36
280
     0
102
RTVSPost2010PropOp36
 70
     1
102
RTVSPost2010Prop37
 90
       50
102
RTVSPost2010PropOp37
 70
     1
102
RTVSPost2010Prop38
140
0.0
102
RTVSPost2010PropOp38
 70
     1
102
RTVSPost2010Prop39
140
1.0
102
RTVSPost2010PropOp39
 70
     1
102
RTVSPost2010Prop40
 90
        0
102
RTVSPost2010PropOp40
 70
     1
102
RTVSPost2010Prop41ColorIndex
 90
       18
102
RTVSPost2010Prop41ColorRGB
 90
        0
102
RTVSPost2010PropOp41
 70
     1
102
RTVSPost2010Prop42
 90
       50
102
RTVSPost2010PropOp42
 70
     1
102
RTVSPost2010Prop43
 90
        3
102
RTVSPost2010PropOp43
 70
     1
102
RTVSPost2010Prop44ColorIndex
 90
        5
102
RTVSPost2010Prop44ColorRGB
 90
      255
102
RTVSPost2010PropOp44
 70
     1
102
RTVSPost2010Prop45
280
     0
102
RTVSPost2010PropOp45
 70
     1
102
RTVSPost2010Prop46
 90
       50
102
RTVSPost2010PropOp46
 70
     1
102
RTVSPost2010Prop47
 90
       50
102
RTVSPost2010PropOp47
 70
     1
102
RTVSPost2010Prop48
 90
       50
102
RTVSPost2010PropOp48
 70
     1
102
RTVSPost2010Prop49
280
     0
102
RTVSPost2010PropOp49
 70
     1
102
RTVSPost2010Prop50
 90
       50
102
RTVSPost2010PropOp50
 70
     1
102
RTVSPost2010Prop51ColorIndex
 90
      256
102
RTVSPost2010Prop51ColorRGB
 90
-16777216
102
RTVSPost2010PropOp51
 70
     0
102
RTVSPost2010Prop52
140
1.0
102
RTVSPost2010PropOp52
 70
     0
102
RTVSPost2010Prop53
 90
        2
102
RTVSPost2010PropOp53
 70
     1
102
RTVSPost2010Prop54
  1
strokes_ogs.tif
102
RTVSPost2010PropOp54
 70
     1
102
RTVSPost2010Prop55
280
     0
102
RTVSPost2010PropOp55
 70
     1
102
RTVSPost2010Prop56
140
1.0
102
RTVSPost2010PropOp56
 70
     1
102
RTVSPost2010Prop57
140
1.0
102
RTVSPost2010PropOp57
 70
     1
102
RTVSPropertyOp0
 70
     1
102
RTVSPropertyOp1
 70
     1
102
RTVSPropertyOp2
 70
     1
102
RTVSPropertyOp3
 70
     1
102
RTVSPropertyOp4
 70
     1
102
RTVSPropertyOp5
 70
     1
102
RTVSPropertyOp6
 70
     1
102
RTVSPropertyOp7
 70
     1
102
RTVSPropertyOp8
 70
     1
102
RTVSPropertyOp9
 70
     1
102
RTVSPropertyOp10
 70
     1
102
RTVSPropertyOp11
 70
     1
102
RTVSPropertyOp12
 70
     1
102
RTVSPropertyOp13
 70
     1
102
RTVSPropertyOp14
 70
     1
102
RTVSPropertyOp15
 70
     1
102
RTVSPropertyOp16
 70
     1
102
RTVSPropertyOp17
 70
     1
102
RTVSPropertyOp18
 70
     1
102
RTVSPropertyOp19
 70
     1
102
RTVSPropertyOp20
 70
     1
102
RTVSPropertyOp21
 70
     1
102
RTVSPropertyOp22
 70
     1
102
RTVSPropertyOp23
 70
     1
102
RTVSPropertyOp24
 70
     1
102
RTVSPropertyOp25
 70
     1
102
RTVSPropertyOp26
 70
     1
102
RTVSPropertyOp27
 70
     1
102
RTVSPropertyOp28
 70
     1
102
RTVSPropertyOp29
 70
     1
102
RTVSPropertyOp30
 70
     1
102
RTVSPropertyOp31
 70
     1
102
RTVSPropertyOp32
 70
     1
102
RTVSPropertyOp33
 70
     1
102
RTVSPropertyOp34
 70
     1
102
RTVSPropertyOp35
 70
     1
102
RTVSPropertyOp36
 70
     1
102
RTVSPropertyOp37
 70
     1
102
RTVSPropertyOp38
 70
     1
102
RTVSPropertyOp39
 70
     1
102
RTVSPropertyOp40
 70
     1
102
RTVSPropertyOp41
 70
     1
102
RTVSPropertyOp42
 70
     1
102
RTVSPropertyOp43
 70
     1
102
RTVSPropertyOp44
 70
     1
102
RTVSPropertyOp45
 70
     1
102
RTVSPropertyOp46
 70
     1
102
RTVSPropertyOp47
 70
     1
102
RTVSPropertyOp48
 70
     1
102
RTVSPropertyOp49
 70
     1
102
RTVSPropertyOp50
 70
     1
102
RTVSPropertyOp51
 70
     0
102
RTVSPropertyOp52
 70
     0
102
RTVSPropertyOp53
 70
     1
102
RTVSPropertyOp54
 70
     1
102
RTVSPropertyOp55
 70
     1
102
RTVSPropertyOp56
 70
     1
102
RTVSPropertyOp57
 70
     1
102
RTVSPropertyOp58
 70
     1
102
RTVSPropertyOp59
 70
     1
102
RTVSPropertyOp60
 70
     1
102
RTVSPropertyOp61
 70
     1
102
RTVSPropertyOp62
 70
     1
  0
XRECORD
  5
59F
102
{ACAD_REACTORS
330
59E
102
}
330
59E
100
AcDbXrecord
280
     1
102
RTVSPost2010Prop28
280
     0
102
RTVSPost2010PropOp28
 70
     1
102
RTVSPost2010Prop29
280
     1
102
RTVSPost2010PropOp29
 70
     1
102
RTVSPost2010Prop30
280
     1
102
RTVSPost2010PropOp30
 70
     1
102
RTVSPost2010Prop31
280
     0
102
RTVSPost2010PropOp31
 70
     1
102
RTVSPost2010Prop32
280
     0
102
RTVSPost2010PropOp32
 70
     1
102
RTVSPost2010Prop33
280
     0
102
RTVSPost2010PropOp33
 70
     1
102
RTVSPost2010Prop34
280
     0
102
RTVSPost2010PropOp34
 70
     1
102
RTVSPost2010Prop35
280
     0
102
RTVSPost2010PropOp35
 70
     1
102
RTVSPost2010Prop36
280
     0
102
RTVSPost2010PropOp36
 70
     1
102
RTVSPost2010Prop37
 90
       50
102
RTVSPost2010PropOp37
 70
     1
102
RTVSPost2010Prop38
140
0.0
102
RTVSPost2010PropOp38
 70
     1
102
RTVSPost2010Prop39
140
1.0
102
RTVSPost2010PropOp39
 70
     1
102
RTVSPost2010Prop40
 90
        0
102
RTVSPost2010PropOp40
 70
     1
102
RTVSPost2010Prop41ColorIndex
 90
       18
102
RTVSPost2010Prop41ColorRGB
 90
        0
102
RTVSPost2010PropOp41
 70
     1
102
RTVSPost2010Prop42
 90
       50
102
RTVSPost2010PropOp42
 70
     1
102
RTVSPost2010Prop43
 90
        3
102
RTVSPost2010PropOp43
 70
     1
102
RTVSPost2010Prop44ColorIndex
 90
        5
102
RTVSPost2010Prop44ColorRGB
 90
      255
102
RTVSPost2010PropOp44
 70
     1
102
RTVSPost2010Prop45
280
     0
102
RTVSPost2010PropOp45
 70
     1
102
RTVSPost2010Prop46
 90
       50
102
RTVSPost2010PropOp46
 70
     1
102
RTVSPost2010Prop47
 90
       50
102
RTVSPost2010PropOp47
 70
     1
102
RTVSPost2010Prop48
 90
       50
102
RTVSPost2010PropOp48
 70
     1
102
RTVSPost2010Prop49
280
     0
102
RTVSPost2010PropOp49
 70
     1
102
RTVSPost2010Prop50
 90
       50
102
RTVSPost2010PropOp50
 70
     1
102
RTVSPost2010Prop51ColorIndex
 90
      256
102
RTVSPost2010Prop51ColorRGB
 90
-16777216
102
RTVSPost2010PropOp51
 70
     0
102
RTVSPost2010Prop52
140
1.0
102
RTVSPost2010PropOp52
 70
     0
102
RTVSPost2010Prop53
 90
        2
102
RTVSPost2010PropOp53
 70
     1
102
RTVSPost2010Prop54
  1
strokes_ogs.tif
102
RTVSPost2010PropOp54
 70
     1
102
RTVSPost2010Prop55
280
     0
102
RTVSPost2010PropOp55
 70
     1
102
RTVSPost2010Prop56
140
1.0
102
RTVSPost2010PropOp56
 70
     1
102
RTVSPost2010Prop57
140
1.0
102
RTVSPost2010PropOp57
 70
     1
102
RTVSPropertyOp0
 70
     1
102
RTVSPropertyOp1
 70
     1
102
RTVSPropertyOp2
 70
     1
102
RTVSPropertyOp3
 70
     1
102
RTVSPropertyOp4
 70
     1
102
RTVSPropertyOp5
 70
     1
102
RTVSPropertyOp6
 70
     1
102
RTVSPropertyOp7
 70
     1
102
RTVSPropertyOp8
 70
     1
102
RTVSPropertyOp9
 70
     1
102
RTVSPropertyOp10
 70
     1
102
RTVSPropertyOp11
 70
     1
102
RTVSPropertyOp12
 70
     1
102
RTVSPropertyOp13
 70
     1
102
RTVSPropertyOp14
 70
     1
102
RTVSPropertyOp15
 70
     1
102
RTVSPropertyOp16
 70
     1
102
RTVSPropertyOp17
 70
     1
102
RTVSPropertyOp18
 70
     1
102
RTVSPropertyOp19
 70
     1
102
RTVSPropertyOp20
 70
     1
102
RTVSPropertyOp21
 70
     1
102
RTVSPropertyOp22
 70
     1
102
RTVSPropertyOp23
 70
     1
102
RTVSPropertyOp24
 70
     1
102
RTVSPropertyOp25
 70
     1
102
RTVSPropertyOp26
 70
     1
102
RTVSPropertyOp27
 70
     1
102
RTVSPropertyOp28
 70
     1
102
RTVSPropertyOp29
 70
     1
102
RTVSPropertyOp30
 70
     1
102
RTVSPropertyOp31
 70
     1
102
RTVSPropertyOp32
 70
     1
102
RTVSPropertyOp33
 70
     1
102
RTVSPropertyOp34
 70
     1
102
RTVSPropertyOp35
 70
     1
102
RTVSPropertyOp36
 70
     1
102
RTVSPropertyOp37
 70
     1
102
RTVSPropertyOp38
 70
     1
102
RTVSPropertyOp39
 70
     1
102
RTVSPropertyOp40
 70
     1
102
RTVSPropertyOp41
 70
     1
102
RTVSPropertyOp42
 70
     1
102
RTVSPropertyOp43
 70
     1
102
RTVSPropertyOp44
 70
     1
102
RTVSPropertyOp45
 70
     1
102
RTVSPropertyOp46
 70
     1
102
RTVSPropertyOp47
 70
     1
102
RTVSPropertyOp48
 70
     1
102
RTVSPropertyOp49
 70
     1
102
RTVSPropertyOp50
 70
     1
102
RTVSPropertyOp51
 70
     0
102
RTVSPropertyOp52
 70
     0
102
RTVSPropertyOp53
 70
     1
102
RTVSPropertyOp54
 70
     1
102
RTVSPropertyOp55
 70
     1
102
RTVSPropertyOp56
 70
     1
102
RTVSPropertyOp57
 70
     1
102
RTVSPropertyOp58
 70
     1
102
RTVSPropertyOp59
 70
     1
102
RTVSPropertyOp60
 70
     1
102
RTVSPropertyOp61
 70
     1
102
RTVSPropertyOp62
 70
     1
  0
XRECORD
  5
5A3
102
{ACAD_REACTORS
330
5A2
102
}
330
5A2
100
AcDbXrecord
280
     1
102
RTVSPost2010Prop28
280
     0
102
RTVSPost2010PropOp28
 70
     1
102
RTVSPost2010Prop29
280
     1
102
RTVSPost2010PropOp29
 70
     1
102
RTVSPost2010Prop30
280
     1
102
RTVSPost2010PropOp30
 70
     1
102
RTVSPost2010Prop31
280
     0
102
RTVSPost2010PropOp31
 70
     1
102
RTVSPost2010Prop32
280
     0
102
RTVSPost2010PropOp32
 70
     1
102
RTVSPost2010Prop33
280
     0
102
RTVSPost2010PropOp33
 70
     1
102
RTVSPost2010Prop34
280
     0
102
RTVSPost2010PropOp34
 70
     1
102
RTVSPost2010Prop35
280
     0
102
RTVSPost2010PropOp35
 70
     1
102
RTVSPost2010Prop36
280
     0
102
RTVSPost2010PropOp36
 70
     1
102
RTVSPost2010Prop37
 90
       50
102
RTVSPost2010PropOp37
 70
     1
102
RTVSPost2010Prop38
140
0.0
102
RTVSPost2010PropOp38
 70
     1
102
RTVSPost2010Prop39
140
1.0
102
RTVSPost2010PropOp39
 70
     1
102
RTVSPost2010Prop40
 90
        0
102
RTVSPost2010PropOp40
 70
     1
102
RTVSPost2010Prop41ColorIndex
 90
       18
102
RTVSPost2010Prop41ColorRGB
 90
        0
102
RTVSPost2010PropOp41
 70
     1
102
RTVSPost2010Prop42
 90
       50
102
RTVSPost2010PropOp42
 70
     1
102
RTVSPost2010Prop43
 90
        3
102
RTVSPost2010PropOp43
 70
     1
102
RTVSPost2010Prop44ColorIndex
 90
        5
102
RTVSPost2010Prop44ColorRGB
 90
      255
102
RTVSPost2010PropOp44
 70
     1
102
RTVSPost2010Prop45
280
     0
102
RTVSPost2010PropOp45
 70
     1
102
RTVSPost2010Prop46
 90
       50
102
RTVSPost2010PropOp46
 70
     1
102
RTVSPost2010Prop47
 90
       50
102
RTVSPost2010PropOp47
 70
     1
102
RTVSPost2010Prop48
 90
       50
102
RTVSPost2010PropOp48
 70
     1
102
RTVSPost2010Prop49
280
     0
102
RTVSPost2010PropOp49
 70
     1
102
RTVSPost2010Prop50
 90
       50
102
RTVSPost2010PropOp50
 70
     1
102
RTVSPost2010Prop51ColorIndex
 90
      256
102
RTVSPost2010Prop51ColorRGB
 90
-16777216
102
RTVSPost2010PropOp51
 70
     0
102
RTVSPost2010Prop52
140
1.0
102
RTVSPost2010PropOp52
 70
     0
102
RTVSPost2010Prop53
 90
        2
102
RTVSPost2010PropOp53
 70
     1
102
RTVSPost2010Prop54
  1
strokes_ogs.tif
102
RTVSPost2010PropOp54
 70
     1
102
RTVSPost2010Prop55
280
     0
102
RTVSPost2010PropOp55
 70
     1
102
RTVSPost2010Prop56
140
1.0
102
RTVSPost2010PropOp56
 70
     1
102
RTVSPost2010Prop57
140
1.0
102
RTVSPost2010PropOp57
 70
     1
102
RTVSPropertyOp0
 70
     1
102
RTVSPropertyOp1
 70
     1
102
RTVSPropertyOp2
 70
     1
102
RTVSPropertyOp3
 70
     1
102
RTVSPropertyOp4
 70
     1
102
RTVSPropertyOp5
 70
     1
102
RTVSPropertyOp6
 70
     1
102
RTVSPropertyOp7
 70
     1
102
RTVSPropertyOp8
 70
     1
102
RTVSPropertyOp9
 70
     1
102
RTVSPropertyOp10
 70
     1
102
RTVSPropertyOp11
 70
     1
102
RTVSPropertyOp12
 70
     1
102
RTVSPropertyOp13
 70
     1
102
RTVSPropertyOp14
 70
     1
102
RTVSPropertyOp15
 70
     1
102
RTVSPropertyOp16
 70
     1
102
RTVSPropertyOp17
 70
     1
102
RTVSPropertyOp18
 70
     1
102
RTVSPropertyOp19
 70
     1
102
RTVSPropertyOp20
 70
     1
102
RTVSPropertyOp21
 70
     1
102
RTVSPropertyOp22
 70
     1
102
RTVSPropertyOp23
 70
     1
102
RTVSPropertyOp24
 70
     1
102
RTVSPropertyOp25
 70
     1
102
RTVSPropertyOp26
 70
     1
102
RTVSPropertyOp27
 70
     1
102
RTVSPropertyOp28
 70
     1
102
RTVSPropertyOp29
 70
     1
102
RTVSPropertyOp30
 70
     1
102
RTVSPropertyOp31
 70
     1
102
RTVSPropertyOp32
 70
     1
102
RTVSPropertyOp33
 70
     1
102
RTVSPropertyOp34
 70
     1
102
RTVSPropertyOp35
 70
     1
102
RTVSPropertyOp36
 70
     1
102
RTVSPropertyOp37
 70
     1
102
RTVSPropertyOp38
 70
     1
102
RTVSPropertyOp39
 70
     1
102
RTVSPropertyOp40
 70
     1
102
RTVSPropertyOp41
 70
     1
102
RTVSPropertyOp42
 70
     1
102
RTVSPropertyOp43
 70
     1
102
RTVSPropertyOp44
 70
     1
102
RTVSPropertyOp45
 70
     1
102
RTVSPropertyOp46
 70
     1
102
RTVSPropertyOp47
 70
     1
102
RTVSPropertyOp48
 70
     1
102
RTVSPropertyOp49
 70
     1
102
RTVSPropertyOp50
 70
     1
102
RTVSPropertyOp51
 70
     0
102
RTVSPropertyOp52
 70
     0
102
RTVSPropertyOp53
 70
     1
102
RTVSPropertyOp54
 70
     1
102
RTVSPropertyOp55
 70
     1
102
RTVSPropertyOp56
 70
     1
102
RTVSPropertyOp57
 70
     1
102
RTVSPropertyOp58
 70
     1
102
RTVSPropertyOp59
 70
     1
102
RTVSPropertyOp60
 70
     1
102
RTVSPropertyOp61
 70
     1
102
RTVSPropertyOp62
 70
     1
  0
XRECORD
  5
5AB
102
{ACAD_REACTORS
330
5AA
102
}
330
5AA
100
AcDbXrecord
280
     1
102
RTVSPost2010Prop28
280
     0
102
RTVSPost2010PropOp28
 70
     1
102
RTVSPost2010Prop29
280
     1
102
RTVSPost2010PropOp29
 70
     1
102
RTVSPost2010Prop30
280
     1
102
RTVSPost2010PropOp30
 70
     1
102
RTVSPost2010Prop31
280
     0
102
RTVSPost2010PropOp31
 70
     1
102
RTVSPost2010Prop32
280
     0
102
RTVSPost2010PropOp32
 70
     1
102
RTVSPost2010Prop33
280
     0
102
RTVSPost2010PropOp33
 70
     1
102
RTVSPost2010Prop34
280
     0
102
RTVSPost2010PropOp34
 70
     1
102
RTVSPost2010Prop35
280
     0
102
RTVSPost2010PropOp35
 70
     1
102
RTVSPost2010Prop36
280
     0
102
RTVSPost2010PropOp36
 70
     1
102
RTVSPost2010Prop37
 90
       50
102
RTVSPost2010PropOp37
 70
     1
102
RTVSPost2010Prop38
140
0.0
102
RTVSPost2010PropOp38
 70
     1
102
RTVSPost2010Prop39
140
1.0
102
RTVSPost2010PropOp39
 70
     1
102
RTVSPost2010Prop40
 90
        0
102
RTVSPost2010PropOp40
 70
     1
102
RTVSPost2010Prop41ColorIndex
 90
       18
102
RTVSPost2010Prop41ColorRGB
 90
        0
102
RTVSPost2010PropOp41
 70
     1
102
RTVSPost2010Prop42
 90
       50
102
RTVSPost2010PropOp42
 70
     1
102
RTVSPost2010Prop43
 90
        3
102
RTVSPost2010PropOp43
 70
     1
102
RTVSPost2010Prop44ColorIndex
 90
        5
102
RTVSPost2010Prop44ColorRGB
 90
      255
102
RTVSPost2010PropOp44
 70
     1
102
RTVSPost2010Prop45
280
     0
102
RTVSPost2010PropOp45
 70
     1
102
RTVSPost2010Prop46
 90
       50
102
RTVSPost2010PropOp46
 70
     1
102
RTVSPost2010Prop47
 90
       50
102
RTVSPost2010PropOp47
 70
     1
102
RTVSPost2010Prop48
 90
       50
102
RTVSPost2010PropOp48
 70
     1
102
RTVSPost2010Prop49
280
     0
102
RTVSPost2010PropOp49
 70
     1
102
RTVSPost2010Prop50
 90
       50
102
RTVSPost2010PropOp50
 70
     1
102
RTVSPost2010Prop51ColorIndex
 90
      256
102
RTVSPost2010Prop51ColorRGB
 90
-16777216
102
RTVSPost2010PropOp51
 70
     0
102
RTVSPost2010Prop52
140
1.0
102
RTVSPost2010PropOp52
 70
     0
102
RTVSPost2010Prop53
 90
        2
102
RTVSPost2010PropOp53
 70
     1
102
RTVSPost2010Prop54
  1
strokes_ogs.tif
102
RTVSPost2010PropOp54
 70
     1
102
RTVSPost2010Prop55
280
     0
102
RTVSPost2010PropOp55
 70
     1
102
RTVSPost2010Prop56
140
1.0
102
RTVSPost2010PropOp56
 70
     1
102
RTVSPost2010Prop57
140
1.0
102
RTVSPost2010PropOp57
 70
     1
102
RTVSPropertyOp0
 70
     1
102
RTVSPropertyOp1
 70
     1
102
RTVSPropertyOp2
 70
     1
102
RTVSPropertyOp3
 70
     1
102
RTVSPropertyOp4
 70
     1
102
RTVSPropertyOp5
 70
     1
102
RTVSPropertyOp6
 70
     1
102
RTVSPropertyOp7
 70
     1
102
RTVSPropertyOp8
 70
     1
102
RTVSPropertyOp9
 70
     1
102
RTVSPropertyOp10
 70
     1
102
RTVSPropertyOp11
 70
     1
102
RTVSPropertyOp12
 70
     1
102
RTVSPropertyOp13
 70
     1
102
RTVSPropertyOp14
 70
     1
102
RTVSPropertyOp15
 70
     1
102
RTVSPropertyOp16
 70
     1
102
RTVSPropertyOp17
 70
     1
102
RTVSPropertyOp18
 70
     1
102
RTVSPropertyOp19
 70
     1
102
RTVSPropertyOp20
 70
     1
102
RTVSPropertyOp21
 70
     1
102
RTVSPropertyOp22
 70
     1
102
RTVSPropertyOp23
 70
     1
102
RTVSPropertyOp24
 70
     1
102
RTVSPropertyOp25
 70
     1
102
RTVSPropertyOp26
 70
     1
102
RTVSPropertyOp27
 70
     1
102
RTVSPropertyOp28
 70
     1
102
RTVSPropertyOp29
 70
     1
102
RTVSPropertyOp30
 70
     1
102
RTVSPropertyOp31
 70
     1
102
RTVSPropertyOp32
 70
     1
102
RTVSPropertyOp33
 70
     1
102
RTVSPropertyOp34
 70
     1
102
RTVSPropertyOp35
 70
     1
102
RTVSPropertyOp36
 70
     1
102
RTVSPropertyOp37
 70
     1
102
RTVSPropertyOp38
 70
     1
102
RTVSPropertyOp39
 70
     1
102
RTVSPropertyOp40
 70
     1
102
RTVSPropertyOp41
 70
     1
102
RTVSPropertyOp42
 70
     1
102
RTVSPropertyOp43
 70
     1
102
RTVSPropertyOp44
 70
     1
102
RTVSPropertyOp45
 70
     1
102
RTVSPropertyOp46
 70
     1
102
RTVSPropertyOp47
 70
     1
102
RTVSPropertyOp48
 70
     1
102
RTVSPropertyOp49
 70
     1
102
RTVSPropertyOp50
 70
     1
102
RTVSPropertyOp51
 70
     0
102
RTVSPropertyOp52
 70
     0
102
RTVSPropertyOp53
 70
     1
102
RTVSPropertyOp54
 70
     1
102
RTVSPropertyOp55
 70
     1
102
RTVSPropertyOp56
 70
     1
102
RTVSPropertyOp57
 70
     1
102
RTVSPropertyOp58
 70
     1
102
RTVSPropertyOp59
 70
     1
102
RTVSPropertyOp60
 70
     1
102
RTVSPropertyOp61
 70
     1
102
RTVSPropertyOp62
 70
     1
  0
XRECORD
  5
5B3
102
{ACAD_REACTORS
330
5B2
102
}
330
5B2
100
AcDbXrecord
280
     1
102
RTVSPost2010Prop28
280
     0
102
RTVSPost2010PropOp28
 70
     1
102
RTVSPost2010Prop29
280
     1
102
RTVSPost2010PropOp29
 70
     1
102
RTVSPost2010Prop30
280
     1
102
RTVSPost2010PropOp30
 70
     1
102
RTVSPost2010Prop31
280
     0
102
RTVSPost2010PropOp31
 70
     1
102
RTVSPost2010Prop32
280
     0
102
RTVSPost2010PropOp32
 70
     1
102
RTVSPost2010Prop33
280
     0
102
RTVSPost2010PropOp33
 70
     1
102
RTVSPost2010Prop34
280
     0
102
RTVSPost2010PropOp34
 70
     1
102
RTVSPost2010Prop35
280
     0
102
RTVSPost2010PropOp35
 70
     1
102
RTVSPost2010Prop36
280
     0
102
RTVSPost2010PropOp36
 70
     1
102
RTVSPost2010Prop37
 90
       50
102
RTVSPost2010PropOp37
 70
     1
102
RTVSPost2010Prop38
140
0.0
102
RTVSPost2010PropOp38
 70
     1
102
RTVSPost2010Prop39
140
1.0
102
RTVSPost2010PropOp39
 70
     1
102
RTVSPost2010Prop40
 90
        0
102
RTVSPost2010PropOp40
 70
     1
102
RTVSPost2010Prop41ColorIndex
 90
       18
102
RTVSPost2010Prop41ColorRGB
 90
        0
102
RTVSPost2010PropOp41
 70
     1
102
RTVSPost2010Prop42
 90
       50
102
RTVSPost2010PropOp42
 70
     1
102
RTVSPost2010Prop43
 90
        3
102
RTVSPost2010PropOp43
 70
     1
102
RTVSPost2010Prop44ColorIndex
 90
        5
102
RTVSPost2010Prop44ColorRGB
 90
      255
102
RTVSPost2010PropOp44
 70
     1
102
RTVSPost2010Prop45
280
     0
102
RTVSPost2010PropOp45
 70
     1
102
RTVSPost2010Prop46
 90
       50
102
RTVSPost2010PropOp46
 70
     1
102
RTVSPost2010Prop47
 90
       50
102
RTVSPost2010PropOp47
 70
     1
102
RTVSPost2010Prop48
 90
       50
102
RTVSPost2010PropOp48
 70
     1
102
RTVSPost2010Prop49
280
     0
102
RTVSPost2010PropOp49
 70
     1
102
RTVSPost2010Prop50
 90
       50
102
RTVSPost2010PropOp50
 70
     1
102
RTVSPost2010Prop51ColorIndex
 90
      256
102
RTVSPost2010Prop51ColorRGB
 90
-16777216
102
RTVSPost2010PropOp51
 70
     0
102
RTVSPost2010Prop52
140
1.0
102
RTVSPost2010PropOp52
 70
     0
102
RTVSPost2010Prop53
 90
        2
102
RTVSPost2010PropOp53
 70
     1
102
RTVSPost2010Prop54
  1
strokes_ogs.tif
102
RTVSPost2010PropOp54
 70
     1
102
RTVSPost2010Prop55
280
     0
102
RTVSPost2010PropOp55
 70
     1
102
RTVSPost2010Prop56
140
1.0
102
RTVSPost2010PropOp56
 70
     1
102
RTVSPost2010Prop57
140
1.0
102
RTVSPost2010PropOp57
 70
     1
102
RTVSPropertyOp0
 70
     1
102
RTVSPropertyOp1
 70
     1
102
RTVSPropertyOp2
 70
     1
102
RTVSPropertyOp3
 70
     1
102
RTVSPropertyOp4
 70
     1
102
RTVSPropertyOp5
 70
     1
102
RTVSPropertyOp6
 70
     1
102
RTVSPropertyOp7
 70
     1
102
RTVSPropertyOp8
 70
     1
102
RTVSPropertyOp9
 70
     1
102
RTVSPropertyOp10
 70
     1
102
RTVSPropertyOp11
 70
     1
102
RTVSPropertyOp12
 70
     1
102
RTVSPropertyOp13
 70
     1
102
RTVSPropertyOp14
 70
     1
102
RTVSPropertyOp15
 70
     1
102
RTVSPropertyOp16
 70
     1
102
RTVSPropertyOp17
 70
     1
102
RTVSPropertyOp18
 70
     1
102
RTVSPropertyOp19
 70
     1
102
RTVSPropertyOp20
 70
     1
102
RTVSPropertyOp21
 70
     1
102
RTVSPropertyOp22
 70
     1
102
RTVSPropertyOp23
 70
     1
102
RTVSPropertyOp24
 70
     1
102
RTVSPropertyOp25
 70
     1
102
RTVSPropertyOp26
 70
     1
102
RTVSPropertyOp27
 70
     1
102
RTVSPropertyOp28
 70
     1
102
RTVSPropertyOp29
 70
     1
102
RTVSPropertyOp30
 70
     1
102
RTVSPropertyOp31
 70
     1
102
RTVSPropertyOp32
 70
     1
102
RTVSPropertyOp33
 70
     1
102
RTVSPropertyOp34
 70
     1
102
RTVSPropertyOp35
 70
     1
102
RTVSPropertyOp36
 70
     1
102
RTVSPropertyOp37
 70
     1
102
RTVSPropertyOp38
 70
     1
102
RTVSPropertyOp39
 70
     1
102
RTVSPropertyOp40
 70
     1
102
RTVSPropertyOp41
 70
     1
102
RTVSPropertyOp42
 70
     1
102
RTVSPropertyOp43
 70
     1
102
RTVSPropertyOp44
 70
     1
102
RTVSPropertyOp45
 70
     1
102
RTVSPropertyOp46
 70
     1
102
RTVSPropertyOp47
 70
     1
102
RTVSPropertyOp48
 70
     1
102
RTVSPropertyOp49
 70
     1
102
RTVSPropertyOp50
 70
     1
102
RTVSPropertyOp51
 70
     0
102
RTVSPropertyOp52
 70
     0
102
RTVSPropertyOp53
 70
     1
102
RTVSPropertyOp54
 70
     1
102
RTVSPropertyOp55
 70
     1
102
RTVSPropertyOp56
 70
     1
102
RTVSPropertyOp57
 70
     1
102
RTVSPropertyOp58
 70
     1
102
RTVSPropertyOp59
 70
     1
102
RTVSPropertyOp60
 70
     1
102
RTVSPropertyOp61
 70
     1
102
RTVSPropertyOp62
 70
     1
  0
XRECORD
  5
5A7
102
{ACAD_REACTORS
330
5A6
102
}
330
5A6
100
AcDbXrecord
280
     1
102
RTVSPost2010Prop28
280
     0
102
RTVSPost2010PropOp28
 70
     1
102
RTVSPost2010Prop29
280
     1
102
RTVSPost2010PropOp29
 70
     1
102
RTVSPost2010Prop30
280
     1
102
RTVSPost2010PropOp30
 70
     1
102
RTVSPost2010Prop31
280
     0
102
RTVSPost2010PropOp31
 70
     1
102
RTVSPost2010Prop32
280
     0
102
RTVSPost2010PropOp32
 70
     1
102
RTVSPost2010Prop33
280
     0
102
RTVSPost2010PropOp33
 70
     1
102
RTVSPost2010Prop34
280
     0
102
RTVSPost2010PropOp34
 70
     1
102
RTVSPost2010Prop35
280
     0
102
RTVSPost2010PropOp35
 70
     1
102
RTVSPost2010Prop36
280
     0
102
RTVSPost2010PropOp36
 70
     1
102
RTVSPost2010Prop37
 90
       50
102
RTVSPost2010PropOp37
 70
     1
102
RTVSPost2010Prop38
140
0.0
102
RTVSPost2010PropOp38
 70
     1
102
RTVSPost2010Prop39
140
1.0
102
RTVSPost2010PropOp39
 70
     1
102
RTVSPost2010Prop40
 90
        0
102
RTVSPost2010PropOp40
 70
     1
102
RTVSPost2010Prop41ColorIndex
 90
       18
102
RTVSPost2010Prop41ColorRGB
 90
        0
102
RTVSPost2010PropOp41
 70
     1
102
RTVSPost2010Prop42
 90
       50
102
RTVSPost2010PropOp42
 70
     1
102
RTVSPost2010Prop43
 90
        3
102
RTVSPost2010PropOp43
 70
     1
102
RTVSPost2010Prop44ColorIndex
 90
        5
102
RTVSPost2010Prop44ColorRGB
 90
      255
102
RTVSPost2010PropOp44
 70
     1
102
RTVSPost2010Prop45
280
     0
102
RTVSPost2010PropOp45
 70
     1
102
RTVSPost2010Prop46
 90
       50
102
RTVSPost2010PropOp46
 70
     1
102
RTVSPost2010Prop47
 90
       50
102
RTVSPost2010PropOp47
 70
     1
102
RTVSPost2010Prop48
 90
       50
102
RTVSPost2010PropOp48
 70
     1
102
RTVSPost2010Prop49
280
     0
102
RTVSPost2010PropOp49
 70
     1
102
RTVSPost2010Prop50
 90
       50
102
RTVSPost2010PropOp50
 70
     1
102
RTVSPost2010Prop51ColorIndex
 90
      256
102
RTVSPost2010Prop51ColorRGB
 90
-16777216
102
RTVSPost2010PropOp51
 70
     0
102
RTVSPost2010Prop52
140
1.0
102
RTVSPost2010PropOp52
 70
     0
102
RTVSPost2010Prop53
 90
        2
102
RTVSPost2010PropOp53
 70
     1
102
RTVSPost2010Prop54
  1
strokes_ogs.tif
102
RTVSPost2010PropOp54
 70
     1
102
RTVSPost2010Prop55
280
     0
102
RTVSPost2010PropOp55
 70
     1
102
RTVSPost2010Prop56
140
1.0
102
RTVSPost2010PropOp56
 70
     1
102
RTVSPost2010Prop57
140
1.0
102
RTVSPost2010PropOp57
 70
     1
102
RTVSPropertyOp0
 70
     1
102
RTVSPropertyOp1
 70
     1
102
RTVSPropertyOp2
 70
     1
102
RTVSPropertyOp3
 70
     1
102
RTVSPropertyOp4
 70
     1
102
RTVSPropertyOp5
 70
     1
102
RTVSPropertyOp6
 70
     1
102
RTVSPropertyOp7
 70
     1
102
RTVSPropertyOp8
 70
     1
102
RTVSPropertyOp9
 70
     1
102
RTVSPropertyOp10
 70
     1
102
RTVSPropertyOp11
 70
     1
102
RTVSPropertyOp12
 70
     1
102
RTVSPropertyOp13
 70
     1
102
RTVSPropertyOp14
 70
     1
102
RTVSPropertyOp15
 70
     1
102
RTVSPropertyOp16
 70
     1
102
RTVSPropertyOp17
 70
     1
102
RTVSPropertyOp18
 70
     1
102
RTVSPropertyOp19
 70
     1
102
RTVSPropertyOp20
 70
     1
102
RTVSPropertyOp21
 70
     1
102
RTVSPropertyOp22
 70
     1
102
RTVSPropertyOp23
 70
     1
102
RTVSPropertyOp24
 70
     1
102
RTVSPropertyOp25
 70
     1
102
RTVSPropertyOp26
 70
     1
102
RTVSPropertyOp27
 70
     1
102
RTVSPropertyOp28
 70
     1
102
RTVSPropertyOp29
 70
     1
102
RTVSPropertyOp30
 70
     1
102
RTVSPropertyOp31
 70
     1
102
RTVSPropertyOp32
 70
     1
102
RTVSPropertyOp33
 70
     1
102
RTVSPropertyOp34
 70
     1
102
RTVSPropertyOp35
 70
     1
102
RTVSPropertyOp36
 70
     1
102
RTVSPropertyOp37
 70
     1
102
RTVSPropertyOp38
 70
     1
102
RTVSPropertyOp39
 70
     1
102
RTVSPropertyOp40
 70
     1
102
RTVSPropertyOp41
 70
     1
102
RTVSPropertyOp42
 70
     1
102
RTVSPropertyOp43
 70
     1
102
RTVSPropertyOp44
 70
     1
102
RTVSPropertyOp45
 70
     1
102
RTVSPropertyOp46
 70
     1
102
RTVSPropertyOp47
 70
     1
102
RTVSPropertyOp48
 70
     1
102
RTVSPropertyOp49
 70
     1
102
RTVSPropertyOp50
 70
     1
102
RTVSPropertyOp51
 70
     0
102
RTVSPropertyOp52
 70
     0
102
RTVSPropertyOp53
 70
     1
102
RTVSPropertyOp54
 70
     1
102
RTVSPropertyOp55
 70
     1
102
RTVSPropertyOp56
 70
     1
102
RTVSPropertyOp57
 70
     1
102
RTVSPropertyOp58
 70
     1
102
RTVSPropertyOp59
 70
     1
102
RTVSPropertyOp60
 70
     1
102
RTVSPropertyOp61
 70
     1
102
RTVSPropertyOp62
 70
     1
  0
XRECORD
  5
5A9
102
{ACAD_REACTORS
330
5A8
102
}
330
5A8
100
AcDbXrecord
280
     1
102
RTVSPost2010Prop28
280
     0
102
RTVSPost2010PropOp28
 70
     1
102
RTVSPost2010Prop29
280
     1
102
RTVSPost2010PropOp29
 70
     1
102
RTVSPost2010Prop30
280
     1
102
RTVSPost2010PropOp30
 70
     1
102
RTVSPost2010Prop31
280
     0
102
RTVSPost2010PropOp31
 70
     1
102
RTVSPost2010Prop32
280
     0
102
RTVSPost2010PropOp32
 70
     1
102
RTVSPost2010Prop33
280
     0
102
RTVSPost2010PropOp33
 70
     1
102
RTVSPost2010Prop34
280
     0
102
RTVSPost2010PropOp34
 70
     1
102
RTVSPost2010Prop35
280
     0
102
RTVSPost2010PropOp35
 70
     1
102
RTVSPost2010Prop36
280
     0
102
RTVSPost2010PropOp36
 70
     1
102
RTVSPost2010Prop37
 90
       50
102
RTVSPost2010PropOp37
 70
     1
102
RTVSPost2010Prop38
140
0.0
102
RTVSPost2010PropOp38
 70
     1
102
RTVSPost2010Prop39
140
1.0
102
RTVSPost2010PropOp39
 70
     1
102
RTVSPost2010Prop40
 90
        0
102
RTVSPost2010PropOp40
 70
     1
102
RTVSPost2010Prop41ColorIndex
 90
       18
102
RTVSPost2010Prop41ColorRGB
 90
        0
102
RTVSPost2010PropOp41
 70
     1
102
RTVSPost2010Prop42
 90
       50
102
RTVSPost2010PropOp42
 70
     1
102
RTVSPost2010Prop43
 90
        3
102
RTVSPost2010PropOp43
 70
     1
102
RTVSPost2010Prop44ColorIndex
 90
        5
102
RTVSPost2010Prop44ColorRGB
 90
      255
102
RTVSPost2010PropOp44
 70
     1
102
RTVSPost2010Prop45
280
     0
102
RTVSPost2010PropOp45
 70
     1
102
RTVSPost2010Prop46
 90
       50
102
RTVSPost2010PropOp46
 70
     1
102
RTVSPost2010Prop47
 90
       50
102
RTVSPost2010PropOp47
 70
     1
102
RTVSPost2010Prop48
 90
       50
102
RTVSPost2010PropOp48
 70
     1
102
RTVSPost2010Prop49
280
     0
102
RTVSPost2010PropOp49
 70
     1
102
RTVSPost2010Prop50
 90
       50
102
RTVSPost2010PropOp50
 70
     1
102
RTVSPost2010Prop51ColorIndex
 90
      256
102
RTVSPost2010Prop51ColorRGB
 90
-16777216
102
RTVSPost2010PropOp51
 70
     0
102
RTVSPost2010Prop52
140
1.0
102
RTVSPost2010PropOp52
 70
     0
102
RTVSPost2010Prop53
 90
        2
102
RTVSPost2010PropOp53
 70
     1
102
RTVSPost2010Prop54
  1
strokes_ogs.tif
102
RTVSPost2010PropOp54
 70
     1
102
RTVSPost2010Prop55
280
     0
102
RTVSPost2010PropOp55
 70
     1
102
RTVSPost2010Prop56
140
1.0
102
RTVSPost2010PropOp56
 70
     1
102
RTVSPost2010Prop57
140
1.0
102
RTVSPost2010PropOp57
 70
     1
102
RTVSPropertyOp0
 70
     1
102
RTVSPropertyOp1
 70
     1
102
RTVSPropertyOp2
 70
     1
102
RTVSPropertyOp3
 70
     1
102
RTVSPropertyOp4
 70
     1
102
RTVSPropertyOp5
 70
     1
102
RTVSPropertyOp6
 70
     1
102
RTVSPropertyOp7
 70
     1
102
RTVSPropertyOp8
 70
     1
102
RTVSPropertyOp9
 70
     1
102
RTVSPropertyOp10
 70
     1
102
RTVSPropertyOp11
 70
     1
102
RTVSPropertyOp12
 70
     1
102
RTVSPropertyOp13
 70
     1
102
RTVSPropertyOp14
 70
     1
102
RTVSPropertyOp15
 70
     1
102
RTVSPropertyOp16
 70
     1
102
RTVSPropertyOp17
 70
     1
102
RTVSPropertyOp18
 70
     1
102
RTVSPropertyOp19
 70
     1
102
RTVSPropertyOp20
 70
     1
102
RTVSPropertyOp21
 70
     1
102
RTVSPropertyOp22
 70
     1
102
RTVSPropertyOp23
 70
     1
102
RTVSPropertyOp24
 70
     1
102
RTVSPropertyOp25
 70
     1
102
RTVSPropertyOp26
 70
     1
102
RTVSPropertyOp27
 70
     1
102
RTVSPropertyOp28
 70
     1
102
RTVSPropertyOp29
 70
     1
102
RTVSPropertyOp30
 70
     1
102
RTVSPropertyOp31
 70
     1
102
RTVSPropertyOp32
 70
     1
102
RTVSPropertyOp33
 70
     1
102
RTVSPropertyOp34
 70
     1
102
RTVSPropertyOp35
 70
     1
102
RTVSPropertyOp36
 70
     1
102
RTVSPropertyOp37
 70
     1
102
RTVSPropertyOp38
 70
     1
102
RTVSPropertyOp39
 70
     1
102
RTVSPropertyOp40
 70
     1
102
RTVSPropertyOp41
 70
     1
102
RTVSPropertyOp42
 70
     1
102
RTVSPropertyOp43
 70
     1
102
RTVSPropertyOp44
 70
     1
102
RTVSPropertyOp45
 70
     1
102
RTVSPropertyOp46
 70
     1
102
RTVSPropertyOp47
 70
     1
102
RTVSPropertyOp48
 70
     1
102
RTVSPropertyOp49
 70
     1
102
RTVSPropertyOp50
 70
     1
102
RTVSPropertyOp51
 70
     0
102
RTVSPropertyOp52
 70
     0
102
RTVSPropertyOp53
 70
     1
102
RTVSPropertyOp54
 70
     1
102
RTVSPropertyOp55
 70
     1
102
RTVSPropertyOp56
 70
     1
102
RTVSPropertyOp57
 70
     1
102
RTVSPropertyOp58
 70
     1
102
RTVSPropertyOp59
 70
     1
102
RTVSPropertyOp60
 70
     1
102
RTVSPropertyOp61
 70
     1
102
RTVSPropertyOp62
 70
     1
  0
XRECORD
  5
5D2
102
{ACAD_REACTORS
330
5D1
102
}
330
5D1
100
AcDbXrecord
280
     1
102
RTVSPost2010Prop28
280
     0
102
RTVSPost2010PropOp28
 70
     0
102
RTVSPost2010Prop29
280
     1
102
RTVSPost2010PropOp29
 70
     0
102
RTVSPost2010Prop30
280
     1
102
RTVSPost2010PropOp30
 70
     0
102
RTVSPost2010Prop31
280
     0
102
RTVSPost2010PropOp31
 70
     0
102
RTVSPost2010Prop32
280
     0
102
RTVSPost2010PropOp32
 70
     0
102
RTVSPost2010Prop33
280
     0
102
RTVSPost2010PropOp33
 70
     0
102
RTVSPost2010Prop34
280
     0
102
RTVSPost2010PropOp34
 70
     0
102
RTVSPost2010Prop35
280
     0
102
RTVSPost2010PropOp35
 70
     0
102
RTVSPost2010Prop36
280
     0
102
RTVSPost2010PropOp36
 70
     0
102
RTVSPost2010Prop37
 90
       50
102
RTVSPost2010PropOp37
 70
     0
102
RTVSPost2010Prop38
140
0.0
102
RTVSPost2010PropOp38
 70
     0
102
RTVSPost2010Prop39
140
1.0
102
RTVSPost2010PropOp39
 70
     0
102
RTVSPost2010Prop40
 90
        0
102
RTVSPost2010PropOp40
 70
     0
102
RTVSPost2010Prop41ColorIndex
 90
       18
102
RTVSPost2010Prop41ColorRGB
 90
        0
102
RTVSPost2010PropOp41
 70
     0
102
RTVSPost2010Prop42
 90
       50
102
RTVSPost2010PropOp42
 70
     0
102
RTVSPost2010Prop43
 90
        3
102
RTVSPost2010PropOp43
 70
     0
102
RTVSPost2010Prop44ColorIndex
 90
        5
102
RTVSPost2010Prop44ColorRGB
 90
      255
102
RTVSPost2010PropOp44
 70
     0
102
RTVSPost2010Prop45
280
     0
102
RTVSPost2010PropOp45
 70
     0
102
RTVSPost2010Prop46
 90
       50
102
RTVSPost2010PropOp46
 70
     0
102
RTVSPost2010Prop47
 90
       50
102
RTVSPost2010PropOp47
 70
     0
102
RTVSPost2010Prop48
 90
       50
102
RTVSPost2010PropOp48
 70
     0
102
RTVSPost2010Prop49
280
     0
102
RTVSPost2010PropOp49
 70
     0
102
RTVSPost2010Prop50
 90
       50
102
RTVSPost2010PropOp50
 70
     0
102
RTVSPost2010Prop51ColorIndex
 90
      256
102
RTVSPost2010Prop51ColorRGB
 90
-16777216
102
RTVSPost2010PropOp51
 70
     0
102
RTVSPost2010Prop52
140
1.0
102
RTVSPost2010PropOp52
 70
     0
102
RTVSPost2010Prop53
 90
        2
102
RTVSPost2010PropOp53
 70
     0
102
RTVSPost2010Prop54
  1
strokes_ogs.tif
102
RTVSPost2010PropOp54
 70
     0
102
RTVSPost2010Prop55
280
     0
102
RTVSPost2010PropOp55
 70
     0
102
RTVSPost2010Prop56
140
1.0
102
RTVSPost2010PropOp56
 70
     0
102
RTVSPost2010Prop57
140
1.0
102
RTVSPost2010PropOp57
 70
     0
102
RTVSPropertyOp0
 70
     0
102
RTVSPropertyOp1
 70
     0
102
RTVSPropertyOp2
 70
     0
102
RTVSPropertyOp3
 70
     0
102
RTVSPropertyOp4
 70
     0
102
RTVSPropertyOp5
 70
     0
102
RTVSPropertyOp6
 70
     0
102
RTVSPropertyOp7
 70
     0
102
RTVSPropertyOp8
 70
     0
102
RTVSPropertyOp9
 70
     0
102
RTVSPropertyOp10
 70
     0
102
RTVSPropertyOp11
 70
     0
102
RTVSPropertyOp12
 70
     0
102
RTVSPropertyOp13
 70
     0
102
RTVSPropertyOp14
 70
     2
102
RTVSPropertyOp15
 70
     0
102
RTVSPropertyOp16
 70
     0
102
RTVSPropertyOp17
 70
     0
102
RTVSPropertyOp18
 70
     0
102
RTVSPropertyOp19
 70
     0
102
RTVSPropertyOp20
 70
     0
102
RTVSPropertyOp21
 70
     0
102
RTVSPropertyOp22
 70
     0
102
RTVSPropertyOp23
 70
     0
102
RTVSPropertyOp24
 70
     0
102
RTVSPropertyOp25
 70
     0
102
RTVSPropertyOp26
 70
     0
102
RTVSPropertyOp27
 70
     0
102
RTVSPropertyOp28
 70
     0
102
RTVSPropertyOp29
 70
     0
102
RTVSPropertyOp30
 70
     0
102
RTVSPropertyOp31
 70
     0
102
RTVSPropertyOp32
 70
     0
102
RTVSPropertyOp33
 70
     0
102
RTVSPropertyOp34
 70
     0
102
RTVSPropertyOp35
 70
     0
102
RTVSPropertyOp36
 70
     0
102
RTVSPropertyOp37
 70
     0
102
RTVSPropertyOp38
 70
     0
102
RTVSPropertyOp39
 70
     0
102
RTVSPropertyOp40
 70
     0
102
RTVSPropertyOp41
 70
     0
102
RTVSPropertyOp42
 70
     0
102
RTVSPropertyOp43
 70
     0
102
RTVSPropertyOp44
 70
     0
102
RTVSPropertyOp45
 70
     0
102
RTVSPropertyOp46
 70
     0
102
RTVSPropertyOp47
 70
     0
102
RTVSPropertyOp48
 70
     0
102
RTVSPropertyOp49
 70
     0
102
RTVSPropertyOp50
 70
     0
102
RTVSPropertyOp51
 70
     0
102
RTVSPropertyOp52
 70
     0
102
RTVSPropertyOp53
 70
     0
102
RTVSPropertyOp54
 70
     0
102
RTVSPropertyOp55
 70
     0
102
RTVSPropertyOp56
 70
     0
102
RTVSPropertyOp57
 70
     0
102
RTVSPropertyOp58
 70
     1
102
RTVSPropertyOp59
 70
     1
102
RTVSPropertyOp60
 70
     1
102
RTVSPropertyOp61
 70
     1
102
RTVSPropertyOp62
 70
     1
  0
XRECORD
  5
5B1
102
{ACAD_REACTORS
330
5B0
102
}
330
5B0
100
AcDbXrecord
280
     1
102
RTVSPost2010Prop28
280
     0
102
RTVSPost2010PropOp28
 70
     1
102
RTVSPost2010Prop29
280
     1
102
RTVSPost2010PropOp29
 70
     1
102
RTVSPost2010Prop30
280
     1
102
RTVSPost2010PropOp30
 70
     1
102
RTVSPost2010Prop31
280
     0
102
RTVSPost2010PropOp31
 70
     1
102
RTVSPost2010Prop32
280
     0
102
RTVSPost2010PropOp32
 70
     1
102
RTVSPost2010Prop33
280
     0
102
RTVSPost2010PropOp33
 70
     1
102
RTVSPost2010Prop34
280
     0
102
RTVSPost2010PropOp34
 70
     1
102
RTVSPost2010Prop35
280
     0
102
RTVSPost2010PropOp35
 70
     1
102
RTVSPost2010Prop36
280
     0
102
RTVSPost2010PropOp36
 70
     1
102
RTVSPost2010Prop37
 90
       50
102
RTVSPost2010PropOp37
 70
     1
102
RTVSPost2010Prop38
140
0.0
102
RTVSPost2010PropOp38
 70
     1
102
RTVSPost2010Prop39
140
1.0
102
RTVSPost2010PropOp39
 70
     1
102
RTVSPost2010Prop40
 90
        0
102
RTVSPost2010PropOp40
 70
     1
102
RTVSPost2010Prop41ColorIndex
 90
       18
102
RTVSPost2010Prop41ColorRGB
 90
        0
102
RTVSPost2010PropOp41
 70
     1
102
RTVSPost2010Prop42
 90
       50
102
RTVSPost2010PropOp42
 70
     1
102
RTVSPost2010Prop43
 90
        3
102
RTVSPost2010PropOp43
 70
     1
102
RTVSPost2010Prop44ColorIndex
 90
        5
102
RTVSPost2010Prop44ColorRGB
 90
      255
102
RTVSPost2010PropOp44
 70
     1
102
RTVSPost2010Prop45
280
     0
102
RTVSPost2010PropOp45
 70
     1
102
RTVSPost2010Prop46
 90
       50
102
RTVSPost2010PropOp46
 70
     1
102
RTVSPost2010Prop47
 90
       50
102
RTVSPost2010PropOp47
 70
     1
102
RTVSPost2010Prop48
 90
       50
102
RTVSPost2010PropOp48
 70
     1
102
RTVSPost2010Prop49
280
     0
102
RTVSPost2010PropOp49
 70
     1
102
RTVSPost2010Prop50
 90
       50
102
RTVSPost2010PropOp50
 70
     1
102
RTVSPost2010Prop51ColorIndex
 90
      256
102
RTVSPost2010Prop51ColorRGB
 90
-16777216
102
RTVSPost2010PropOp51
 70
     0
102
RTVSPost2010Prop52
140
1.0
102
RTVSPost2010PropOp52
 70
     0
102
RTVSPost2010Prop53
 90
        2
102
RTVSPost2010PropOp53
 70
     1
102
RTVSPost2010Prop54
  1
strokes_ogs.tif
102
RTVSPost2010PropOp54
 70
     1
102
RTVSPost2010Prop55
280
     0
102
RTVSPost2010PropOp55
 70
     1
102
RTVSPost2010Prop56
140
1.0
102
RTVSPost2010PropOp56
 70
     1
102
RTVSPost2010Prop57
140
1.0
102
RTVSPost2010PropOp57
 70
     1
102
RTVSPropertyOp0
 70
     1
102
RTVSPropertyOp1
 70
     1
102
RTVSPropertyOp2
 70
     1
102
RTVSPropertyOp3
 70
     1
102
RTVSPropertyOp4
 70
     1
102
RTVSPropertyOp5
 70
     1
102
RTVSPropertyOp6
 70
     1
102
RTVSPropertyOp7
 70
     1
102
RTVSPropertyOp8
 70
     1
102
RTVSPropertyOp9
 70
     1
102
RTVSPropertyOp10
 70
     1
102
RTVSPropertyOp11
 70
     1
102
RTVSPropertyOp12
 70
     1
102
RTVSPropertyOp13
 70
     1
102
RTVSPropertyOp14
 70
     1
102
RTVSPropertyOp15
 70
     1
102
RTVSPropertyOp16
 70
     1
102
RTVSPropertyOp17
 70
     1
102
RTVSPropertyOp18
 70
     1
102
RTVSPropertyOp19
 70
     1
102
RTVSPropertyOp20
 70
     1
102
RTVSPropertyOp21
 70
     1
102
RTVSPropertyOp22
 70
     1
102
RTVSPropertyOp23
 70
     1
102
RTVSPropertyOp24
 70
     1
102
RTVSPropertyOp25
 70
     1
102
RTVSPropertyOp26
 70
     1
102
RTVSPropertyOp27
 70
     1
102
RTVSPropertyOp28
 70
     1
102
RTVSPropertyOp29
 70
     1
102
RTVSPropertyOp30
 70
     1
102
RTVSPropertyOp31
 70
     1
102
RTVSPropertyOp32
 70
     1
102
RTVSPropertyOp33
 70
     1
102
RTVSPropertyOp34
 70
     1
102
RTVSPropertyOp35
 70
     1
102
RTVSPropertyOp36
 70
     1
102
RTVSPropertyOp37
 70
     1
102
RTVSPropertyOp38
 70
     1
102
RTVSPropertyOp39
 70
     1
102
RTVSPropertyOp40
 70
     1
102
RTVSPropertyOp41
 70
     1
102
RTVSPropertyOp42
 70
     1
102
RTVSPropertyOp43
 70
     1
102
RTVSPropertyOp44
 70
     1
102
RTVSPropertyOp45
 70
     1
102
RTVSPropertyOp46
 70
     1
102
RTVSPropertyOp47
 70
     1
102
RTVSPropertyOp48
 70
     1
102
RTVSPropertyOp49
 70
     1
102
RTVSPropertyOp50
 70
     1
102
RTVSPropertyOp51
 70
     0
102
RTVSPropertyOp52
 70
     0
102
RTVSPropertyOp53
 70
     1
102
RTVSPropertyOp54
 70
     1
102
RTVSPropertyOp55
 70
     1
102
RTVSPropertyOp56
 70
     1
102
RTVSPropertyOp57
 70
     1
102
RTVSPropertyOp58
 70
     1
102
RTVSPropertyOp59
 70
     1
102
RTVSPropertyOp60
 70
     1
102
RTVSPropertyOp61
 70
     1
102
RTVSPropertyOp62
 70
     1
  0
XRECORD
  5
595
102
{ACAD_REACTORS
330
594
102
}
330
594
100
AcDbXrecord
280
     1
102
RTVSPost2010Prop28
280
     0
102
RTVSPost2010PropOp28
 70
     1
102
RTVSPost2010Prop29
280
     1
102
RTVSPost2010PropOp29
 70
     1
102
RTVSPost2010Prop30
280
     1
102
RTVSPost2010PropOp30
 70
     1
102
RTVSPost2010Prop31
280
     0
102
RTVSPost2010PropOp31
 70
     1
102
RTVSPost2010Prop32
280
     0
102
RTVSPost2010PropOp32
 70
     1
102
RTVSPost2010Prop33
280
     0
102
RTVSPost2010PropOp33
 70
     1
102
RTVSPost2010Prop34
280
     0
102
RTVSPost2010PropOp34
 70
     1
102
RTVSPost2010Prop35
280
     0
102
RTVSPost2010PropOp35
 70
     1
102
RTVSPost2010Prop36
280
     0
102
RTVSPost2010PropOp36
 70
     1
102
RTVSPost2010Prop37
 90
       50
102
RTVSPost2010PropOp37
 70
     1
102
RTVSPost2010Prop38
140
0.0
102
RTVSPost2010PropOp38
 70
     1
102
RTVSPost2010Prop39
140
1.0
102
RTVSPost2010PropOp39
 70
     1
102
RTVSPost2010Prop40
 90
        0
102
RTVSPost2010PropOp40
 70
     1
102
RTVSPost2010Prop41ColorIndex
 90
       18
102
RTVSPost2010Prop41ColorRGB
 90
        0
102
RTVSPost2010PropOp41
 70
     1
102
RTVSPost2010Prop42
 90
       50
102
RTVSPost2010PropOp42
 70
     1
102
RTVSPost2010Prop43
 90
        3
102
RTVSPost2010PropOp43
 70
     1
102
RTVSPost2010Prop44ColorIndex
 90
        5
102
RTVSPost2010Prop44ColorRGB
 90
      255
102
RTVSPost2010PropOp44
 70
     1
102
RTVSPost2010Prop45
280
     0
102
RTVSPost2010PropOp45
 70
     1
102
RTVSPost2010Prop46
 90
       50
102
RTVSPost2010PropOp46
 70
     1
102
RTVSPost2010Prop47
 90
       50
102
RTVSPost2010PropOp47
 70
     1
102
RTVSPost2010Prop48
 90
       50
102
RTVSPost2010PropOp48
 70
     1
102
RTVSPost2010Prop49
280
     0
102
RTVSPost2010PropOp49
 70
     1
102
RTVSPost2010Prop50
 90
       50
102
RTVSPost2010PropOp50
 70
     1
102
RTVSPost2010Prop51ColorIndex
 90
      256
102
RTVSPost2010Prop51ColorRGB
 90
-16777216
102
RTVSPost2010PropOp51
 70
     0
102
RTVSPost2010Prop52
140
1.0
102
RTVSPost2010PropOp52
 70
     0
102
RTVSPost2010Prop53
 90
        2
102
RTVSPost2010PropOp53
 70
     1
102
RTVSPost2010Prop54
  1
strokes_ogs.tif
102
RTVSPost2010PropOp54
 70
     1
102
RTVSPost2010Prop55
280
     0
102
RTVSPost2010PropOp55
 70
     1
102
RTVSPost2010Prop56
140
1.0
102
RTVSPost2010PropOp56
 70
     1
102
RTVSPost2010Prop57
140
1.0
102
RTVSPost2010PropOp57
 70
     1
102
RTVSPropertyOp0
 70
     1
102
RTVSPropertyOp1
 70
     1
102
RTVSPropertyOp2
 70
     1
102
RTVSPropertyOp3
 70
     1
102
RTVSPropertyOp4
 70
     1
102
RTVSPropertyOp5
 70
     1
102
RTVSPropertyOp6
 70
     1
102
RTVSPropertyOp7
 70
     1
102
RTVSPropertyOp8
 70
     1
102
RTVSPropertyOp9
 70
     1
102
RTVSPropertyOp10
 70
     1
102
RTVSPropertyOp11
 70
     1
102
RTVSPropertyOp12
 70
     1
102
RTVSPropertyOp13
 70
     1
102
RTVSPropertyOp14
 70
     1
102
RTVSPropertyOp15
 70
     1
102
RTVSPropertyOp16
 70
     1
102
RTVSPropertyOp17
 70
     1
102
RTVSPropertyOp18
 70
     1
102
RTVSPropertyOp19
 70
     1
102
RTVSPropertyOp20
 70
     1
102
RTVSPropertyOp21
 70
     1
102
RTVSPropertyOp22
 70
     1
102
RTVSPropertyOp23
 70
     1
102
RTVSPropertyOp24
 70
     1
102
RTVSPropertyOp25
 70
     1
102
RTVSPropertyOp26
 70
     1
102
RTVSPropertyOp27
 70
     1
102
RTVSPropertyOp28
 70
     1
102
RTVSPropertyOp29
 70
     1
102
RTVSPropertyOp30
 70
     1
102
RTVSPropertyOp31
 70
     1
102
RTVSPropertyOp32
 70
     1
102
RTVSPropertyOp33
 70
     1
102
RTVSPropertyOp34
 70
     1
102
RTVSPropertyOp35
 70
     1
102
RTVSPropertyOp36
 70
     1
102
RTVSPropertyOp37
 70
     1
102
RTVSPropertyOp38
 70
     1
102
RTVSPropertyOp39
 70
     1
102
RTVSPropertyOp40
 70
     1
102
RTVSPropertyOp41
 70
     1
102
RTVSPropertyOp42
 70
     1
102
RTVSPropertyOp43
 70
     1
102
RTVSPropertyOp44
 70
     1
102
RTVSPropertyOp45
 70
     1
102
RTVSPropertyOp46
 70
     1
102
RTVSPropertyOp47
 70
     1
102
RTVSPropertyOp48
 70
     1
102
RTVSPropertyOp49
 70
     1
102
RTVSPropertyOp50
 70
     1
102
RTVSPropertyOp51
 70
     0
102
RTVSPropertyOp52
 70
     0
102
RTVSPropertyOp53
 70
     1
102
RTVSPropertyOp54
 70
     1
102
RTVSPropertyOp55
 70
     1
102
RTVSPropertyOp56
 70
     1
102
RTVSPropertyOp57
 70
     1
102
RTVSPropertyOp58
 70
     1
102
RTVSPropertyOp59
 70
     1
102
RTVSPropertyOp60
 70
     1
102
RTVSPropertyOp61
 70
     1
102
RTVSPropertyOp62
 70
     1
  0
XRECORD
  5
597
102
{ACAD_REACTORS
330
596
102
}
330
596
100
AcDbXrecord
280
     1
102
RTVSPost2010Prop28
280
     0
102
RTVSPost2010PropOp28
 70
     1
102
RTVSPost2010Prop29
280
     1
102
RTVSPost2010PropOp29
 70
     1
102
RTVSPost2010Prop30
280
     1
102
RTVSPost2010PropOp30
 70
     1
102
RTVSPost2010Prop31
280
     0
102
RTVSPost2010PropOp31
 70
     1
102
RTVSPost2010Prop32
280
     0
102
RTVSPost2010PropOp32
 70
     1
102
RTVSPost2010Prop33
280
     0
102
RTVSPost2010PropOp33
 70
     1
102
RTVSPost2010Prop34
280
     0
102
RTVSPost2010PropOp34
 70
     1
102
RTVSPost2010Prop35
280
     0
102
RTVSPost2010PropOp35
 70
     1
102
RTVSPost2010Prop36
280
     0
102
RTVSPost2010PropOp36
 70
     1
102
RTVSPost2010Prop37
 90
       50
102
RTVSPost2010PropOp37
 70
     1
102
RTVSPost2010Prop38
140
0.0
102
RTVSPost2010PropOp38
 70
     1
102
RTVSPost2010Prop39
140
1.0
102
RTVSPost2010PropOp39
 70
     1
102
RTVSPost2010Prop40
 90
        0
102
RTVSPost2010PropOp40
 70
     1
102
RTVSPost2010Prop41ColorIndex
 90
       18
102
RTVSPost2010Prop41ColorRGB
 90
        0
102
RTVSPost2010PropOp41
 70
     1
102
RTVSPost2010Prop42
 90
       50
102
RTVSPost2010PropOp42
 70
     1
102
RTVSPost2010Prop43
 90
        3
102
RTVSPost2010PropOp43
 70
     1
102
RTVSPost2010Prop44ColorIndex
 90
        5
102
RTVSPost2010Prop44ColorRGB
 90
      255
102
RTVSPost2010PropOp44
 70
     1
102
RTVSPost2010Prop45
280
     0
102
RTVSPost2010PropOp45
 70
     1
102
RTVSPost2010Prop46
 90
       50
102
RTVSPost2010PropOp46
 70
     1
102
RTVSPost2010Prop47
 90
       50
102
RTVSPost2010PropOp47
 70
     1
102
RTVSPost2010Prop48
 90
       50
102
RTVSPost2010PropOp48
 70
     1
102
RTVSPost2010Prop49
280
     0
102
RTVSPost2010PropOp49
 70
     1
102
RTVSPost2010Prop50
 90
       50
102
RTVSPost2010PropOp50
 70
     1
102
RTVSPost2010Prop51ColorIndex
 90
      256
102
RTVSPost2010Prop51ColorRGB
 90
-16777216
102
RTVSPost2010PropOp51
 70
     0
102
RTVSPost2010Prop52
140
1.0
102
RTVSPost2010PropOp52
 70
     0
102
RTVSPost2010Prop53
 90
        2
102
RTVSPost2010PropOp53
 70
     1
102
RTVSPost2010Prop54
  1
strokes_ogs.tif
102
RTVSPost2010PropOp54
 70
     1
102
RTVSPost2010Prop55
280
     0
102
RTVSPost2010PropOp55
 70
     1
102
RTVSPost2010Prop56
140
1.0
102
RTVSPost2010PropOp56
 70
     1
102
RTVSPost2010Prop57
140
1.0
102
RTVSPost2010PropOp57
 70
     1
102
RTVSPropertyOp0
 70
     1
102
RTVSPropertyOp1
 70
     1
102
RTVSPropertyOp2
 70
     1
102
RTVSPropertyOp3
 70
     1
102
RTVSPropertyOp4
 70
     1
102
RTVSPropertyOp5
 70
     1
102
RTVSPropertyOp6
 70
     1
102
RTVSPropertyOp7
 70
     1
102
RTVSPropertyOp8
 70
     1
102
RTVSPropertyOp9
 70
     1
102
RTVSPropertyOp10
 70
     1
102
RTVSPropertyOp11
 70
     1
102
RTVSPropertyOp12
 70
     1
102
RTVSPropertyOp13
 70
     1
102
RTVSPropertyOp14
 70
     1
102
RTVSPropertyOp15
 70
     1
102
RTVSPropertyOp16
 70
     1
102
RTVSPropertyOp17
 70
     1
102
RTVSPropertyOp18
 70
     1
102
RTVSPropertyOp19
 70
     1
102
RTVSPropertyOp20
 70
     1
102
RTVSPropertyOp21
 70
     1
102
RTVSPropertyOp22
 70
     1
102
RTVSPropertyOp23
 70
     1
102
RTVSPropertyOp24
 70
     1
102
RTVSPropertyOp25
 70
     1
102
RTVSPropertyOp26
 70
     1
102
RTVSPropertyOp27
 70
     1
102
RTVSPropertyOp28
 70
     1
102
RTVSPropertyOp29
 70
     1
102
RTVSPropertyOp30
 70
     1
102
RTVSPropertyOp31
 70
     1
102
RTVSPropertyOp32
 70
     1
102
RTVSPropertyOp33
 70
     1
102
RTVSPropertyOp34
 70
     1
102
RTVSPropertyOp35
 70
     1
102
RTVSPropertyOp36
 70
     1
102
RTVSPropertyOp37
 70
     1
102
RTVSPropertyOp38
 70
     1
102
RTVSPropertyOp39
 70
     1
102
RTVSPropertyOp40
 70
     1
102
RTVSPropertyOp41
 70
     1
102
RTVSPropertyOp42
 70
     1
102
RTVSPropertyOp43
 70
     1
102
RTVSPropertyOp44
 70
     1
102
RTVSPropertyOp45
 70
     1
102
RTVSPropertyOp46
 70
     1
102
RTVSPropertyOp47
 70
     1
102
RTVSPropertyOp48
 70
     1
102
RTVSPropertyOp49
 70
     1
102
RTVSPropertyOp50
 70
     1
102
RTVSPropertyOp51
 70
     0
102
RTVSPropertyOp52
 70
     0
102
RTVSPropertyOp53
 70
     1
102
RTVSPropertyOp54
 70
     1
102
RTVSPropertyOp55
 70
     1
102
RTVSPropertyOp56
 70
     1
102
RTVSPropertyOp57
 70
     1
102
RTVSPropertyOp58
 70
     1
102
RTVSPropertyOp59
 70
     1
102
RTVSPropertyOp60
 70
     1
102
RTVSPropertyOp61
 70
     1
102
RTVSPropertyOp62
 70
     1
  0
XRECORD
  5
599
102
{ACAD_REACTORS
330
598
102
}
330
598
100
AcDbXrecord
280
     1
102
RTVSPost2010Prop28
280
     0
102
RTVSPost2010PropOp28
 70
     1
102
RTVSPost2010Prop29
280
     1
102
RTVSPost2010PropOp29
 70
     1
102
RTVSPost2010Prop30
280
     1
102
RTVSPost2010PropOp30
 70
     1
102
RTVSPost2010Prop31
280
     0
102
RTVSPost2010PropOp31
 70
     1
102
RTVSPost2010Prop32
280
     0
102
RTVSPost2010PropOp32
 70
     1
102
RTVSPost2010Prop33
280
     0
102
RTVSPost2010PropOp33
 70
     1
102
RTVSPost2010Prop34
280
     0
102
RTVSPost2010PropOp34
 70
     1
102
RTVSPost2010Prop35
280
     0
102
RTVSPost2010PropOp35
 70
     1
102
RTVSPost2010Prop36
280
     0
102
RTVSPost2010PropOp36
 70
     1
102
RTVSPost2010Prop37
 90
       50
102
RTVSPost2010PropOp37
 70
     1
102
RTVSPost2010Prop38
140
0.0
102
RTVSPost2010PropOp38
 70
     1
102
RTVSPost2010Prop39
140
1.0
102
RTVSPost2010PropOp39
 70
     1
102
RTVSPost2010Prop40
 90
        0
102
RTVSPost2010PropOp40
 70
     1
102
RTVSPost2010Prop41ColorIndex
 90
       18
102
RTVSPost2010Prop41ColorRGB
 90
        0
102
RTVSPost2010PropOp41
 70
     1
102
RTVSPost2010Prop42
 90
       50
102
RTVSPost2010PropOp42
 70
     1
102
RTVSPost2010Prop43
 90
        3
102
RTVSPost2010PropOp43
 70
     1
102
RTVSPost2010Prop44ColorIndex
 90
        5
102
RTVSPost2010Prop44ColorRGB
 90
      255
102
RTVSPost2010PropOp44
 70
     1
102
RTVSPost2010Prop45
280
     0
102
RTVSPost2010PropOp45
 70
     1
102
RTVSPost2010Prop46
 90
       50
102
RTVSPost2010PropOp46
 70
     1
102
RTVSPost2010Prop47
 90
       50
102
RTVSPost2010PropOp47
 70
     1
102
RTVSPost2010Prop48
 90
       50
102
RTVSPost2010PropOp48
 70
     1
102
RTVSPost2010Prop49
280
     0
102
RTVSPost2010PropOp49
 70
     1
102
RTVSPost2010Prop50
 90
       50
102
RTVSPost2010PropOp50
 70
     1
102
RTVSPost2010Prop51ColorIndex
 90
      256
102
RTVSPost2010Prop51ColorRGB
 90
-16777216
102
RTVSPost2010PropOp51
 70
     0
102
RTVSPost2010Prop52
140
1.0
102
RTVSPost2010PropOp52
 70
     0
102
RTVSPost2010Prop53
 90
        2
102
RTVSPost2010PropOp53
 70
     1
102
RTVSPost2010Prop54
  1
strokes_ogs.tif
102
RTVSPost2010PropOp54
 70
     1
102
RTVSPost2010Prop55
280
     0
102
RTVSPost2010PropOp55
 70
     1
102
RTVSPost2010Prop56
140
1.0
102
RTVSPost2010PropOp56
 70
     1
102
RTVSPost2010Prop57
140
1.0
102
RTVSPost2010PropOp57
 70
     1
102
RTVSPropertyOp0
 70
     1
102
RTVSPropertyOp1
 70
     1
102
RTVSPropertyOp2
 70
     1
102
RTVSPropertyOp3
 70
     1
102
RTVSPropertyOp4
 70
     1
102
RTVSPropertyOp5
 70
     1
102
RTVSPropertyOp6
 70
     1
102
RTVSPropertyOp7
 70
     1
102
RTVSPropertyOp8
 70
     1
102
RTVSPropertyOp9
 70
     1
102
RTVSPropertyOp10
 70
     1
102
RTVSPropertyOp11
 70
     1
102
RTVSPropertyOp12
 70
     1
102
RTVSPropertyOp13
 70
     1
102
RTVSPropertyOp14
 70
     1
102
RTVSPropertyOp15
 70
     1
102
RTVSPropertyOp16
 70
     1
102
RTVSPropertyOp17
 70
     1
102
RTVSPropertyOp18
 70
     1
102
RTVSPropertyOp19
 70
     1
102
RTVSPropertyOp20
 70
     1
102
RTVSPropertyOp21
 70
     1
102
RTVSPropertyOp22
 70
     1
102
RTVSPropertyOp23
 70
     1
102
RTVSPropertyOp24
 70
     1
102
RTVSPropertyOp25
 70
     1
102
RTVSPropertyOp26
 70
     1
102
RTVSPropertyOp27
 70
     1
102
RTVSPropertyOp28
 70
     1
102
RTVSPropertyOp29
 70
     1
102
RTVSPropertyOp30
 70
     1
102
RTVSPropertyOp31
 70
     1
102
RTVSPropertyOp32
 70
     1
102
RTVSPropertyOp33
 70
     1
102
RTVSPropertyOp34
 70
     1
102
RTVSPropertyOp35
 70
     1
102
RTVSPropertyOp36
 70
     1
102
RTVSPropertyOp37
 70
     1
102
RTVSPropertyOp38
 70
     1
102
RTVSPropertyOp39
 70
     1
102
RTVSPropertyOp40
 70
     1
102
RTVSPropertyOp41
 70
     1
102
RTVSPropertyOp42
 70
     1
102
RTVSPropertyOp43
 70
     1
102
RTVSPropertyOp44
 70
     1
102
RTVSPropertyOp45
 70
     1
102
RTVSPropertyOp46
 70
     1
102
RTVSPropertyOp47
 70
     1
102
RTVSPropertyOp48
 70
     1
102
RTVSPropertyOp49
 70
     1
102
RTVSPropertyOp50
 70
     1
102
RTVSPropertyOp51
 70
     0
102
RTVSPropertyOp52
 70
     0
102
RTVSPropertyOp53
 70
     1
102
RTVSPropertyOp54
 70
     1
102
RTVSPropertyOp55
 70
     1
102
RTVSPropertyOp56
 70
     1
102
RTVSPropertyOp57
 70
     1
102
RTVSPropertyOp58
 70
     1
102
RTVSPropertyOp59
 70
     1
102
RTVSPropertyOp60
 70
     1
102
RTVSPropertyOp61
 70
     1
102
RTVSPropertyOp62
 70
     1
  0
XRECORD
  5
59B
102
{ACAD_REACTORS
330
59A
102
}
330
59A
100
AcDbXrecord
280
     1
102
RTVSPost2010Prop28
280
     0
102
RTVSPost2010PropOp28
 70
     1
102
RTVSPost2010Prop29
280
     1
102
RTVSPost2010PropOp29
 70
     1
102
RTVSPost2010Prop30
280
     1
102
RTVSPost2010PropOp30
 70
     1
102
RTVSPost2010Prop31
280
     0
102
RTVSPost2010PropOp31
 70
     1
102
RTVSPost2010Prop32
280
     0
102
RTVSPost2010PropOp32
 70
     1
102
RTVSPost2010Prop33
280
     0
102
RTVSPost2010PropOp33
 70
     1
102
RTVSPost2010Prop34
280
     0
102
RTVSPost2010PropOp34
 70
     1
102
RTVSPost2010Prop35
280
     0
102
RTVSPost2010PropOp35
 70
     1
102
RTVSPost2010Prop36
280
     0
102
RTVSPost2010PropOp36
 70
     1
102
RTVSPost2010Prop37
 90
       50
102
RTVSPost2010PropOp37
 70
     1
102
RTVSPost2010Prop38
140
0.0
102
RTVSPost2010PropOp38
 70
     1
102
RTVSPost2010Prop39
140
1.0
102
RTVSPost2010PropOp39
 70
     1
102
RTVSPost2010Prop40
 90
        0
102
RTVSPost2010PropOp40
 70
     1
102
RTVSPost2010Prop41ColorIndex
 90
       18
102
RTVSPost2010Prop41ColorRGB
 90
        0
102
RTVSPost2010PropOp41
 70
     1
102
RTVSPost2010Prop42
 90
       50
102
RTVSPost2010PropOp42
 70
     1
102
RTVSPost2010Prop43
 90
        3
102
RTVSPost2010PropOp43
 70
     1
102
RTVSPost2010Prop44ColorIndex
 90
        5
102
RTVSPost2010Prop44ColorRGB
 90
      255
102
RTVSPost2010PropOp44
 70
     1
102
RTVSPost2010Prop45
280
     0
102
RTVSPost2010PropOp45
 70
     1
102
RTVSPost2010Prop46
 90
       50
102
RTVSPost2010PropOp46
 70
     1
102
RTVSPost2010Prop47
 90
       50
102
RTVSPost2010PropOp47
 70
     1
102
RTVSPost2010Prop48
 90
       50
102
RTVSPost2010PropOp48
 70
     1
102
RTVSPost2010Prop49
280
     0
102
RTVSPost2010PropOp49
 70
     1
102
RTVSPost2010Prop50
 90
       50
102
RTVSPost2010PropOp50
 70
     1
102
RTVSPost2010Prop51ColorIndex
 90
      256
102
RTVSPost2010Prop51ColorRGB
 90
-16777216
102
RTVSPost2010PropOp51
 70
     0
102
RTVSPost2010Prop52
140
1.0
102
RTVSPost2010PropOp52
 70
     0
102
RTVSPost2010Prop53
 90
        2
102
RTVSPost2010PropOp53
 70
     1
102
RTVSPost2010Prop54
  1
strokes_ogs.tif
102
RTVSPost2010PropOp54
 70
     1
102
RTVSPost2010Prop55
280
     0
102
RTVSPost2010PropOp55
 70
     1
102
RTVSPost2010Prop56
140
1.0
102
RTVSPost2010PropOp56
 70
     1
102
RTVSPost2010Prop57
140
1.0
102
RTVSPost2010PropOp57
 70
     1
102
RTVSPropertyOp0
 70
     1
102
RTVSPropertyOp1
 70
     1
102
RTVSPropertyOp2
 70
     1
102
RTVSPropertyOp3
 70
     1
102
RTVSPropertyOp4
 70
     1
102
RTVSPropertyOp5
 70
     1
102
RTVSPropertyOp6
 70
     1
102
RTVSPropertyOp7
 70
     1
102
RTVSPropertyOp8
 70
     1
102
RTVSPropertyOp9
 70
     1
102
RTVSPropertyOp10
 70
     1
102
RTVSPropertyOp11
 70
     1
102
RTVSPropertyOp12
 70
     1
102
RTVSPropertyOp13
 70
     1
102
RTVSPropertyOp14
 70
     1
102
RTVSPropertyOp15
 70
     1
102
RTVSPropertyOp16
 70
     1
102
RTVSPropertyOp17
 70
     1
102
RTVSPropertyOp18
 70
     1
102
RTVSPropertyOp19
 70
     1
102
RTVSPropertyOp20
 70
     1
102
RTVSPropertyOp21
 70
     1
102
RTVSPropertyOp22
 70
     1
102
RTVSPropertyOp23
 70
     1
102
RTVSPropertyOp24
 70
     1
102
RTVSPropertyOp25
 70
     1
102
RTVSPropertyOp26
 70
     1
102
RTVSPropertyOp27
 70
     1
102
RTVSPropertyOp28
 70
     1
102
RTVSPropertyOp29
 70
     1
102
RTVSPropertyOp30
 70
     1
102
RTVSPropertyOp31
 70
     1
102
RTVSPropertyOp32
 70
     1
102
RTVSPropertyOp33
 70
     1
102
RTVSPropertyOp34
 70
     1
102
RTVSPropertyOp35
 70
     1
102
RTVSPropertyOp36
 70
     1
102
RTVSPropertyOp37
 70
     1
102
RTVSPropertyOp38
 70
     1
102
RTVSPropertyOp39
 70
     1
102
RTVSPropertyOp40
 70
     1
102
RTVSPropertyOp41
 70
     1
102
RTVSPropertyOp42
 70
     1
102
RTVSPropertyOp43
 70
     1
102
RTVSPropertyOp44
 70
     1
102
RTVSPropertyOp45
 70
     1
102
RTVSPropertyOp46
 70
     1
102
RTVSPropertyOp47
 70
     1
102
RTVSPropertyOp48
 70
     1
102
RTVSPropertyOp49
 70
     1
102
RTVSPropertyOp50
 70
     1
102
RTVSPropertyOp51
 70
     0
102
RTVSPropertyOp52
 70
     0
102
RTVSPropertyOp53
 70
     1
102
RTVSPropertyOp54
 70
     1
102
RTVSPropertyOp55
 70
     1
102
RTVSPropertyOp56
 70
     1
102
RTVSPropertyOp57
 70
     1
102
RTVSPropertyOp58
 70
     1
102
RTVSPropertyOp59
 70
     1
102
RTVSPropertyOp60
 70
     1
102
RTVSPropertyOp61
 70
     1
102
RTVSPropertyOp62
 70
     1
  0
XRECORD
  5
5C2
102
{ACAD_REACTORS
330
5C1
102
}
330
5C1
100
AcDbXrecord
280
     1
102
RTVSPost2010Prop28
280
     0
102
RTVSPost2010PropOp28
 70
     1
102
RTVSPost2010Prop29
280
     1
102
RTVSPost2010PropOp29
 70
     1
102
RTVSPost2010Prop30
280
     1
102
RTVSPost2010PropOp30
 70
     1
102
RTVSPost2010Prop31
280
     0
102
RTVSPost2010PropOp31
 70
     1
102
RTVSPost2010Prop32
280
     0
102
RTVSPost2010PropOp32
 70
     1
102
RTVSPost2010Prop33
280
     0
102
RTVSPost2010PropOp33
 70
     1
102
RTVSPost2010Prop34
280
     0
102
RTVSPost2010PropOp34
 70
     1
102
RTVSPost2010Prop35
280
     0
102
RTVSPost2010PropOp35
 70
     1
102
RTVSPost2010Prop36
280
     0
102
RTVSPost2010PropOp36
 70
     1
102
RTVSPost2010Prop37
 90
       50
102
RTVSPost2010PropOp37
 70
     1
102
RTVSPost2010Prop38
140
0.0
102
RTVSPost2010PropOp38
 70
     1
102
RTVSPost2010Prop39
140
1.0
102
RTVSPost2010PropOp39
 70
     1
102
RTVSPost2010Prop40
 90
        0
102
RTVSPost2010PropOp40
 70
     1
102
RTVSPost2010Prop41ColorIndex
 90
       18
102
RTVSPost2010Prop41ColorRGB
 90
        0
102
RTVSPost2010PropOp41
 70
     1
102
RTVSPost2010Prop42
 90
       50
102
RTVSPost2010PropOp42
 70
     1
102
RTVSPost2010Prop43
 90
        3
102
RTVSPost2010PropOp43
 70
     1
102
RTVSPost2010Prop44ColorIndex
 90
        5
102
RTVSPost2010Prop44ColorRGB
 90
      255
102
RTVSPost2010PropOp44
 70
     1
102
RTVSPost2010Prop45
280
     0
102
RTVSPost2010PropOp45
 70
     1
102
RTVSPost2010Prop46
 90
       50
102
RTVSPost2010PropOp46
 70
     1
102
RTVSPost2010Prop47
 90
       50
102
RTVSPost2010PropOp47
 70
     1
102
RTVSPost2010Prop48
 90
       50
102
RTVSPost2010PropOp48
 70
     1
102
RTVSPost2010Prop49
280
     0
102
RTVSPost2010PropOp49
 70
     1
102
RTVSPost2010Prop50
 90
       50
102
RTVSPost2010PropOp50
 70
     1
102
RTVSPost2010Prop51ColorIndex
 90
      256
102
RTVSPost2010Prop51ColorRGB
 90
-16777216
102
RTVSPost2010PropOp51
 70
     0
102
RTVSPost2010Prop52
140
1.0
102
RTVSPost2010PropOp52
 70
     0
102
RTVSPost2010Prop53
 90
        2
102
RTVSPost2010PropOp53
 70
     1
102
RTVSPost2010Prop54
  1
strokes_ogs.tif
102
RTVSPost2010PropOp54
 70
     1
102
RTVSPost2010Prop55
280
     0
102
RTVSPost2010PropOp55
 70
     1
102
RTVSPost2010Prop56
140
1.0
102
RTVSPost2010PropOp56
 70
     1
102
RTVSPost2010Prop57
140
1.0
102
RTVSPost2010PropOp57
 70
     1
102
RTVSPropertyOp0
 70
     1
102
RTVSPropertyOp1
 70
     1
102
RTVSPropertyOp2
 70
     1
102
RTVSPropertyOp3
 70
     1
102
RTVSPropertyOp4
 70
     1
102
RTVSPropertyOp5
 70
     1
102
RTVSPropertyOp6
 70
     1
102
RTVSPropertyOp7
 70
     1
102
RTVSPropertyOp8
 70
     1
102
RTVSPropertyOp9
 70
     1
102
RTVSPropertyOp10
 70
     1
102
RTVSPropertyOp11
 70
     1
102
RTVSPropertyOp12
 70
     1
102
RTVSPropertyOp13
 70
     1
102
RTVSPropertyOp14
 70
     1
102
RTVSPropertyOp15
 70
     1
102
RTVSPropertyOp16
 70
     1
102
RTVSPropertyOp17
 70
     1
102
RTVSPropertyOp18
 70
     1
102
RTVSPropertyOp19
 70
     1
102
RTVSPropertyOp20
 70
     1
102
RTVSPropertyOp21
 70
     1
102
RTVSPropertyOp22
 70
     1
102
RTVSPropertyOp23
 70
     1
102
RTVSPropertyOp24
 70
     1
102
RTVSPropertyOp25
 70
     1
102
RTVSPropertyOp26
 70
     1
102
RTVSPropertyOp27
 70
     1
102
RTVSPropertyOp28
 70
     1
102
RTVSPropertyOp29
 70
     1
102
RTVSPropertyOp30
 70
     1
102
RTVSPropertyOp31
 70
     1
102
RTVSPropertyOp32
 70
     1
102
RTVSPropertyOp33
 70
     1
102
RTVSPropertyOp34
 70
     1
102
RTVSPropertyOp35
 70
     1
102
RTVSPropertyOp36
 70
     1
102
RTVSPropertyOp37
 70
     1
102
RTVSPropertyOp38
 70
     1
102
RTVSPropertyOp39
 70
     1
102
RTVSPropertyOp40
 70
     1
102
RTVSPropertyOp41
 70
     1
102
RTVSPropertyOp42
 70
     1
102
RTVSPropertyOp43
 70
     1
102
RTVSPropertyOp44
 70
     1
102
RTVSPropertyOp45
 70
     1
102
RTVSPropertyOp46
 70
     1
102
RTVSPropertyOp47
 70
     1
102
RTVSPropertyOp48
 70
     1
102
RTVSPropertyOp49
 70
     1
102
RTVSPropertyOp50
 70
     1
102
RTVSPropertyOp51
 70
     0
102
RTVSPropertyOp52
 70
     0
102
RTVSPropertyOp53
 70
     1
102
RTVSPropertyOp54
 70
     1
102
RTVSPropertyOp55
 70
     1
102
RTVSPropertyOp56
 70
     1
102
RTVSPropertyOp57
 70
     1
102
RTVSPropertyOp58
 70
     1
102
RTVSPropertyOp59
 70
     1
102
RTVSPropertyOp60
 70
     1
102
RTVSPropertyOp61
 70
     1
102
RTVSPropertyOp62
 70
     1
  0
XRECORD
  5
5CE
102
{ACAD_REACTORS
330
5CD
102
}
330
5CD
100
AcDbXrecord
280
     1
102
RTVSPost2010Prop28
280
     0
102
RTVSPost2010PropOp28
 70
     0
102
RTVSPost2010Prop29
280
     1
102
RTVSPost2010PropOp29
 70
     0
102
RTVSPost2010Prop30
280
     1
102
RTVSPost2010PropOp30
 70
     0
102
RTVSPost2010Prop31
280
     0
102
RTVSPost2010PropOp31
 70
     0
102
RTVSPost2010Prop32
280
     0
102
RTVSPost2010PropOp32
 70
     0
102
RTVSPost2010Prop33
280
     0
102
RTVSPost2010PropOp33
 70
     0
102
RTVSPost2010Prop34
280
     0
102
RTVSPost2010PropOp34
 70
     0
102
RTVSPost2010Prop35
280
     0
102
RTVSPost2010PropOp35
 70
     0
102
RTVSPost2010Prop36
280
     0
102
RTVSPost2010PropOp36
 70
     0
102
RTVSPost2010Prop37
 90
       50
102
RTVSPost2010PropOp37
 70
     0
102
RTVSPost2010Prop38
140
0.0
102
RTVSPost2010PropOp38
 70
     0
102
RTVSPost2010Prop39
140
1.0
102
RTVSPost2010PropOp39
 70
     0
102
RTVSPost2010Prop40
 90
        0
102
RTVSPost2010PropOp40
 70
     0
102
RTVSPost2010Prop41ColorIndex
 90
       18
102
RTVSPost2010Prop41ColorRGB
 90
        0
102
RTVSPost2010PropOp41
 70
     0
102
RTVSPost2010Prop42
 90
       50
102
RTVSPost2010PropOp42
 70
     0
102
RTVSPost2010Prop43
 90
        3
102
RTVSPost2010PropOp43
 70
     0
102
RTVSPost2010Prop44ColorIndex
 90
        5
102
RTVSPost2010Prop44ColorRGB
 90
      255
102
RTVSPost2010PropOp44
 70
     0
102
RTVSPost2010Prop45
280
     0
102
RTVSPost2010PropOp45
 70
     0
102
RTVSPost2010Prop46
 90
       50
102
RTVSPost2010PropOp46
 70
     0
102
RTVSPost2010Prop47
 90
       50
102
RTVSPost2010PropOp47
 70
     0
102
RTVSPost2010Prop48
 90
       50
102
RTVSPost2010PropOp48
 70
     0
102
RTVSPost2010Prop49
280
     0
102
RTVSPost2010PropOp49
 70
     0
102
RTVSPost2010Prop50
 90
       50
102
RTVSPost2010PropOp50
 70
     0
102
RTVSPost2010Prop51ColorIndex
 90
      256
102
RTVSPost2010Prop51ColorRGB
 90
-16777216
102
RTVSPost2010PropOp51
 70
     0
102
RTVSPost2010Prop52
140
1.0
102
RTVSPost2010PropOp52
 70
     0
102
RTVSPost2010Prop53
 90
        2
102
RTVSPost2010PropOp53
 70
     0
102
RTVSPost2010Prop54
  1
strokes_ogs.tif
102
RTVSPost2010PropOp54
 70
     0
102
RTVSPost2010Prop55
280
     0
102
RTVSPost2010PropOp55
 70
     0
102
RTVSPost2010Prop56
140
1.0
102
RTVSPost2010PropOp56
 70
     0
102
RTVSPost2010Prop57
140
1.0
102
RTVSPost2010PropOp57
 70
     0
102
RTVSPropertyOp0
 70
     0
102
RTVSPropertyOp1
 70
     0
102
RTVSPropertyOp2
 70
     0
102
RTVSPropertyOp3
 70
     0
102
RTVSPropertyOp4
 70
     0
102
RTVSPropertyOp5
 70
     0
102
RTVSPropertyOp6
 70
     0
102
RTVSPropertyOp7
 70
     0
102
RTVSPropertyOp8
 70
     0
102
RTVSPropertyOp9
 70
     0
102
RTVSPropertyOp10
 70
     0
102
RTVSPropertyOp11
 70
     0
102
RTVSPropertyOp12
 70
     0
102
RTVSPropertyOp13
 70
     0
102
RTVSPropertyOp14
 70
     2
102
RTVSPropertyOp15
 70
     0
102
RTVSPropertyOp16
 70
     0
102
RTVSPropertyOp17
 70
     0
102
RTVSPropertyOp18
 70
     0
102
RTVSPropertyOp19
 70
     0
102
RTVSPropertyOp20
 70
     0
102
RTVSPropertyOp21
 70
     0
102
RTVSPropertyOp22
 70
     0
102
RTVSPropertyOp23
 70
     0
102
RTVSPropertyOp24
 70
     0
102
RTVSPropertyOp25
 70
     0
102
RTVSPropertyOp26
 70
     0
102
RTVSPropertyOp27
 70
     0
102
RTVSPropertyOp28
 70
     0
102
RTVSPropertyOp29
 70
     0
102
RTVSPropertyOp30
 70
     0
102
RTVSPropertyOp31
 70
     0
102
RTVSPropertyOp32
 70
     0
102
RTVSPropertyOp33
 70
     0
102
RTVSPropertyOp34
 70
     0
102
RTVSPropertyOp35
 70
     0
102
RTVSPropertyOp36
 70
     0
102
RTVSPropertyOp37
 70
     0
102
RTVSPropertyOp38
 70
     0
102
RTVSPropertyOp39
 70
     0
102
RTVSPropertyOp40
 70
     0
102
RTVSPropertyOp41
 70
     0
102
RTVSPropertyOp42
 70
     0
102
RTVSPropertyOp43
 70
     0
102
RTVSPropertyOp44
 70
     0
102
RTVSPropertyOp45
 70
     0
102
RTVSPropertyOp46
 70
     0
102
RTVSPropertyOp47
 70
     0
102
RTVSPropertyOp48
 70
     0
102
RTVSPropertyOp49
 70
     0
102
RTVSPropertyOp50
 70
     0
102
RTVSPropertyOp51
 70
     0
102
RTVSPropertyOp52
 70
     0
102
RTVSPropertyOp53
 70
     0
102
RTVSPropertyOp54
 70
     0
102
RTVSPropertyOp55
 70
     0
102
RTVSPropertyOp56
 70
     0
102
RTVSPropertyOp57
 70
     0
102
RTVSPropertyOp58
 70
     1
102
RTVSPropertyOp59
 70
     1
102
RTVSPropertyOp60
 70
     1
102
RTVSPropertyOp61
 70
     1
102
RTVSPropertyOp62
 70
     1
  0
XRECORD
  5
5AF
102
{ACAD_REACTORS
330
5AE
102
}
330
5AE
100
AcDbXrecord
280
     1
102
RTVSPost2010Prop28
280
     0
102
RTVSPost2010PropOp28
 70
     1
102
RTVSPost2010Prop29
280
     1
102
RTVSPost2010PropOp29
 70
     1
102
RTVSPost2010Prop30
280
     1
102
RTVSPost2010PropOp30
 70
     1
102
RTVSPost2010Prop31
280
     0
102
RTVSPost2010PropOp31
 70
     1
102
RTVSPost2010Prop32
280
     0
102
RTVSPost2010PropOp32
 70
     1
102
RTVSPost2010Prop33
280
     0
102
RTVSPost2010PropOp33
 70
     1
102
RTVSPost2010Prop34
280
     0
102
RTVSPost2010PropOp34
 70
     1
102
RTVSPost2010Prop35
280
     0
102
RTVSPost2010PropOp35
 70
     1
102
RTVSPost2010Prop36
280
     0
102
RTVSPost2010PropOp36
 70
     1
102
RTVSPost2010Prop37
 90
       50
102
RTVSPost2010PropOp37
 70
     1
102
RTVSPost2010Prop38
140
0.0
102
RTVSPost2010PropOp38
 70
     1
102
RTVSPost2010Prop39
140
1.0
102
RTVSPost2010PropOp39
 70
     1
102
RTVSPost2010Prop40
 90
        0
102
RTVSPost2010PropOp40
 70
     1
102
RTVSPost2010Prop41ColorIndex
 90
       18
102
RTVSPost2010Prop41ColorRGB
 90
        0
102
RTVSPost2010PropOp41
 70
     1
102
RTVSPost2010Prop42
 90
       50
102
RTVSPost2010PropOp42
 70
     1
102
RTVSPost2010Prop43
 90
        3
102
RTVSPost2010PropOp43
 70
     1
102
RTVSPost2010Prop44ColorIndex
 90
        5
102
RTVSPost2010Prop44ColorRGB
 90
      255
102
RTVSPost2010PropOp44
 70
     1
102
RTVSPost2010Prop45
280
     0
102
RTVSPost2010PropOp45
 70
     1
102
RTVSPost2010Prop46
 90
       50
102
RTVSPost2010PropOp46
 70
     1
102
RTVSPost2010Prop47
 90
       50
102
RTVSPost2010PropOp47
 70
     1
102
RTVSPost2010Prop48
 90
       50
102
RTVSPost2010PropOp48
 70
     1
102
RTVSPost2010Prop49
280
     0
102
RTVSPost2010PropOp49
 70
     1
102
RTVSPost2010Prop50
 90
       50
102
RTVSPost2010PropOp50
 70
     1
102
RTVSPost2010Prop51ColorIndex
 90
      256
102
RTVSPost2010Prop51ColorRGB
 90
-16777216
102
RTVSPost2010PropOp51
 70
     0
102
RTVSPost2010Prop52
140
1.0
102
RTVSPost2010PropOp52
 70
     0
102
RTVSPost2010Prop53
 90
        2
102
RTVSPost2010PropOp53
 70
     1
102
RTVSPost2010Prop54
  1
strokes_ogs.tif
102
RTVSPost2010PropOp54
 70
     1
102
RTVSPost2010Prop55
280
     0
102
RTVSPost2010PropOp55
 70
     1
102
RTVSPost2010Prop56
140
1.0
102
RTVSPost2010PropOp56
 70
     1
102
RTVSPost2010Prop57
140
1.0
102
RTVSPost2010PropOp57
 70
     1
102
RTVSPropertyOp0
 70
     1
102
RTVSPropertyOp1
 70
     1
102
RTVSPropertyOp2
 70
     1
102
RTVSPropertyOp3
 70
     1
102
RTVSPropertyOp4
 70
     1
102
RTVSPropertyOp5
 70
     1
102
RTVSPropertyOp6
 70
     1
102
RTVSPropertyOp7
 70
     1
102
RTVSPropertyOp8
 70
     1
102
RTVSPropertyOp9
 70
     1
102
RTVSPropertyOp10
 70
     1
102
RTVSPropertyOp11
 70
     1
102
RTVSPropertyOp12
 70
     1
102
RTVSPropertyOp13
 70
     1
102
RTVSPropertyOp14
 70
     1
102
RTVSPropertyOp15
 70
     1
102
RTVSPropertyOp16
 70
     1
102
RTVSPropertyOp17
 70
     1
102
RTVSPropertyOp18
 70
     1
102
RTVSPropertyOp19
 70
     1
102
RTVSPropertyOp20
 70
     1
102
RTVSPropertyOp21
 70
     1
102
RTVSPropertyOp22
 70
     1
102
RTVSPropertyOp23
 70
     1
102
RTVSPropertyOp24
 70
     1
102
RTVSPropertyOp25
 70
     1
102
RTVSPropertyOp26
 70
     1
102
RTVSPropertyOp27
 70
     1
102
RTVSPropertyOp28
 70
     1
102
RTVSPropertyOp29
 70
     1
102
RTVSPropertyOp30
 70
     1
102
RTVSPropertyOp31
 70
     1
102
RTVSPropertyOp32
 70
     1
102
RTVSPropertyOp33
 70
     1
102
RTVSPropertyOp34
 70
     1
102
RTVSPropertyOp35
 70
     1
102
RTVSPropertyOp36
 70
     1
102
RTVSPropertyOp37
 70
     1
102
RTVSPropertyOp38
 70
     1
102
RTVSPropertyOp39
 70
     1
102
RTVSPropertyOp40
 70
     1
102
RTVSPropertyOp41
 70
     1
102
RTVSPropertyOp42
 70
     1
102
RTVSPropertyOp43
 70
     1
102
RTVSPropertyOp44
 70
     1
102
RTVSPropertyOp45
 70
     1
102
RTVSPropertyOp46
 70
     1
102
RTVSPropertyOp47
 70
     1
102
RTVSPropertyOp48
 70
     1
102
RTVSPropertyOp49
 70
     1
102
RTVSPropertyOp50
 70
     1
102
RTVSPropertyOp51
 70
     0
102
RTVSPropertyOp52
 70
     0
102
RTVSPropertyOp53
 70
     1
102
RTVSPropertyOp54
 70
     1
102
RTVSPropertyOp55
 70
     1
102
RTVSPropertyOp56
 70
     1
102
RTVSPropertyOp57
 70
     1
102
RTVSPropertyOp58
 70
     1
102
RTVSPropertyOp59
 70
     1
102
RTVSPropertyOp60
 70
     1
102
RTVSPropertyOp61
 70
     1
102
RTVSPropertyOp62
 70
     1
  0
XRECORD
  5
5D0
102
{ACAD_REACTORS
330
5CF
102
}
330
5CF
100
AcDbXrecord
280
     1
102
RTVSPost2010Prop28
280
     0
102
RTVSPost2010PropOp28
 70
     0
102
RTVSPost2010Prop29
280
     1
102
RTVSPost2010PropOp29
 70
     0
102
RTVSPost2010Prop30
280
     1
102
RTVSPost2010PropOp30
 70
     0
102
RTVSPost2010Prop31
280
     0
102
RTVSPost2010PropOp31
 70
     0
102
RTVSPost2010Prop32
280
     0
102
RTVSPost2010PropOp32
 70
     0
102
RTVSPost2010Prop33
280
     0
102
RTVSPost2010PropOp33
 70
     0
102
RTVSPost2010Prop34
280
     0
102
RTVSPost2010PropOp34
 70
     0
102
RTVSPost2010Prop35
280
     0
102
RTVSPost2010PropOp35
 70
     0
102
RTVSPost2010Prop36
280
     0
102
RTVSPost2010PropOp36
 70
     0
102
RTVSPost2010Prop37
 90
       50
102
RTVSPost2010PropOp37
 70
     0
102
RTVSPost2010Prop38
140
0.0
102
RTVSPost2010PropOp38
 70
     0
102
RTVSPost2010Prop39
140
1.0
102
RTVSPost2010PropOp39
 70
     0
102
RTVSPost2010Prop40
 90
        0
102
RTVSPost2010PropOp40
 70
     0
102
RTVSPost2010Prop41ColorIndex
 90
       18
102
RTVSPost2010Prop41ColorRGB
 90
        0
102
RTVSPost2010PropOp41
 70
     0
102
RTVSPost2010Prop42
 90
       50
102
RTVSPost2010PropOp42
 70
     0
102
RTVSPost2010Prop43
 90
        3
102
RTVSPost2010PropOp43
 70
     0
102
RTVSPost2010Prop44ColorIndex
 90
        5
102
RTVSPost2010Prop44ColorRGB
 90
      255
102
RTVSPost2010PropOp44
 70
     0
102
RTVSPost2010Prop45
280
     0
102
RTVSPost2010PropOp45
 70
     0
102
RTVSPost2010Prop46
 90
       50
102
RTVSPost2010PropOp46
 70
     0
102
RTVSPost2010Prop47
 90
       50
102
RTVSPost2010PropOp47
 70
     0
102
RTVSPost2010Prop48
 90
       50
102
RTVSPost2010PropOp48
 70
     0
102
RTVSPost2010Prop49
280
     0
102
RTVSPost2010PropOp49
 70
     0
102
RTVSPost2010Prop50
 90
       50
102
RTVSPost2010PropOp50
 70
     0
102
RTVSPost2010Prop51ColorIndex
 90
      256
102
RTVSPost2010Prop51ColorRGB
 90
-16777216
102
RTVSPost2010PropOp51
 70
     0
102
RTVSPost2010Prop52
140
1.0
102
RTVSPost2010PropOp52
 70
     0
102
RTVSPost2010Prop53
 90
        2
102
RTVSPost2010PropOp53
 70
     0
102
RTVSPost2010Prop54
  1
strokes_ogs.tif
102
RTVSPost2010PropOp54
 70
     0
102
RTVSPost2010Prop55
280
     0
102
RTVSPost2010PropOp55
 70
     0
102
RTVSPost2010Prop56
140
1.0
102
RTVSPost2010PropOp56
 70
     0
102
RTVSPost2010Prop57
140
1.0
102
RTVSPost2010PropOp57
 70
     0
102
RTVSPropertyOp0
 70
     0
102
RTVSPropertyOp1
 70
     0
102
RTVSPropertyOp2
 70
     0
102
RTVSPropertyOp3
 70
     0
102
RTVSPropertyOp4
 70
     0
102
RTVSPropertyOp5
 70
     0
102
RTVSPropertyOp6
 70
     0
102
RTVSPropertyOp7
 70
     0
102
RTVSPropertyOp8
 70
     0
102
RTVSPropertyOp9
 70
     0
102
RTVSPropertyOp10
 70
     0
102
RTVSPropertyOp11
 70
     0
102
RTVSPropertyOp12
 70
     0
102
RTVSPropertyOp13
 70
     0
102
RTVSPropertyOp14
 70
     2
102
RTVSPropertyOp15
 70
     0
102
RTVSPropertyOp16
 70
     0
102
RTVSPropertyOp17
 70
     0
102
RTVSPropertyOp18
 70
     0
102
RTVSPropertyOp19
 70
     0
102
RTVSPropertyOp20
 70
     0
102
RTVSPropertyOp21
 70
     0
102
RTVSPropertyOp22
 70
     0
102
RTVSPropertyOp23
 70
     0
102
RTVSPropertyOp24
 70
     0
102
RTVSPropertyOp25
 70
     0
102
RTVSPropertyOp26
 70
     0
102
RTVSPropertyOp27
 70
     0
102
RTVSPropertyOp28
 70
     0
102
RTVSPropertyOp29
 70
     0
102
RTVSPropertyOp30
 70
     0
102
RTVSPropertyOp31
 70
     0
102
RTVSPropertyOp32
 70
     0
102
RTVSPropertyOp33
 70
     0
102
RTVSPropertyOp34
 70
     0
102
RTVSPropertyOp35
 70
     0
102
RTVSPropertyOp36
 70
     0
102
RTVSPropertyOp37
 70
     0
102
RTVSPropertyOp38
 70
     0
102
RTVSPropertyOp39
 70
     0
102
RTVSPropertyOp40
 70
     0
102
RTVSPropertyOp41
 70
     0
102
RTVSPropertyOp42
 70
     0
102
RTVSPropertyOp43
 70
     0
102
RTVSPropertyOp44
 70
     0
102
RTVSPropertyOp45
 70
     0
102
RTVSPropertyOp46
 70
     0
102
RTVSPropertyOp47
 70
     0
102
RTVSPropertyOp48
 70
     0
102
RTVSPropertyOp49
 70
     0
102
RTVSPropertyOp50
 70
     0
102
RTVSPropertyOp51
 70
     0
102
RTVSPropertyOp52
 70
     0
102
RTVSPropertyOp53
 70
     0
102
RTVSPropertyOp54
 70
     0
102
RTVSPropertyOp55
 70
     0
102
RTVSPropertyOp56
 70
     0
102
RTVSPropertyOp57
 70
     0
102
RTVSPropertyOp58
 70
     1
102
RTVSPropertyOp59
 70
     1
102
RTVSPropertyOp60
 70
     1
102
RTVSPropertyOp61
 70
     1
102
RTVSPropertyOp62
 70
     1
  0
XRECORD
  5
5A5
102
{ACAD_REACTORS
330
5A4
102
}
330
5A4
100
AcDbXrecord
280
     1
102
RTVSPost2010Prop28
280
     0
102
RTVSPost2010PropOp28
 70
     1
102
RTVSPost2010Prop29
280
     1
102
RTVSPost2010PropOp29
 70
     1
102
RTVSPost2010Prop30
280
     1
102
RTVSPost2010PropOp30
 70
     1
102
RTVSPost2010Prop31
280
     0
102
RTVSPost2010PropOp31
 70
     1
102
RTVSPost2010Prop32
280
     0
102
RTVSPost2010PropOp32
 70
     1
102
RTVSPost2010Prop33
280
     0
102
RTVSPost2010PropOp33
 70
     1
102
RTVSPost2010Prop34
280
     0
102
RTVSPost2010PropOp34
 70
     1
102
RTVSPost2010Prop35
280
     0
102
RTVSPost2010PropOp35
 70
     1
102
RTVSPost2010Prop36
280
     0
102
RTVSPost2010PropOp36
 70
     1
102
RTVSPost2010Prop37
 90
       50
102
RTVSPost2010PropOp37
 70
     1
102
RTVSPost2010Prop38
140
0.0
102
RTVSPost2010PropOp38
 70
     1
102
RTVSPost2010Prop39
140
1.0
102
RTVSPost2010PropOp39
 70
     1
102
RTVSPost2010Prop40
 90
        0
102
RTVSPost2010PropOp40
 70
     1
102
RTVSPost2010Prop41ColorIndex
 90
       18
102
RTVSPost2010Prop41ColorRGB
 90
        0
102
RTVSPost2010PropOp41
 70
     1
102
RTVSPost2010Prop42
 90
       50
102
RTVSPost2010PropOp42
 70
     1
102
RTVSPost2010Prop43
 90
        3
102
RTVSPost2010PropOp43
 70
     1
102
RTVSPost2010Prop44ColorIndex
 90
        5
102
RTVSPost2010Prop44ColorRGB
 90
      255
102
RTVSPost2010PropOp44
 70
     1
102
RTVSPost2010Prop45
280
     0
102
RTVSPost2010PropOp45
 70
     1
102
RTVSPost2010Prop46
 90
       50
102
RTVSPost2010PropOp46
 70
     1
102
RTVSPost2010Prop47
 90
       50
102
RTVSPost2010PropOp47
 70
     1
102
RTVSPost2010Prop48
 90
       50
102
RTVSPost2010PropOp48
 70
     1
102
RTVSPost2010Prop49
280
     0
102
RTVSPost2010PropOp49
 70
     1
102
RTVSPost2010Prop50
 90
       50
102
RTVSPost2010PropOp50
 70
     1
102
RTVSPost2010Prop51ColorIndex
 90
      256
102
RTVSPost2010Prop51ColorRGB
 90
-16777216
102
RTVSPost2010PropOp51
 70
     0
102
RTVSPost2010Prop52
140
1.0
102
RTVSPost2010PropOp52
 70
     0
102
RTVSPost2010Prop53
 90
        2
102
RTVSPost2010PropOp53
 70
     1
102
RTVSPost2010Prop54
  1
strokes_ogs.tif
102
RTVSPost2010PropOp54
 70
     1
102
RTVSPost2010Prop55
280
     0
102
RTVSPost2010PropOp55
 70
     1
102
RTVSPost2010Prop56
140
1.0
102
RTVSPost2010PropOp56
 70
     1
102
RTVSPost2010Prop57
140
1.0
102
RTVSPost2010PropOp57
 70
     1
102
RTVSPropertyOp0
 70
     1
102
RTVSPropertyOp1
 70
     1
102
RTVSPropertyOp2
 70
     1
102
RTVSPropertyOp3
 70
     1
102
RTVSPropertyOp4
 70
     1
102
RTVSPropertyOp5
 70
     1
102
RTVSPropertyOp6
 70
     1
102
RTVSPropertyOp7
 70
     1
102
RTVSPropertyOp8
 70
     1
102
RTVSPropertyOp9
 70
     1
102
RTVSPropertyOp10
 70
     1
102
RTVSPropertyOp11
 70
     1
102
RTVSPropertyOp12
 70
     1
102
RTVSPropertyOp13
 70
     1
102
RTVSPropertyOp14
 70
     1
102
RTVSPropertyOp15
 70
     1
102
RTVSPropertyOp16
 70
     1
102
RTVSPropertyOp17
 70
     1
102
RTVSPropertyOp18
 70
     1
102
RTVSPropertyOp19
 70
     1
102
RTVSPropertyOp20
 70
     1
102
RTVSPropertyOp21
 70
     1
102
RTVSPropertyOp22
 70
     1
102
RTVSPropertyOp23
 70
     1
102
RTVSPropertyOp24
 70
     1
102
RTVSPropertyOp25
 70
     1
102
RTVSPropertyOp26
 70
     1
102
RTVSPropertyOp27
 70
     1
102
RTVSPropertyOp28
 70
     1
102
RTVSPropertyOp29
 70
     1
102
RTVSPropertyOp30
 70
     1
102
RTVSPropertyOp31
 70
     1
102
RTVSPropertyOp32
 70
     1
102
RTVSPropertyOp33
 70
     1
102
RTVSPropertyOp34
 70
     1
102
RTVSPropertyOp35
 70
     1
102
RTVSPropertyOp36
 70
     1
102
RTVSPropertyOp37
 70
     1
102
RTVSPropertyOp38
 70
     1
102
RTVSPropertyOp39
 70
     1
102
RTVSPropertyOp40
 70
     1
102
RTVSPropertyOp41
 70
     1
102
RTVSPropertyOp42
 70
     1
102
RTVSPropertyOp43
 70
     1
102
RTVSPropertyOp44
 70
     1
102
RTVSPropertyOp45
 70
     1
102
RTVSPropertyOp46
 70
     1
102
RTVSPropertyOp47
 70
     1
102
RTVSPropertyOp48
 70
     1
102
RTVSPropertyOp49
 70
     1
102
RTVSPropertyOp50
 70
     1
102
RTVSPropertyOp51
 70
     0
102
RTVSPropertyOp52
 70
     0
102
RTVSPropertyOp53
 70
     1
102
RTVSPropertyOp54
 70
     1
102
RTVSPropertyOp55
 70
     1
102
RTVSPropertyOp56
 70
     1
102
RTVSPropertyOp57
 70
     1
102
RTVSPropertyOp58
 70
     1
102
RTVSPropertyOp59
 70
     1
102
RTVSPropertyOp60
 70
     1
102
RTVSPropertyOp61
 70
     1
102
RTVSPropertyOp62
 70
     1
  0
XRECORD
  5
5CC
102
{ACAD_REACTORS
330
5CB
102
}
330
5CB
100
AcDbXrecord
280
     1
102
RTVSPost2010Prop28
280
     0
102
RTVSPost2010PropOp28
 70
     1
102
RTVSPost2010Prop29
280
     1
102
RTVSPost2010PropOp29
 70
     1
102
RTVSPost2010Prop30
280
     1
102
RTVSPost2010PropOp30
 70
     1
102
RTVSPost2010Prop31
280
     0
102
RTVSPost2010PropOp31
 70
     1
102
RTVSPost2010Prop32
280
     0
102
RTVSPost2010PropOp32
 70
     1
102
RTVSPost2010Prop33
280
     0
102
RTVSPost2010PropOp33
 70
     1
102
RTVSPost2010Prop34
280
     0
102
RTVSPost2010PropOp34
 70
     1
102
RTVSPost2010Prop35
280
     0
102
RTVSPost2010PropOp35
 70
     1
102
RTVSPost2010Prop36
280
     0
102
RTVSPost2010PropOp36
 70
     1
102
RTVSPost2010Prop37
 90
       50
102
RTVSPost2010PropOp37
 70
     1
102
RTVSPost2010Prop38
140
0.0
102
RTVSPost2010PropOp38
 70
     1
102
RTVSPost2010Prop39
140
1.0
102
RTVSPost2010PropOp39
 70
     1
102
RTVSPost2010Prop40
 90
        0
102
RTVSPost2010PropOp40
 70
     1
102
RTVSPost2010Prop41ColorIndex
 90
       18
102
RTVSPost2010Prop41ColorRGB
 90
        0
102
RTVSPost2010PropOp41
 70
     1
102
RTVSPost2010Prop42
 90
       50
102
RTVSPost2010PropOp42
 70
     1
102
RTVSPost2010Prop43
 90
        3
102
RTVSPost2010PropOp43
 70
     1
102
RTVSPost2010Prop44ColorIndex
 90
        5
102
RTVSPost2010Prop44ColorRGB
 90
      255
102
RTVSPost2010PropOp44
 70
     1
102
RTVSPost2010Prop45
280
     0
102
RTVSPost2010PropOp45
 70
     1
102
RTVSPost2010Prop46
 90
       50
102
RTVSPost2010PropOp46
 70
     1
102
RTVSPost2010Prop47
 90
       50
102
RTVSPost2010PropOp47
 70
     1
102
RTVSPost2010Prop48
 90
       50
102
RTVSPost2010PropOp48
 70
     1
102
RTVSPost2010Prop49
280
     0
102
RTVSPost2010PropOp49
 70
     1
102
RTVSPost2010Prop50
 90
       50
102
RTVSPost2010PropOp50
 70
     1
102
RTVSPost2010Prop51ColorIndex
 90
      256
102
RTVSPost2010Prop51ColorRGB
 90
-16777216
102
RTVSPost2010PropOp51
 70
     0
102
RTVSPost2010Prop52
140
1.0
102
RTVSPost2010PropOp52
 70
     0
102
RTVSPost2010Prop53
 90
        2
102
RTVSPost2010PropOp53
 70
     1
102
RTVSPost2010Prop54
  1
strokes_ogs.tif
102
RTVSPost2010PropOp54
 70
     1
102
RTVSPost2010Prop55
280
     0
102
RTVSPost2010PropOp55
 70
     1
102
RTVSPost2010Prop56
140
1.0
102
RTVSPost2010PropOp56
 70
     1
102
RTVSPost2010Prop57
140
1.0
102
RTVSPost2010PropOp57
 70
     1
102
RTVSPropertyOp0
 70
     1
102
RTVSPropertyOp1
 70
     1
102
RTVSPropertyOp2
 70
     1
102
RTVSPropertyOp3
 70
     1
102
RTVSPropertyOp4
 70
     1
102
RTVSPropertyOp5
 70
     1
102
RTVSPropertyOp6
 70
     1
102
RTVSPropertyOp7
 70
     1
102
RTVSPropertyOp8
 70
     1
102
RTVSPropertyOp9
 70
     1
102
RTVSPropertyOp10
 70
     1
102
RTVSPropertyOp11
 70
     1
102
RTVSPropertyOp12
 70
     1
102
RTVSPropertyOp13
 70
     1
102
RTVSPropertyOp14
 70
     1
102
RTVSPropertyOp15
 70
     1
102
RTVSPropertyOp16
 70
     1
102
RTVSPropertyOp17
 70
     1
102
RTVSPropertyOp18
 70
     1
102
RTVSPropertyOp19
 70
     1
102
RTVSPropertyOp20
 70
     1
102
RTVSPropertyOp21
 70
     1
102
RTVSPropertyOp22
 70
     1
102
RTVSPropertyOp23
 70
     1
102
RTVSPropertyOp24
 70
     1
102
RTVSPropertyOp25
 70
     1
102
RTVSPropertyOp26
 70
     1
102
RTVSPropertyOp27
 70
     1
102
RTVSPropertyOp28
 70
     1
102
RTVSPropertyOp29
 70
     1
102
RTVSPropertyOp30
 70
     1
102
RTVSPropertyOp31
 70
     1
102
RTVSPropertyOp32
 70
     1
102
RTVSPropertyOp33
 70
     1
102
RTVSPropertyOp34
 70
     1
102
RTVSPropertyOp35
 70
     1
102
RTVSPropertyOp36
 70
     1
102
RTVSPropertyOp37
 70
     1
102
RTVSPropertyOp38
 70
     1
102
RTVSPropertyOp39
 70
     1
102
RTVSPropertyOp40
 70
     1
102
RTVSPropertyOp41
 70
     1
102
RTVSPropertyOp42
 70
     1
102
RTVSPropertyOp43
 70
     1
102
RTVSPropertyOp44
 70
     1
102
RTVSPropertyOp45
 70
     1
102
RTVSPropertyOp46
 70
     1
102
RTVSPropertyOp47
 70
     1
102
RTVSPropertyOp48
 70
     1
102
RTVSPropertyOp49
 70
     1
102
RTVSPropertyOp50
 70
     1
102
RTVSPropertyOp51
 70
     0
102
RTVSPropertyOp52
 70
     0
102
RTVSPropertyOp53
 70
     1
102
RTVSPropertyOp54
 70
     1
102
RTVSPropertyOp55
 70
     1
102
RTVSPropertyOp56
 70
     1
102
RTVSPropertyOp57
 70
     1
102
RTVSPropertyOp58
 70
     1
102
RTVSPropertyOp59
 70
     1
102
RTVSPropertyOp60
 70
     1
102
RTVSPropertyOp61
 70
     1
102
RTVSPropertyOp62
 70
     1
  0
XRECORD
  5
5CA
102
{ACAD_REACTORS
330
5C9
102
}
330
5C9
100
AcDbXrecord
280
     1
102
RTVSPost2010Prop28
280
     0
102
RTVSPost2010PropOp28
 70
     1
102
RTVSPost2010Prop29
280
     1
102
RTVSPost2010PropOp29
 70
     1
102
RTVSPost2010Prop30
280
     1
102
RTVSPost2010PropOp30
 70
     1
102
RTVSPost2010Prop31
280
     0
102
RTVSPost2010PropOp31
 70
     1
102
RTVSPost2010Prop32
280
     0
102
RTVSPost2010PropOp32
 70
     1
102
RTVSPost2010Prop33
280
     0
102
RTVSPost2010PropOp33
 70
     1
102
RTVSPost2010Prop34
280
     0
102
RTVSPost2010PropOp34
 70
     1
102
RTVSPost2010Prop35
280
     0
102
RTVSPost2010PropOp35
 70
     1
102
RTVSPost2010Prop36
280
     0
102
RTVSPost2010PropOp36
 70
     1
102
RTVSPost2010Prop37
 90
       50
102
RTVSPost2010PropOp37
 70
     1
102
RTVSPost2010Prop38
140
0.0
102
RTVSPost2010PropOp38
 70
     1
102
RTVSPost2010Prop39
140
1.0
102
RTVSPost2010PropOp39
 70
     1
102
RTVSPost2010Prop40
 90
        0
102
RTVSPost2010PropOp40
 70
     1
102
RTVSPost2010Prop41ColorIndex
 90
       18
102
RTVSPost2010Prop41ColorRGB
 90
        0
102
RTVSPost2010PropOp41
 70
     1
102
RTVSPost2010Prop42
 90
       50
102
RTVSPost2010PropOp42
 70
     1
102
RTVSPost2010Prop43
 90
        3
102
RTVSPost2010PropOp43
 70
     1
102
RTVSPost2010Prop44ColorIndex
 90
        5
102
RTVSPost2010Prop44ColorRGB
 90
      255
102
RTVSPost2010PropOp44
 70
     1
102
RTVSPost2010Prop45
280
     0
102
RTVSPost2010PropOp45
 70
     1
102
RTVSPost2010Prop46
 90
       50
102
RTVSPost2010PropOp46
 70
     1
102
RTVSPost2010Prop47
 90
       50
102
RTVSPost2010PropOp47
 70
     1
102
RTVSPost2010Prop48
 90
       50
102
RTVSPost2010PropOp48
 70
     1
102
RTVSPost2010Prop49
280
     0
102
RTVSPost2010PropOp49
 70
     1
102
RTVSPost2010Prop50
 90
       50
102
RTVSPost2010PropOp50
 70
     1
102
RTVSPost2010Prop51ColorIndex
 90
      256
102
RTVSPost2010Prop51ColorRGB
 90
-16777216
102
RTVSPost2010PropOp51
 70
     0
102
RTVSPost2010Prop52
140
1.0
102
RTVSPost2010PropOp52
 70
     0
102
RTVSPost2010Prop53
 90
        2
102
RTVSPost2010PropOp53
 70
     1
102
RTVSPost2010Prop54
  1
strokes_ogs.tif
102
RTVSPost2010PropOp54
 70
     1
102
RTVSPost2010Prop55
280
     0
102
RTVSPost2010PropOp55
 70
     1
102
RTVSPost2010Prop56
140
1.0
102
RTVSPost2010PropOp56
 70
     1
102
RTVSPost2010Prop57
140
1.0
102
RTVSPost2010PropOp57
 70
     1
102
RTVSPropertyOp0
 70
     1
102
RTVSPropertyOp1
 70
     1
102
RTVSPropertyOp2
 70
     1
102
RTVSPropertyOp3
 70
     1
102
RTVSPropertyOp4
 70
     1
102
RTVSPropertyOp5
 70
     1
102
RTVSPropertyOp6
 70
     1
102
RTVSPropertyOp7
 70
     1
102
RTVSPropertyOp8
 70
     1
102
RTVSPropertyOp9
 70
     1
102
RTVSPropertyOp10
 70
     1
102
RTVSPropertyOp11
 70
     1
102
RTVSPropertyOp12
 70
     1
102
RTVSPropertyOp13
 70
     1
102
RTVSPropertyOp14
 70
     1
102
RTVSPropertyOp15
 70
     1
102
RTVSPropertyOp16
 70
     1
102
RTVSPropertyOp17
 70
     1
102
RTVSPropertyOp18
 70
     1
102
RTVSPropertyOp19
 70
     1
102
RTVSPropertyOp20
 70
     1
102
RTVSPropertyOp21
 70
     1
102
RTVSPropertyOp22
 70
     1
102
RTVSPropertyOp23
 70
     1
102
RTVSPropertyOp24
 70
     1
102
RTVSPropertyOp25
 70
     1
102
RTVSPropertyOp26
 70
     1
102
RTVSPropertyOp27
 70
     1
102
RTVSPropertyOp28
 70
     1
102
RTVSPropertyOp29
 70
     1
102
RTVSPropertyOp30
 70
     1
102
RTVSPropertyOp31
 70
     1
102
RTVSPropertyOp32
 70
     1
102
RTVSPropertyOp33
 70
     1
102
RTVSPropertyOp34
 70
     1
102
RTVSPropertyOp35
 70
     1
102
RTVSPropertyOp36
 70
     1
102
RTVSPropertyOp37
 70
     1
102
RTVSPropertyOp38
 70
     1
102
RTVSPropertyOp39
 70
     1
102
RTVSPropertyOp40
 70
     1
102
RTVSPropertyOp41
 70
     1
102
RTVSPropertyOp42
 70
     1
102
RTVSPropertyOp43
 70
     1
102
RTVSPropertyOp44
 70
     1
102
RTVSPropertyOp45
 70
     1
102
RTVSPropertyOp46
 70
     1
102
RTVSPropertyOp47
 70
     1
102
RTVSPropertyOp48
 70
     1
102
RTVSPropertyOp49
 70
     1
102
RTVSPropertyOp50
 70
     1
102
RTVSPropertyOp51
 70
     0
102
RTVSPropertyOp52
 70
     0
102
RTVSPropertyOp53
 70
     1
102
RTVSPropertyOp54
 70
     1
102
RTVSPropertyOp55
 70
     1
102
RTVSPropertyOp56
 70
     1
102
RTVSPropertyOp57
 70
     1
102
RTVSPropertyOp58
 70
     1
102
RTVSPropertyOp59
 70
     1
102
RTVSPropertyOp60
 70
     1
102
RTVSPropertyOp61
 70
     1
102
RTVSPropertyOp62
 70
     1
  0
XRECORD
  5
5C4
102
{ACAD_REACTORS
330
5C3
102
}
330
5C3
100
AcDbXrecord
280
     1
102
RTVSPost2010Prop28
280
     0
102
RTVSPost2010PropOp28
 70
     1
102
RTVSPost2010Prop29
280
     1
102
RTVSPost2010PropOp29
 70
     1
102
RTVSPost2010Prop30
280
     1
102
RTVSPost2010PropOp30
 70
     1
102
RTVSPost2010Prop31
280
     0
102
RTVSPost2010PropOp31
 70
     1
102
RTVSPost2010Prop32
280
     0
102
RTVSPost2010PropOp32
 70
     1
102
RTVSPost2010Prop33
280
     0
102
RTVSPost2010PropOp33
 70
     1
102
RTVSPost2010Prop34
280
     0
102
RTVSPost2010PropOp34
 70
     1
102
RTVSPost2010Prop35
280
     0
102
RTVSPost2010PropOp35
 70
     1
102
RTVSPost2010Prop36
280
     0
102
RTVSPost2010PropOp36
 70
     1
102
RTVSPost2010Prop37
 90
       50
102
RTVSPost2010PropOp37
 70
     1
102
RTVSPost2010Prop38
140
0.0
102
RTVSPost2010PropOp38
 70
     1
102
RTVSPost2010Prop39
140
1.0
102
RTVSPost2010PropOp39
 70
     1
102
RTVSPost2010Prop40
 90
        0
102
RTVSPost2010PropOp40
 70
     1
102
RTVSPost2010Prop41ColorIndex
 90
       18
102
RTVSPost2010Prop41ColorRGB
 90
        0
102
RTVSPost2010PropOp41
 70
     1
102
RTVSPost2010Prop42
 90
       50
102
RTVSPost2010PropOp42
 70
     1
102
RTVSPost2010Prop43
 90
        3
102
RTVSPost2010PropOp43
 70
     1
102
RTVSPost2010Prop44ColorIndex
 90
        5
102
RTVSPost2010Prop44ColorRGB
 90
      255
102
RTVSPost2010PropOp44
 70
     1
102
RTVSPost2010Prop45
280
     0
102
RTVSPost2010PropOp45
 70
     1
102
RTVSPost2010Prop46
 90
       50
102
RTVSPost2010PropOp46
 70
     1
102
RTVSPost2010Prop47
 90
       50
102
RTVSPost2010PropOp47
 70
     1
102
RTVSPost2010Prop48
 90
       50
102
RTVSPost2010PropOp48
 70
     1
102
RTVSPost2010Prop49
280
     0
102
RTVSPost2010PropOp49
 70
     1
102
RTVSPost2010Prop50
 90
       50
102
RTVSPost2010PropOp50
 70
     1
102
RTVSPost2010Prop51ColorIndex
 90
      256
102
RTVSPost2010Prop51ColorRGB
 90
-16777216
102
RTVSPost2010PropOp51
 70
     0
102
RTVSPost2010Prop52
140
1.0
102
RTVSPost2010PropOp52
 70
     0
102
RTVSPost2010Prop53
 90
        2
102
RTVSPost2010PropOp53
 70
     1
102
RTVSPost2010Prop54
  1
strokes_ogs.tif
102
RTVSPost2010PropOp54
 70
     1
102
RTVSPost2010Prop55
280
     0
102
RTVSPost2010PropOp55
 70
     1
102
RTVSPost2010Prop56
140
1.0
102
RTVSPost2010PropOp56
 70
     1
102
RTVSPost2010Prop57
140
1.0
102
RTVSPost2010PropOp57
 70
     1
102
RTVSPropertyOp0
 70
     1
102
RTVSPropertyOp1
 70
     1
102
RTVSPropertyOp2
 70
     1
102
RTVSPropertyOp3
 70
     1
102
RTVSPropertyOp4
 70
     1
102
RTVSPropertyOp5
 70
     1
102
RTVSPropertyOp6
 70
     1
102
RTVSPropertyOp7
 70
     1
102
RTVSPropertyOp8
 70
     1
102
RTVSPropertyOp9
 70
     1
102
RTVSPropertyOp10
 70
     1
102
RTVSPropertyOp11
 70
     1
102
RTVSPropertyOp12
 70
     1
102
RTVSPropertyOp13
 70
     1
102
RTVSPropertyOp14
 70
     1
102
RTVSPropertyOp15
 70
     1
102
RTVSPropertyOp16
 70
     1
102
RTVSPropertyOp17
 70
     1
102
RTVSPropertyOp18
 70
     1
102
RTVSPropertyOp19
 70
     1
102
RTVSPropertyOp20
 70
     1
102
RTVSPropertyOp21
 70
     1
102
RTVSPropertyOp22
 70
     1
102
RTVSPropertyOp23
 70
     1
102
RTVSPropertyOp24
 70
     1
102
RTVSPropertyOp25
 70
     1
102
RTVSPropertyOp26
 70
     1
102
RTVSPropertyOp27
 70
     1
102
RTVSPropertyOp28
 70
     1
102
RTVSPropertyOp29
 70
     1
102
RTVSPropertyOp30
 70
     1
102
RTVSPropertyOp31
 70
     1
102
RTVSPropertyOp32
 70
     1
102
RTVSPropertyOp33
 70
     1
102
RTVSPropertyOp34
 70
     1
102
RTVSPropertyOp35
 70
     1
102
RTVSPropertyOp36
 70
     1
102
RTVSPropertyOp37
 70
     1
102
RTVSPropertyOp38
 70
     1
102
RTVSPropertyOp39
 70
     1
102
RTVSPropertyOp40
 70
     1
102
RTVSPropertyOp41
 70
     1
102
RTVSPropertyOp42
 70
     1
102
RTVSPropertyOp43
 70
     1
102
RTVSPropertyOp44
 70
     1
102
RTVSPropertyOp45
 70
     1
102
RTVSPropertyOp46
 70
     1
102
RTVSPropertyOp47
 70
     1
102
RTVSPropertyOp48
 70
     1
102
RTVSPropertyOp49
 70
     1
102
RTVSPropertyOp50
 70
     1
102
RTVSPropertyOp51
 70
     0
102
RTVSPropertyOp52
 70
     0
102
RTVSPropertyOp53
 70
     1
102
RTVSPropertyOp54
 70
     1
102
RTVSPropertyOp55
 70
     1
102
RTVSPropertyOp56
 70
     1
102
RTVSPropertyOp57
 70
     1
102
RTVSPropertyOp58
 70
     1
102
RTVSPropertyOp59
 70
     1
102
RTVSPropertyOp60
 70
     1
102
RTVSPropertyOp61
 70
     1
102
RTVSPropertyOp62
 70
     1
  0
XRECORD
  5
5C6
102
{ACAD_REACTORS
330
5C5
102
}
330
5C5
100
AcDbXrecord
280
     1
102
RTVSPost2010Prop28
280
     0
102
RTVSPost2010PropOp28
 70
     1
102
RTVSPost2010Prop29
280
     1
102
RTVSPost2010PropOp29
 70
     1
102
RTVSPost2010Prop30
280
     1
102
RTVSPost2010PropOp30
 70
     1
102
RTVSPost2010Prop31
280
     0
102
RTVSPost2010PropOp31
 70
     1
102
RTVSPost2010Prop32
280
     0
102
RTVSPost2010PropOp32
 70
     1
102
RTVSPost2010Prop33
280
     0
102
RTVSPost2010PropOp33
 70
     1
102
RTVSPost2010Prop34
280
     0
102
RTVSPost2010PropOp34
 70
     1
102
RTVSPost2010Prop35
280
     0
102
RTVSPost2010PropOp35
 70
     1
102
RTVSPost2010Prop36
280
     0
102
RTVSPost2010PropOp36
 70
     1
102
RTVSPost2010Prop37
 90
       50
102
RTVSPost2010PropOp37
 70
     1
102
RTVSPost2010Prop38
140
0.0
102
RTVSPost2010PropOp38
 70
     1
102
RTVSPost2010Prop39
140
1.0
102
RTVSPost2010PropOp39
 70
     1
102
RTVSPost2010Prop40
 90
        0
102
RTVSPost2010PropOp40
 70
     1
102
RTVSPost2010Prop41ColorIndex
 90
       18
102
RTVSPost2010Prop41ColorRGB
 90
        0
102
RTVSPost2010PropOp41
 70
     1
102
RTVSPost2010Prop42
 90
       50
102
RTVSPost2010PropOp42
 70
     1
102
RTVSPost2010Prop43
 90
        3
102
RTVSPost2010PropOp43
 70
     1
102
RTVSPost2010Prop44ColorIndex
 90
        5
102
RTVSPost2010Prop44ColorRGB
 90
      255
102
RTVSPost2010PropOp44
 70
     1
102
RTVSPost2010Prop45
280
     0
102
RTVSPost2010PropOp45
 70
     1
102
RTVSPost2010Prop46
 90
       50
102
RTVSPost2010PropOp46
 70
     1
102
RTVSPost2010Prop47
 90
       50
102
RTVSPost2010PropOp47
 70
     1
102
RTVSPost2010Prop48
 90
       50
102
RTVSPost2010PropOp48
 70
     1
102
RTVSPost2010Prop49
280
     0
102
RTVSPost2010PropOp49
 70
     1
102
RTVSPost2010Prop50
 90
       50
102
RTVSPost2010PropOp50
 70
     1
102
RTVSPost2010Prop51ColorIndex
 90
      256
102
RTVSPost2010Prop51ColorRGB
 90
-16777216
102
RTVSPost2010PropOp51
 70
     0
102
RTVSPost2010Prop52
140
1.0
102
RTVSPost2010PropOp52
 70
     0
102
RTVSPost2010Prop53
 90
        2
102
RTVSPost2010PropOp53
 70
     1
102
RTVSPost2010Prop54
  1
strokes_ogs.tif
102
RTVSPost2010PropOp54
 70
     1
102
RTVSPost2010Prop55
280
     0
102
RTVSPost2010PropOp55
 70
     1
102
RTVSPost2010Prop56
140
1.0
102
RTVSPost2010PropOp56
 70
     1
102
RTVSPost2010Prop57
140
1.0
102
RTVSPost2010PropOp57
 70
     1
102
RTVSPropertyOp0
 70
     1
102
RTVSPropertyOp1
 70
     1
102
RTVSPropertyOp2
 70
     1
102
RTVSPropertyOp3
 70
     1
102
RTVSPropertyOp4
 70
     1
102
RTVSPropertyOp5
 70
     1
102
RTVSPropertyOp6
 70
     1
102
RTVSPropertyOp7
 70
     1
102
RTVSPropertyOp8
 70
     1
102
RTVSPropertyOp9
 70
     1
102
RTVSPropertyOp10
 70
     1
102
RTVSPropertyOp11
 70
     1
102
RTVSPropertyOp12
 70
     1
102
RTVSPropertyOp13
 70
     1
102
RTVSPropertyOp14
 70
     1
102
RTVSPropertyOp15
 70
     1
102
RTVSPropertyOp16
 70
     1
102
RTVSPropertyOp17
 70
     1
102
RTVSPropertyOp18
 70
     1
102
RTVSPropertyOp19
 70
     1
102
RTVSPropertyOp20
 70
     1
102
RTVSPropertyOp21
 70
     1
102
RTVSPropertyOp22
 70
     1
102
RTVSPropertyOp23
 70
     1
102
RTVSPropertyOp24
 70
     1
102
RTVSPropertyOp25
 70
     1
102
RTVSPropertyOp26
 70
     1
102
RTVSPropertyOp27
 70
     1
102
RTVSPropertyOp28
 70
     1
102
RTVSPropertyOp29
 70
     1
102
RTVSPropertyOp30
 70
     1
102
RTVSPropertyOp31
 70
     1
102
RTVSPropertyOp32
 70
     1
102
RTVSPropertyOp33
 70
     1
102
RTVSPropertyOp34
 70
     1
102
RTVSPropertyOp35
 70
     1
102
RTVSPropertyOp36
 70
     1
102
RTVSPropertyOp37
 70
     1
102
RTVSPropertyOp38
 70
     1
102
RTVSPropertyOp39
 70
     1
102
RTVSPropertyOp40
 70
     1
102
RTVSPropertyOp41
 70
     1
102
RTVSPropertyOp42
 70
     1
102
RTVSPropertyOp43
 70
     1
102
RTVSPropertyOp44
 70
     1
102
RTVSPropertyOp45
 70
     1
102
RTVSPropertyOp46
 70
     1
102
RTVSPropertyOp47
 70
     1
102
RTVSPropertyOp48
 70
     1
102
RTVSPropertyOp49
 70
     1
102
RTVSPropertyOp50
 70
     1
102
RTVSPropertyOp51
 70
     0
102
RTVSPropertyOp52
 70
     0
102
RTVSPropertyOp53
 70
     1
102
RTVSPropertyOp54
 70
     1
102
RTVSPropertyOp55
 70
     1
102
RTVSPropertyOp56
 70
     1
102
RTVSPropertyOp57
 70
     1
102
RTVSPropertyOp58
 70
     1
102
RTVSPropertyOp59
 70
     1
102
RTVSPropertyOp60
 70
     1
102
RTVSPropertyOp61
 70
     1
102
RTVSPropertyOp62
 70
     1
  0
XRECORD
  5
5AD
102
{ACAD_REACTORS
330
5AC
102
}
330
5AC
100
AcDbXrecord
280
     1
102
RTVSPost2010Prop28
280
     0
102
RTVSPost2010PropOp28
 70
     1
102
RTVSPost2010Prop29
280
     1
102
RTVSPost2010PropOp29
 70
     1
102
RTVSPost2010Prop30
280
     1
102
RTVSPost2010PropOp30
 70
     1
102
RTVSPost2010Prop31
280
     0
102
RTVSPost2010PropOp31
 70
     1
102
RTVSPost2010Prop32
280
     0
102
RTVSPost2010PropOp32
 70
     1
102
RTVSPost2010Prop33
280
     0
102
RTVSPost2010PropOp33
 70
     1
102
RTVSPost2010Prop34
280
     0
102
RTVSPost2010PropOp34
 70
     1
102
RTVSPost2010Prop35
280
     0
102
RTVSPost2010PropOp35
 70
     1
102
RTVSPost2010Prop36
280
     0
102
RTVSPost2010PropOp36
 70
     1
102
RTVSPost2010Prop37
 90
       50
102
RTVSPost2010PropOp37
 70
     1
102
RTVSPost2010Prop38
140
0.0
102
RTVSPost2010PropOp38
 70
     1
102
RTVSPost2010Prop39
140
1.0
102
RTVSPost2010PropOp39
 70
     1
102
RTVSPost2010Prop40
 90
        0
102
RTVSPost2010PropOp40
 70
     1
102
RTVSPost2010Prop41ColorIndex
 90
       18
102
RTVSPost2010Prop41ColorRGB
 90
        0
102
RTVSPost2010PropOp41
 70
     1
102
RTVSPost2010Prop42
 90
       50
102
RTVSPost2010PropOp42
 70
     1
102
RTVSPost2010Prop43
 90
        3
102
RTVSPost2010PropOp43
 70
     1
102
RTVSPost2010Prop44ColorIndex
 90
        5
102
RTVSPost2010Prop44ColorRGB
 90
      255
102
RTVSPost2010PropOp44
 70
     1
102
RTVSPost2010Prop45
280
     0
102
RTVSPost2010PropOp45
 70
     1
102
RTVSPost2010Prop46
 90
       50
102
RTVSPost2010PropOp46
 70
     1
102
RTVSPost2010Prop47
 90
       50
102
RTVSPost2010PropOp47
 70
     1
102
RTVSPost2010Prop48
 90
       50
102
RTVSPost2010PropOp48
 70
     1
102
RTVSPost2010Prop49
280
     0
102
RTVSPost2010PropOp49
 70
     1
102
RTVSPost2010Prop50
 90
       50
102
RTVSPost2010PropOp50
 70
     1
102
RTVSPost2010Prop51ColorIndex
 90
      256
102
RTVSPost2010Prop51ColorRGB
 90
-16777216
102
RTVSPost2010PropOp51
 70
     0
102
RTVSPost2010Prop52
140
1.0
102
RTVSPost2010PropOp52
 70
     0
102
RTVSPost2010Prop53
 90
        2
102
RTVSPost2010PropOp53
 70
     1
102
RTVSPost2010Prop54
  1
strokes_ogs.tif
102
RTVSPost2010PropOp54
 70
     1
102
RTVSPost2010Prop55
280
     0
102
RTVSPost2010PropOp55
 70
     1
102
RTVSPost2010Prop56
140
1.0
102
RTVSPost2010PropOp56
 70
     1
102
RTVSPost2010Prop57
140
1.0
102
RTVSPost2010PropOp57
 70
     1
102
RTVSPropertyOp0
 70
     1
102
RTVSPropertyOp1
 70
     1
102
RTVSPropertyOp2
 70
     1
102
RTVSPropertyOp3
 70
     1
102
RTVSPropertyOp4
 70
     1
102
RTVSPropertyOp5
 70
     1
102
RTVSPropertyOp6
 70
     1
102
RTVSPropertyOp7
 70
     1
102
RTVSPropertyOp8
 70
     1
102
RTVSPropertyOp9
 70
     1
102
RTVSPropertyOp10
 70
     1
102
RTVSPropertyOp11
 70
     1
102
RTVSPropertyOp12
 70
     1
102
RTVSPropertyOp13
 70
     1
102
RTVSPropertyOp14
 70
     1
102
RTVSPropertyOp15
 70
     1
102
RTVSPropertyOp16
 70
     1
102
RTVSPropertyOp17
 70
     1
102
RTVSPropertyOp18
 70
     1
102
RTVSPropertyOp19
 70
     1
102
RTVSPropertyOp20
 70
     1
102
RTVSPropertyOp21
 70
     1
102
RTVSPropertyOp22
 70
     1
102
RTVSPropertyOp23
 70
     1
102
RTVSPropertyOp24
 70
     1
102
RTVSPropertyOp25
 70
     1
102
RTVSPropertyOp26
 70
     1
102
RTVSPropertyOp27
 70
     1
102
RTVSPropertyOp28
 70
     1
102
RTVSPropertyOp29
 70
     1
102
RTVSPropertyOp30
 70
     1
102
RTVSPropertyOp31
 70
     1
102
RTVSPropertyOp32
 70
     1
102
RTVSPropertyOp33
 70
     1
102
RTVSPropertyOp34
 70
     1
102
RTVSPropertyOp35
 70
     1
102
RTVSPropertyOp36
 70
     1
102
RTVSPropertyOp37
 70
     1
102
RTVSPropertyOp38
 70
     1
102
RTVSPropertyOp39
 70
     1
102
RTVSPropertyOp40
 70
     1
102
RTVSPropertyOp41
 70
     1
102
RTVSPropertyOp42
 70
     1
102
RTVSPropertyOp43
 70
     1
102
RTVSPropertyOp44
 70
     1
102
RTVSPropertyOp45
 70
     1
102
RTVSPropertyOp46
 70
     1
102
RTVSPropertyOp47
 70
     1
102
RTVSPropertyOp48
 70
     1
102
RTVSPropertyOp49
 70
     1
102
RTVSPropertyOp50
 70
     1
102
RTVSPropertyOp51
 70
     0
102
RTVSPropertyOp52
 70
     0
102
RTVSPropertyOp53
 70
     1
102
RTVSPropertyOp54
 70
     1
102
RTVSPropertyOp55
 70
     1
102
RTVSPropertyOp56
 70
     1
102
RTVSPropertyOp57
 70
     1
102
RTVSPropertyOp58
 70
     1
102
RTVSPropertyOp59
 70
     1
102
RTVSPropertyOp60
 70
     1
102
RTVSPropertyOp61
 70
     1
102
RTVSPropertyOp62
 70
     1
  0
XRECORD
  5
5C0
102
{ACAD_REACTORS
330
5BF
102
}
330
5BF
100
AcDbXrecord
280
     1
102
RTVSPost2010Prop28
280
     0
102
RTVSPost2010PropOp28
 70
     1
102
RTVSPost2010Prop29
280
     1
102
RTVSPost2010PropOp29
 70
     1
102
RTVSPost2010Prop30
280
     1
102
RTVSPost2010PropOp30
 70
     1
102
RTVSPost2010Prop31
280
     0
102
RTVSPost2010PropOp31
 70
     1
102
RTVSPost2010Prop32
280
     0
102
RTVSPost2010PropOp32
 70
     1
102
RTVSPost2010Prop33
280
     0
102
RTVSPost2010PropOp33
 70
     1
102
RTVSPost2010Prop34
280
     0
102
RTVSPost2010PropOp34
 70
     1
102
RTVSPost2010Prop35
280
     0
102
RTVSPost2010PropOp35
 70
     1
102
RTVSPost2010Prop36
280
     0
102
RTVSPost2010PropOp36
 70
     1
102
RTVSPost2010Prop37
 90
       50
102
RTVSPost2010PropOp37
 70
     1
102
RTVSPost2010Prop38
140
0.0
102
RTVSPost2010PropOp38
 70
     1
102
RTVSPost2010Prop39
140
1.0
102
RTVSPost2010PropOp39
 70
     1
102
RTVSPost2010Prop40
 90
        0
102
RTVSPost2010PropOp40
 70
     1
102
RTVSPost2010Prop41ColorIndex
 90
       18
102
RTVSPost2010Prop41ColorRGB
 90
        0
102
RTVSPost2010PropOp41
 70
     1
102
RTVSPost2010Prop42
 90
       50
102
RTVSPost2010PropOp42
 70
     1
102
RTVSPost2010Prop43
 90
        3
102
RTVSPost2010PropOp43
 70
     1
102
RTVSPost2010Prop44ColorIndex
 90
        5
102
RTVSPost2010Prop44ColorRGB
 90
      255
102
RTVSPost2010PropOp44
 70
     1
102
RTVSPost2010Prop45
280
     0
102
RTVSPost2010PropOp45
 70
     1
102
RTVSPost2010Prop46
 90
       50
102
RTVSPost2010PropOp46
 70
     1
102
RTVSPost2010Prop47
 90
       50
102
RTVSPost2010PropOp47
 70
     1
102
RTVSPost2010Prop48
 90
       50
102
RTVSPost2010PropOp48
 70
     1
102
RTVSPost2010Prop49
280
     0
102
RTVSPost2010PropOp49
 70
     1
102
RTVSPost2010Prop50
 90
       50
102
RTVSPost2010PropOp50
 70
     1
102
RTVSPost2010Prop51ColorIndex
 90
      256
102
RTVSPost2010Prop51ColorRGB
 90
-16777216
102
RTVSPost2010PropOp51
 70
     0
102
RTVSPost2010Prop52
140
1.0
102
RTVSPost2010PropOp52
 70
     0
102
RTVSPost2010Prop53
 90
        2
102
RTVSPost2010PropOp53
 70
     1
102
RTVSPost2010Prop54
  1
strokes_ogs.tif
102
RTVSPost2010PropOp54
 70
     1
102
RTVSPost2010Prop55
280
     0
102
RTVSPost2010PropOp55
 70
     1
102
RTVSPost2010Prop56
140
1.0
102
RTVSPost2010PropOp56
 70
     1
102
RTVSPost2010Prop57
140
1.0
102
RTVSPost2010PropOp57
 70
     1
102
RTVSPropertyOp0
 70
     1
102
RTVSPropertyOp1
 70
     1
102
RTVSPropertyOp2
 70
     1
102
RTVSPropertyOp3
 70
     1
102
RTVSPropertyOp4
 70
     1
102
RTVSPropertyOp5
 70
     1
102
RTVSPropertyOp6
 70
     1
102
RTVSPropertyOp7
 70
     1
102
RTVSPropertyOp8
 70
     1
102
RTVSPropertyOp9
 70
     1
102
RTVSPropertyOp10
 70
     1
102
RTVSPropertyOp11
 70
     1
102
RTVSPropertyOp12
 70
     1
102
RTVSPropertyOp13
 70
     1
102
RTVSPropertyOp14
 70
     1
102
RTVSPropertyOp15
 70
     1
102
RTVSPropertyOp16
 70
     1
102
RTVSPropertyOp17
 70
     1
102
RTVSPropertyOp18
 70
     1
102
RTVSPropertyOp19
 70
     1
102
RTVSPropertyOp20
 70
     1
102
RTVSPropertyOp21
 70
     1
102
RTVSPropertyOp22
 70
     1
102
RTVSPropertyOp23
 70
     1
102
RTVSPropertyOp24
 70
     1
102
RTVSPropertyOp25
 70
     1
102
RTVSPropertyOp26
 70
     1
102
RTVSPropertyOp27
 70
     1
102
RTVSPropertyOp28
 70
     1
102
RTVSPropertyOp29
 70
     1
102
RTVSPropertyOp30
 70
     1
102
RTVSPropertyOp31
 70
     1
102
RTVSPropertyOp32
 70
     1
102
RTVSPropertyOp33
 70
     1
102
RTVSPropertyOp34
 70
     1
102
RTVSPropertyOp35
 70
     1
102
RTVSPropertyOp36
 70
     1
102
RTVSPropertyOp37
 70
     1
102
RTVSPropertyOp38
 70
     1
102
RTVSPropertyOp39
 70
     1
102
RTVSPropertyOp40
 70
     1
102
RTVSPropertyOp41
 70
     1
102
RTVSPropertyOp42
 70
     1
102
RTVSPropertyOp43
 70
     1
102
RTVSPropertyOp44
 70
     1
102
RTVSPropertyOp45
 70
     1
102
RTVSPropertyOp46
 70
     1
102
RTVSPropertyOp47
 70
     1
102
RTVSPropertyOp48
 70
     1
102
RTVSPropertyOp49
 70
     1
102
RTVSPropertyOp50
 70
     1
102
RTVSPropertyOp51
 70
     0
102
RTVSPropertyOp52
 70
     0
102
RTVSPropertyOp53
 70
     1
102
RTVSPropertyOp54
 70
     1
102
RTVSPropertyOp55
 70
     1
102
RTVSPropertyOp56
 70
     1
102
RTVSPropertyOp57
 70
     1
102
RTVSPropertyOp58
 70
     1
102
RTVSPropertyOp59
 70
     1
102
RTVSPropertyOp60
 70
     1
102
RTVSPropertyOp61
 70
     1
102
RTVSPropertyOp62
 70
     1
  0
XRECORD
  5
5C8
102
{ACAD_REACTORS
330
5C7
102
}
330
5C7
100
AcDbXrecord
280
     1
102
RTVSPost2010Prop28
280
     0
102
RTVSPost2010PropOp28
 70
     1
102
RTVSPost2010Prop29
280
     1
102
RTVSPost2010PropOp29
 70
     1
102
RTVSPost2010Prop30
280
     1
102
RTVSPost2010PropOp30
 70
     1
102
RTVSPost2010Prop31
280
     0
102
RTVSPost2010PropOp31
 70
     1
102
RTVSPost2010Prop32
280
     0
102
RTVSPost2010PropOp32
 70
     1
102
RTVSPost2010Prop33
280
     0
102
RTVSPost2010PropOp33
 70
     1
102
RTVSPost2010Prop34
280
     0
102
RTVSPost2010PropOp34
 70
     1
102
RTVSPost2010Prop35
280
     0
102
RTVSPost2010PropOp35
 70
     1
102
RTVSPost2010Prop36
280
     0
102
RTVSPost2010PropOp36
 70
     1
102
RTVSPost2010Prop37
 90
       50
102
RTVSPost2010PropOp37
 70
     1
102
RTVSPost2010Prop38
140
0.0
102
RTVSPost2010PropOp38
 70
     1
102
RTVSPost2010Prop39
140
1.0
102
RTVSPost2010PropOp39
 70
     1
102
RTVSPost2010Prop40
 90
        0
102
RTVSPost2010PropOp40
 70
     1
102
RTVSPost2010Prop41ColorIndex
 90
       18
102
RTVSPost2010Prop41ColorRGB
 90
        0
102
RTVSPost2010PropOp41
 70
     1
102
RTVSPost2010Prop42
 90
       50
102
RTVSPost2010PropOp42
 70
     1
102
RTVSPost2010Prop43
 90
        3
102
RTVSPost2010PropOp43
 70
     1
102
RTVSPost2010Prop44ColorIndex
 90
        5
102
RTVSPost2010Prop44ColorRGB
 90
      255
102
RTVSPost2010PropOp44
 70
     1
102
RTVSPost2010Prop45
280
     0
102
RTVSPost2010PropOp45
 70
     1
102
RTVSPost2010Prop46
 90
       50
102
RTVSPost2010PropOp46
 70
     1
102
RTVSPost2010Prop47
 90
       50
102
RTVSPost2010PropOp47
 70
     1
102
RTVSPost2010Prop48
 90
       50
102
RTVSPost2010PropOp48
 70
     1
102
RTVSPost2010Prop49
280
     0
102
RTVSPost2010PropOp49
 70
     1
102
RTVSPost2010Prop50
 90
       50
102
RTVSPost2010PropOp50
 70
     1
102
RTVSPost2010Prop51ColorIndex
 90
      256
102
RTVSPost2010Prop51ColorRGB
 90
-16777216
102
RTVSPost2010PropOp51
 70
     0
102
RTVSPost2010Prop52
140
1.0
102
RTVSPost2010PropOp52
 70
     0
102
RTVSPost2010Prop53
 90
        2
102
RTVSPost2010PropOp53
 70
     1
102
RTVSPost2010Prop54
  1
strokes_ogs.tif
102
RTVSPost2010PropOp54
 70
     1
102
RTVSPost2010Prop55
280
     0
102
RTVSPost2010PropOp55
 70
     1
102
RTVSPost2010Prop56
140
1.0
102
RTVSPost2010PropOp56
 70
     1
102
RTVSPost2010Prop57
140
1.0
102
RTVSPost2010PropOp57
 70
     1
102
RTVSPropertyOp0
 70
     1
102
RTVSPropertyOp1
 70
     1
102
RTVSPropertyOp2
 70
     1
102
RTVSPropertyOp3
 70
     1
102
RTVSPropertyOp4
 70
     1
102
RTVSPropertyOp5
 70
     1
102
RTVSPropertyOp6
 70
     1
102
RTVSPropertyOp7
 70
     1
102
RTVSPropertyOp8
 70
     1
102
RTVSPropertyOp9
 70
     1
102
RTVSPropertyOp10
 70
     1
102
RTVSPropertyOp11
 70
     1
102
RTVSPropertyOp12
 70
     1
102
RTVSPropertyOp13
 70
     1
102
RTVSPropertyOp14
 70
     1
102
RTVSPropertyOp15
 70
     1
102
RTVSPropertyOp16
 70
     1
102
RTVSPropertyOp17
 70
     1
102
RTVSPropertyOp18
 70
     1
102
RTVSPropertyOp19
 70
     1
102
RTVSPropertyOp20
 70
     1
102
RTVSPropertyOp21
 70
     1
102
RTVSPropertyOp22
 70
     1
102
RTVSPropertyOp23
 70
     1
102
RTVSPropertyOp24
 70
     1
102
RTVSPropertyOp25
 70
     1
102
RTVSPropertyOp26
 70
     1
102
RTVSPropertyOp27
 70
     1
102
RTVSPropertyOp28
 70
     1
102
RTVSPropertyOp29
 70
     1
102
RTVSPropertyOp30
 70
     1
102
RTVSPropertyOp31
 70
     1
102
RTVSPropertyOp32
 70
     1
102
RTVSPropertyOp33
 70
     1
102
RTVSPropertyOp34
 70
     1
102
RTVSPropertyOp35
 70
     1
102
RTVSPropertyOp36
 70
     1
102
RTVSPropertyOp37
 70
     1
102
RTVSPropertyOp38
 70
     1
102
RTVSPropertyOp39
 70
     1
102
RTVSPropertyOp40
 70
     1
102
RTVSPropertyOp41
 70
     1
102
RTVSPropertyOp42
 70
     1
102
RTVSPropertyOp43
 70
     1
102
RTVSPropertyOp44
 70
     1
102
RTVSPropertyOp45
 70
     1
102
RTVSPropertyOp46
 70
     1
102
RTVSPropertyOp47
 70
     1
102
RTVSPropertyOp48
 70
     1
102
RTVSPropertyOp49
 70
     1
102
RTVSPropertyOp50
 70
     1
102
RTVSPropertyOp51
 70
     0
102
RTVSPropertyOp52
 70
     0
102
RTVSPropertyOp53
 70
     1
102
RTVSPropertyOp54
 70
     1
102
RTVSPropertyOp55
 70
     1
102
RTVSPropertyOp56
 70
     1
102
RTVSPropertyOp57
 70
     1
102
RTVSPropertyOp58
 70
     1
102
RTVSPropertyOp59
 70
     1
102
RTVSPropertyOp60
 70
     1
102
RTVSPropertyOp61
 70
     1
102
RTVSPropertyOp62
 70
     1
  0
ACDBASSOCGEOMDEPENDENCY
  5
480
330
47F
100
AcDbAssocDependency
 90
        2
 90
        0
290
     1
290
     1
290
     1
290
     1
 90
   -10000
330
27B
290
     0
330
0
330
0
360
0
 90
        1
100
AcDbAssocGeomDependency
 90
        0
290
     1
  1
AcDbAssocSingleEdgePersSubentId
290
     0
  0
ACDBASSOCGEOMDEPENDENCY
  5
481
330
47F
100
AcDbAssocDependency
 90
        2
 90
        0
290
     1
290
     1
290
     1
290
     1
 90
   -10000
330
27A
290
     0
330
0
330
0
360
0
 90
        2
100
AcDbAssocGeomDependency
 90
        0
290
     1
  1
AcDbAssocSingleEdgePersSubentId
290
     0
  0
ACDBASSOCGEOMDEPENDENCY
  5
49A
330
47F
100
AcDbAssocDependency
 90
        2
 90
        0
290
     1
290
     1
290
     1
290
     1
 90
   -10000
330
499
290
     0
330
0
330
0
360
0
 90
        4
100
AcDbAssocGeomDependency
 90
        0
290
     1
  1
AcDbAssocSingleEdgePersSubentId
290
     0
  0
ACDBASSOCGEOMDEPENDENCY
  5
49B
330
47F
100
AcDbAssocDependency
 90
        2
 90
        0
290
     1
290
     1
290
     1
290
     1
 90
   -10000
330
492
290
     0
330
0
330
0
360
0
 90
        5
100
AcDbAssocGeomDependency
 90
        0
290
     1
  1
AcDbAssocSingleEdgePersSubentId
290
     0
  0
ACDBASSOCGEOMDEPENDENCY
  5
49C
330
47F
100
AcDbAssocDependency
 90
        2
 90
        0
290
     1
290
     1
290
     1
290
     1
 90
   -10000
330
1DE
290
     0
330
0
330
0
360
0
 90
        6
100
AcDbAssocGeomDependency
 90
        0
290
     1
  1
AcDbAssocEdgePersSubentId
 90
        0
 90
      154
 90
      155
290
     0
  0
ENDSEC
  0
EOF
