999
DXF file: 159-80-65p_gully.dxf
999
Pro/ENGINEER 2006320 by Parametric Technology Corporation
  0
SECTION
  2
HEADER
  9
$EXTMAX
 10
420.0
 20
297.0
 30
0.0
  9
$EXTMIN
 10
0.0
 20
0.0
 30
0.0
  9
$LIMMIN
 10
0.0
 20
0.0
  9
$LIMMAX
 10
420.0
 20
297.0
  9
$VIEWCTR
 10
210.0
 20
148.5
  9
$VIEWSIZE
 40
297.0
  9
$CLAYER
  8
0
  9
$LTSCALE
 40
23.1
  9
$CELTYPE
  6
BYLAYER
  9
$DIMSCALE
 40
1.0
  9
$DIMASZ
 40
3.0
  9
$DIMEXO
 40
2.625
  9
$DIMDLI
 40
15.96
  9
$DIMEXE
 40
7.56
  9
$DIMCEN
 40
3.78
  9
$DIMLFAC
 40
1.0
  9
$DIMBLK
  1
_FILLED
  9
$DIMTXT
 40
3.0
  9
$PDMODE
 70
3
  9
$PDSIZE
 40
0.3125
  0
ENDSEC
  0
SECTION
  2
TABLES
  0
TABLE
  2
LTYPE
 70
6
  0
LTYPE
  2
BYBLOCK
 70
0
  3

 72
65
 73
0
 40
0.0
  0
LTYPE
  2
BYLAYER
 70
0
  3

 72
65
 73
0
 40
0.0
  0
LTYPE
  2
CONTINUOUS
 70
64
  3
Solid line
 72
65
 73
0
 40
0.0
  0
LTYPE
  2
CENTER
 70
64
  3
____ _ ____ _ ____ _ ____ _ ____ _ ____ _ ____
 72
65
 73
4
 40
0.6
 49
0.375
 49
-0.075
 49
0.075
 49
-0.075
  0
LTYPE
  2
HIDDEN
 70
64
  3
- - - - - - - - - - - - - - - - - - - -
 72
65
 73
2
 40
0.2
 49
0.1
 49
-0.1
  0
LTYPE
  2
PHANTOM
 70
64
  3
_____ _ _ _____ _ _ _____ _ _ _____
 72
65
 73
6
 40
0.8
 49
0.45
 49
-0.05
 49
0.1
 49
-0.05
 49
0.1
 49
-0.05
  0
LTYPE
  2
DOT
 70
64
  3
. . . . . . . . . . . . . . . . . . . .
 72
65
 73
2
 40
0.2
 49
0.1
 49
-0.1
  0
LTYPE
  2
DASHED
 70
64
  3
- - - - - - - - - - - - - - - - - - - -
 72
65
 73
2
 40
0.2
 49
0.1
 49
-0.1
  0
ENDTAB
  0
TABLE
  2
LAYER
 70
36
  0
LAYER
  2
0
 70
0
 62
7
  6
CONTINUOUS
  0
LAYER
  2
DEFAULT_1
 70
0
 62
7
  6
CENTER
  0
LAYER
  2
DEFAULT_2
 70
0
 62
8
  6
HIDDEN
  0
LAYER
  2
DEFAULT_3
 70
0
 62
7
  6
PHANTOM
  0
LAYER
  2
_2D_DELETED_OBJS
 70
0
 62
7
  6
CONTINUOUS
  0
LAYER
  2
01___PRT_ALL_DTM_PLN
 70
0
 62
7
  6
CONTINUOUS
  0
LAYER
  2
01___PRT_DEF_DTM_PLN
 70
0
 62
7
  6
CONTINUOUS
  0
LAYER
  2
02___PRT_ALL_AXES
 70
0
 62
7
  6
CONTINUOUS
  0
LAYER
  2
03___PRT_ALL_CURVES
 70
0
 62
7
  6
CONTINUOUS
  0
LAYER
  2
04___PRT_ALL_DTM_PNT
 70
0
 62
7
  6
CONTINUOUS
  0
LAYER
  2
05___PRT_ALL_DTM_CSYS
 70
0
 62
7
  6
CONTINUOUS
  0
LAYER
  2
05___PRT_DEF_DTM_CSYS
 70
0
 62
7
  6
CONTINUOUS
  0
LAYER
  2
06___PRT_ALL_SURFS
 70
0
 62
7
  6
CONTINUOUS
  0
LAYER
  2
CURVES
 70
0
 62
7
  6
CONTINUOUS
  0
ENDTAB
  0
TABLE
  2
STYLE
 70
1
  0
STYLE
  2
STANDARD
 70
0
 40
0.0
 41
0.6
 50
0.0
 71
0
 42
0.2
  3
txt
  4

  0
ENDTAB
  0
ENDSEC
  0
SECTION
  2
BLOCKS
  0
BLOCK
  8
0
 62
7
  6
CONTINUOUS
  2
*D0
 70
65
 10
0.0
 20
0.0
  0
TEXT
  8
0
 62
7
  6
CONTINUOUS
 10
220.6762563458
 20
27.3819238387
  7
STANDARD
 40
3.0
  1
193
 41
0.6
 72
0
  0
LINE
  8
0
 62
7
  6
CONTINUOUS
 10
126.8762563458
 20
120.8811208659
 11
126.8762563458
 21
25.8819238387
  0
LINE
  8
0
 62
7
  6
CONTINUOUS
 10
319.8762563458
 20
139.8811208659
 11
319.8762563458
 21
25.8819238387
  0
LINE
  8
0
 62
7
  6
CONTINUOUS
 10
126.8762563458
 20
28.8819238387
 11
219.1762563458
 21
28.8819238387
  0
LINE
  8
0
 62
7
  6
CONTINUOUS
 10
319.8762563458
 20
28.8819238387
 11
227.5762563458
 21
28.8819238387
  0
INSERT
  8
0
 62
7
  6
CONTINUOUS
  2
_FILLED
 10
126.8762563458
 20
28.8819238387
 41
3.0
 42
3.0
 43
3.0
 50
180.0
  0
INSERT
  8
0
 62
7
  6
CONTINUOUS
  2
_FILLED
 10
319.8762563458
 20
28.8819238387
 41
3.0
 42
3.0
 43
3.0
 50
360.0
  0
ENDBLK
  8
0
  6
BYBLOCK
 62
0
  0
BLOCK
  8
0
 62
7
  6
CONTINUOUS
  2
*D1
 70
65
 10
0.0
 20
0.0
  0
TEXT
  8
0
 62
7
  6
CONTINUOUS
 10
192.8143535649
 20
19.3819238387
  7
STANDARD
 40
3.0
  1
249
 41
0.6
 72
0
  0
LINE
  8
0
 62
7
  6
CONTINUOUS
 10
319.8762563458
 20
139.8811208659
 11
319.8762563458
 21
17.8819238387
  0
LINE
  8
0
 62
7
  6
CONTINUOUS
 10
71.152450784
 20
187.9536167126
 11
71.152450784
 21
17.8819238387
  0
LINE
  8
0
 62
7
  6
CONTINUOUS
 10
319.8762563458
 20
20.8819238387
 11
199.7143535649
 21
20.8819238387
  0
LINE
  8
0
 62
7
  6
CONTINUOUS
 10
71.152450784
 20
20.8819238387
 11
191.3143535649
 21
20.8819238387
  0
INSERT
  8
0
 62
7
  6
CONTINUOUS
  2
_FILLED
 10
319.8762563458
 20
20.8819238387
 41
3.0
 42
3.0
 43
3.0
  0
INSERT
  8
0
 62
7
  6
CONTINUOUS
  2
_FILLED
 10
71.152450784
 20
20.8819238387
 41
3.0
 42
3.0
 43
3.0
 50
180.0
  0
ENDBLK
  8
0
  6
BYBLOCK
 62
0
  0
BLOCK
  8
0
 62
7
  6
CONTINUOUS
  2
*D2
 70
65
 10
0.0
 20
0.0
  0
TEXT
  8
0
 62
7
  6
CONTINUOUS
 10
335.1762563458
 20
113.1315223523
  7
STANDARD
 40
3.0
  1
151
 41
0.6
 72
0
  0
LINE
  8
0
 62
7
  6
CONTINUOUS
 10
198.8972469062
 20
38.8819238387
 11
340.8762563458
 21
38.8819238387
  0
LINE
  8
0
 62
7
  6
CONTINUOUS
 10
321.3762563458
 20
190.3811208659
 11
340.8762563458
 21
190.3811208659
  0
LINE
  8
0
 62
7
  6
CONTINUOUS
 10
337.8762563458
 20
38.8819238387
 11
337.8762563458
 21
111.6315223523
  0
LINE
  8
0
 62
7
  6
CONTINUOUS
 10
337.8762563458
 20
190.3811208659
 11
337.8762563458
 21
117.6315223523
  0
INSERT
  8
0
 62
7
  6
CONTINUOUS
  2
_FILLED
 10
337.8762563458
 20
38.8819238387
 41
3.0
 42
3.0
 43
3.0
 50
270.0
  0
INSERT
  8
0
 62
7
  6
CONTINUOUS
  2
_FILLED
 10
337.8762563458
 20
190.3811208659
 41
3.0
 42
3.0
 43
3.0
 50
90.0
  0
ENDBLK
  8
0
  6
BYBLOCK
 62
0
  0
BLOCK
  8
0
 62
7
  6
CONTINUOUS
  2
*D3
 70
65
 10
0.0
 20
0.0
  0
TEXT
  8
0
 62
7
  6
CONTINUOUS
 10
47.8349885313
 20
150.1449262889
  7
STANDARD
 40
3.0
  1
226
 41
0.6
 72
0
  0
LINE
  8
0
 62
7
  6
CONTINUOUS
 10
159.376283188
 20
38.8819238387
 11
47.5349885313
 21
38.8819238387
  0
LINE
  8
0
 62
7
  6
CONTINUOUS
 10
67.0349885313
 20
264.407928739
 11
47.5349885313
 21
264.407928739
  0
LINE
  8
0
 62
7
  6
CONTINUOUS
 10
50.5349885313
 20
38.8819238387
 11
50.5349885313
 21
148.6449262889
  0
LINE
  8
0
 62
7
  6
CONTINUOUS
 10
50.5349885313
 20
264.407928739
 11
50.5349885313
 21
154.6449262889
  0
INSERT
  8
0
 62
7
  6
CONTINUOUS
  2
_FILLED
 10
50.5349885313
 20
38.8819238387
 41
3.0
 42
3.0
 43
3.0
 50
270.0
  0
INSERT
  8
0
 62
7
  6
CONTINUOUS
  2
_FILLED
 10
50.5349885313
 20
264.407928739
 41
3.0
 42
3.0
 43
3.0
 50
90.0
  0
ENDBLK
  8
0
  6
BYBLOCK
 62
0
  0
BLOCK
  8
0
 62
7
  6
CONTINUOUS
  2
*D4
 70
65
 10
0.0
 20
0.0
  0
TEXT
  8
0
 62
7
  6
CONTINUOUS
 10
56.7349885313
 20
225.0358631329
  7
STANDARD
 40
3.0
  1
75
 41
0.6
 72
0
  0
LINE
  8
0
 62
7
  6
CONTINUOUS
 10
69.6533645434
 20
189.4012674675
 11
56.8455471766
 21
188.9540086295
  0
LINE
  8
0
 62
7
  6
CONTINUOUS
 10
67.0359022907
 20
264.3555794939
 11
54.2280849239
 21
263.908320656
  0
LINE
  8
0
 62
7
  6
CONTINUOUS
 10
59.8437196576
 20
189.0587071197
 11
58.6397508397
 21
223.5358631329
  0
LINE
  8
0
 62
7
  6
CONTINUOUS
 10
57.2262574049
 20
264.0130191461
 11
58.4302262228
 21
229.5358631329
  0
INSERT
  8
0
 62
7
  6
CONTINUOUS
  2
_FILLED
 10
59.8437196576
 20
189.0587071197
 41
3.0
 42
3.0
 43
3.0
 50
272.0
  0
INSERT
  8
0
 62
7
  6
CONTINUOUS
  2
_FILLED
 10
57.2262574049
 20
264.0130191461
 41
3.0
 42
3.0
 43
3.0
 50
92.0
  0
ENDBLK
  8
0
  6
BYBLOCK
 62
0
  0
BLOCK
  8
0
 62
7
  6
CONTINUOUS
  2
*D5
 70
65
 10
0.0
 20
0.0
  0
TEXT
  8
0
 62
7
  6
CONTINUOUS
 10
198.341877652
 20
259.7995702068
  7
STANDARD
 40
3.0
  1
88%%d
 41
0.6222222222
 72
0
  0
LINE
  8
0
 62
7
  6
CONTINUOUS
 10
200.0237471063
 20
231.4767594567
 11
217.1976210016
 21
232.0764843483
  0
LINE
  8
0
 62
7
  6
CONTINUOUS
 10
171.3762563458
 20
259.8077757916
 11
171.3762563458
 21
276.3256618428
  0
ARC
  8
0
 62
7
  6
CONTINUOUS
 10
171.3762563458
 20
230.4763670354
 40
42.8492948074
 50
2.0
 51
40.4908782135
  0
ARC
  8
0
 62
7
  6
CONTINUOUS
 10
171.3762563458
 20
230.4763670354
 40
42.8492948074
 50
52.1250540326
 51
90.0
  0
SOLID
  8
0
 62
7
  6
CONTINUOUS
 10
213.2417125424
 20
234.912065062
 11
214.1994485206
 21
231.9717858582
 12
214.7380481651
 22
235.0168491454
 13
214.7380481651
 23
235.0168491454
  0
SOLID
  8
0
 62
7
  6
CONTINUOUS
 10
174.4006678062
 20
273.9702045632
 11
171.3762563458
 21
273.3256618428
 12
174.3481689145
 22
272.4711235559
 13
174.3481689145
 23
272.4711235559
  0
ENDBLK
  8
0
  6
BYBLOCK
 62
0
  0
BLOCK
  8
0
 62
7
  6
CONTINUOUS
  2
*D6
 70
65
 10
0.0
 20
0.0
  0
TEXT
  8
0
 62
7
  6
CONTINUOUS
 10
273.5762563458
 20
212.6987359551
  7
STANDARD
 40
3.0
  1
89
 41
0.6
 72
0
  0
LINE
  8
0
 62
7
  6
CONTINUOUS
 10
230.8762563458
 20
191.8811208659
 11
230.8762563458
 21
217.1987359551
  0
LINE
  8
0
 62
7
  6
CONTINUOUS
 10
319.8762563458
 20
191.8811208659
 11
319.8762563458
 21
217.1987359551
  0
LINE
  8
0
 62
7
  6
CONTINUOUS
 10
230.8762563458
 20
214.1987359551
 11
272.0762563458
 21
214.1987359551
  0
LINE
  8
0
 62
7
  6
CONTINUOUS
 10
319.8762563458
 20
214.1987359551
 11
278.6762563458
 21
214.1987359551
  0
INSERT
  8
0
 62
7
  6
CONTINUOUS
  2
_FILLED
 10
230.8762563458
 20
214.1987359551
 41
3.0
 42
3.0
 43
3.0
 50
180.0
  0
INSERT
  8
0
 62
7
  6
CONTINUOUS
  2
_FILLED
 10
319.8762563458
 20
214.1987359551
 41
3.0
 42
3.0
 43
3.0
  0
ENDBLK
  8
0
  6
BYBLOCK
 62
0
  0
BLOCK
  8
0
  2
_FILLED
 70
64
 10
0.0
 20
0.0
  0
SOLID
  8
0
  6
BYBLOCK
 62
0
 10
0.0
 20
0.0
 11
-1.0
 21
0.25
 12
-1.0
 22
-0.25
 13
-1.0
 23
-0.25
  0
ENDBLK
  8
0
  6
BYBLOCK
 62
0
  0
ENDSEC
  0
SECTION
  2
ENTITIES
  0
DIMENSION
  8
0
 62
7
  6
CONTINUOUS
  2
*D0
 10
319.8762563458
 20
28.8819238387
 11
223.3762563458
 21
28.8819238387
 70
128
 13
126.8762563458
 23
120.8811208659
 14
319.8762563458
 24
139.8811208659
 50
360.0
  0
DIMENSION
  8
0
 62
7
  6
CONTINUOUS
  2
*D1
 10
71.152450784
 20
20.8819238387
 11
195.5143535649
 21
20.8819238387
 70
128
 13
319.8762563458
 23
139.8811208659
 14
71.152450784
 24
187.9536167126
 50
180.0
  0
DIMENSION
  8
0
 62
7
  6
CONTINUOUS
  2
*D2
 10
337.8762563458
 20
190.3811208659
 11
337.8762563458
 21
114.6315223523
 70
128
 13
198.8972469062
 23
38.8819238387
 14
321.3762563458
 24
190.3811208659
 50
90.0
  0
DIMENSION
  8
0
 62
7
  6
CONTINUOUS
  2
*D3
 10
50.5349885313
 20
264.407928739
 11
50.5349885313
 21
151.6449262889
 70
128
 13
159.376283188
 23
38.8819238387
 14
67.0349885313
 24
264.407928739
 50
90.0
  0
DIMENSION
  8
0
 62
7
  6
CONTINUOUS
  2
*D4
 10
57.2262574049
 20
264.0130191461
 11
58.5349885313
 21
226.5358631329
 70
128
 13
69.6533645434
 23
189.4012674675
 14
67.0359022907
 24
264.3555794939
 50
92.0
  0
DIMENSION
  8
0
 62
7
  6
CONTINUOUS
  2
*D5
 10
171.3762563458
 20
259.8077757916
 11
201.141877652
 21
261.2995702068
 70
130
 13
200.0237471063
 23
231.4767594567
 14
217.1976210016
 24
232.0764843483
 15
171.3762563458
 25
276.3256618428
 16
201.141877652
 26
261.2995702068
  0
DIMENSION
  8
0
 62
7
  6
CONTINUOUS
  2
*D6
 10
319.8762563458
 20
214.1987359551
 11
275.3762563458
 21
214.1987359551
 70
128
 13
230.8762563458
 23
191.8811208659
 14
319.8762563458
 24
191.8811208659
  0
LINE
  8
0
 62
7
  6
CONTINUOUS
 10
0.0
 20
0.0
 11
0.0
 21
297.0
  0
LINE
  8
0
 62
7
  6
CONTINUOUS
 10
0.0
 20
0.0
 11
420.0
 21
0.0
  0
LINE
  8
0
 62
7
  6
CONTINUOUS
 10
0.0
 20
297.0
 11
420.0
 21
297.0
  0
LINE
  8
0
 62
7
  6
CONTINUOUS
 10
420.0
 20
0.0
 11
420.0
 21
297.0
  0
LINE
  8
0
 62
7
  6
CONTINUOUS
 10
72.4627528459
 20
266.5463083798
 11
71.7830087191
 21
264.5213521033
  0
LINE
  8
0
 62
7
  6
CONTINUOUS
 10
99.4463051755
 20
267.4885947908
 11
98.7665610486
 21
265.4636385142
  0
LINE
  8
02___PRT_ALL_AXES
 62
7
  6
CONTINUOUS
 10
71.152450784
 20
189.4536167126
 11
68.5349885313
 21
264.407928739
  0
LINE
  8
0
 62
7
  6
CONTINUOUS
 10
74.4004709718
 20
189.5670400768
 11
71.7830087191
 21
264.5213521033
  0
LINE
  8
0
 62
7
  6
CONTINUOUS
 10
75.2198130854
 20
187.5944330453
 11
72.4627528459
 21
266.5463083798
  0
LINE
  8
0
 62
7
  6
CONTINUOUS
 10
77.2185947395
 20
187.6642320387
 11
74.4615345
 21
266.6161073732
  0
LINE
  8
0
 62
7
  6
CONTINUOUS
 10
77.8983388663
 20
189.6891883153
 11
75.2808766136
 21
264.6435003417
  0
LINE
  8
0
 62
7
  6
CONTINUOUS
 10
77.8983388663
 20
189.6891883153
 11
77.2185947395
 21
187.6642320387
  0
POLYLINE
  8
0
 62
7
  6
CONTINUOUS
 66
1
 70
0
  0
VERTEX
  8
0
 62
7
  6
CONTINUOUS
 10
207.6009046379
 20
39.4038599221
  0
VERTEX
  8
0
 62
7
  6
CONTINUOUS
 10
212.7072941673
 20
40.0608621152
  0
VERTEX
  8
0
 62
7
  6
CONTINUOUS
 10
217.7731014983
 20
40.9798079939
  0
VERTEX
  8
0
 62
7
  6
CONTINUOUS
 10
222.7848987586
 20
42.1582617137
  0
VERTEX
  8
0
 62
7
  6
CONTINUOUS
 10
227.729401241
 20
43.5930995563
  0
VERTEX
  8
0
 62
7
  6
CONTINUOUS
 10
232.5935026148
 20
45.2805182084
  0
SEQEND
  0
LINE
  8
0
 62
7
  6
CONTINUOUS
 10
202.4674683525
 20
39.0105429278
 11
207.6007722625
 21
39.4038467479
  0
POLYLINE
  8
0
 62
7
  6
CONTINUOUS
 66
1
 70
0
  0
VERTEX
  8
0
 62
7
  6
CONTINUOUS
 10
197.3972469062
 20
38.8819254375
  0
VERTEX
  8
0
 62
7
  6
CONTINUOUS
 10
203.2560559996
 20
39.0537011524
  0
VERTEX
  8
0
 62
7
  6
CONTINUOUS
 10
209.0947368566
 20
39.5684383052
  0
VERTEX
  8
0
 62
7
  6
CONTINUOUS
 10
214.8932305944
 20
40.424368477
  0
VERTEX
  8
0
 62
7
  6
CONTINUOUS
 10
220.631616386
 20
41.6185510641
  0
VERTEX
  8
0
 62
7
  6
CONTINUOUS
 10
226.2901799024
 20
43.1468833818
  0
VERTEX
  8
0
 62
7
  6
CONTINUOUS
 10
231.8494810411
 20
45.0041147597
  0
SEQEND
  0
LINE
  8
0
 62
7
  6
CONTINUOUS
 10
197.3972440752
 20
38.881924321
 11
202.4674683525
 21
39.0105429278
  0
LINE
  8
0
 62
7
  6
CONTINUOUS
 10
160.876283188
 20
38.8819238387
 11
197.3972469062
 21
38.8819238387
  0
LINE
  8
0
 62
7
  6
CONTINUOUS
 10
158.8046906853
 20
38.9535312237
 11
160.876260746
 21
38.8819224281
  0
LINE
  8
0
 62
7
  6
CONTINUOUS
 10
158.5224836681
 20
38.9744036354
 11
160.8762563458
 21
38.8819236553
  0
LINE
  8
0
 62
7
  6
CONTINUOUS
 10
156.6678594376
 20
39.1785662673
 11
158.8036798903
 21
38.9536376731
  0
LINE
  8
0
 62
7
  6
CONTINUOUS
 10
101.3840233013
 20
190.5093264878
 11
98.7665610486
 21
265.4636385142
  0
LINE
  8
0
 62
7
  6
CONTINUOUS
 10
102.203365415
 20
188.5367194563
 11
99.4463051755
 21
267.4885947908
  0
LINE
  8
0
 62
7
  6
CONTINUOUS
 10
104.8818911959
 20
190.6314747263
 11
104.202147069
 21
188.6065184497
  0
LINE
  8
0
 62
7
  6
CONTINUOUS
 10
75.2198130854
 20
187.5944330453
 11
74.4004709718
 21
189.5670400768
  0
LINE
  8
0
 62
7
  6
CONTINUOUS
 10
104.202147069
 20
188.6065184497
 11
101.4450868295
 21
267.5583937842
  0
LINE
  8
0
 62
7
  6
CONTINUOUS
 10
104.8818911959
 20
190.6314747263
 11
102.2644289432
 21
265.5857867527
  0
LINE
  8
0
 62
9
  6
CONTINUOUS
 10
110.5094032661
 20
265.8737076005
 11
113.1268655188
 21
190.9193955741
  0
LINE
  8
0
 62
7
  6
CONTINUOUS
 10
111.5436935898
 20
264.9092162702
 11
114.0913568491
 21
191.9536858978
  0
LINE
  8
0
 62
7
  6
CONTINUOUS
 10
130.9475405256
 20
66.8150461449
 11
131.1722046523
 21
64.6785226178
  0
POLYLINE
  8
0
 62
7
  6
CONTINUOUS
 66
1
 70
0
  0
VERTEX
  8
0
 62
7
  6
CONTINUOUS
 10
130.8762560448
 20
68.8819235134
  0
VERTEX
  8
0
 62
7
  6
CONTINUOUS
 10
130.9687361413
 20
66.5281505843
  0
VERTEX
  8
0
 62
7
  6
CONTINUOUS
 10
131.01415217
 20
66.0088163712
  0
SEQEND
  0
LINE
  8
02___PRT_ALL_AXES
 62
7
  6
CONTINUOUS
 10
126.8762563458
 20
168.3811208659
 11
126.8762563458
 21
122.3811208659
  0
LINE
  8
0
 62
9
  6
CONTINUOUS
 10
130.8762563459
 20
68.8819235171
 11
133.4712360184
 21
69.2229560651
  0
LINE
  8
0
 62
9
  6
CONTINUOUS
 10
133.4712360184
 20
69.2229560651
 11
135.9115610814
 21
69.5406459525
  0
LINE
  8
0
 62
9
  6
CONTINUOUS
 10
135.9115610814
 20
69.5406459525
 11
139.0897575947
 21
69.9501752258
  0
POLYLINE
  8
0
 62
9
  6
CONTINUOUS
 66
1
 70
0
  0
VERTEX
  8
0
 62
9
  6
CONTINUOUS
 10
147.3742511027
 20
71.0021126341
  0
VERTEX
  8
0
 62
9
  6
CONTINUOUS
 10
149.4840249
 20
71.2712498311
  0
VERTEX
  8
0
 62
9
  6
CONTINUOUS
 10
151.2985608592
 20
71.5072171204
  0
VERTEX
  8
0
 62
9
  6
CONTINUOUS
 10
152.8012795912
 20
71.7093468828
  0
VERTEX
  8
0
 62
9
  6
CONTINUOUS
 10
154.05972614
 20
71.8875710721
  0
VERTEX
  8
0
 62
9
  6
CONTINUOUS
 10
155.1579800844
 20
72.0547039805
  0
VERTEX
  8
0
 62
9
  6
CONTINUOUS
 10
156.1771640116
 20
72.2242413681
  0
VERTEX
  8
0
 62
9
  6
CONTINUOUS
 10
157.2417035331
 20
72.4193244817
  0
VERTEX
  8
0
 62
9
  6
CONTINUOUS
 10
158.427150966
 20
72.6595817793
  0
VERTEX
  8
0
 62
9
  6
CONTINUOUS
 10
159.72930059
 20
72.947907883
  0
VERTEX
  8
0
 62
9
  6
CONTINUOUS
 10
161.1052117905
 20
73.2765235326
  0
VERTEX
  8
0
 62
9
  6
CONTINUOUS
 10
162.4843618576
 20
73.6346981852
  0
VERTEX
  8
0
 62
9
  6
CONTINUOUS
 10
163.7717271439
 20
73.983546735
  0
VERTEX
  8
0
 62
9
  6
CONTINUOUS
 10
164.9441559846
 20
74.3201029434
  0
VERTEX
  8
0
 62
9
  6
CONTINUOUS
 10
166.0172134182
 20
74.6379712336
  0
VERTEX
  8
0
 62
9
  6
CONTINUOUS
 10
167.007672986
 20
74.941453586
  0
VERTEX
  8
0
 62
9
  6
CONTINUOUS
 10
167.9325956118
 20
75.2328292043
  0
VERTEX
  8
0
 62
9
  6
CONTINUOUS
 10
168.8112095095
 20
75.5163905729
  0
VERTEX
  8
0
 62
9
  6
CONTINUOUS
 10
169.6637850396
 20
75.7978624576
  0
VERTEX
  8
0
 62
9
  6
CONTINUOUS
 10
170.5115192469
 20
76.0836570914
  0
VERTEX
  8
0
 62
9
  6
CONTINUOUS
 10
171.3762563458
 20
76.3811208659
  0
SEQEND
  0
POLYLINE
  8
0
 62
9
  6
CONTINUOUS
 66
1
 70
0
  0
VERTEX
  8
0
 62
9
  6
CONTINUOUS
 10
139.0897575947
 20
69.9501752258
  0
VERTEX
  8
0
 62
9
  6
CONTINUOUS
 10
142.9424862967
 20
70.4410361805
  0
VERTEX
  8
0
 62
9
  6
CONTINUOUS
 10
147.3742511027
 20
71.0021126341
  0
SEQEND
  0
POLYLINE
  8
0
 62
9
  6
CONTINUOUS
 66
1
 70
0
  0
VERTEX
  8
0
 62
9
  6
CONTINUOUS
 10
180.8426950766
 20
66.4706991443
  0
VERTEX
  8
0
 62
9
  6
CONTINUOUS
 10
180.8541632284
 20
66.4621742687
  0
VERTEX
  8
0
 62
9
  6
CONTINUOUS
 10
180.8626122837
 20
66.4507984346
  0
SEQEND
  0
POLYLINE
  8
0
 62
9
  6
CONTINUOUS
 66
1
 70
0
  0
VERTEX
  8
0
 62
9
  6
CONTINUOUS
 10
181.0631504482
 20
66.2504394775
  0
VERTEX
  8
0
 62
9
  6
CONTINUOUS
 10
182.0166463011
 20
65.3800446151
  0
VERTEX
  8
0
 62
9
  6
CONTINUOUS
 10
182.9209759436
 20
64.5600899363
  0
VERTEX
  8
0
 62
9
  6
CONTINUOUS
 10
183.8345381507
 20
63.7514083731
  0
VERTEX
  8
0
 62
9
  6
CONTINUOUS
 10
184.7896299874
 20
62.9291661316
  0
VERTEX
  8
0
 62
9
  6
CONTINUOUS
 10
185.8210432815
 20
62.0707241131
  0
VERTEX
  8
0
 62
9
  6
CONTINUOUS
 10
186.9610696484
 20
61.1513491802
  0
VERTEX
  8
0
 62
9
  6
CONTINUOUS
 10
188.2480384839
 20
60.1504531829
  0
VERTEX
  8
0
 62
9
  6
CONTINUOUS
 10
189.7249116576
 20
59.0597511764
  0
VERTEX
  8
0
 62
9
  6
CONTINUOUS
 10
191.4146794563
 20
57.8699849975
  0
VERTEX
  8
0
 62
9
  6
CONTINUOUS
 10
193.3525735167
 20
56.596382287
  0
VERTEX
  8
0
 62
9
  6
CONTINUOUS
 10
195.583304975
 20
55.2374819323
  0
VERTEX
  8
0
 62
9
  6
CONTINUOUS
 10
198.1831033806
 20
53.7972852106
  0
VERTEX
  8
0
 62
9
  6
CONTINUOUS
 10
201.1489069932
 20
52.3331522265
  0
VERTEX
  8
0
 62
9
  6
CONTINUOUS
 10
204.4517252632
 20
50.9206797365
  0
VERTEX
  8
0
 62
9
  6
CONTINUOUS
 10
207.9788086046
 20
49.6470030078
  0
VERTEX
  8
0
 62
9
  6
CONTINUOUS
 10
211.5051224175
 20
48.6065629602
  0
VERTEX
  8
0
 62
9
  6
CONTINUOUS
 10
215.0311570287
 20
47.7866306929
  0
VERTEX
  8
0
 62
9
  6
CONTINUOUS
 10
218.5231068075
 20
47.1814995101
  0
VERTEX
  8
0
 62
9
  6
CONTINUOUS
 10
221.9139964548
 20
46.7831955757
  0
VERTEX
  8
0
 62
9
  6
CONTINUOUS
 10
225.1350366614
 20
46.5720420331
  0
VERTEX
  8
0
 62
9
  6
CONTINUOUS
 10
228.0571277164
 20
46.5178001615
  0
VERTEX
  8
0
 62
9
  6
CONTINUOUS
 10
230.4795171437
 20
46.5695969603
  0
VERTEX
  8
0
 62
9
  6
CONTINUOUS
 10
232.3752247272
 20
46.6708050336
  0
VERTEX
  8
0
 62
9
  6
CONTINUOUS
 10
233.8156896443
 20
46.7837245064
  0
VERTEX
  8
0
 62
9
  6
CONTINUOUS
 10
234.9035736095
 20
46.8890309315
  0
VERTEX
  8
0
 62
9
  6
CONTINUOUS
 10
235.7271422078
 20
46.9815458665
  0
VERTEX
  8
0
 62
9
  6
CONTINUOUS
 10
236.3308734795
 20
47.0547426256
  0
VERTEX
  8
0
 62
9
  6
CONTINUOUS
 10
236.765157526
 20
47.1109187394
  0
VERTEX
  8
0
 62
9
  6
CONTINUOUS
 10
237.0680830343
 20
47.1542561384
  0
VERTEX
  8
0
 62
9
  6
CONTINUOUS
 10
237.2305899402
 20
47.1743125853
  0
VERTEX
  8
0
 62
9
  6
CONTINUOUS
 10
237.2904215211
 20
47.1838625566
  0
SEQEND
  0
POLYLINE
  8
0
 62
9
  6
CONTINUOUS
 66
1
 70
0
  0
VERTEX
  8
0
 62
9
  6
CONTINUOUS
 10
180.8626122837
 20
66.4507984346
  0
VERTEX
  8
0
 62
9
  6
CONTINUOUS
 10
180.9624875929
 20
66.3500905908
  0
VERTEX
  8
0
 62
9
  6
CONTINUOUS
 10
181.0631504482
 20
66.2504394775
  0
SEQEND
  0
LINE
  8
0
 62
9
  6
CONTINUOUS
 10
181.063215249
 20
66.2504742633
 11
182.4008710254
 21
64.8110091916
  0
POLYLINE
  8
0
 62
9
  6
CONTINUOUS
 66
1
 70
0
  0
VERTEX
  8
0
 62
9
  6
CONTINUOUS
 10
171.3762562692
 20
76.3811207983
  0
VERTEX
  8
0
 62
9
  6
CONTINUOUS
 10
173.806198166
 20
73.7455419067
  0
VERTEX
  8
0
 62
9
  6
CONTINUOUS
 10
176.2028255309
 20
71.211720724
  0
VERTEX
  8
0
 62
9
  6
CONTINUOUS
 10
178.5528144746
 20
68.7852644757
  0
VERTEX
  8
0
 62
9
  6
CONTINUOUS
 10
180.8426950766
 20
66.4706991443
  0
SEQEND
  0
POLYLINE
  8
0
 62
9
  6
CONTINUOUS
 66
1
 70
0
  0
VERTEX
  8
0
 62
9
  6
CONTINUOUS
 10
182.4008710254
 20
64.8110091916
  0
VERTEX
  8
0
 62
9
  6
CONTINUOUS
 10
183.0373055168
 20
64.1189827585
  0
VERTEX
  8
0
 62
9
  6
CONTINUOUS
 10
183.6731167455
 20
63.4213298982
  0
VERTEX
  8
0
 62
9
  6
CONTINUOUS
 10
184.3280526814
 20
62.696950208
  0
VERTEX
  8
0
 62
9
  6
CONTINUOUS
 10
185.0148052639
 20
61.9216565533
  0
VERTEX
  8
0
 62
9
  6
CONTINUOUS
 10
185.7460564951
 20
61.0782159415
  0
VERTEX
  8
0
 62
9
  6
CONTINUOUS
 10
186.5338899323
 20
60.1577032991
  0
VERTEX
  8
0
 62
9
  6
CONTINUOUS
 10
187.3691825637
 20
59.1439749482
  0
VERTEX
  8
0
 62
9
  6
CONTINUOUS
 10
188.2522630768
 20
58.0414199996
  0
VERTEX
  8
0
 62
9
  6
CONTINUOUS
 10
189.1770602698
 20
56.8358474205
  0
VERTEX
  8
0
 62
9
  6
CONTINUOUS
 10
190.1453571377
 20
55.5048839199
  0
VERTEX
  8
0
 62
9
  6
CONTINUOUS
 10
191.1265978284
 20
54.0692533414
  0
VERTEX
  8
0
 62
9
  6
CONTINUOUS
 10
192.0841044256
 20
52.5571738263
  0
VERTEX
  8
0
 62
9
  6
CONTINUOUS
 10
192.9753826038
 20
51.0197519909
  0
VERTEX
  8
0
 62
9
  6
CONTINUOUS
 10
193.7536946215
 20
49.5445277369
  0
VERTEX
  8
0
 62
9
  6
CONTINUOUS
 10
194.4366237316
 20
48.1134919225
  0
VERTEX
  8
0
 62
9
  6
CONTINUOUS
 10
195.0344732127
 20
46.7232888418
  0
VERTEX
  8
0
 62
9
  6
CONTINUOUS
 10
195.5529917923
 20
45.3835249251
  0
VERTEX
  8
0
 62
9
  6
CONTINUOUS
 10
195.9984036048
 20
44.1054347791
  0
VERTEX
  8
0
 62
9
  6
CONTINUOUS
 10
196.3693880401
 20
42.9278570778
  0
VERTEX
  8
0
 62
9
  6
CONTINUOUS
 10
196.6570339524
 20
41.9275201378
  0
VERTEX
  8
0
 62
9
  6
CONTINUOUS
 10
196.8717753958
 20
41.1216823265
  0
VERTEX
  8
0
 62
9
  6
CONTINUOUS
 10
197.0298749578
 20
40.4915569974
  0
VERTEX
  8
0
 62
9
  6
CONTINUOUS
 10
197.1468841763
 20
40.0022946264
  0
VERTEX
  8
0
 62
9
  6
CONTINUOUS
 10
197.2341330657
 20
39.6242997077
  0
SEQEND
  0
LINE
  8
0
 62
7
  6
CONTINUOUS
 10
102.203365415
 20
188.5367194563
 11
101.3840233013
 21
190.5093264878
  0
LINE
  8
0
 62
7
  6
CONTINUOUS
 10
75.2808766136
 20
264.6435003417
 11
74.4615345
 21
266.6161073732
  0
POLYLINE
  8
0
 62
7
  6
CONTINUOUS
 66
1
 70
0
  0
VERTEX
  8
0
 62
7
  6
CONTINUOUS
 10
131.1722407534
 20
64.6781793024
  0
VERTEX
  8
0
 62
7
  6
CONTINUOUS
 10
131.5493123404
 20
62.5628762288
  0
VERTEX
  8
0
 62
7
  6
CONTINUOUS
 10
132.0768210393
 20
60.4799876977
  0
VERTEX
  8
0
 62
7
  6
CONTINUOUS
 10
132.7520609126
 20
58.4401982073
  0
VERTEX
  8
0
 62
7
  6
CONTINUOUS
 10
133.5715682132
 20
56.4539711719
  0
VERTEX
  8
0
 62
7
  6
CONTINUOUS
 10
134.5311391522
 20
54.5314952494
  0
VERTEX
  8
0
 62
7
  6
CONTINUOUS
 10
135.6258514627
 20
52.6826320771
  0
VERTEX
  8
0
 62
7
  6
CONTINUOUS
 10
136.8500896487
 20
50.9168656853
  0
VERTEX
  8
0
 62
7
  6
CONTINUOUS
 10
138.1975737905
 20
49.243253847
  0
VERTEX
  8
0
 62
7
  6
CONTINUOUS
 10
139.6613917585
 20
47.6703816143
  0
VERTEX
  8
0
 62
7
  6
CONTINUOUS
 10
141.2340346711
 20
46.2063172791
  0
VERTEX
  8
0
 62
7
  6
CONTINUOUS
 10
142.90743542
 20
44.85857098
  0
VERTEX
  8
0
 62
7
  6
CONTINUOUS
 10
144.6730100465
 20
43.6340561854
  0
VERTEX
  8
0
 62
7
  6
CONTINUOUS
 10
146.5217017707
 20
42.5390542326
  0
VERTEX
  8
0
 62
7
  6
CONTINUOUS
 10
148.4440274348
 20
41.5791821116
  0
VERTEX
  8
0
 62
7
  6
CONTINUOUS
 10
150.4301261488
 20
40.7593636451
  0
VERTEX
  8
0
 62
7
  6
CONTINUOUS
 10
152.4698098791
 20
40.0838042235
  0
VERTEX
  8
0
 62
7
  6
CONTINUOUS
 10
154.5526156866
 20
39.5559692341
  0
VERTEX
  8
0
 62
7
  6
CONTINUOUS
 10
156.6678594376
 20
39.1785662673
  0
SEQEND
  0
POLYLINE
  8
0
 62
7
  6
CONTINUOUS
 66
1
 70
0
  0
VERTEX
  8
0
 62
7
  6
CONTINUOUS
 10
131.01415217
 20
66.0088163712
  0
VERTEX
  8
0
 62
7
  6
CONTINUOUS
 10
131.2456060449
 20
64.1888894518
  0
VERTEX
  8
0
 62
7
  6
CONTINUOUS
 10
131.7051587602
 20
61.8785624405
  0
VERTEX
  8
0
 62
7
  6
CONTINUOUS
 10
132.3445609914
 20
59.6114134861
  0
VERTEX
  8
0
 62
7
  6
CONTINUOUS
 10
133.15987061
 20
57.4014203169
  0
VERTEX
  8
0
 62
7
  6
CONTINUOUS
 10
134.1460609601
 20
55.2622082765
  0
VERTEX
  8
0
 62
7
  6
CONTINUOUS
 10
135.2970518488
 20
53.2069663188
  0
VERTEX
  8
0
 62
7
  6
CONTINUOUS
 10
136.6057470328
 20
51.2483656941
  0
VERTEX
  8
0
 62
7
  6
CONTINUOUS
 10
138.0640779695
 20
49.3984818261
  0
VERTEX
  8
0
 62
7
  6
CONTINUOUS
 10
139.6630535616
 20
47.6687198633
  0
VERTEX
  8
0
 62
7
  6
CONTINUOUS
 10
141.3928155909
 20
46.0697443624
  0
VERTEX
  8
0
 62
7
  6
CONTINUOUS
 10
143.2426994971
 20
44.6114135378
  0
VERTEX
  8
0
 62
7
  6
CONTINUOUS
 10
145.2013001285
 20
43.3027184822
  0
VERTEX
  8
0
 62
7
  6
CONTINUOUS
 10
147.2565420586
 20
42.1517277341
  0
VERTEX
  8
0
 62
7
  6
CONTINUOUS
 10
149.3957540352
 20
41.1655375318
  0
VERTEX
  8
0
 62
7
  6
CONTINUOUS
 10
151.6057471031
 20
40.3502280637
  0
VERTEX
  8
0
 62
7
  6
CONTINUOUS
 10
153.8728959178
 20
39.7108259811
  0
VERTEX
  8
0
 62
7
  6
CONTINUOUS
 10
156.1832227511
 20
39.2512734077
  0
VERTEX
  8
0
 62
7
  6
CONTINUOUS
 10
158.5224836681
 20
38.9744036354
  0
SEQEND
  0
LINE
  8
0
 62
7
  6
CONTINUOUS
 10
131.014152804
 20
66.0088164321
 11
131.1722046523
 21
64.6785226178
  0
LINE
  8
0
 62
7
  6
CONTINUOUS
 10
130.8762560448
 20
68.8819248649
 11
130.9475405256
 21
66.8150461449
  0
LINE
  8
0
 62
7
  6
CONTINUOUS
 10
130.3762563458
 20
172.3811208659
 11
130.3762563458
 21
168.3811208659
  0
LINE
  8
02___PRT_ALL_AXES
 62
7
  6
CONTINUOUS
 10
130.8762563458
 20
120.0717197891
 11
130.8762563458
 21
68.8819237478
  0
LINE
  8
02___PRT_ALL_AXES
 62
7
  6
CONTINUOUS
 10
126.8762563458
 20
122.3811208659
 11
130.8762563458
 21
120.0717197891
  0
POLYLINE
  8
0
 62
7
  6
CONTINUOUS
 66
1
 70
0
  0
VERTEX
  8
0
 62
7
  6
CONTINUOUS
 10
134.4129077599
 20
176.7215464484
  0
VERTEX
  8
0
 62
7
  6
CONTINUOUS
 10
134.4402181155
 20
176.6336786331
  0
VERTEX
  8
0
 62
7
  6
CONTINUOUS
 10
134.4686472282
 20
176.4703521727
  0
VERTEX
  8
0
 62
7
  6
CONTINUOUS
 10
134.4697022286
 20
176.3045733063
  0
VERTEX
  8
0
 62
7
  6
CONTINUOUS
 10
134.4433541224
 20
176.140898254
  0
VERTEX
  8
0
 62
7
  6
CONTINUOUS
 10
134.390327053
 20
175.9838254154
  0
VERTEX
  8
0
 62
7
  6
CONTINUOUS
 10
134.3120783988
 20
175.8376717378
  0
VERTEX
  8
0
 62
7
  6
CONTINUOUS
 10
134.2107587213
 20
175.7064540725
  0
VERTEX
  8
0
 62
7
  6
CONTINUOUS
 10
134.0891526733
 20
175.5937787855
  0
VERTEX
  8
0
 62
7
  6
CONTINUOUS
 10
133.9506024675
 20
175.5027426261
  0
VERTEX
  8
0
 62
7
  6
CONTINUOUS
 10
133.7989160132
 20
175.435847605
  0
VERTEX
  8
0
 62
7
  6
CONTINUOUS
 10
133.6382622489
 20
175.3949322258
  0
VERTEX
  8
0
 62
7
  6
CONTINUOUS
 10
133.4730565766
 20
175.3811209598
  0
SEQEND
  0
LINE
  8
0
 62
7
  6
CONTINUOUS
 10
130.8762563458
 20
120.0717197891
 11
208.9455737252
 21
120.0717197891
  0
LINE
  8
0
 62
7
  6
CONTINUOUS
 10
102.2644289432
 20
265.5857867527
 11
101.4450868295
 21
267.5583937842
  0
LINE
  8
02___PRT_ALL_AXES
 62
7
  6
CENTER
 10
171.3762563458
 20
32.8811208659
 11
171.3762563458
 21
265.9613764045
  0
LINE
  8
0
 62
7
  6
CONTINUOUS
 10
126.8762563458
 20
122.3811208659
 11
213.2186579521
 21
122.3811208659
  0
POLYLINE
  8
0
 62
9
  6
CONTINUOUS
 66
1
 70
0
  0
VERTEX
  8
0
 62
9
  6
CONTINUOUS
 10
197.2341330657
 20
39.6242997077
  0
VERTEX
  8
0
 62
9
  6
CONTINUOUS
 10
197.3430753491
 20
39.1335305567
  0
VERTEX
  8
0
 62
9
  6
CONTINUOUS
 10
197.3740108525
 20
38.9912978728
  0
VERTEX
  8
0
 62
9
  6
CONTINUOUS
 10
197.3913697691
 20
38.9084513135
  0
VERTEX
  8
0
 62
9
  6
CONTINUOUS
 10
197.3972459891
 20
38.8819230561
  0
SEQEND
  0
LINE
  8
0
 62
7
  6
CONTINUOUS
 10
233.9777692805
 20
141.3811208659
 11
319.8762563458
 21
141.3811208659
  0
POLYLINE
  8
0
 62
7
  6
CONTINUOUS
 66
1
 70
0
  0
VERTEX
  8
0
 62
7
  6
CONTINUOUS
 10
233.9777692805
 20
141.3811208659
  0
VERTEX
  8
0
 62
7
  6
CONTINUOUS
 10
233.041982095
 20
141.857158044
  0
VERTEX
  8
0
 62
7
  6
CONTINUOUS
 10
232.2683518539
 20
142.2437461435
  0
VERTEX
  8
0
 62
7
  6
CONTINUOUS
 10
231.661485069
 20
142.5429364959
  0
VERTEX
  8
0
 62
7
  6
CONTINUOUS
 10
230.8762563458
 20
142.925144213
  0
SEQEND
  0
LINE
  8
0
 62
7
  6
CONTINUOUS
 10
212.3762563458
 20
172.3811208659
 11
212.3762563458
 21
168.3811208659
  0
LINE
  8
02___PRT_ALL_AXES
 62
7
  6
CONTINUOUS
 10
215.8762563458
 20
168.3811208659
 11
215.8762563458
 21
127.6129833851
  0
LINE
  8
02___PRT_ALL_AXES
 62
7
  6
CONTINUOUS
 10
126.8762563458
 20
168.3811208659
 11
215.8762563458
 21
168.3811208659
  0
LINE
  8
0
 62
9
  6
CONTINUOUS
 10
212.3762563458
 20
172.3811208659
 11
130.3762563458
 21
172.3811208659
  0
LINE
  8
0
 62
7
  6
CONTINUOUS
 10
209.3762563458
 20
175.3811208659
 11
133.3762563458
 21
175.3811208659
  0
LINE
  8
0
 62
9
  6
CONTINUOUS
 10
188.5745756155
 20
176.3303201143
 11
206.5475206654
 21
176.2982193115
  0
LINE
  8
0
 62
9
  6
CONTINUOUS
 10
179.2657957128
 20
176.3536676468
 11
188.5745756155
 21
176.3303201143
  0
LINE
  8
0
 62
9
  6
CONTINUOUS
 10
171.7769237137
 20
176.3776910389
 11
179.2657957128
 21
176.3536676468
  0
LINE
  8
0
 62
9
  6
CONTINUOUS
 10
166.7190562852
 20
176.3975950618
 11
171.7769237137
 21
176.3776910389
  0
LINE
  8
0
 62
9
  6
CONTINUOUS
 10
161.7222610112
 20
176.4211718892
 11
166.7190562852
 21
176.3975950618
  0
LINE
  8
0
 62
9
  6
CONTINUOUS
 10
156.8824076904
 20
176.4489033506
 11
161.7222610112
 21
176.4211718892
  0
POLYLINE
  8
0
 62
9
  6
CONTINUOUS
 66
1
 70
0
  0
VERTEX
  8
0
 62
9
  6
CONTINUOUS
 10
139.6061196787
 20
176.6226178789
  0
VERTEX
  8
0
 62
9
  6
CONTINUOUS
 10
141.0108383674
 20
176.6013286201
  0
VERTEX
  8
0
 62
9
  6
CONTINUOUS
 10
142.5684640531
 20
176.5798219787
  0
VERTEX
  8
0
 62
9
  6
CONTINUOUS
 10
144.2698828014
 20
176.5585316427
  0
VERTEX
  8
0
 62
9
  6
CONTINUOUS
 10
146.104428061
 20
176.5378061356
  0
VERTEX
  8
0
 62
9
  6
CONTINUOUS
 10
148.0610718992
 20
176.51789863
  0
VERTEX
  8
0
 62
9
  6
CONTINUOUS
 10
150.1282675818
 20
176.4989815488
  0
VERTEX
  8
0
 62
9
  6
CONTINUOUS
 10
152.295119218
 20
176.4811516504
  0
VERTEX
  8
0
 62
9
  6
CONTINUOUS
 10
156.8824076904
 20
176.4489033506
  0
SEQEND
  0
LINE
  8
0
 62
9
  6
CONTINUOUS
 10
137.2825789189
 20
176.6624682983
 11
139.6061196787
 21
176.6226178789
  0
LINE
  8
0
 62
9
  6
CONTINUOUS
 10
134.4129076204
 20
176.7215463978
 11
137.2825789189
 21
176.6624682983
  0
POLYLINE
  8
0
 62
7
  6
CONTINUOUS
 66
1
 70
0
  0
VERTEX
  8
0
 62
7
  6
CONTINUOUS
 10
215.8762563458
 20
127.6129833851
  0
VERTEX
  8
0
 62
7
  6
CONTINUOUS
 10
215.566476212
 20
126.9790107789
  0
VERTEX
  8
0
 62
7
  6
CONTINUOUS
 10
215.3149809412
 20
126.4694362969
  0
VERTEX
  8
0
 62
7
  6
CONTINUOUS
 10
214.9721560364
 20
125.7819061371
  0
VERTEX
  8
0
 62
7
  6
CONTINUOUS
 10
214.5224678537
 20
124.8919194043
  0
VERTEX
  8
0
 62
7
  6
CONTINUOUS
 10
213.946868745
 20
123.771252884
  0
VERTEX
  8
0
 62
7
  6
CONTINUOUS
 10
213.2186579521
 20
122.3811208659
  0
SEQEND
  0
POLYLINE
  8
0
 62
7
  6
CONTINUOUS
 66
1
 70
0
  0
VERTEX
  8
0
 62
7
  6
CONTINUOUS
 10
208.9455737252
 20
120.0717197891
  0
VERTEX
  8
0
 62
7
  6
CONTINUOUS
 10
207.945277177
 20
118.483728331
  0
VERTEX
  8
0
 62
7
  6
CONTINUOUS
 10
206.7432285062
 20
116.6307426036
  0
VERTEX
  8
0
 62
7
  6
CONTINUOUS
 10
205.4126915156
 20
114.6439283805
  0
VERTEX
  8
0
 62
7
  6
CONTINUOUS
 10
204.043211527
 20
112.6630696086
  0
VERTEX
  8
0
 62
7
  6
CONTINUOUS
 10
202.5360578638
 20
110.5513583502
  0
VERTEX
  8
0
 62
7
  6
CONTINUOUS
 10
200.7570085669
 20
108.1420532603
  0
VERTEX
  8
0
 62
7
  6
CONTINUOUS
 10
198.6901364086
 20
105.4448483533
  0
VERTEX
  8
0
 62
7
  6
CONTINUOUS
 10
196.3778373391
 20
102.5431756333
  0
VERTEX
  8
0
 62
7
  6
CONTINUOUS
 10
193.8858793607
 20
99.5377455882
  0
VERTEX
  8
0
 62
7
  6
CONTINUOUS
 10
191.0589382989
 20
96.2637490989
  0
VERTEX
  8
0
 62
7
  6
CONTINUOUS
 10
187.9644127721
 20
92.82583021
  0
VERTEX
  8
0
 62
7
  6
CONTINUOUS
 10
184.7060349335
 20
89.3516089624
  0
VERTEX
  8
0
 62
7
  6
CONTINUOUS
 10
181.3933591869
 20
85.9553931388
  0
VERTEX
  8
0
 62
7
  6
CONTINUOUS
 10
178.066422344
 20
82.6676224812
  0
VERTEX
  8
0
 62
7
  6
CONTINUOUS
 10
174.7271526941
 20
79.4791323253
  0
VERTEX
  8
0
 62
7
  6
CONTINUOUS
 10
171.3762563458
 20
76.3811208659
  0
SEQEND
  0
LINE
  8
02___PRT_ALL_AXES
 62
7
  6
CONTINUOUS
 10
230.8762563458
 20
190.3811208659
 11
230.8762563458
 21
142.925144213
  0
POLYLINE
  8
0
 62
9
  6
CONTINUOUS
 66
1
 70
0
  0
VERTEX
  8
0
 62
9
  6
CONTINUOUS
 10
161.120460838
 20
39.1903698494
  0
VERTEX
  8
0
 62
9
  6
CONTINUOUS
 10
161.3083873462
 20
39.4329007945
  0
VERTEX
  8
0
 62
9
  6
CONTINUOUS
 10
161.5490720031
 20
39.7492657685
  0
VERTEX
  8
0
 62
9
  6
CONTINUOUS
 10
161.8403769341
 20
40.1426672699
  0
VERTEX
  8
0
 62
9
  6
CONTINUOUS
 10
162.1817243387
 20
40.6193494919
  0
VERTEX
  8
0
 62
9
  6
CONTINUOUS
 10
162.5707438365
 20
41.1859431208
  0
VERTEX
  8
0
 62
9
  6
CONTINUOUS
 10
163.0057683895
 20
41.8536960442
  0
VERTEX
  8
0
 62
9
  6
CONTINUOUS
 10
163.4851152458
 20
42.6393931021
  0
VERTEX
  8
0
 62
9
  6
CONTINUOUS
 10
164.0048319295
 20
43.5650332709
  0
VERTEX
  8
0
 62
9
  6
CONTINUOUS
 10
164.5652768085
 20
44.6759336457
  0
VERTEX
  8
0
 62
9
  6
CONTINUOUS
 10
165.1540396176
 20
46.0228782553
  0
VERTEX
  8
0
 62
9
  6
CONTINUOUS
 10
165.7003201774
 20
47.5244506083
  0
VERTEX
  8
0
 62
9
  6
CONTINUOUS
 10
166.169728808
 20
49.1292143997
  0
VERTEX
  8
0
 62
9
  6
CONTINUOUS
 10
166.5586167565
 20
50.8217881771
  0
VERTEX
  8
0
 62
9
  6
CONTINUOUS
 10
166.8851330761
 20
52.6391271061
  0
VERTEX
  8
0
 62
9
  6
CONTINUOUS
 10
167.1707718564
 20
54.6147241113
  0
VERTEX
  8
0
 62
9
  6
CONTINUOUS
 10
167.4356128156
 20
56.7123058729
  0
VERTEX
  8
0
 62
9
  6
CONTINUOUS
 10
167.7122482613
 20
58.9317393381
  0
VERTEX
  8
0
 62
9
  6
CONTINUOUS
 10
168.0206052247
 20
61.195472603
  0
VERTEX
  8
0
 62
9
  6
CONTINUOUS
 10
168.3573679039
 20
63.3709459962
  0
VERTEX
  8
0
 62
9
  6
CONTINUOUS
 10
168.7124329631
 20
65.3894044474
  0
VERTEX
  8
0
 62
9
  6
CONTINUOUS
 10
169.0721026282
 20
67.2047293132
  0
VERTEX
  8
0
 62
9
  6
CONTINUOUS
 10
169.4039041587
 20
68.7510561756
  0
VERTEX
  8
0
 62
9
  6
CONTINUOUS
 10
169.7090389474
 20
70.0726843311
  0
VERTEX
  8
0
 62
9
  6
CONTINUOUS
 10
169.9867863453
 20
71.2204799645
  0
VERTEX
  8
0
 62
9
  6
CONTINUOUS
 10
170.2436196279
 20
72.2374189702
  0
VERTEX
  8
0
 62
9
  6
CONTINUOUS
 10
170.4834893687
 20
73.1570974588
  0
VERTEX
  8
0
 62
9
  6
CONTINUOUS
 10
170.7112350069
 20
74.0068289538
  0
VERTEX
  8
0
 62
9
  6
CONTINUOUS
 10
170.9322804065
 20
74.811899293
  0
VERTEX
  8
0
 62
9
  6
CONTINUOUS
 10
171.1520652136
 20
75.5959664766
  0
VERTEX
  8
0
 62
9
  6
CONTINUOUS
 10
171.3762563555
 20
76.3811208998
  0
SEQEND
  0
POLYLINE
  8
0
 62
9
  6
CONTINUOUS
 66
1
 70
0
  0
VERTEX
  8
0
 62
9
  6
CONTINUOUS
 10
160.8762866129
 20
38.8819230576
  0
VERTEX
  8
0
 62
9
  6
CONTINUOUS
 10
160.9037649749
 20
38.9164081184
  0
VERTEX
  8
0
 62
9
  6
CONTINUOUS
 10
161.120460838
 20
39.1903698494
  0
SEQEND
  0
POLYLINE
  8
0
 62
7
  6
CONTINUOUS
 66
1
 70
0
  0
VERTEX
  8
0
 62
7
  6
CONTINUOUS
 10
213.2186579521
 20
122.3811208659
  0
VERTEX
  8
0
 62
7
  6
CONTINUOUS
 10
211.7373590992
 20
121.563435944
  0
VERTEX
  8
0
 62
7
  6
CONTINUOUS
 10
210.3120111061
 20
120.7934904219
  0
VERTEX
  8
0
 62
7
  6
CONTINUOUS
 10
208.9455737252
 20
120.0717197891
  0
SEQEND
  0
LINE
  8
0
 62
7
  6
CONTINUOUS
 10
104.202147069
 20
188.6065184497
 11
102.203365415
 21
188.5367194563
  0
LINE
  8
0
 62
7
  6
CONTINUOUS
 10
77.2185947395
 20
187.6642320387
 11
75.2198130854
 21
187.5944330453
  0
LINE
  8
02___PRT_ALL_AXES
 62
7
  6
CONTINUOUS
 10
113.1268655188
 20
190.9193955741
 11
104.8818911959
 21
190.6314747263
  0
LINE
  8
02___PRT_ALL_AXES
 62
7
  6
CONTINUOUS
 10
101.3840233013
 20
190.5093264878
 11
77.8983388663
 21
189.6891883153
  0
LINE
  8
02___PRT_ALL_AXES
 62
7
  6
CONTINUOUS
 10
74.4004709718
 20
189.5670400768
 11
71.152450784
 21
189.4536167126
  0
LINE
  8
02___PRT_ALL_AXES
 62
7
  6
CONTINUOUS
 10
230.8762563458
 20
190.3811208659
 11
319.8762563458
 21
190.3811208659
  0
LINE
  8
02___PRT_ALL_AXES
 62
7
  6
CENTER
 10
67.3452425901
 20
226.843523984
 11
200.2085313019
 21
231.483212263
  0
LINE
  8
02___PRT_ALL_AXES
 62
7
  6
CENTER
 10
275.3762563458
 20
138.8811208659
 11
275.3762563458
 21
192.8811208659
  0
LINE
  8
0
 62
7
  6
CONTINUOUS
 10
235.857029179
 20
46.5735029898
 11
237.2904206519
 21
47.1838645546
  0
LINE
  8
0
 62
7
  6
CONTINUOUS
 10
234.2632098084
 20
45.9254812591
 11
235.857029179
 21
46.5735029898
  0
LINE
  8
0
 62
7
  6
CONTINUOUS
 10
232.5935026148
 20
45.2805182084
 11
235.8570294307
 21
46.5735026078
  0
LINE
  8
0
 62
7
  6
CONTINUOUS
 10
232.5934815076
 20
45.2805107435
 11
234.2632098084
 21
45.9254812591
  0
LINE
  8
0
 62
7
  6
CONTINUOUS
 10
231.8494810411
 20
45.0041147597
 11
234.2632098084
 21
45.9254812591
  0
LINE
  8
02___PRT_ALL_AXES
 62
7
  6
CONTINUOUS
 10
319.8762563458
 20
190.3811208659
 11
319.8762563458
 21
141.3811208659
  0
LINE
  8
02___PRT_ALL_AXES
 62
7
  6
CONTINUOUS
 10
110.5094032661
 20
265.8737076005
 11
102.2644289432
 21
265.5857867527
  0
LINE
  8
02___PRT_ALL_AXES
 62
7
  6
CONTINUOUS
 10
98.7665610486
 20
265.4636385142
 11
75.2808766136
 21
264.6435003417
  0
LINE
  8
02___PRT_ALL_AXES
 62
7
  6
CONTINUOUS
 10
71.7830087191
 20
264.5213521033
 11
68.5349885313
 21
264.407928739
  0
LINE
  8
0
 62
7
  6
CONTINUOUS
 10
101.4450868295
 20
267.5583937842
 11
99.4463051755
 21
267.4885947908
  0
LINE
  8
0
 62
7
  6
CONTINUOUS
 10
74.4615345
 20
266.6161073732
 11
72.4627528459
 21
266.5463083798
  0
ARC
  8
0
 62
7
  6
CONTINUOUS
 10
180.8415712264
 20
176.9366170568
 40
141.5
 50
293.5114173696
 51
345.4469920466
  0
ARC
  8
0
 62
7
  6
CONTINUOUS
 10
111.3762563458
 20
168.3811208659
 40
95.5
 50
4.7553668361
 51
89.8780008824
  0
ARC
  8
0
 62
7
  6
CONTINUOUS
 10
180.8415712264
 20
176.9366170568
 40
60.5
 50
305.3862616252
 51
325.7937839572
  0
ARC
  8
0
 62
7
  6
CONTINUOUS
 10
111.3762563458
 20
168.3811208659
 40
24.5
 50
19.9028018867
 51
83.7014410109
  0
ARC
  8
0
 62
7
  6
CONTINUOUS
 10
209.3762563458
 20
172.3811208659
 40
3.0
 50
0.0
 51
90.0
  0
ARC
  8
0
 62
7
  6
CONTINUOUS
 10
133.3762563458
 20
172.3811208659
 40
3.0
 50
90.0
 51
180.0
  0
ARC
  8
0
 62
7
  6
CONTINUOUS
 10
113.0919660221
 20
191.9187864011
 40
1.0
 50
272.0
 51
2.0
  0
ARC
  8
0
 62
7
  6
CONTINUOUS
 10
110.5443027628
 20
264.8743167735
 40
1.0
 50
2.0
 51
92.0
  0
ARC
  8
0
 62
7
  6
CONTINUOUS
 10
207.5440780392
 20
176.3811208659
 40
0.99999999
 50
184.7553685857
 51
270.0000179954
  0
ENDSEC
  0
EOF
