999
DXF file: 101-65-45_plain_bend.dxf
999
Pro/ENGINEER 2006320 by Parametric Technology Corporation
  0
SECTION
  2
HEADER
  9
$EXTMAX
 10
420.0
 20
297.0
 30
0.0
  9
$EXTMIN
 10
0.0
 20
0.0
 30
0.0
  9
$LIMMIN
 10
0.0
 20
0.0
  9
$LIMMAX
 10
420.0
 20
297.0
  9
$VIEWCTR
 10
210.0
 20
148.5
  9
$VIEWSIZE
 40
297.0
  9
$CLAYER
  8
0
  9
$LTSCALE
 40
23.1
  9
$CELTYPE
  6
BYLAYER
  9
$DIMSCALE
 40
1.0
  9
$DIMASZ
 40
3.0
  9
$DIMEXO
 40
2.625
  9
$DIMDLI
 40
15.96
  9
$DIMEXE
 40
7.56
  9
$DIMCEN
 40
3.78
  9
$DIMLFAC
 40
1.0
  9
$DIMBLK
  1
_FILLED
  9
$DIMTXT
 40
3.0
  9
$PDMODE
 70
3
  9
$PDSIZE
 40
0.3125
  0
ENDSEC
  0
SECTION
  2
TABLES
  0
TABLE
  2
LTYPE
 70
6
  0
LTYPE
  2
BYBLOCK
 70
0
  3

 72
65
 73
0
 40
0.0
  0
LTYPE
  2
BYLAYER
 70
0
  3

 72
65
 73
0
 40
0.0
  0
LTYPE
  2
CONTINUOUS
 70
64
  3
Solid line
 72
65
 73
0
 40
0.0
  0
LTYPE
  2
CENTER
 70
64
  3
____ _ ____ _ ____ _ ____ _ ____ _ ____ _ ____
 72
65
 73
4
 40
0.6
 49
0.375
 49
-0.075
 49
0.075
 49
-0.075
  0
LTYPE
  2
HIDDEN
 70
64
  3
- - - - - - - - - - - - - - - - - - - -
 72
65
 73
2
 40
0.2
 49
0.1
 49
-0.1
  0
LTYPE
  2
PHANTOM
 70
64
  3
_____ _ _ _____ _ _ _____ _ _ _____
 72
65
 73
6
 40
0.8
 49
0.45
 49
-0.05
 49
0.1
 49
-0.05
 49
0.1
 49
-0.05
  0
LTYPE
  2
DOT
 70
64
  3
. . . . . . . . . . . . . . . . . . . .
 72
65
 73
2
 40
0.2
 49
0.1
 49
-0.1
  0
LTYPE
  2
DASHED
 70
64
  3
- - - - - - - - - - - - - - - - - - - -
 72
65
 73
2
 40
0.2
 49
0.1
 49
-0.1
  0
ENDTAB
  0
TABLE
  2
LAYER
 70
36
  0
LAYER
  2
0
 70
0
 62
7
  6
CONTINUOUS
  0
LAYER
  2
DEFAULT_1
 70
0
 62
7
  6
CENTER
  0
LAYER
  2
DEFAULT_2
 70
0
 62
8
  6
HIDDEN
  0
LAYER
  2
DEFAULT_3
 70
0
 62
7
  6
PHANTOM
  0
LAYER
  2
_2D_DELETED_OBJS
 70
0
 62
7
  6
CONTINUOUS
  0
LAYER
  2
01___PRT_ALL_DTM_PLN
 70
0
 62
7
  6
CONTINUOUS
  0
LAYER
  2
01___PRT_DEF_DTM_PLN
 70
0
 62
7
  6
CONTINUOUS
  0
LAYER
  2
02___PRT_ALL_AXES
 70
0
 62
7
  6
CONTINUOUS
  0
LAYER
  2
03___PRT_ALL_CURVES
 70
0
 62
7
  6
CONTINUOUS
  0
LAYER
  2
04___PRT_ALL_DTM_PNT
 70
0
 62
7
  6
CONTINUOUS
  0
LAYER
  2
05___PRT_ALL_DTM_CSYS
 70
0
 62
7
  6
CONTINUOUS
  0
LAYER
  2
05___PRT_DEF_DTM_CSYS
 70
0
 62
7
  6
CONTINUOUS
  0
LAYER
  2
06___PRT_ALL_SURFS
 70
0
 62
7
  6
CONTINUOUS
  0
LAYER
  2
CURVES
 70
0
 62
7
  6
CONTINUOUS
  0
ENDTAB
  0
TABLE
  2
STYLE
 70
1
  0
STYLE
  2
STANDARD
 70
0
 40
0.0
 41
0.6
 50
0.0
 71
0
 42
0.2
  3
txt
  4

  0
ENDTAB
  0
ENDSEC
  0
SECTION
  2
BLOCKS
  0
BLOCK
  8
0
 62
7
  6
CONTINUOUS
  2
*D0
 70
65
 10
0.0
 20
0.0
  0
TEXT
  8
0
 62
7
  6
CONTINUOUS
 10
165.2011251549
 20
85.2539300203
  7
STANDARD
 40
3.0
  1
74.5
 41
0.6
 72
0
  0
LINE
  8
0
 62
7
  6
CONTINUOUS
 10
131.5511251549
 20
93.9702714066
 11
131.5511251549
 21
83.7539300203
  0
LINE
  8
0
 62
7
  6
CONTINUOUS
 10
206.0511251549
 20
93.9702714066
 11
206.0511251549
 21
83.7539300203
  0
LINE
  8
0
 62
7
  6
CONTINUOUS
 10
131.5511251549
 20
86.7539300203
 11
163.7011251549
 21
86.7539300203
  0
LINE
  8
0
 62
7
  6
CONTINUOUS
 10
206.0511251549
 20
86.7539300203
 11
173.9011251549
 21
86.7539300203
  0
INSERT
  8
0
 62
7
  6
CONTINUOUS
  2
_FILLED
 10
131.5511251549
 20
86.7539300203
 41
3.0
 42
3.0
 43
3.0
 50
180.0
  0
INSERT
  8
0
 62
7
  6
CONTINUOUS
  2
_FILLED
 10
206.0511251549
 20
86.7539300203
 41
3.0
 42
3.0
 43
3.0
  0
ENDBLK
  8
0
  6
BYBLOCK
 62
0
  0
BLOCK
  8
0
 62
7
  6
CONTINUOUS
  2
*D1
 70
65
 10
0.0
 20
0.0
  0
TEXT
  8
0
 62
7
  6
CONTINUOUS
 10
180.3425165676
 20
77.9033284754
  7
STANDARD
 40
3.0
  1
103
 41
0.6
 72
0
  0
LINE
  8
0
 62
7
  6
CONTINUOUS
 10
131.5511251549
 20
93.9702714066
 11
131.5511251549
 21
76.4033284754
  0
LINE
  8
0
 62
7
  6
CONTINUOUS
 10
234.5339079803
 20
157.4347107326
 11
234.5339079803
 21
76.4033284754
  0
LINE
  8
0
 62
7
  6
CONTINUOUS
 10
131.5511251549
 20
79.4033284754
 11
178.8425165676
 21
79.4033284754
  0
LINE
  8
0
 62
7
  6
CONTINUOUS
 10
234.5339079803
 20
79.4033284754
 11
187.2425165676
 21
79.4033284754
  0
INSERT
  8
0
 62
7
  6
CONTINUOUS
  2
_FILLED
 10
131.5511251549
 20
79.4033284754
 41
3.0
 42
3.0
 43
3.0
 50
180.0
  0
INSERT
  8
0
 62
7
  6
CONTINUOUS
  2
_FILLED
 10
234.5339079803
 20
79.4033284754
 41
3.0
 42
3.0
 43
3.0
  0
ENDBLK
  8
0
  6
BYBLOCK
 62
0
  0
BLOCK
  8
0
 62
7
  6
CONTINUOUS
  2
*D2
 70
65
 10
0.0
 20
0.0
  0
TEXT
  8
0
 62
7
  6
CONTINUOUS
 10
251.8290093651
 20
152.8013904185
  7
STANDARD
 40
3.0
  1
120
 41
0.6
 72
0
  0
LINE
  8
0
 62
7
  6
CONTINUOUS
 10
206.5511251497
 20
94.4702714066
 11
257.5290093651
 21
94.4702714066
  0
LINE
  8
0
 62
7
  6
CONTINUOUS
 10
180.8361092825
 20
214.1325094303
 11
257.5290093651
 21
214.1325094303
  0
LINE
  8
0
 62
7
  6
CONTINUOUS
 10
254.5290093651
 20
94.4702714066
 11
254.5290093651
 21
151.3013904185
  0
LINE
  8
0
 62
7
  6
CONTINUOUS
 10
254.5290093651
 20
214.1325094303
 11
254.5290093651
 21
157.3013904185
  0
INSERT
  8
0
 62
7
  6
CONTINUOUS
  2
_FILLED
 10
254.5290093651
 20
94.4702714066
 41
3.0
 42
3.0
 43
3.0
 50
270.0
  0
INSERT
  8
0
 62
7
  6
CONTINUOUS
  2
_FILLED
 10
254.5290093651
 20
214.1325094303
 41
3.0
 42
3.0
 43
3.0
 50
90.0
  0
ENDBLK
  8
0
  6
BYBLOCK
 62
0
  0
BLOCK
  8
0
 62
7
  6
CONTINUOUS
  2
*D3
 70
65
 10
0.0
 20
0.0
  0
TEXT
  8
0
 62
7
  6
CONTINUOUS
 10
200.2156141678
 20
229.5008100095
  7
STANDARD
 40
3.0
  1
45%%d
 41
0.6222222222
 72
0
  0
LINE
  8
0
 62
7
  6
CONTINUOUS
 10
169.8617853267
 20
149.4603867768
 11
234.1425777271
 21
213.7411791772
  0
LINE
  8
0
 62
7
  6
CONTINUOUS
 10
168.8011251549
 20
149.899726605
 11
168.8011251549
 21
240.8064950178
  0
ARC
  8
0
 62
7
  6
CONTINUOUS
 10
168.8011251549
 20
148.399726605
 40
89.4067684128
 50
45.0
 51
64.4830415948
  0
ARC
  8
0
 62
7
  6
CONTINUOUS
 10
168.8011251549
 20
148.399726605
 40
89.4067684128
 50
70.4524747217
 51
90.0
  0
SOLID
  8
0
 62
7
  6
CONTINUOUS
 10
229.3432889393
 20
213.1661398597
 11
232.0212573836
 21
211.6198588336
 12
230.3860057097
 22
214.2444448892
 13
230.3860057097
 23
214.2444448892
  0
SOLID
  8
0
 62
7
  6
CONTINUOUS
 10
171.8132853002
 20
238.506060068
 11
168.8011251549
 21
237.8064950178
 12
171.7881206008
 22
237.0062711702
 13
171.7881206008
 23
237.0062711702
  0
ENDBLK
  8
0
  6
BYBLOCK
 62
0
  0
BLOCK
  8
0
  2
_FILLED
 70
64
 10
0.0
 20
0.0
  0
SOLID
  8
0
  6
BYBLOCK
 62
0
 10
0.0
 20
0.0
 11
-1.0
 21
0.25
 12
-1.0
 22
-0.25
 13
-1.0
 23
-0.25
  0
ENDBLK
  8
0
  6
BYBLOCK
 62
0
  0
ENDSEC
  0
SECTION
  2
ENTITIES
  0
DIMENSION
  8
0
 62
7
  6
CONTINUOUS
  2
*D0
 10
206.0511251549
 20
86.7539300203
 11
168.8011251549
 21
86.7539300203
 70
128
 13
131.5511251549
 23
93.9702714066
 14
206.0511251549
 24
93.9702714066
  0
DIMENSION
  8
0
 62
7
  6
CONTINUOUS
  2
*D1
 10
234.5339079803
 20
79.4033284754
 11
183.0425165676
 21
79.4033284754
 70
128
 13
131.5511251549
 23
93.9702714066
 14
234.5339079803
 24
157.4347107326
  0
DIMENSION
  8
0
 62
7
  6
CONTINUOUS
  2
*D2
 10
254.5290093651
 20
214.1325094303
 11
254.5290093651
 21
154.3013904185
 70
128
 13
206.5511251497
 23
94.4702714066
 14
180.8361092825
 24
214.1325094303
 50
90.0
  0
DIMENSION
  8
0
 62
7
  6
CONTINUOUS
  2
*D3
 10
168.8011251549
 20
149.899726605
 11
203.0156141678
 21
231.0008100095
 70
130
 13
169.8617853267
 23
149.4603867768
 14
234.1425777271
 24
213.7411791772
 15
168.8011251549
 25
240.8064950178
 16
203.0156141678
 26
231.0008100095
  0
LINE
  8
0
 62
7
  6
CONTINUOUS
 10
0.0
 20
0.0
 11
0.0
 21
297.0
  0
LINE
  8
0
 62
7
  6
CONTINUOUS
 10
0.0
 20
0.0
 11
420.0
 21
0.0
  0
LINE
  8
0
 62
7
  6
CONTINUOUS
 10
0.0
 20
297.0
 11
420.0
 21
297.0
  0
LINE
  8
0
 62
7
  6
CONTINUOUS
 10
420.0
 20
0.0
 11
420.0
 21
297.0
  0
LINE
  8
0
 62
7
  6
CONTINUOUS
 10
205.0511251549
 20
94.4702714066
 11
132.5511251549
 21
94.4702714066
  0
LINE
  8
0
 62
9
  6
CONTINUOUS
 10
206.0511251549
 20
95.4702714066
 11
131.5511251549
 21
95.4702714066
  0
LINE
  8
02___PRT_ALL_AXES
 62
7
  6
CONTINUOUS
 10
131.5511251549
 20
95.4702714066
 11
131.5511251549
 21
133.9702714066
  0
LINE
  8
0
 62
7
  6
CONTINUOUS
 10
173.3827918641
 20
208.7721183498
 11
178.6308911752
 21
213.4975281944
  0
LINE
  8
02___PRT_ALL_AXES
 62
7
  6
CONTINUOUS
 10
152.6645631753
 20
184.9426198238
 11
174.0402805437
 21
206.3183371922
  0
POLYLINE
  8
0
 62
9
  6
CONTINUOUS
 66
1
 70
0
  0
VERTEX
  8
0
 62
9
  6
CONTINUOUS
 10
199.6362736902
 20
133.9702714066
  0
VERTEX
  8
0
 62
9
  6
CONTINUOUS
 10
199.9498513442
 20
133.9936840368
  0
VERTEX
  8
0
 62
9
  6
CONTINUOUS
 10
200.222212031
 20
134.0532762981
  0
VERTEX
  8
0
 62
9
  6
CONTINUOUS
 10
200.4592457273
 20
134.1376236431
  0
VERTEX
  8
0
 62
9
  6
CONTINUOUS
 10
200.6662226904
 20
134.2395498619
  0
VERTEX
  8
0
 62
9
  6
CONTINUOUS
 10
200.8482573229
 20
134.3550613501
  0
VERTEX
  8
0
 62
9
  6
CONTINUOUS
 10
201.0091855249
 20
134.4819988116
  0
VERTEX
  8
0
 62
9
  6
CONTINUOUS
 10
201.1501727114
 20
134.6176765202
  0
VERTEX
  8
0
 62
9
  6
CONTINUOUS
 10
201.2720414982
 20
134.7594860327
  0
VERTEX
  8
0
 62
9
  6
CONTINUOUS
 10
201.376633673
 20
134.9065104175
  0
SEQEND
  0
LINE
  8
0
 62
9
  6
CONTINUOUS
 10
131.5511251549
 20
133.9702714066
 11
199.6362736902
 21
133.9702714066
  0
LINE
  8
0
 62
7
  6
CONTINUOUS
 10
132.5511451097
 20
134.9702714066
 11
198.8084915197
 21
134.9702714066
  0
POLYLINE
  8
0
 62
9
  6
CONTINUOUS
 66
1
 70
0
  0
VERTEX
  8
0
 62
9
  6
CONTINUOUS
 10
198.8084844678
 20
134.9702714066
  0
VERTEX
  8
0
 62
9
  6
CONTINUOUS
 10
198.9699781839
 20
134.9510566745
  0
VERTEX
  8
0
 62
9
  6
CONTINUOUS
 10
199.1252657754
 20
134.8941508942
  0
VERTEX
  8
0
 62
9
  6
CONTINUOUS
 10
199.2683796221
 20
134.8017409326
  0
VERTEX
  8
0
 62
9
  6
CONTINUOUS
 10
199.3938199382
 20
134.6773780648
  0
VERTEX
  8
0
 62
9
  6
CONTINUOUS
 10
199.496766126
 20
134.5258414984
  0
VERTEX
  8
0
 62
9
  6
CONTINUOUS
 10
199.5732620291
 20
134.3529547094
  0
VERTEX
  8
0
 62
9
  6
CONTINUOUS
 10
199.6203679643
 20
134.1653616464
  0
VERTEX
  8
0
 62
9
  6
CONTINUOUS
 10
199.6362736902
 20
133.9702714066
  0
SEQEND
  0
LINE
  8
02___PRT_ALL_AXES
 62
7
  6
CENTER
 10
168.8011251549
 20
239.8261683473
 11
168.8011251549
 21
91.9702714066
  0
LINE
  8
0
 62
7
  6
CONTINUOUS
 10
206.0511251549
 20
132.9702714066
 11
199.7323653969
 21
135.5875873957
  0
LINE
  8
02___PRT_ALL_AXES
 62
7
  6
CENTER
 10
155.6058959042
 20
135.2044973542
 11
233.1399007072
 21
212.7385021573
  0
LINE
  8
0
 62
7
  6
CONTINUOUS
 10
199.515591249
 20
136.6773781878
 11
152.6645770718
 21
183.528392365
  0
LINE
  8
0
 62
9
  6
CONTINUOUS
 10
152.6645631753
 20
184.9426198238
 11
200.8080334027
 21
136.7991495964
  0
POLYLINE
  8
0
 62
9
  6
CONTINUOUS
 66
1
 70
0
  0
VERTEX
  8
0
 62
9
  6
CONTINUOUS
 10
200.8080334027
 20
136.7991495964
  0
VERTEX
  8
0
 62
9
  6
CONTINUOUS
 10
201.0129532249
 20
136.5612120996
  0
VERTEX
  8
0
 62
9
  6
CONTINUOUS
 10
201.1633371089
 20
136.3267248087
  0
VERTEX
  8
0
 62
9
  6
CONTINUOUS
 10
201.2712870236
 20
136.0997286322
  0
VERTEX
  8
0
 62
9
  6
CONTINUOUS
 10
201.3456439217
 20
135.881407326
  0
VERTEX
  8
0
 62
9
  6
CONTINUOUS
 10
201.3928391022
 20
135.670703173
  0
VERTEX
  8
0
 62
9
  6
CONTINUOUS
 10
201.4169604395
 20
135.4668342233
  0
VERTEX
  8
0
 62
9
  6
CONTINUOUS
 10
201.4207448611
 20
135.2711731358
  0
VERTEX
  8
0
 62
9
  6
CONTINUOUS
 10
201.4066668639
 20
135.0846786478
  0
VERTEX
  8
0
 62
9
  6
CONTINUOUS
 10
201.3766329126
 20
134.9065089857
  0
SEQEND
  0
LINE
  8
0
 62
7
  6
CONTINUOUS
 10
174.0402805437
 20
206.3183371922
 11
173.3827918641
 21
208.7721183498
  0
LINE
  8
0
 62
7
  6
CONTINUOUS
 10
226.7197357421
 20
153.6388819938
 11
229.1735168997
 21
152.9813933142
  0
LINE
  8
02___PRT_ALL_AXES
 62
7
  6
CONTINUOUS
 10
206.0511251549
 20
95.4702714066
 11
206.0511251549
 21
132.9702714066
  0
POLYLINE
  8
0
 62
9
  6
CONTINUOUS
 66
1
 70
0
  0
VERTEX
  8
0
 62
9
  6
CONTINUOUS
 10
200.8080334027
 20
136.7991495964
  0
VERTEX
  8
0
 62
9
  6
CONTINUOUS
 10
200.6588366673
 20
136.6724469689
  0
VERTEX
  8
0
 62
9
  6
CONTINUOUS
 10
200.4928793673
 20
136.5731075576
  0
VERTEX
  8
0
 62
9
  6
CONTINUOUS
 10
200.3165391475
 20
136.5049489215
  0
VERTEX
  8
0
 62
9
  6
CONTINUOUS
 10
200.1365926632
 20
136.4705903607
  0
VERTEX
  8
0
 62
9
  6
CONTINUOUS
 10
199.959955157
 20
136.4713522571
  0
VERTEX
  8
0
 62
9
  6
CONTINUOUS
 10
199.7934147102
 20
136.5072053331
  0
VERTEX
  8
0
 62
9
  6
CONTINUOUS
 10
199.6433713801
 20
136.5767717763
  0
VERTEX
  8
0
 62
9
  6
CONTINUOUS
 10
199.515591249
 20
136.6773781878
  0
SEQEND
  0
LINE
  8
02___PRT_ALL_AXES
 62
7
  6
CONTINUOUS
 10
206.0511251549
 20
132.9702714066
 11
226.7197357421
 21
153.6388819938
  0
LINE
  8
0
 62
7
  6
CONTINUOUS
 10
174.0402805437
 20
206.3183371922
 11
226.7197357421
 21
153.6388819938
  0
LINE
  8
0
 62
7
  6
CONTINUOUS
 10
173.3827918641
 20
208.7721183498
 11
229.1735168997
 21
152.9813933142
  0
LINE
  8
0
 62
7
  6
CONTINUOUS
 10
229.1735168997
 20
152.9813933142
 11
233.8989267443
 21
158.2294926253
  0
LINE
  8
0
 62
9
  6
CONTINUOUS
 10
233.8989267443
 20
158.2294926253
 11
178.6308911752
 21
213.4975281944
  0
LINE
  8
0
 62
7
  6
CONTINUOUS
 10
233.8628887
 20
159.6057300128
 11
180.0071285628
 21
213.4614901501
  0
ARC
  8
0
 62
7
  6
CONTINUOUS
 10
206.0511251549
 20
132.9702714066
 40
72.05
 50
136.5912542758
 51
178.4087680407
  0
ARC
  8
0
 62
7
  6
CONTINUOUS
 10
179.3000217816
 20
212.7543833689
 40
1.0
 50
45.0
 51
132.0
  0
ARC
  8
0
 62
7
  6
CONTINUOUS
 10
233.1557819188
 20
158.8986232316
 40
1.0
 50
318.0
 51
45.0
  0
ARC
  8
0
 62
7
  6
CONTINUOUS
 10
132.5511251549
 20
95.4702714066
 40
1.0
 50
180.0
 51
270.0
  0
ARC
  8
0
 62
7
  6
CONTINUOUS
 10
205.0511251549
 20
95.4702714066
 40
1.0
 50
270.0
 51
360.0
  0
ARC
  8
0
 62
7
  6
CONTINUOUS
 10
153.3716699565
 20
184.2355130426
 40
1.0
 50
135.0
 51
225.0
  0
ARC
  8
0
 62
7
  6
CONTINUOUS
 10
198.8084844678
 20
135.9702714066
 40
1.0
 50
270.0004040443
 51
45.0015181931
  0
ARC
  8
0
 62
7
  6
CONTINUOUS
 10
132.5511251549
 20
133.9702714066
 40
1.0
 50
90.0
 51
180.0
  0
ENDSEC
  0
EOF
