999
DXF file: 126-80-lc3_floor_flange.dxf
999
Pro/ENGINEER 2006320 by Parametric Technology Corporation
  0
SECTION
  2
HEADER
  9
$EXTMAX
 10
420.0
 20
297.0
 30
0.0
  9
$EXTMIN
 10
0.0
 20
0.0
 30
0.0
  9
$LIMMIN
 10
0.0
 20
0.0
  9
$LIMMAX
 10
420.0
 20
297.0
  9
$VIEWCTR
 10
210.0
 20
148.5
  9
$VIEWSIZE
 40
297.0
  9
$CLAYER
  8
0
  9
$LTSCALE
 40
23.1
  9
$CELTYPE
  6
BYLAYER
  9
$DIMSCALE
 40
1.0
  9
$DIMASZ
 40
3.0
  9
$DIMEXO
 40
2.625
  9
$DIMDLI
 40
15.96
  9
$DIMEXE
 40
7.56
  9
$DIMCEN
 40
3.78
  9
$DIMLFAC
 40
1.0
  9
$DIMBLK
  1
_FILLED
  9
$DIMTXT
 40
3.0
  9
$PDMODE
 70
3
  9
$PDSIZE
 40
0.3125
  0
ENDSEC
  0
SECTION
  2
TABLES
  0
TABLE
  2
LTYPE
 70
6
  0
LTYPE
  2
BYBLOCK
 70
0
  3

 72
65
 73
0
 40
0.0
  0
LTYPE
  2
BYLAYER
 70
0
  3

 72
65
 73
0
 40
0.0
  0
LTYPE
  2
CONTINUOUS
 70
64
  3
Solid line
 72
65
 73
0
 40
0.0
  0
LTYPE
  2
CENTER
 70
64
  3
____ _ ____ _ ____ _ ____ _ ____ _ ____ _ ____
 72
65
 73
4
 40
0.6
 49
0.375
 49
-0.075
 49
0.075
 49
-0.075
  0
LTYPE
  2
HIDDEN
 70
64
  3
- - - - - - - - - - - - - - - - - - - -
 72
65
 73
2
 40
0.2
 49
0.1
 49
-0.1
  0
LTYPE
  2
PHANTOM
 70
64
  3
_____ _ _ _____ _ _ _____ _ _ _____
 72
65
 73
6
 40
0.8
 49
0.45
 49
-0.05
 49
0.1
 49
-0.05
 49
0.1
 49
-0.05
  0
LTYPE
  2
DOT
 70
64
  3
. . . . . . . . . . . . . . . . . . . .
 72
65
 73
2
 40
0.2
 49
0.1
 49
-0.1
  0
LTYPE
  2
DASHED
 70
64
  3
- - - - - - - - - - - - - - - - - - - -
 72
65
 73
2
 40
0.2
 49
0.1
 49
-0.1
  0
ENDTAB
  0
TABLE
  2
LAYER
 70
36
  0
LAYER
  2
0
 70
0
 62
7
  6
CONTINUOUS
  0
LAYER
  2
DEFAULT_1
 70
0
 62
7
  6
CENTER
  0
LAYER
  2
DEFAULT_2
 70
0
 62
8
  6
HIDDEN
  0
LAYER
  2
DEFAULT_3
 70
0
 62
7
  6
PHANTOM
  0
LAYER
  2
01___PRT_ALL_DTM_PLN
 70
0
 62
7
  6
CONTINUOUS
  0
LAYER
  2
01___PRT_DEF_DTM_PLN
 70
0
 62
7
  6
CONTINUOUS
  0
LAYER
  2
02___PRT_ALL_AXES
 70
0
 62
7
  6
CONTINUOUS
  0
LAYER
  2
03___PRT_ALL_CURVES
 70
0
 62
7
  6
CONTINUOUS
  0
LAYER
  2
04___PRT_ALL_DTM_PNT
 70
0
 62
7
  6
CONTINUOUS
  0
LAYER
  2
05___PRT_ALL_DTM_CSYS
 70
0
 62
7
  6
CONTINUOUS
  0
LAYER
  2
05___PRT_DEF_DTM_CSYS
 70
0
 62
7
  6
CONTINUOUS
  0
LAYER
  2
06___PRT_ALL_SURFS
 70
0
 62
7
  6
CONTINUOUS
  0
ENDTAB
  0
TABLE
  2
STYLE
 70
1
  0
STYLE
  2
STANDARD
 70
0
 40
0.0
 41
0.6
 50
0.0
 71
0
 42
0.2
  3
txt
  4

  0
ENDTAB
  0
ENDSEC
  0
SECTION
  2
BLOCKS
  0
BLOCK
  8
0
 62
7
  6
CONTINUOUS
  2
*D0
 70
65
 10
0.0
 20
0.0
  0
TEXT
  8
0
 62
7
  6
CONTINUOUS
 10
192.2318007172
 20
211.8020575882
  7
STANDARD
 40
3.0
  1
180
 41
0.6
 72
0
  0
LINE
  8
0
 62
7
  6
CONTINUOUS
 10
284.9318007172
 20
195.5295854317
 11
284.9318007172
 21
216.3020575882
  0
LINE
  8
0
 62
7
  6
CONTINUOUS
 10
104.9318007172
 20
195.5295854317
 11
104.9318007172
 21
216.3020575882
  0
LINE
  8
0
 62
7
  6
CONTINUOUS
 10
284.9318007172
 20
213.3020575882
 11
199.1318007172
 21
213.3020575882
  0
LINE
  8
0
 62
7
  6
CONTINUOUS
 10
104.9318007172
 20
213.3020575882
 11
190.7318007172
 21
213.3020575882
  0
INSERT
  8
0
 62
7
  6
CONTINUOUS
  2
_FILLED
 10
284.9318007172
 20
213.3020575882
 41
3.0
 42
3.0
 43
3.0
  0
INSERT
  8
0
 62
7
  6
CONTINUOUS
  2
_FILLED
 10
104.9318007172
 20
213.3020575882
 41
3.0
 42
3.0
 43
3.0
 50
180.0
  0
ENDBLK
  8
0
  6
BYBLOCK
 62
0
  0
BLOCK
  8
0
 62
7
  6
CONTINUOUS
  2
*D1
 70
65
 10
0.0
 20
0.0
  0
TEXT
  8
0
 62
7
  6
CONTINUOUS
 10
87.9568965517
 20
157.5295854138
  7
STANDARD
 40
3.0
  1
70
 41
0.6
 72
0
  0
LINE
  8
0
 62
7
  6
CONTINUOUS
 10
103.4318007172
 20
194.0295854317
 11
86.7568965517
 21
194.0295854317
  0
LINE
  8
0
 62
7
  6
CONTINUOUS
 10
164.4618007559
 20
124.029585396
 11
86.7568965517
 21
124.029585396
  0
LINE
  8
0
 62
7
  6
CONTINUOUS
 10
89.7568965517
 20
194.0295854317
 11
89.7568965517
 21
162.0295854138
  0
LINE
  8
0
 62
7
  6
CONTINUOUS
 10
89.7568965517
 20
124.029585396
 11
89.7568965517
 21
156.0295854138
  0
INSERT
  8
0
 62
7
  6
CONTINUOUS
  2
_FILLED
 10
89.7568965517
 20
194.0295854317
 41
3.0
 42
3.0
 43
3.0
 50
90.0
  0
INSERT
  8
0
 62
7
  6
CONTINUOUS
  2
_FILLED
 10
89.7568965517
 20
124.029585396
 41
3.0
 42
3.0
 43
3.0
 50
270.0
  0
ENDBLK
  8
0
  6
BYBLOCK
 62
0
  0
BLOCK
  8
0
  2
_FILLED
 70
64
 10
0.0
 20
0.0
  0
SOLID
  8
0
  6
BYBLOCK
 62
0
 10
0.0
 20
0.0
 11
-1.0
 21
0.25
 12
-1.0
 22
-0.25
 13
-1.0
 23
-0.25
  0
ENDBLK
  8
0
  6
BYBLOCK
 62
0
  0
ENDSEC
  0
SECTION
  2
ENTITIES
  0
DIMENSION
  8
0
 62
7
  6
CONTINUOUS
  2
*D0
 10
104.9318007172
 20
213.3020575882
 11
194.9318007172
 21
213.3020575882
 70
128
 13
284.9318007172
 23
195.5295854317
 14
104.9318007172
 24
195.5295854317
 50
180.0
  0
DIMENSION
  8
0
 62
7
  6
CONTINUOUS
  2
*D1
 10
89.7568965517
 20
124.029585396
 11
89.7568965517
 21
159.0295854138
 70
128
 13
103.4318007172
 23
194.0295854317
 14
164.4618007559
 24
124.029585396
 50
270.0
  0
LINE
  8
0
 62
7
  6
CONTINUOUS
 10
0.0
 20
0.0
 11
0.0
 21
297.0
  0
LINE
  8
0
 62
7
  6
CONTINUOUS
 10
0.0
 20
0.0
 11
420.0
 21
0.0
  0
LINE
  8
0
 62
7
  6
CONTINUOUS
 10
0.0
 20
297.0
 11
420.0
 21
297.0
  0
LINE
  8
0
 62
7
  6
CONTINUOUS
 10
420.0
 20
0.0
 11
420.0
 21
297.0
  0
LINE
  8
02___PRT_ALL_AXES
 62
7
  6
CONTINUOUS
 10
104.9318007172
 20
194.0295854317
 11
104.9318007172
 21
191.0295854317
  0
LINE
  8
0
 62
7
  6
CONTINUOUS
 10
165.9618007187
 20
124.0295854332
 11
163.9618007188
 21
126.0295854333
  0
LINE
  8
0
 62
7
  6
CONTINUOUS
 10
155.2973903153
 20
170.9815344441
 11
155.2973903153
 21
170.0295854317
  0
LINE
  8
0
 62
7
  6
CONTINUOUS
 10
165.9618007172
 20
124.0295854317
 11
223.9018007172
 21
124.0295854317
  0
LINE
  8
0
 62
7
  6
CONTINUOUS
 10
163.9618007172
 20
126.0295854317
 11
225.9018007172
 21
126.0295854317
  0
LINE
  8
02___PRT_ALL_AXES
 62
7
  6
CONTINUOUS
 10
163.9618007172
 20
167.0295854317
 11
163.9618007172
 21
126.0295854317
  0
LINE
  8
02___PRT_ALL_AXES
 62
7
  6
CONTINUOUS
 10
128.4595459452
 20
190.642958891
 11
156.6424376472
 21
169.9961517834
  0
LINE
  8
0
 62
7
  6
CONTINUOUS
 10
187.4318007172
 20
169.6786732916
 11
187.4318007172
 21
169.0295854317
  0
POLYLINE
  8
0
 62
7
  6
CONTINUOUS
 66
1
 70
0
  0
VERTEX
  8
0
 62
7
  6
CONTINUOUS
 10
187.4455598147
 20
169.9961517834
  0
VERTEX
  8
0
 62
7
  6
CONTINUOUS
 10
187.4451679101
 20
169.9873107387
  0
VERTEX
  8
0
 62
7
  6
CONTINUOUS
 10
187.4442263476
 20
169.9787094631
  0
SEQEND
  0
POLYLINE
  8
0
 62
7
  6
CONTINUOUS
 66
1
 70
0
  0
VERTEX
  8
0
 62
7
  6
CONTINUOUS
 10
187.443757428
 20
169.9810173052
  0
VERTEX
  8
0
 62
7
  6
CONTINUOUS
 10
187.4347672427
 20
169.8297223132
  0
VERTEX
  8
0
 62
7
  6
CONTINUOUS
 10
187.4318007172
 20
169.6786732916
  0
SEQEND
  0
POLYLINE
  8
0
 62
7
  6
CONTINUOUS
 66
1
 70
0
  0
VERTEX
  8
0
 62
7
  6
CONTINUOUS
 10
187.443757428
 20
169.9810173052
  0
VERTEX
  8
0
 62
7
  6
CONTINUOUS
 10
187.4370829164
 20
169.8846885512
  0
VERTEX
  8
0
 62
7
  6
CONTINUOUS
 10
187.4331315308
 20
169.7957171854
  0
SEQEND
  0
POLYLINE
  8
0
 62
7
  6
CONTINUOUS
 66
1
 70
0
  0
VERTEX
  8
0
 62
7
  6
CONTINUOUS
 10
187.4449933774
 20
169.9961517834
  0
VERTEX
  8
0
 62
7
  6
CONTINUOUS
 10
187.4465651011
 20
170.0127826941
  0
VERTEX
  8
0
 62
7
  6
CONTINUOUS
 10
187.4479408235
 20
170.0295854317
  0
SEQEND
  0
POLYLINE
  8
0
 62
7
  6
CONTINUOUS
 66
1
 70
0
  0
VERTEX
  8
0
 62
7
  6
CONTINUOUS
 10
187.499651308
 20
169.6677806825
  0
VERTEX
  8
0
 62
7
  6
CONTINUOUS
 10
187.4592445614
 20
169.8065519623
  0
VERTEX
  8
0
 62
7
  6
CONTINUOUS
 10
187.4442288025
 20
169.9787152085
  0
SEQEND
  0
LINE
  8
0
 62
7
  6
CONTINUOUS
 10
202.4191524531
 20
169.9827429669
 11
202.4050109121
 21
169.8099340855
  0
LINE
  8
0
 62
7
  6
CONTINUOUS
 10
202.4050109121
 20
169.8099340855
 11
202.3640141159
 21
169.6679191444
  0
POLYLINE
  8
0
 62
7
  6
CONTINUOUS
 66
1
 70
0
  0
VERTEX
  8
0
 62
7
  6
CONTINUOUS
 10
202.415660611
 20
170.0295854317
  0
VERTEX
  8
0
 62
7
  6
CONTINUOUS
 10
202.4170363342
 20
170.0127826815
  0
VERTEX
  8
0
 62
7
  6
CONTINUOUS
 10
202.4186080571
 20
169.9961517834
  0
SEQEND
  0
POLYLINE
  8
0
 62
7
  6
CONTINUOUS
 66
1
 70
0
  0
VERTEX
  8
0
 62
7
  6
CONTINUOUS
 10
202.4304332385
 20
169.7969035653
  0
VERTEX
  8
0
 62
7
  6
CONTINUOUS
 10
202.4263738622
 20
169.8872028452
  0
VERTEX
  8
0
 62
7
  6
CONTINUOUS
 10
202.4195904263
 20
169.9841837896
  0
SEQEND
  0
POLYLINE
  8
0
 62
7
  6
CONTINUOUS
 66
1
 70
0
  0
VERTEX
  8
0
 62
7
  6
CONTINUOUS
 10
202.4318007172
 20
169.6786732916
  0
VERTEX
  8
0
 62
7
  6
CONTINUOUS
 10
202.4287643378
 20
169.8314851706
  0
VERTEX
  8
0
 62
7
  6
CONTINUOUS
 10
202.4195904263
 20
169.9841837896
  0
SEQEND
  0
LINE
  8
0
 62
7
  6
CONTINUOUS
 10
202.4318007172
 20
169.0295854317
 11
202.4318007172
 21
169.6786732916
  0
LINE
  8
0
 62
9
  6
CONTINUOUS
 10
225.9018007172
 20
167.0295854317
 11
163.9618007172
 21
167.0295854317
  0
LINE
  8
0
 62
7
  6
CONTINUOUS
 10
233.5661939348
 20
169.0295854317
 11
156.297408477
 21
169.0295854317
  0
LINE
  8
0
 62
9
  6
CONTINUOUS
 10
156.6424376472
 20
169.9961517834
 11
187.4449933774
 21
169.9961517834
  0
LINE
  8
0
 62
9
  6
CONTINUOUS
 10
202.4186080571
 20
169.9961517834
 11
233.2211637873
 21
169.9961517834
  0
LINE
  8
0
 62
9
  6
CONTINUOUS
 10
234.5662111191
 20
170.0295854317
 11
233.2668007172
 21
170.0295854317
  0
LINE
  8
0
 62
9
  6
CONTINUOUS
 10
202.415660611
 20
170.0295854317
 11
187.4479408235
 21
170.0295854317
  0
LINE
  8
0
 62
9
  6
CONTINUOUS
 10
156.5968007172
 20
170.0295854317
 11
155.2973903153
 21
170.0295854317
  0
POLYLINE
  8
0
 62
7
  6
CONTINUOUS
 66
1
 70
0
  0
VERTEX
  8
0
 62
7
  6
CONTINUOUS
 10
202.415660611
 20
170.0295854317
  0
VERTEX
  8
0
 62
7
  6
CONTINUOUS
 10
202.3019082411
 20
170.6593145459
  0
VERTEX
  8
0
 62
7
  6
CONTINUOUS
 10
202.0861498113
 20
171.2502666672
  0
VERTEX
  8
0
 62
7
  6
CONTINUOUS
 10
201.7753150665
 20
171.8009671067
  0
VERTEX
  8
0
 62
7
  6
CONTINUOUS
 10
201.3651875528
 20
172.3210366257
  0
VERTEX
  8
0
 62
7
  6
CONTINUOUS
 10
200.8835844936
 20
172.782050323
  0
VERTEX
  8
0
 62
7
  6
CONTINUOUS
 10
200.337239409
 20
173.1898171405
  0
VERTEX
  8
0
 62
7
  6
CONTINUOUS
 10
199.7221163353
 20
173.5521137986
  0
VERTEX
  8
0
 62
7
  6
CONTINUOUS
 10
199.0750072542
 20
173.8536436853
  0
VERTEX
  8
0
 62
7
  6
CONTINUOUS
 10
198.3986362225
 20
174.1016651532
  0
VERTEX
  8
0
 62
7
  6
CONTINUOUS
 10
197.6784208096
 20
174.3043649204
  0
VERTEX
  8
0
 62
7
  6
CONTINUOUS
 10
196.9491434594
 20
174.4545636816
  0
VERTEX
  8
0
 62
7
  6
CONTINUOUS
 10
196.2158201988
 20
174.5558952406
  0
VERTEX
  8
0
 62
7
  6
CONTINUOUS
 10
195.4681235167
 20
174.6117435445
  0
VERTEX
  8
0
 62
7
  6
CONTINUOUS
 10
194.7223650233
 20
174.6216644862
  0
VERTEX
  8
0
 62
7
  6
CONTINUOUS
 10
193.9815072782
 20
174.5865882371
  0
VERTEX
  8
0
 62
7
  6
CONTINUOUS
 10
193.2563427254
 20
174.5077330519
  0
VERTEX
  8
0
 62
7
  6
CONTINUOUS
 10
192.5463561995
 20
174.3852282038
  0
VERTEX
  8
0
 62
7
  6
CONTINUOUS
 10
191.8486491312
 20
174.2168538035
  0
VERTEX
  8
0
 62
7
  6
CONTINUOUS
 10
191.1749421441
 20
174.002784588
  0
VERTEX
  8
0
 62
7
  6
CONTINUOUS
 10
190.5472167406
 20
173.7493350566
  0
VERTEX
  8
0
 62
7
  6
CONTINUOUS
 10
189.945317298
 20
173.4456819083
  0
VERTEX
  8
0
 62
7
  6
CONTINUOUS
 10
189.376818779
 20
173.0876099398
  0
VERTEX
  8
0
 62
7
  6
CONTINUOUS
 10
188.8817498028
 20
172.697267615
  0
VERTEX
  8
0
 62
7
  6
CONTINUOUS
 10
188.4380538445
 20
172.2537179354
  0
VERTEX
  8
0
 62
7
  6
CONTINUOUS
 10
188.0574745214
 20
171.7544645004
  0
VERTEX
  8
0
 62
7
  6
CONTINUOUS
 10
187.7663605766
 20
171.2260878529
  0
VERTEX
  8
0
 62
7
  6
CONTINUOUS
 10
187.5595321603
 20
170.6513310472
  0
VERTEX
  8
0
 62
7
  6
CONTINUOUS
 10
187.4479408235
 20
170.0295854317
  0
SEQEND
  0
POLYLINE
  8
0
 62
7
  6
CONTINUOUS
 66
1
 70
0
  0
VERTEX
  8
0
 62
7
  6
CONTINUOUS
 10
202.419153662
 20
169.9826982672
  0
VERTEX
  8
0
 62
7
  6
CONTINUOUS
 10
202.4183531723
 20
169.9893106542
  0
VERTEX
  8
0
 62
7
  6
CONTINUOUS
 10
202.4180415471
 20
169.9961517834
  0
SEQEND
  0
LINE
  8
02___PRT_ALL_AXES
 62
7
  6
CONTINUOUS
 10
261.4040554892
 20
190.642958891
 11
233.2211637873
 21
169.9961517834
  0
LINE
  8
02___PRT_ALL_AXES
 62
7
  6
CONTINUOUS
 10
225.9018007172
 20
167.0295854317
 11
225.9018007172
 21
126.0295854317
  0
LINE
  8
0
 62
9
  6
CONTINUOUS
 10
261.4040554892
 20
190.642958891
 11
128.4595459452
 21
190.642958891
  0
LINE
  8
02___PRT_ALL_AXES
 62
7
  6
CONTINUOUS
 10
284.9318007172
 20
191.0295854317
 11
104.9318007172
 21
191.0295854317
  0
LINE
  8
02___PRT_ALL_AXES
 62
7
  6
CONTINUOUS
 10
284.9318007172
 20
194.0295854317
 11
104.9318007172
 21
194.0295854317
  0
LINE
  8
0
 62
7
  6
CONTINUOUS
 10
234.5662111191
 20
170.9815344441
 11
234.5662111191
 21
170.0295854317
  0
LINE
  8
0
 62
7
  6
CONTINUOUS
 10
223.9018007157
 20
124.0295854332
 11
225.9018007156
 21
126.0295854333
  0
LINE
  8
02___PRT_ALL_AXES
 62
7
  6
CONTINUOUS
 10
284.9318007172
 20
194.0295854317
 11
284.9318007172
 21
191.0295854317
  0
ARC
  8
0
 62
7
  6
CONTINUOUS
 10
230.2662673416
 20
174.0295854317
 40
5.0
 50
270.0
 51
306.226532364
  0
ARC
  8
0
 62
7
  6
CONTINUOUS
 10
159.5973340928
 20
174.0295854317
 40
5.0
 50
233.773467636
 51
270.0
  0
ARC
  8
0
 62
7
  6
CONTINUOUS
 10
262.5860140675
 20
189.0295854317
 40
2.0
 50
90.0
 51
126.226532364
  0
ARC
  8
0
 62
7
  6
CONTINUOUS
 10
127.277587367
 20
189.0295854317
 40
2.0
 50
53.773467636
 51
90.0
  0
ARC
  8
0
 62
7
  6
CONTINUOUS
 10
227.9018007172
 20
167.0295854317
 40
2.0
 50
90.0
 51
180.0
  0
ARC
  8
0
 62
7
  6
CONTINUOUS
 10
161.9618007172
 20
167.0295854317
 40
2.0
 50
0.0
 51
90.0
  0
ARC
  8
0
 62
7
  6
CONTINUOUS
 10
201.4318007172
 20
170.0295854317
 40
1.0
 50
270.0
 51
338.8252189871
  0
ARC
  8
0
 62
7
  6
CONTINUOUS
 10
188.4318007172
 20
170.0295854317
 40
1.0
 50
201.1796680158
 51
270.0
  0
ARC
  8
0
 62
7
  6
CONTINUOUS
 10
233.5662111191
 20
170.0295854317
 40
1.0
 50
270.0
 51
360.0
  0
ARC
  8
0
 62
7
  6
CONTINUOUS
 10
156.2973903153
 20
170.0295854317
 40
1.0
 50
180.0
 51
270.0
  0
ENDSEC
  0
EOF
