999
DXF file: 104-80-88_plain_junction.dxf
999
Pro/ENGINEER 2006320 by Parametric Technology Corporation
  0
SECTION
  2
HEADER
  9
$EXTMAX
 10
420.0
 20
297.0
 30
0.0
  9
$EXTMIN
 10
0.0
 20
0.0
 30
0.0
  9
$LIMMIN
 10
0.0
 20
0.0
  9
$LIMMAX
 10
420.0
 20
297.0
  9
$VIEWCTR
 10
210.0
 20
148.5
  9
$VIEWSIZE
 40
297.0
  9
$CLAYER
  8
0
  9
$LTSCALE
 40
23.1
  9
$CELTYPE
  6
BYLAYER
  9
$DIMSCALE
 40
1.0
  9
$DIMASZ
 40
3.0
  9
$DIMEXO
 40
2.625
  9
$DIMDLI
 40
15.96
  9
$DIMEXE
 40
7.56
  9
$DIMCEN
 40
3.78
  9
$DIMLFAC
 40
1.0
  9
$DIMBLK
  1
_FILLED
  9
$DIMTXT
 40
3.0
  9
$PDMODE
 70
3
  9
$PDSIZE
 40
0.3125
  0
ENDSEC
  0
SECTION
  2
TABLES
  0
TABLE
  2
LTYPE
 70
6
  0
LTYPE
  2
BYBLOCK
 70
0
  3

 72
65
 73
0
 40
0.0
  0
LTYPE
  2
BYLAYER
 70
0
  3

 72
65
 73
0
 40
0.0
  0
LTYPE
  2
CONTINUOUS
 70
64
  3
Solid line
 72
65
 73
0
 40
0.0
  0
LTYPE
  2
CENTER
 70
64
  3
____ _ ____ _ ____ _ ____ _ ____ _ ____ _ ____
 72
65
 73
4
 40
0.6
 49
0.375
 49
-0.075
 49
0.075
 49
-0.075
  0
LTYPE
  2
HIDDEN
 70
64
  3
- - - - - - - - - - - - - - - - - - - -
 72
65
 73
2
 40
0.2
 49
0.1
 49
-0.1
  0
LTYPE
  2
PHANTOM
 70
64
  3
_____ _ _ _____ _ _ _____ _ _ _____
 72
65
 73
6
 40
0.8
 49
0.45
 49
-0.05
 49
0.1
 49
-0.05
 49
0.1
 49
-0.05
  0
LTYPE
  2
DOT
 70
64
  3
. . . . . . . . . . . . . . . . . . . .
 72
65
 73
2
 40
0.2
 49
0.1
 49
-0.1
  0
LTYPE
  2
DASHED
 70
64
  3
- - - - - - - - - - - - - - - - - - - -
 72
65
 73
2
 40
0.2
 49
0.1
 49
-0.1
  0
ENDTAB
  0
TABLE
  2
LAYER
 70
36
  0
LAYER
  2
0
 70
0
 62
7
  6
CONTINUOUS
  0
LAYER
  2
DEFAULT_1
 70
0
 62
7
  6
CENTER
  0
LAYER
  2
DEFAULT_2
 70
0
 62
8
  6
HIDDEN
  0
LAYER
  2
DEFAULT_3
 70
0
 62
7
  6
PHANTOM
  0
LAYER
  2
_BLACK_HOLE
 70
0
 62
7
  6
CONTINUOUS
  0
LAYER
  2
01___PRT_ALL_DTM_PLN
 70
0
 62
7
  6
CONTINUOUS
  0
LAYER
  2
01___PRT_DEF_DTM_PLN
 70
0
 62
7
  6
CONTINUOUS
  0
LAYER
  2
02___PRT_ALL_AXES
 70
0
 62
7
  6
CONTINUOUS
  0
LAYER
  2
03___PRT_ALL_CURVES
 70
0
 62
7
  6
CONTINUOUS
  0
LAYER
  2
04___PRT_ALL_DTM_PNT
 70
0
 62
7
  6
CONTINUOUS
  0
LAYER
  2
05___PRT_ALL_DTM_CSYS
 70
0
 62
7
  6
CONTINUOUS
  0
LAYER
  2
05___PRT_DEF_DTM_CSYS
 70
0
 62
7
  6
CONTINUOUS
  0
LAYER
  2
06___PRT_ALL_SURFS
 70
0
 62
7
  6
CONTINUOUS
  0
LAYER
  2
CURVES
 70
0
 62
7
  6
CONTINUOUS
  0
ENDTAB
  0
TABLE
  2
STYLE
 70
1
  0
STYLE
  2
STANDARD
 70
0
 40
0.0
 41
0.6
 50
0.0
 71
0
 42
0.2
  3
txt
  4

  0
ENDTAB
  0
ENDSEC
  0
SECTION
  2
BLOCKS
  0
BLOCK
  8
0
 62
7
  6
CONTINUOUS
  2
*D0
 70
65
 10
0.0
 20
0.0
  0
TEXT
  8
0
 62
7
  6
CONTINUOUS
 10
293.5576064909
 20
107.5074123864
  7
STANDARD
 40
3.0
  1
102
 41
0.6
 72
0
  0
LINE
  8
0
 62
7
  6
CONTINUOUS
 10
215.7878638337
 20
58.1785348361
 11
299.2576064909
 21
58.1785348361
  0
LINE
  8
0
 62
7
  6
CONTINUOUS
 10
268.9576168065
 20
159.8362899368
 11
299.2576064909
 21
159.8362899368
  0
LINE
  8
0
 62
7
  6
CONTINUOUS
 10
296.2576064909
 20
58.1785348361
 11
296.2576064909
 21
106.0074123864
  0
LINE
  8
0
 62
7
  6
CONTINUOUS
 10
296.2576064909
 20
159.8362899368
 11
296.2576064909
 21
112.0074123864
  0
INSERT
  8
0
 62
7
  6
CONTINUOUS
  2
_FILLED
 10
296.2576064909
 20
58.1785348361
 41
3.0
 42
3.0
 43
3.0
 50
270.0
  0
INSERT
  8
0
 62
7
  6
CONTINUOUS
  2
_FILLED
 10
296.2576064909
 20
159.8362899368
 41
3.0
 42
3.0
 43
3.0
 50
90.0
  0
ENDBLK
  8
0
  6
BYBLOCK
 62
0
  0
BLOCK
  8
0
 62
7
  6
CONTINUOUS
  2
*D1
 70
65
 10
0.0
 20
0.0
  0
TEXT
  8
0
 62
7
  6
CONTINUOUS
 10
91.211637931
 20
149.1785348361
  7
STANDARD
 40
3.0
  1
185
 41
0.6
 72
0
  0
LINE
  8
0
 62
7
  6
CONTINUOUS
 10
121.3119416265
 20
243.1785348361
 11
90.911637931
 21
243.1785348361
  0
LINE
  8
0
 62
7
  6
CONTINUOUS
 10
122.7878638337
 20
58.1785348361
 11
90.911637931
 21
58.1785348361
  0
LINE
  8
0
 62
7
  6
CONTINUOUS
 10
93.911637931
 20
243.1785348361
 11
93.911637931
 21
153.6785348361
  0
LINE
  8
0
 62
7
  6
CONTINUOUS
 10
93.911637931
 20
58.1785348361
 11
93.911637931
 21
147.6785348361
  0
INSERT
  8
0
 62
7
  6
CONTINUOUS
  2
_FILLED
 10
93.911637931
 20
243.1785348361
 41
3.0
 42
3.0
 43
3.0
 50
90.0
  0
INSERT
  8
0
 62
7
  6
CONTINUOUS
  2
_FILLED
 10
93.911637931
 20
58.1785348361
 41
3.0
 42
3.0
 43
3.0
 50
270.0
  0
ENDBLK
  8
0
  6
BYBLOCK
 62
0
  0
BLOCK
  8
0
 62
7
  6
CONTINUOUS
  2
*D2
 70
65
 10
0.0
 20
0.0
  0
TEXT
  8
0
 62
7
  6
CONTINUOUS
 10
193.9579789959
 20
39.9544529574
  7
STANDARD
 40
3.0
  1
145
 41
0.6
 72
0
  0
LINE
  8
0
 62
7
  6
CONTINUOUS
 10
124.2878638337
 20
56.6785348361
 11
124.2878638337
 21
38.4544529574
  0
LINE
  8
0
 62
7
  6
CONTINUOUS
 10
269.0280941581
 20
113.3637027209
 11
269.0280941581
 21
38.4544529574
  0
LINE
  8
0
 62
7
  6
CONTINUOUS
 10
124.2878638337
 20
41.4544529574
 11
192.4579789959
 21
41.4544529574
  0
LINE
  8
0
 62
7
  6
CONTINUOUS
 10
269.0280941581
 20
41.4544529574
 11
200.8579789959
 21
41.4544529574
  0
INSERT
  8
0
 62
7
  6
CONTINUOUS
  2
_FILLED
 10
124.2878638337
 20
41.4544529574
 41
3.0
 42
3.0
 43
3.0
 50
180.0
  0
INSERT
  8
0
 62
7
  6
CONTINUOUS
  2
_FILLED
 10
269.0280941581
 20
41.4544529574
 41
3.0
 42
3.0
 43
3.0
  0
ENDBLK
  8
0
  6
BYBLOCK
 62
0
  0
BLOCK
  8
0
 62
7
  6
CONTINUOUS
  2
*D3
 70
65
 10
0.0
 20
0.0
  0
TEXT
  8
0
 62
7
  6
CONTINUOUS
 10
115.9060501728
 20
117.9882066479
  7
STANDARD
 40
3.0
  1
88%%d
 41
0.6222222222
 72
0
  0
LINE
  8
0
 62
7
  6
CONTINUOUS
 10
129.0711361819
 20
155.0037275461
 11
103.7051568937
 21
154.1179280305
  0
LINE
  8
0
 62
7
  6
CONTINUOUS
 10
169.2878638337
 20
118.2484756098
 11
169.2878638337
 21
90.7854441171
  0
ARC
  8
0
 62
7
  6
CONTINUOUS
 10
169.2878638337
 20
156.4081266222
 40
62.6226825051
 50
182.0
 51
212.7964066993
  0
ARC
  8
0
 62
7
  6
CONTINUOUS
 10
169.2878638337
 20
156.4081266222
 40
62.6226825051
 50
219.6032297198
 51
270.0
  0
SOLID
  8
0
 62
7
  6
CONTINUOUS
 10
107.628507343
 20
151.2719408838
 11
106.7033293748
 21
154.2226265206
 12
106.1311049294
 22
151.1837025031
 13
106.1311049294
 23
151.1837025031
  0
SOLID
  8
0
 62
7
  6
CONTINUOUS
 10
166.2707613917
 20
93.1075113367
 11
169.2878638337
 21
93.7854441171
 12
166.3066874294
 22
94.6070810483
 13
166.3066874294
 23
94.6070810483
  0
ENDBLK
  8
0
  6
BYBLOCK
 62
0
  0
BLOCK
  8
0
 62
7
  6
CONTINUOUS
  2
*D4
 70
65
 10
0.0
 20
0.0
  0
TEXT
  8
0
 62
7
  6
CONTINUOUS
 10
150.4663628195
 20
47.4587221095
  7
STANDARD
 40
3.0
  1
90
 41
0.6
 72
0
  0
LINE
  8
0
 62
7
  6
CONTINUOUS
 10
124.2878638337
 20
56.6785348361
 11
124.2878638337
 21
45.9587221095
  0
LINE
  8
0
 62
7
  6
CONTINUOUS
 10
214.2878638337
 20
56.6785348361
 11
214.2878638337
 21
45.9587221095
  0
LINE
  8
0
 62
7
  6
CONTINUOUS
 10
124.2878638337
 20
48.9587221095
 11
148.9663628195
 21
48.9587221095
  0
LINE
  8
0
 62
7
  6
CONTINUOUS
 10
214.2878638337
 20
48.9587221095
 11
155.5663628195
 21
48.9587221095
  0
INSERT
  8
0
 62
7
  6
CONTINUOUS
  2
_FILLED
 10
124.2878638337
 20
48.9587221095
 41
3.0
 42
3.0
 43
3.0
 50
180.0
  0
INSERT
  8
0
 62
7
  6
CONTINUOUS
  2
_FILLED
 10
214.2878638337
 20
48.9587221095
 41
3.0
 42
3.0
 43
3.0
  0
ENDBLK
  8
0
  6
BYBLOCK
 62
0
  0
BLOCK
  8
0
  2
_FILLED
 70
64
 10
0.0
 20
0.0
  0
SOLID
  8
0
  6
BYBLOCK
 62
0
 10
0.0
 20
0.0
 11
-1.0
 21
0.25
 12
-1.0
 22
-0.25
 13
-1.0
 23
-0.25
  0
ENDBLK
  8
0
  6
BYBLOCK
 62
0
  0
ENDSEC
  0
SECTION
  2
ENTITIES
  0
DIMENSION
  8
0
 62
7
  6
CONTINUOUS
  2
*D0
 10
296.2576064909
 20
159.8362899368
 11
296.2576064909
 21
109.0074123864
 70
128
 13
215.7878638337
 23
58.1785348361
 14
268.9576168065
 24
159.8362899368
 50
90.0
  0
DIMENSION
  8
0
 62
7
  6
CONTINUOUS
  2
*D1
 10
93.911637931
 20
58.1785348361
 11
93.911637931
 21
150.6785348361
 70
128
 13
121.3119416265
 23
243.1785348361
 14
122.7878638337
 24
58.1785348361
 50
270.0
  0
DIMENSION
  8
0
 62
7
  6
CONTINUOUS
  2
*D2
 10
269.0280941581
 20
41.4544529574
 11
196.6579789959
 21
41.4544529574
 70
128
 13
124.2878638337
 23
56.6785348361
 14
269.0280941581
 24
113.3637027209
  0
DIMENSION
  8
0
 62
7
  6
CONTINUOUS
  2
*D3
 10
169.2878638337
 20
118.2484756098
 11
118.7060501728
 21
119.4882066479
 70
130
 13
129.0711361819
 23
155.0037275461
 14
103.7051568937
 24
154.1179280305
 15
169.2878638337
 25
90.7854441171
 16
125.7864932509
 26
111.3611386923
  0
DIMENSION
  8
0
 62
7
  6
CONTINUOUS
  2
*D4
 10
214.2878638337
 20
48.9587221095
 11
152.2663628195
 21
48.9587221095
 70
128
 13
124.2878638337
 23
56.6785348361
 14
214.2878638337
 24
56.6785348361
  0
LINE
  8
0
 62
7
  6
CONTINUOUS
 10
0.0
 20
0.0
 11
0.0
 21
297.0
  0
LINE
  8
0
 62
7
  6
CONTINUOUS
 10
0.0
 20
0.0
 11
420.0
 21
0.0
  0
LINE
  8
0
 62
7
  6
CONTINUOUS
 10
0.0
 20
297.0
 11
420.0
 21
297.0
  0
LINE
  8
0
 62
7
  6
CONTINUOUS
 10
420.0
 20
0.0
 11
420.0
 21
297.0
  0
LINE
  8
02___PRT_ALL_AXES
 62
7
  6
CONTINUOUS
 10
214.2878638337
 20
58.1785348361
 11
124.2878638337
 21
58.1785348361
  0
LINE
  8
02___PRT_ALL_AXES
 62
7
  6
CONTINUOUS
 10
124.2878638337
 20
232.0238342977
 11
124.2878638337
 21
199.1785348361
  0
LINE
  8
02___PRT_ALL_AXES
 62
7
  6
CONTINUOUS
 10
124.2878638337
 20
102.1785348361
 11
124.2878638337
 21
58.1785348361
  0
LINE
  8
0
 62
7
  6
CONTINUOUS
 10
122.2878638337
 20
233.1785348361
 11
122.8119416265
 21
243.1785348361
  0
LINE
  8
0
 62
7
  6
CONTINUOUS
 10
128.2878638337
 20
196.8691337593
 11
128.2878638337
 21
104.4879359128
  0
LINE
  8
0
 62
7
  6
CONTINUOUS
 10
128.5846698558
 20
202.1785348361
 11
128.5846698558
 21
205.1785348361
  0
LINE
  8
0
 62
7
  6
CONTINUOUS
 10
214.2878638337
 20
232.0238342977
 11
216.2878638337
 21
233.1785348361
  0
LINE
  8
0
 62
7
  6
CONTINUOUS
 10
145.7878638337
 20
202.1785348361
 11
145.7878638337
 21
205.1785348361
  0
LINE
  8
0
 62
7
  6
CONTINUOUS
 10
146.7878638337
 20
205.1785348361
 11
146.7878638337
 21
202.1785348361
  0
LINE
  8
02___PRT_ALL_AXES
 62
7
  6
CONTINUOUS
 10
214.2878638337
 20
102.1785348361
 11
124.2878638337
 21
102.1785348361
  0
LINE
  8
0
 62
7
  6
CONTINUOUS
 10
210.2878638337
 20
104.4879359128
 11
128.2878638337
 21
104.4879359128
  0
LINE
  8
02___PRT_ALL_AXES
 62
7
  6
CONTINUOUS
 10
269.0280941581
 20
114.8637027209
 11
225.0548977693
 21
113.328124866
  0
LINE
  8
0
 62
9
  6
CONTINUOUS
 10
210.2878638337
 20
105.1785348361
 11
169.2878638337
 21
105.1785348361
  0
LINE
  8
02___PRT_ALL_AXES
 62
7
  6
CONTINUOUS
 10
214.2878638337
 20
199.1785348361
 11
213.6829113772
 21
198.8292653725
  0
LINE
  8
0
 62
7
  6
CONTINUOUS
 10
208.9070833334
 20
196.8691337593
 11
211.8699334759
 21
198.0865335271
  0
LINE
  8
0
 62
7
  6
CONTINUOUS
 10
211.8699334759
 20
198.0865335271
 11
213.6829113772
 21
198.8292653725
  0
LINE
  8
0
 62
7
  6
CONTINUOUS
 10
222.6073055305
 20
117.2450912388
 11
221.9171273014
 21
117.220989684
  0
LINE
  8
02___PRT_ALL_AXES
 62
7
  6
CONTINUOUS
 10
210.2878638337
 20
104.4879359128
 11
214.2878638337
 21
102.1785348361
  0
LINE
  8
02___PRT_ALL_AXES
 62
7
  6
CENTER
 10
169.2878638337
 20
245.6785348361
 11
169.2878638337
 21
43.0894088017
  0
POLYLINE
  8
0
 62
7
  6
CONTINUOUS
 66
1
 70
0
  0
VERTEX
  8
0
 62
7
  6
CONTINUOUS
 10
208.9070833334
 20
196.8691337593
  0
VERTEX
  8
0
 62
7
  6
CONTINUOUS
 10
208.4511427581
 20
196.3400163633
  0
VERTEX
  8
0
 62
7
  6
CONTINUOUS
 10
207.9347277064
 20
195.7369848184
  0
VERTEX
  8
0
 62
7
  6
CONTINUOUS
 10
207.3600233541
 20
195.0611308728
  0
VERTEX
  8
0
 62
7
  6
CONTINUOUS
 10
206.7294402895
 20
194.3136674181
  0
VERTEX
  8
0
 62
7
  6
CONTINUOUS
 10
206.0455975713
 20
193.4959226806
  0
VERTEX
  8
0
 62
7
  6
CONTINUOUS
 10
205.3113045923
 20
192.609333911
  0
VERTEX
  8
0
 62
7
  6
CONTINUOUS
 10
204.5295419448
 20
191.6554406162
  0
VERTEX
  8
0
 62
7
  6
CONTINUOUS
 10
203.7034414957
 20
190.6358773794
  0
VERTEX
  8
0
 62
7
  6
CONTINUOUS
 10
202.8362658801
 20
189.5523663191
  0
VERTEX
  8
0
 62
7
  6
CONTINUOUS
 10
201.9313876242
 20
188.4067092381
  0
VERTEX
  8
0
 62
7
  6
CONTINUOUS
 10
200.9922681087
 20
187.2007795154
  0
VERTEX
  8
0
 62
7
  6
CONTINUOUS
 10
200.0224365771
 20
185.9365137947
  0
VERTEX
  8
0
 62
7
  6
CONTINUOUS
 10
199.0254693874
 20
184.6159035255
  0
VERTEX
  8
0
 62
7
  6
CONTINUOUS
 10
198.0049696962
 20
183.2409864092
  0
VERTEX
  8
0
 62
7
  6
CONTINUOUS
 10
196.9645477538
 20
181.8138378073
  0
VERTEX
  8
0
 62
7
  6
CONTINUOUS
 10
195.9078019712
 20
180.3365621642
  0
VERTEX
  8
0
 62
7
  6
CONTINUOUS
 10
194.8383009105
 20
178.8112844973
  0
VERTEX
  8
0
 62
7
  6
CONTINUOUS
 10
193.759566329
 20
177.2401420062
  0
VERTEX
  8
0
 62
7
  6
CONTINUOUS
 10
192.6750573915
 20
175.6252758506
  0
VERTEX
  8
0
 62
7
  6
CONTINUOUS
 10
191.5881561463
 20
173.9688231439
  0
VERTEX
  8
0
 62
7
  6
CONTINUOUS
 10
190.5021543433
 20
172.2729092074
  0
VERTEX
  8
0
 62
7
  6
CONTINUOUS
 10
189.4202416509
 20
170.5396401283
  0
VERTEX
  8
0
 62
7
  6
CONTINUOUS
 10
188.345495312
 20
168.7710956595
  0
VERTEX
  8
0
 62
7
  6
CONTINUOUS
 10
187.2808712594
 20
166.9693224991
  0
VERTEX
  8
0
 62
7
  6
CONTINUOUS
 10
186.2291966955
 20
165.1363279814
  0
VERTEX
  8
0
 62
7
  6
CONTINUOUS
 10
185.1931641213
 20
163.2740742094
  0
VERTEX
  8
0
 62
7
  6
CONTINUOUS
 10
184.1753267869
 20
161.3844726566
  0
VERTEX
  8
0
 62
7
  6
CONTINUOUS
 10
183.1780955193
 20
159.4693792578
  0
VERTEX
  8
0
 62
7
  6
CONTINUOUS
 10
182.2037368721
 20
157.5305900111
  0
VERTEX
  8
0
 62
7
  6
CONTINUOUS
 10
181.2543725264
 20
155.5698371054
  0
VERTEX
  8
0
 62
7
  6
CONTINUOUS
 10
180.3319798677
 20
153.5887855857
  0
VERTEX
  8
0
 62
7
  6
CONTINUOUS
 10
179.4383936485
 20
151.5890305643
  0
VERTEX
  8
0
 62
7
  6
CONTINUOUS
 10
178.5753086445
 20
149.5720949852
  0
VERTEX
  8
0
 62
7
  6
CONTINUOUS
 10
177.7442832031
 20
147.5394279409
  0
VERTEX
  8
0
 62
7
  6
CONTINUOUS
 10
176.9467435814
 20
145.4924035425
  0
VERTEX
  8
0
 62
7
  6
CONTINUOUS
 10
176.1839889655
 20
143.4323203383
  0
VERTEX
  8
0
 62
7
  6
CONTINUOUS
 10
175.4571970633
 20
141.3604012726
  0
VERTEX
  8
0
 62
7
  6
CONTINUOUS
 10
174.7674301631
 20
139.2777941758
  0
VERTEX
  8
0
 62
7
  6
CONTINUOUS
 10
174.1156415494
 20
137.1855727726
  0
VERTEX
  8
0
 62
7
  6
CONTINUOUS
 10
173.5026821703
 20
135.0847381929
  0
VERTEX
  8
0
 62
7
  6
CONTINUOUS
 10
172.9293074552
 20
132.9762209674
  0
VERTEX
  8
0
 62
7
  6
CONTINUOUS
 10
172.396184182
 20
130.8608834885
  0
VERTEX
  8
0
 62
7
  6
CONTINUOUS
 10
171.9038973006
 20
128.7395229144
  0
VERTEX
  8
0
 62
7
  6
CONTINUOUS
 10
171.4529566218
 20
126.6128744922
  0
VERTEX
  8
0
 62
7
  6
CONTINUOUS
 10
171.0438032892
 20
124.4816152744
  0
VERTEX
  8
0
 62
7
  6
CONTINUOUS
 10
170.6768159542
 20
122.3463682016
  0
VERTEX
  8
0
 62
7
  6
CONTINUOUS
 10
170.3523165827
 20
120.2077065231
  0
VERTEX
  8
0
 62
7
  6
CONTINUOUS
 10
170.0705758287
 20
118.066158524
  0
VERTEX
  8
0
 62
7
  6
CONTINUOUS
 10
169.831817914
 20
115.9222125292
  0
VERTEX
  8
0
 62
7
  6
CONTINUOUS
 10
169.6362249647
 20
113.776322151
  0
VERTEX
  8
0
 62
7
  6
CONTINUOUS
 10
169.4839407558
 20
111.6289117472
  0
VERTEX
  8
0
 62
7
  6
CONTINUOUS
 10
169.375073839
 20
109.4803823122
  0
VERTEX
  8
0
 62
7
  6
CONTINUOUS
 10
169.3096997483
 20
107.3311061363
  0
VERTEX
  8
0
 62
7
  6
CONTINUOUS
 10
169.2878638337
 20
105.1785348361
  0
SEQEND
  0
LINE
  8
0
 62
7
  6
CONTINUOUS
 10
191.7878638337
 20
205.1785348361
 11
191.7878638337
 21
202.1785348361
  0
LINE
  8
0
 62
7
  6
CONTINUOUS
 10
192.7878638337
 20
202.1785348361
 11
192.7878638337
 21
205.1785348361
  0
LINE
  8
02___PRT_ALL_AXES
 62
7
  6
CONTINUOUS
 10
221.9139430661
 20
203.2732992978
 11
219.7455468009
 21
199.1951390544
  0
LINE
  8
02___PRT_ALL_AXES
 62
7
  6
CONTINUOUS
 10
128.2878638337
 20
104.4879359128
 11
124.2878638337
 21
102.1785348361
  0
LINE
  8
02___PRT_ALL_AXES
 62
7
  6
CENTER
 10
269.9560938741
 20
159.9235386786
 11
102.7843953695
 21
154.0857743295
  0
LINE
  8
02___PRT_ALL_AXES
 62
7
  6
CONTINUOUS
 10
124.2878638337
 20
199.1785348361
 11
128.2878638337
 21
196.8691337593
  0
LINE
  8
02___PRT_ALL_AXES
 62
7
  6
CONTINUOUS
 10
225.0548977693
 20
113.328124866
 11
222.6073055305
 21
117.2450912388
  0
LINE
  8
0
 62
7
  6
CONTINUOUS
 10
209.9910578115
 20
202.1785348361
 11
209.9910578115
 21
205.1785348361
  0
LINE
  8
0
 62
7
  6
CONTINUOUS
 10
210.2878638337
 20
105.1785348361
 11
210.2878638337
 21
104.4879359128
  0
LINE
  8
02___PRT_ALL_AXES
 62
7
  6
CONTINUOUS
 10
214.2878638337
 20
232.0238342977
 11
214.2878638337
 21
199.1785348361
  0
LINE
  8
02___PRT_ALL_AXES
 62
7
  6
CONTINUOUS
 10
214.2878638337
 20
102.1785348361
 11
214.2878638337
 21
58.1785348361
  0
LINE
  8
0
 62
7
  6
CONTINUOUS
 10
216.2878638337
 20
233.1785348361
 11
215.7637860408
 21
243.1785348361
  0
LINE
  8
0
 62
9
  6
CONTINUOUS
 10
221.9171273014
 20
117.220989684
 11
219.0553685718
 21
199.1710374996
  0
LINE
  8
0
 62
7
  6
CONTINUOUS
 10
222.6073055305
 20
117.2450912388
 11
219.7455468009
 21
199.1951390544
  0
LINE
  8
02___PRT_ALL_AXES
 62
7
  6
CONTINUOUS
 10
225.0548977693
 20
113.328124866
 11
221.9139430661
 21
203.2732992978
  0
LINE
  8
0
 62
7
  6
CONTINUOUS
 10
124.2878638337
 20
232.0238342977
 11
122.2878638337
 21
233.1785348361
  0
LINE
  8
0
 62
7
  6
CONTINUOUS
 10
219.0553685718
 20
199.1710374996
 11
213.6829113772
 21
198.8292653725
  0
LINE
  8
0
 62
7
  6
CONTINUOUS
 10
219.7455468009
 20
199.1951390544
 11
219.0553685718
 21
199.1710374996
  0
LINE
  8
0
 62
7
  6
CONTINUOUS
 10
208.9070833334
 20
196.8691337593
 11
128.2878638337
 21
196.8691337593
  0
LINE
  8
02___PRT_ALL_AXES
 62
7
  6
CONTINUOUS
 10
265.8871394549
 20
204.8088771527
 11
221.9139430661
 21
203.2732992978
  0
LINE
  8
02___PRT_ALL_AXES
 62
7
  6
CONTINUOUS
 10
214.2878638337
 20
199.1785348361
 11
124.2878638337
 21
199.1785348361
  0
LINE
  8
0
 62
7
  6
CONTINUOUS
 10
146.7878638337
 20
202.1785348361
 11
128.5846698558
 21
202.1785348361
  0
LINE
  8
0
 62
7
  6
CONTINUOUS
 10
191.7878638337
 20
202.1785348361
 11
209.9910578115
 21
202.1785348361
  0
LINE
  8
0
 62
7
  6
CONTINUOUS
 10
209.9910578115
 20
205.1785348361
 11
191.7878638337
 21
205.1785348361
  0
LINE
  8
0
 62
7
  6
CONTINUOUS
 10
128.5846698558
 20
205.1785348361
 11
146.7878638337
 21
205.1785348361
  0
LINE
  8
02___PRT_ALL_AXES
 62
7
  6
CONTINUOUS
 10
269.0280941581
 20
114.8637027209
 11
265.8871394549
 21
204.8088771527
  0
LINE
  8
0
 62
7
  6
CONTINUOUS
 10
214.2878638337
 20
232.0238342977
 11
124.2878638337
 21
232.0238342977
  0
LINE
  8
0
 62
7
  6
CONTINUOUS
 10
216.2878638337
 20
233.1785348361
 11
122.2878638337
 21
233.1785348361
  0
LINE
  8
0
 62
7
  6
CONTINUOUS
 10
215.7637860408
 20
243.1785348361
 11
122.8119416265
 21
243.1785348361
  0
ARC
  8
0
 62
7
  6
CONTINUOUS
 10
222.3376590913
 20
105.1785348361
 40
12.0497952576
 50
92.0
 51
180.0
  0
ENDSEC
  0
EOF
