  0
SECTION
  2
HEADER
  9
$ACADVER
  1
AC1024
  9
$ACADMAINTVER
 70
   155
  9
$DWGCODEPAGE
  3
ANSI_1252
  9
$LASTSAVEDBY
  1
Jason
  9
$INSBASE
 10
0.0
 20
0.0
 30
0.0
  9
$EXTMIN
 10
6973.133950625393
 20
3757.12752017886
 30
0.0
  9
$EXTMAX
 10
7348.798959268368
 20
4297.177135817657
 30
0.0
  9
$LIMMIN
 10
0.0
 20
0.0
  9
$LIMMAX
 10
12.0
 20
9.0
  9
$ORTHOMODE
 70
     0
  9
$REGENMODE
 70
     1
  9
$FILLMODE
 70
     1
  9
$QTEXTMODE
 70
     0
  9
$MIRRTEXT
 70
     1
  9
$LTSCALE
 40
5.0
  9
$ATTMODE
 70
     1
  9
$TEXTSIZE
 40
0.2
  9
$TRACEWID
 40
0.05
  9
$TEXTSTYLE
  7
Standard
  9
$CLAYER
  8
Specialized_Lines
  9
$CELTYPE
  6
ByLayer
  9
$CECOLOR
 62
   256
  9
$CELTSCALE
 40
3.0
  9
$DISPSILH
 70
     0
  9
$DIMSCALE
 40
1.0
  9
$DIMASZ
 40
0.18
  9
$DIMEXO
 40
0.0625
  9
$DIMDLI
 40
0.38
  9
$DIMRND
 40
0.0
  9
$DIMDLE
 40
0.0
  9
$DIMEXE
 40
0.18
  9
$DIMTP
 40
0.0
  9
$DIMTM
 40
0.0
  9
$DIMTXT
 40
0.18
  9
$DIMCEN
 40
0.09
  9
$DIMTSZ
 40
0.0
  9
$DIMTOL
 70
     0
  9
$DIMLIM
 70
     0
  9
$DIMTIH
 70
     1
  9
$DIMTOH
 70
     1
  9
$DIMSE1
 70
     0
  9
$DIMSE2
 70
     0
  9
$DIMTAD
 70
     0
  9
$DIMZIN
 70
     0
  9
$DIMBLK
  1

  9
$DIMASO
 70
     1
  9
$DIMSHO
 70
     1
  9
$DIMPOST
  1

  9
$DIMAPOST
  1

  9
$DIMALT
 70
     0
  9
$DIMALTD
 70
     2
  9
$DIMALTF
 40
25.4
  9
$DIMLFAC
 40
1.0
  9
$DIMTOFL
 70
     0
  9
$DIMTVP
 40
0.0
  9
$DIMTIX
 70
     0
  9
$DIMSOXD
 70
     0
  9
$DIMSAH
 70
     0
  9
$DIMBLK1
  1

  9
$DIMBLK2
  1

  9
$DIMSTYLE
  2
Standard
  9
$DIMCLRD
 70
     0
  9
$DIMCLRE
 70
     0
  9
$DIMCLRT
 70
     0
  9
$DIMTFAC
 40
1.0
  9
$DIMGAP
 40
0.09
  9
$DIMJUST
 70
     0
  9
$DIMSD1
 70
     0
  9
$DIMSD2
 70
     0
  9
$DIMTOLJ
 70
     1
  9
$DIMTZIN
 70
     0
  9
$DIMALTZ
 70
     0
  9
$DIMALTTZ
 70
     0
  9
$DIMUPT
 70
     0
  9
$DIMDEC
 70
     4
  9
$DIMTDEC
 70
     4
  9
$DIMALTU
 70
     2
  9
$DIMALTTD
 70
     2
  9
$DIMTXSTY
  7
Standard
  9
$DIMAUNIT
 70
     0
  9
$DIMADEC
 70
     0
  9
$DIMALTRND
 40
0.0
  9
$DIMAZIN
 70
     0
  9
$DIMDSEP
 70
    46
  9
$DIMATFIT
 70
     3
  9
$DIMFRAC
 70
     0
  9
$DIMLDRBLK
  1

  9
$DIMLUNIT
 70
     2
  9
$DIMLWD
 70
    -2
  9
$DIMLWE
 70
    -2
  9
$DIMTMOVE
 70
     0
  9
$DIMFXL
 40
1.0
  9
$DIMFXLON
 70
     0
  9
$DIMJOGANG
 40
0.7853981633974483
  9
$DIMTFILL
 70
     0
  9
$DIMTFILLCLR
 70
     0
  9
$DIMARCSYM
 70
     0
  9
$DIMLTYPE
  6

  9
$DIMLTEX1
  6

  9
$DIMLTEX2
  6

  9
$DIMTXTDIRECTION
 70
     0
  9
$LUNITS
 70
     2
  9
$LUPREC
 70
     4
  9
$SKETCHINC
 40
0.1
  9
$FILLETRAD
 40
0.5
  9
$AUNITS
 70
     0
  9
$AUPREC
 70
     0
  9
$MENU
  1
.
  9
$ELEVATION
 40
0.0
  9
$PELEVATION
 40
0.0
  9
$THICKNESS
 40
0.0
  9
$LIMCHECK
 70
     0
  9
$CHAMFERA
 40
0.5
  9
$CHAMFERB
 40
0.5
  9
$CHAMFERC
 40
1.0
  9
$CHAMFERD
 40
0.0
  9
$SKPOLY
 70
     0
  9
$TDCREATE
 40
2456216.552465880
  9
$TDUCREATE
 40
2456216.010799213
  9
$TDUPDATE
 40
2456636.579431100
  9
$TDUUPDATE
 40
2456636.037764433
  9
$TDINDWG
 40
0.1279880440
  9
$TDUSRTIMER
 40
0.1279880440
  9
$USRTIMER
 70
     1
  9
$ANGBASE
 50
0.0
  9
$ANGDIR
 70
     0
  9
$PDMODE
 70
     0
  9
$PDSIZE
 40
0.0
  9
$PLINEWID
 40
0.0
  9
$SPLFRAME
 70
     0
  9
$SPLINETYPE
 70
     6
  9
$SPLINESEGS
 70
     8
  9
$HANDSEED
  5
AEB
  9
$SURFTAB1
 70
     6
  9
$SURFTAB2
 70
     6
  9
$SURFTYPE
 70
     6
  9
$SURFU
 70
     6
  9
$SURFV
 70
     6
  9
$UCSBASE
  2

  9
$UCSNAME
  2

  9
$UCSORG
 10
0.0
 20
0.0
 30
0.0
  9
$UCSXDIR
 10
1.0
 20
0.0
 30
0.0
  9
$UCSYDIR
 10
0.0
 20
1.0
 30
0.0
  9
$UCSORTHOREF
  2

  9
$UCSORTHOVIEW
 70
     0
  9
$UCSORGTOP
 10
0.0
 20
0.0
 30
0.0
  9
$UCSORGBOTTOM
 10
0.0
 20
0.0
 30
0.0
  9
$UCSORGLEFT
 10
0.0
 20
0.0
 30
0.0
  9
$UCSORGRIGHT
 10
0.0
 20
0.0
 30
0.0
  9
$UCSORGFRONT
 10
0.0
 20
0.0
 30
0.0
  9
$UCSORGBACK
 10
0.0
 20
0.0
 30
0.0
  9
$PUCSBASE
  2

  9
$PUCSNAME
  2

  9
$PUCSORG
 10
0.0
 20
0.0
 30
0.0
  9
$PUCSXDIR
 10
1.0
 20
0.0
 30
0.0
  9
$PUCSYDIR
 10
0.0
 20
1.0
 30
0.0
  9
$PUCSORTHOREF
  2

  9
$PUCSORTHOVIEW
 70
     0
  9
$PUCSORGTOP
 10
0.0
 20
0.0
 30
0.0
  9
$PUCSORGBOTTOM
 10
0.0
 20
0.0
 30
0.0
  9
$PUCSORGLEFT
 10
0.0
 20
0.0
 30
0.0
  9
$PUCSORGRIGHT
 10
0.0
 20
0.0
 30
0.0
  9
$PUCSORGFRONT
 10
0.0
 20
0.0
 30
0.0
  9
$PUCSORGBACK
 10
0.0
 20
0.0
 30
0.0
  9
$USERI1
 70
     0
  9
$USERI2
 70
     0
  9
$USERI3
 70
     0
  9
$USERI4
 70
     0
  9
$USERI5
 70
     0
  9
$USERR1
 40
0.0
  9
$USERR2
 40
0.0
  9
$USERR3
 40
0.0
  9
$USERR4
 40
0.0
  9
$USERR5
 40
0.0
  9
$WORLDVIEW
 70
     1
  9
$SHADEDGE
 70
     3
  9
$SHADEDIF
 70
    70
  9
$TILEMODE
 70
     1
  9
$MAXACTVP
 70
    64
  9
$PINSBASE
 10
0.0
 20
0.0
 30
0.0
  9
$PLIMCHECK
 70
     0
  9
$PEXTMIN
 10
1.000000000000000E+20
 20
1.000000000000000E+20
 30
1.000000000000000E+20
  9
$PEXTMAX
 10
-1.000000000000000E+20
 20
-1.000000000000000E+20
 30
-1.000000000000000E+20
  9
$PLIMMIN
 10
0.0
 20
0.0
  9
$PLIMMAX
 10
12.0
 20
9.0
  9
$UNITMODE
 70
     0
  9
$VISRETAIN
 70
     1
  9
$PLINEGEN
 70
     0
  9
$PSLTSCALE
 70
     1
  9
$TREEDEPTH
 70
  3020
  9
$CMLSTYLE
  2
Standard
  9
$CMLJUST
 70
     0
  9
$CMLSCALE
 40
1.0
  9
$PROXYGRAPHICS
 70
     1
  9
$MEASUREMENT
 70
     0
  9
$CELWEIGHT
370
    -1
  9
$ENDCAPS
280
     0
  9
$JOINSTYLE
280
     0
  9
$LWDISPLAY
290
     1
  9
$INSUNITS
 70
     0
  9
$HYPERLINKBASE
  1

  9
$STYLESHEET
  1

  9
$XEDIT
290
     1
  9
$CEPSNTYPE
380
     0
  9
$PSTYLEMODE
290
     1
  9
$FINGERPRINTGUID
  2
{FDE8BBA1-4CD4-48A6-8AC4-6D7044BCD096}
  9
$VERSIONGUID
  2
{1D03CAB7-715C-45CE-AA8D-49E3B1FF0777}
  9
$EXTNAMES
290
     1
  9
$PSVPSCALE
 40
0.0
  9
$OLESTARTUP
290
     0
  9
$SORTENTS
280
   127
  9
$INDEXCTL
280
     0
  9
$HIDETEXT
280
     1
  9
$XCLIPFRAME
280
     0
  9
$HALOGAP
280
     0
  9
$OBSCOLOR
 70
   257
  9
$OBSLTYPE
280
     0
  9
$INTERSECTIONDISPLAY
280
     0
  9
$INTERSECTIONCOLOR
 70
   257
  9
$DIMASSOC
280
     2
  9
$PROJECTNAME
  1

  9
$CAMERADISPLAY
290
     0
  9
$LENSLENGTH
 40
50.0
  9
$CAMERAHEIGHT
 40
0.0
  9
$STEPSPERSEC
 40
2.0
  9
$STEPSIZE
 40
6.0
  9
$3DDWFPREC
 40
2.0
  9
$PSOLWIDTH
 40
0.25
  9
$PSOLHEIGHT
 40
4.0
  9
$LOFTANG1
 40
1.570796326794896
  9
$LOFTANG2
 40
1.570796326794896
  9
$LOFTMAG1
 40
0.0
  9
$LOFTMAG2
 40
0.0
  9
$LOFTPARAM
 70
     7
  9
$LOFTNORMALS
280
     1
  9
$LATITUDE
 40
37.795
  9
$LONGITUDE
 40
-122.394
  9
$NORTHDIRECTION
 40
0.0
  9
$TIMEZONE
 70
 -8000
  9
$LIGHTGLYPHDISPLAY
280
     1
  9
$TILEMODELIGHTSYNCH
280
     1
  9
$CMATERIAL
347
3C
  9
$SOLIDHIST
280
     1
  9
$SHOWHIST
280
     1
  9
$DWFFRAME
280
     2
  9
$DGNFRAME
280
     2
  9
$REALWORLDSCALE
290
     1
  9
$INTERFERECOLOR
 62
   256
  9
$INTERFEREOBJVS
345
33
  9
$INTERFEREVPVS
346
4AE
  9
$CSHADOW
280
     0
  9
$SHADOWPLANELOCATION
 40
0.0
  0
ENDSEC
  0
SECTION
  2
CLASSES
  0
CLASS
  1
ACDBDICTIONARYWDFLT
  2
AcDbDictionaryWithDefault
  3
ObjectDBX Classes
 90
        0
 91
        1
280
     0
281
     0
  0
CLASS
  1
VISUALSTYLE
  2
AcDbVisualStyle
  3
ObjectDBX Classes
 90
     4095
 91
       26
280
     0
281
     0
  0
CLASS
  1
MATERIAL
  2
AcDbMaterial
  3
ObjectDBX Classes
 90
     1153
 91
        3
280
     0
281
     0
  0
CLASS
  1
SCALE
  2
AcDbScale
  3
ObjectDBX Classes
 90
     1153
 91
       33
280
     0
281
     0
  0
CLASS
  1
WIPEOUT
  2
AcDbWipeout
  3
WipeOut|Product Desc: Object Enabler for WipeOut entity | Company: Autodesk, Inc. | WEB Address: www.autodesk.com
 90
     2175
 91
        0
280
     0
281
     1
  0
CLASS
  1
DICTIONARYVAR
  2
AcDbDictionaryVar
  3
ObjectDBX Classes
 90
        0
 91
       17
280
     0
281
     0
  0
CLASS
  1
TABLESTYLE
  2
AcDbTableStyle
  3
ObjectDBX Classes
 90
     4095
 91
        1
280
     0
281
     0
  0
CLASS
  1
MLEADERSTYLE
  2
AcDbMLeaderStyle
  3
ACDB_MLEADERSTYLE_CLASS
 90
     4095
 91
        1
280
     0
281
     0
  0
CLASS
  1
ACDBSECTIONVIEWSTYLE
  2
AcDbSectionViewStyle
  3
ObjectDBX Classes
 90
     1025
 91
        1
280
     0
281
     0
  0
CLASS
  1
ACDBDETAILVIEWSTYLE
  2
AcDbDetailViewStyle
  3
ObjectDBX Classes
 90
     1025
 91
        1
280
     0
281
     0
  0
CLASS
  1
WIPEOUTVARIABLES
  2
AcDbWipeoutVariables
  3
"WipeOut|Product Desc:     WipeOut Dbx Application|Company:          Autodesk, Inc.|WEB Address:      www.autodesk.com"
 90
        0
 91
        1
280
     0
281
     0
  0
CLASS
  1
EXACXREFPANELOBJECT
  2
ExAcXREFPanelObject
  3
EXAC_ESW
 90
     1025
 91
        1
280
     0
281
     0
  0
CLASS
  1
NPOCOLLECTION
  2
AcDbImpNonPersistentObjectsCollection
  3
ObjectDBX Classes
 90
     1153
 91
        1
280
     0
281
     0
  0
CLASS
  1
IMAGE
  2
AcDbRasterImage
  3
ISM
 90
     2175
 91
        2
280
     0
281
     1
  0
CLASS
  1
IMAGEDEF_REACTOR
  2
AcDbRasterImageDefReactor
  3
ISM
 90
        1
 91
        2
280
     0
281
     0
  0
CLASS
  1
SORTENTSTABLE
  2
AcDbSortentsTable
  3
ObjectDBX Classes
 90
        0
 91
        3
280
     0
281
     0
  0
CLASS
  1
IMAGEDEF
  2
AcDbRasterImageDef
  3
ISM
 90
        0
 91
        2
280
     0
281
     0
  0
CLASS
  1
RASTERVARIABLES
  2
AcDbRasterVariables
  3
ISM
 90
        0
 91
        1
280
     0
281
     0
  0
CLASS
  1
ACAD_EVALUATION_GRAPH
  2
AcDbEvalGraph
  3
ObjectDBX Classes
 90
     1153
 91
        0
280
     0
281
     0
  0
CLASS
  1
ACAECUSTOBJ
  2
AcAeEditorObj
  3
AcAeEditorObj
 90
     1024
 91
        0
280
     0
281
     0
  0
CLASS
  1
ACDB_DYNAMICBLOCKPURGEPREVENTER_VERSION
  2
AcDbDynamicBlockPurgePreventer
  3
ObjectDBX Classes
 90
     1153
 91
        0
280
     0
281
     0
  0
CLASS
  1
CELLSTYLEMAP
  2
AcDbCellStyleMap
  3
ObjectDBX Classes
 90
     1152
 91
        2
280
     0
281
     0
  0
ENDSEC
  0
SECTION
  2
TABLES
  0
TABLE
  2
VPORT
  5
8
330
0
100
AcDbSymbolTable
 70
     1
  0
VPORT
  5
29
330
8
100
AcDbSymbolTableRecord
100
AcDbViewportTableRecord
  2
*Active
 70
     0
 10
0.0
 20
0.0
 11
1.0
 21
1.0
 12
7520.523603799822
 22
4005.10145512981
 13
0.0
 23
0.0
 14
0.5
 24
0.5
 15
0.5
 25
0.5
 16
0.0
 26
0.0
 36
1.0
 17
0.0
 27
0.0
 37
0.0
 40
919.7618757255064
 41
1.816348195329086
 42
50.0
 43
0.0
 44
0.0
 50
0.0
 51
0.0
 71
     0
 72
   100
 73
     1
 74
     3
 75
     0
 76
     0
 77
     0
 78
     0
281
     0
 65
     1
110
0.0
120
0.0
130
0.0
111
1.0
121
0.0
131
0.0
112
0.0
122
1.0
132
0.0
 79
     0
146
0.0
348
2F
 60
     3
 61
     5
292
     1
282
     1
141
0.0
142
0.0
 63
   250
1001
ACAD_NAV_VCDISPLAY
1070
     3
  0
ENDTAB
  0
TABLE
  2
LTYPE
  5
5
330
0
100
AcDbSymbolTable
 70
     8
  0
LTYPE
  5
14
330
5
100
AcDbSymbolTableRecord
100
AcDbLinetypeTableRecord
  2
ByBlock
 70
     0
  3

 72
    65
 73
     0
 40
0.0
  0
LTYPE
  5
15
330
5
100
AcDbSymbolTableRecord
100
AcDbLinetypeTableRecord
  2
ByLayer
 70
     0
  3

 72
    65
 73
     0
 40
0.0
  0
LTYPE
  5
16
330
5
100
AcDbSymbolTableRecord
100
AcDbLinetypeTableRecord
  2
Continuous
 70
     0
  3
Solid line
 72
    65
 73
     0
 40
0.0
  0
LTYPE
  5
405
330
5
100
AcDbSymbolTableRecord
100
AcDbLinetypeTableRecord
  2
Hidden
 70
     0
  3
- - - - - 
 72
    65
 73
     2
 40
4.938889980316162
 49
2.822222709655761
 74
     0
 49
-2.1166672706604
 74
     0
  0
LTYPE
  5
422
330
5
100
AcDbSymbolTableRecord
100
AcDbLinetypeTableRecord
  2
Above
 70
     0
  3
- - - - - 
 72
    65
 73
     2
 40
9.599999999999999
 49
6.0
 74
     0
 49
-3.6
 74
     0
  0
LTYPE
  5
427
330
5
100
AcDbSymbolTableRecord
100
AcDbLinetypeTableRecord
  2
Sketch
 70
     0
  3
??????????
 72
    65
 73
     3
 40
40.0
 49
0.0
 74
     4
 75
     1
340
428
 46
0.3174603174603174
 50
0.0
 44
0.0
 45
0.0
 49
-40.0
 74
     0
 49
0.0
 74
     0
  0
LTYPE
  5
47E
330
5
100
AcDbSymbolTableRecord
100
AcDbLinetypeTableRecord
  2
Wipeout_Contour
 70
     0
  3
- - - - - 
 72
    65
 73
     2
 40
1000.0
 49
0.0
 74
     0
 49
-1000.0
 74
     0
  0
LTYPE
  5
507
330
5
100
AcDbSymbolTableRecord
100
AcDbLinetypeTableRecord
  2
ZIGZAG
 70
     0
  3
Zig zag /\/\/\/\/\/\/\/\/\/\/\/\/\/\/\/\/\/\/\/
 72
    65
 73
     4
 40
0.8001000000000001
 49
0.0001
 74
     0
 49
-0.2
 74
     4
 75
   131
340
506
 46
0.2
 50
0.0
 44
-0.2
 45
0.0
 49
-0.4
 74
     4
 75
   131
340
506
 46
0.2
 50
180.0
 44
0.2
 45
0.0
 49
-0.2
 74
     0
  0
LTYPE
  5
59C
330
5
100
AcDbSymbolTableRecord
100
AcDbLinetypeTableRecord
  2
DASHEDX2
 70
     0
  3
Dashed (2x) ____  ____  ____  ____  ____  ___
 72
    65
 73
     2
 40
1.5
 49
1.0
 74
     0
 49
-0.5
 74
     0
  0
LTYPE
  5
5DA
330
5
100
AcDbSymbolTableRecord
100
AcDbLinetypeTableRecord
  2
PLASTER
 70
     0
  3
PLASTER
 72
    65
 73
     2
 40
2.379214999999999
 49
0.000024
 74
     4
 75
     1
340
5DB
 46
0.2
 50
0.0
 44
0.0
 45
0.0
 49
-2.379191
 74
     0
  0
ENDTAB
  0
TABLE
  2
LAYER
  5
2
102
{ACAD_XDICTIONARY
360
4D2
102
}
330
0
100
AcDbSymbolTable
 70
     6
  0
LAYER
  5
10
102
{ACAD_XDICTIONARY
360
51F
102
}
330
2
100
AcDbSymbolTableRecord
100
AcDbLayerTableRecord
  2
0
 70
     0
 62
     7
  6
Continuous
370
    -3
390
F
347
3E
  0
LAYER
  5
40
102
{ACAD_XDICTIONARY
360
521
102
}
330
2
100
AcDbSymbolTableRecord
100
AcDbLayerTableRecord
  2
Specialized_Fills
 70
     0
 62
     7
  6
Continuous
370
    -3
390
F
347
3E
  0
LAYER
  5
3D7
102
{ACAD_XDICTIONARY
360
523
102
}
330
2
100
AcDbSymbolTableRecord
100
AcDbLayerTableRecord
  2
Specialized_Lines
 70
     0
 62
     7
  6
Continuous
370
    -3
390
F
347
3E
  0
LAYER
  5
413
102
{ACAD_XDICTIONARY
360
525
102
}
330
2
100
AcDbSymbolTableRecord
100
AcDbLayerTableRecord
  2
Specialized_Text
 70
     0
 62
     7
  6
Continuous
370
    -3
390
F
347
3E
  0
LAYER
  5
4C9
102
{ACAD_XDICTIONARY
360
4CA
102
}
330
2
100
AcDbSymbolTableRecord
100
AcDbLayerTableRecord
  2
Viewport
 70
     0
 62
     7
  6
Continuous
370
    -3
390
F
347
3E
1001
AcAecLayerStandard
1000

1000

1001
AcCmTransparency
1071
        0
  0
LAYER
  5
6E5
330
2
100
AcDbSymbolTableRecord
100
AcDbLayerTableRecord
  2
Defpoints
 70
     0
 62
     7
  6
Continuous
290
     0
370
    -3
390
F
347
3E
  0
ENDTAB
  0
TABLE
  2
STYLE
  5
3
330
0
100
AcDbSymbolTable
 70
     6
  0
STYLE
  5
11
330
3
100
AcDbSymbolTableRecord
100
AcDbTextStyleTableRecord
  2
Standard
 70
     0
 40
0.0
 41
1.0
 50
0.0
 71
     0
 42
0.2
  3
txt
  4
BIGFONT.SHX
  0
STYLE
  5
428
330
3
100
AcDbSymbolTableRecord
100
AcDbTextStyleTableRecord
  2

 70
     1
 40
0.2
 41
1.0
 50
0.0
 71
     0
 42
0.2
  3
06C Wall _ Floor_ CONCRETE SLAB (Below Ground)_1.Shx
  4

  0
STYLE
  5
438
330
3
100
AcDbSymbolTableRecord
100
AcDbTextStyleTableRecord
  2
GENERATED_STYLE_1
 70
     0
 40
0.0
 41
1.0
 50
0.0
 71
     0
 42
0.2
  3
ARIALUNI.TTF
  4

1001
ACAD
1000
Arial Unicode MS
1071
       34
  0
STYLE
  5
4CB
330
3
100
AcDbSymbolTableRecord
100
AcDbTextStyleTableRecord
  2
GENERATED_STYLE_2
 70
     0
 40
0.0
 41
1.0
 50
0.0
 71
     0
 42
0.2
  3
ARIALUNI.TTF
  4

1001
ACAD
1000
Arial Unicode MS
1071
       34
  0
STYLE
  5
506
330
3
100
AcDbSymbolTableRecord
100
AcDbTextStyleTableRecord
  2

 70
     1
 40
0.0
 41
1.0
 50
0.0
 71
     0
 42
0.2
  3
ltypeshp.shx
  4

  0
STYLE
  5
5DB
330
3
100
AcDbSymbolTableRecord
100
AcDbTextStyleTableRecord
  2

 70
     1
 40
0.0
 41
1.0
 50
0.0
 71
     0
 42
0.2
  3
P:\VERT-X CONSULTING LTD\2013\10 OCT\1310-015- SPECIALIZED CONSTRUCTION PRODUCTS - CONTRACT DRAUGHTING\DRAWINGS\PLASTER.SHX
  4

  0
ENDTAB
  0
TABLE
  2
VIEW
  5
6
330
0
100
AcDbSymbolTable
 70
     0
  0
ENDTAB
  0
TABLE
  2
UCS
  5
7
330
0
100
AcDbSymbolTable
 70
     0
  0
ENDTAB
  0
TABLE
  2
APPID
  5
9
330
0
100
AcDbSymbolTable
 70
    12
  0
APPID
  5
12
330
9
100
AcDbSymbolTableRecord
100
AcDbRegAppTableRecord
  2
ACAD
 70
     0
  0
APPID
  5
4CC
330
9
100
AcDbSymbolTableRecord
100
AcDbRegAppTableRecord
  2
ACAD_PSEXT
 70
     0
  0
APPID
  5
4CD
330
9
100
AcDbSymbolTableRecord
100
AcDbRegAppTableRecord
  2
ACAD_NAV_VCDISPLAY
 70
     0
  0
APPID
  5
4CE
330
9
100
AcDbSymbolTableRecord
100
AcDbRegAppTableRecord
  2
AcAecLayerStandard
 70
     0
  0
APPID
  5
4CF
330
9
100
AcDbSymbolTableRecord
100
AcDbRegAppTableRecord
  2
AcCmTransparency
 70
     0
  0
APPID
  5
4D0
330
9
100
AcDbSymbolTableRecord
100
AcDbRegAppTableRecord
  2
GradientColor1ACI
 70
     0
  0
APPID
  5
4D1
330
9
100
AcDbSymbolTableRecord
100
AcDbRegAppTableRecord
  2
GradientColor2ACI
 70
     0
  0
APPID
  5
4F8
330
9
100
AcDbSymbolTableRecord
100
AcDbRegAppTableRecord
  2
ACAD_EXEMPT_FROM_CAD_STANDARDS
 70
     0
  0
APPID
  5
510
330
9
100
AcDbSymbolTableRecord
100
AcDbRegAppTableRecord
  2
ACAUTHENVIRON
 70
     0
  0
APPID
  5
528
330
9
100
AcDbSymbolTableRecord
100
AcDbRegAppTableRecord
  2
AcDbDynamicBlockTrueName
 70
     0
  0
APPID
  5
529
330
9
100
AcDbSymbolTableRecord
100
AcDbRegAppTableRecord
  2
AcDbDynamicBlockGUID
 70
     0
  0
APPID
  5
7C2
330
9
100
AcDbSymbolTableRecord
100
AcDbRegAppTableRecord
  2
AcadAnnoMonitorAlertIconDisabled
 70
     0
  0
ENDTAB
  0
TABLE
  2
DIMSTYLE
  5
A
330
0
100
AcDbSymbolTable
 70
     5
100
AcDbDimStyleTable
 71
     1
340
27
  0
DIMSTYLE
105
27
330
A
100
AcDbSymbolTableRecord
100
AcDbDimStyleTableRecord
  2
Standard
 70
     0
340
11
  0
DIMSTYLE
105
43A
102
{ACAD_REACTORS
330
439
330
448
102
}
330
A
100
AcDbSymbolTableRecord
100
AcDbDimStyleTableRecord
  2
GENERATED_STYLE__1
 70
     0
 41
3.799999999999999
 42
600.0
 73
     0
 74
     0
 77
     1
140
6.0
172
     1
176
     7
177
     7
178
     7
179
     2
271
     0
340
438
342
43B
343
43B
344
43B
  0
DIMSTYLE
105
453
102
{ACAD_REACTORS
330
452
102
}
330
A
100
AcDbSymbolTableRecord
100
AcDbDimStyleTableRecord
  2
GENERATED_STYLE__2
 70
     0
 41
3.799999999999999
 42
7.806837331987281
 73
     0
 74
     0
 77
     1
140
6.0
172
     1
176
     7
177
     7
178
     7
179
     2
271
     0
340
438
342
43B
343
43B
344
43B
  0
DIMSTYLE
105
45F
330
A
100
AcDbSymbolTableRecord
100
AcDbDimStyleTableRecord
  2
GENERATED_STYLE__3
 70
     0
 41
3.799999999999999
 42
100.910233693166
 73
     0
 74
     0
 77
     1
140
5.0
172
     1
176
     7
177
     7
178
     7
179
     2
271
     0
340
438
342
43B
343
43B
344
43B
  0
DIMSTYLE
105
462
330
A
100
AcDbSymbolTableRecord
100
AcDbDimStyleTableRecord
  2
GENERATED_STYLE__4
 70
     0
 41
7.295999999999999
172
     1
341
463
  0
ENDTAB
  0
TABLE
  2
BLOCK_RECORD
  5
1
330
0
100
AcDbSymbolTable
 70
    13
  0
BLOCK_RECORD
  5
1F
102
{ACAD_XDICTIONARY
360
62E
102
}
330
1
100
AcDbSymbolTableRecord
100
AcDbBlockTableRecord
  2
*Model_Space
340
22
 70
     0
280
     1
281
     0
  0
BLOCK_RECORD
  5
1B
330
1
100
AcDbSymbolTableRecord
100
AcDbBlockTableRecord
  2
*Paper_Space
340
1E
 70
     0
280
     1
281
     0
  0
BLOCK_RECORD
  5
23
330
1
100
AcDbSymbolTableRecord
100
AcDbBlockTableRecord
  2
*Paper_Space0
340
26
 70
     0
280
     1
281
     0
  0
BLOCK_RECORD
  5
41
102
{ACAD_XDICTIONARY
360
551
102
}
330
1
100
AcDbSymbolTableRecord
100
AcDbBlockTableRecord
  2
Fill_1
340
0
102
{BLKREFS
331
1A2
102
}
 70
     0
280
     1
281
     0
1001
AcDbDynamicBlockGUID
1000
{537CC711-675B-4F68-9045-C203482F2614}
  0
BLOCK_RECORD
  5
1A9
330
1
100
AcDbSymbolTableRecord
100
AcDbBlockTableRecord
  2
Fill_2
340
0
 70
     0
280
     1
281
     0
  0
BLOCK_RECORD
  5
1AC
330
1
100
AcDbSymbolTableRecord
100
AcDbBlockTableRecord
  2
*X3
340
0
102
{BLKREFS
331
280
102
}
 70
     0
280
     1
281
     0
  0
BLOCK_RECORD
  5
284
102
{ACAD_XDICTIONARY
360
533
102
}
330
1
100
AcDbSymbolTableRecord
100
AcDbBlockTableRecord
  2
Fill_3
340
0
102
{BLKREFS
331
3D5
102
}
 70
     0
280
     1
281
     0
1001
AcDbDynamicBlockGUID
1000
{F3FAB862-AC2E-4E16-AC39-BFF653A71ED8}
  0
BLOCK_RECORD
  5
40F
330
1
100
AcDbSymbolTableRecord
100
AcDbBlockTableRecord
  2
Line_1
340
0
 70
     0
280
     1
281
     0
  0
BLOCK_RECORD
  5
416
102
{ACAD_XDICTIONARY
360
5AB
102
}
330
1
100
AcDbSymbolTableRecord
100
AcDbBlockTableRecord
  2
Line_2
340
0
102
{BLKREFS
331
41E
102
}
 70
     0
280
     1
281
     0
1001
AcDbDynamicBlockGUID
1000
{CF6D231D-D994-49DC-B715-01E8B4F95FDA}
  0
BLOCK_RECORD
  5
42F
330
1
100
AcDbSymbolTableRecord
100
AcDbBlockTableRecord
  2
*D7
340
0
 70
     0
280
     1
281
     0
  0
BLOCK_RECORD
  5
43B
330
1
100
AcDbSymbolTableRecord
100
AcDbBlockTableRecord
  2
ARROWHEAD_6
340
0
102
{BLKREFS
331
90E
331
90F
331
918
331
919
331
922
331
923
102
}
 70
     0
280
     1
281
     0
  0
BLOCK_RECORD
  5
440
330
1
100
AcDbSymbolTableRecord
100
AcDbBlockTableRecord
  2
*D9
340
0
 70
     0
280
     1
281
     0
  0
BLOCK_RECORD
  5
449
330
1
100
AcDbSymbolTableRecord
100
AcDbBlockTableRecord
  2
*D10
340
0
 70
     0
280
     1
281
     0
  0
BLOCK_RECORD
  5
463
330
1
100
AcDbSymbolTableRecord
100
AcDbBlockTableRecord
  2
ARROWHEAD_5
340
0
 70
     0
280
     1
281
     0
  0
BLOCK_RECORD
  5
483
330
1
100
AcDbSymbolTableRecord
100
AcDbBlockTableRecord
  2
06C Wall _ Floor_ CONCRETE SLAB_STORY_MARKER
340
0
 70
     0
280
     1
281
     0
  0
ENDTAB
  0
ENDSEC
  0
SECTION
  2
BLOCKS
  0
BLOCK
  5
20
330
1F
100
AcDbEntity
  8
0
100
AcDbBlockBegin
  2
*Model_Space
 70
     0
 10
0.0
 20
0.0
 30
0.0
  3
*Model_Space
  1

  0
ENDBLK
  5
21
330
1F
100
AcDbEntity
  8
0
100
AcDbBlockEnd
  0
BLOCK
  5
1C
330
1B
100
AcDbEntity
 67
     1
  8
0
100
AcDbBlockBegin
  2
*Paper_Space
 70
     0
 10
0.0
 20
0.0
 30
0.0
  3
*Paper_Space
  1

  0
ENDBLK
  5
1D
330
1B
100
AcDbEntity
 67
     1
  8
0
100
AcDbBlockEnd
  0
BLOCK
  5
24
330
23
100
AcDbEntity
 67
     1
  8
0
100
AcDbBlockBegin
  2
*Paper_Space0
 70
     0
 10
0.0
 20
0.0
 30
0.0
  3
*Paper_Space0
  1

  0
ENDBLK
  5
25
330
23
100
AcDbEntity
 67
     1
  8
0
100
AcDbBlockEnd
  0
BLOCK
  5
42
330
41
100
AcDbEntity
  8
0
100
AcDbBlockBegin
  2
Fill_1
 70
     0
 10
0.0
 20
0.0
 30
0.0
  3
Fill_1
  1

  0
LINE
  5
54D
102
{ACAD_REACTORS
330
55D
102
}
330
41
100
AcDbEntity
  8
Specialized_Fills
  6
Continuous
100
AcDbLine
 10
7127.787156167946
 20
3869.755865196874
 30
0.0
 11
7127.787156167946
 21
4021.492883085371
 31
0.0
  0
LINE
  5
54E
102
{ACAD_REACTORS
330
55D
102
}
330
41
100
AcDbEntity
  8
Specialized_Fills
  6
Continuous
100
AcDbLine
 10
7127.787156167946
 20
4021.492883085371
 30
0.0
 11
7055.782053850767
 21
4007.674772352976
 31
0.0
  0
LINE
  5
54F
102
{ACAD_REACTORS
330
55D
102
}
330
41
100
AcDbEntity
  8
Specialized_Fills
  6
Continuous
100
AcDbLine
 10
7055.782053850767
 20
4007.674772352976
 30
0.0
 11
7055.782053850767
 21
3869.755865196873
 31
0.0
  0
LINE
  5
550
102
{ACAD_REACTORS
330
55D
102
}
330
41
100
AcDbEntity
  8
Specialized_Fills
  6
Continuous
100
AcDbLine
 10
7055.782053850767
 20
3869.755865196873
 30
0.0
 11
7127.787156167946
 21
3869.755865196874
 31
0.0
  0
HATCH
  5
55D
330
41
100
AcDbEntity
  8
0
 62
   251
420
  6250335
100
AcDbHatch
 10
0.0
 20
0.0
 30
0.0
210
0.0
220
0.0
230
1.0
  2
HPCRC1E0
 70
     0
 71
     1
 91
        1
 92
        7
 72
     0
 73
     1
 93
        4
 10
7127.787156167946
 20
4021.492883085371
 10
7055.782053850767
 20
4007.674772352976
 10
7055.782053850767
 20
3869.755865196873
 10
7127.787156167946
 20
3869.755865196874
 97
        4
330
54E
330
54F
330
550
330
54D
 75
     1
 76
     2
 52
0.0
 41
0.12
 77
     0
 78
    78
 53
82.8749847
 43
0.0
 44
4.2
 45
-0.0000004961129005
 46
8.399999852931037
 79
     2
 49
0.9674709324
 49
-66.75549316799998
 53
75.96376039999999
 43
0.12
 44
5.16
 45
-0.000000348785556
 46
8.399999709154096
 79
     2
 49
0.4947726600000001
 49
-34.139315184
 53
63.43495179999999
 43
0.24
 44
5.639999999999999
 45
-0.0000000286036308
 46
8.400000041591663
 79
     2
 49
1.073312639999999
 49
-17.70965881199999
 53
45.0
 43
0.72
 44
6.599999999999999
 45
0.0000000000000009
 46
8.400000002875099
 79
     2
 49
1.527350688
 49
-10.352043456
 53
33.6900673
 43
1.799999999999999
 44
7.679999999999999
 45
0.0000001596020127
 46
8.399999824188462
 79
     2
 49
0.4326661440000001
 49
-29.85396423600001
 53
33.6900673
 43
10.2
 44
7.679999999999999
 45
0.0000001596020127
 46
8.399999824188462
 79
     2
 49
0.4326661440000001
 49
-29.85396423600001
 53
33.6900673
 43
18.6
 44
7.679999999999999
 45
0.0000001596020127
 46
8.399999824188462
 79
     2
 49
0.4326661440000001
 49
-29.85396423600001
 53
26.5650501
 43
2.16
 44
7.919999999999999
 45
-0.0000000460215162
 46
8.400000143556356
 79
     2
 49
0.26832816
 49
-18.514643556
 53
26.5650501
 43
10.56
 44
7.919999999999999
 45
-0.0000000460215162
 46
8.400000143556356
 79
     2
 49
0.26832816
 49
-18.514643556
 53
18.434948
 43
2.399999999999999
 44
8.039999999999999
 45
0.0000002686412607
 46
8.399999851558131
 79
     2
 49
0.3794733239999999
 49
-26.183659056
 53
18.434948
 43
10.8
 44
8.039999999999999
 45
0.0000002686412607
 46
8.399999851558131
 79
     2
 49
0.3794733239999999
 49
-26.183659056
 53
18.434948
 43
19.2
 44
8.039999999999999
 45
0.0000002686412607
 46
8.399999851558131
 79
     2
 49
0.3794733239999999
 49
-26.183659056
 53
26.5650501
 43
2.759999999999999
 44
8.16
 45
-0.0000000460215162
 46
8.400000143556356
 79
     2
 49
0.26832816
 49
-18.514643556
 53
26.5650501
 43
11.16
 44
8.16
 45
-0.0000000460215162
 46
8.400000143556356
 79
     2
 49
0.26832816
 49
-18.514643556
 53
11.3099327
 43
3.0
 44
8.279999999999999
 45
-0.0000000543109101
 46
8.400000069389928
 79
     2
 49
0.6118823435999998
 49
-42.21988036799999
 53
11.3099327
 43
11.4
 44
8.279999999999999
 45
-0.0000000543109101
 46
8.400000069389928
 79
     2
 49
0.6118823435999998
 49
-42.21988036799999
 53
11.3099327
 43
19.8
 44
8.279999999999999
 45
-0.0000000543109101
 46
8.400000069389928
 79
     2
 49
0.6118823435999998
 49
-42.21988036799999
 53
11.3099327
 43
28.2
 44
8.279999999999999
 45
-0.0000000543109101
 46
8.400000069389928
 79
     2
 49
0.6118823435999998
 49
-42.21988036799999
 53
11.3099327
 43
36.6
 44
8.279999999999999
 45
-0.0000000543109101
 46
8.400000069389928
 79
     2
 49
0.6118823435999998
 49
-42.21988036799999
 53
0.0
 43
3.599999999999999
 44
8.4
 45
0.0
 46
8.4
 79
     2
 49
1.199999999999999
 49
-7.199999999999999
 53
348.6900673
 43
4.799999999999999
 44
8.4
 45
0.0000000543109101
 46
8.400000069389928
 79
     2
 49
0.6118823435999998
 49
-42.21988036799999
 53
348.6900673
 43
13.2
 44
8.4
 45
0.0000000543109101
 46
8.400000069389928
 79
     2
 49
0.6118823435999998
 49
-42.21988036799999
 53
348.6900673
 43
21.6
 44
8.4
 45
0.0000000543109101
 46
8.400000069389928
 79
     2
 49
0.6118823435999998
 49
-42.21988036799999
 53
348.6900673
 43
30.0
 44
8.4
 45
0.0000000543109101
 46
8.400000069389928
 79
     2
 49
0.6118823435999998
 49
-42.21988036799999
 53
348.6900673
 43
38.4
 44
8.4
 45
0.0000000543109101
 46
8.400000069389928
 79
     2
 49
0.6118823435999998
 49
-42.21988036799999
 53
333.4349499
 43
5.399999999999999
 44
8.279999999999999
 45
0.0000000460215162
 46
8.400000143556356
 79
     2
 49
0.2683281599999999
 49
-18.514643556
 53
333.4349499
 43
13.8
 44
8.279999999999999
 45
0.0000000460215162
 46
8.400000143556356
 79
     2
 49
0.2683281599999999
 49
-18.514643556
 53
341.565052
 43
5.639999999999999
 44
8.16
 45
-0.0000002686412607
 46
8.399999851558131
 79
     2
 49
0.379473324
 49
-26.183659056
 53
341.565052
 43
14.04
 44
8.16
 45
-0.0000002686412607
 46
8.399999851558131
 79
     2
 49
0.379473324
 49
-26.183659056
 53
341.565052
 43
22.44
 44
8.16
 45
-0.0000002686412607
 46
8.399999851558131
 79
     2
 49
0.379473324
 49
-26.183659056
 53
333.4349499
 43
6.0
 44
8.039999999999999
 45
0.0000000460215162
 46
8.400000143556356
 79
     2
 49
0.2683281599999999
 49
-18.514643556
 53
333.4349499
 43
14.4
 44
8.039999999999999
 45
0.0000000460215162
 46
8.400000143556356
 79
     2
 49
0.2683281599999999
 49
-18.514643556
 53
326.3099327
 43
6.24
 44
7.919999999999999
 45
-0.0000001596020127
 46
8.399999824188462
 79
     2
 49
0.4326661440000001
 49
-29.85396423600001
 53
326.3099327
 43
14.64
 44
7.919999999999999
 45
-0.0000001596020127
 46
8.399999824188462
 79
     2
 49
0.4326661440000001
 49
-29.85396423600001
 53
326.3099327
 43
23.04
 44
7.919999999999999
 45
-0.0000001596020127
 46
8.399999824188462
 79
     2
 49
0.4326661440000001
 49
-29.85396423600001
 53
315.0
 43
6.599999999999999
 44
7.679999999999999
 45
-0.0000000000000009
 46
8.400000002875099
 79
     2
 49
1.527350688
 49
-10.352043456
 53
296.5650482
 43
7.679999999999999
 44
6.599999999999999
 45
0.0000000286036308
 46
8.400000041591663
 79
     2
 49
1.073312639999999
 49
-17.70965881199999
 53
284.0362396
 43
8.16
 44
5.639999999999999
 45
0.000000348785556
 46
8.399999709154096
 79
     2
 49
0.4947726600000001
 49
-34.139315184
 53
277.1250153
 43
8.279999999999999
 44
5.16
 45
0.0000004961129005
 46
8.399999852931037
 79
     2
 49
0.9674709324
 49
-66.75549316799998
 53
277.1250153
 43
0.0
 44
4.2
 45
0.0000004961129005
 46
8.399999852931037
 79
     2
 49
0.9674709324
 49
-66.75549316799998
 53
284.0362396
 43
0.12
 44
3.239999999999999
 45
0.000000348785556
 46
8.399999709154096
 79
     2
 49
0.4947726600000001
 49
-34.139315184
 53
296.5650482
 43
0.24
 44
2.759999999999999
 45
0.0000000286036308
 46
8.400000041591663
 79
     2
 49
1.073312639999999
 49
-17.70965881199999
 53
315.0
 43
0.72
 44
1.799999999999999
 45
-0.0000000000000009
 46
8.400000002875099
 79
     2
 49
1.527350688
 49
-10.352043456
 53
326.3099327
 43
1.799999999999999
 44
0.72
 45
-0.0000001596020127
 46
8.399999824188462
 79
     2
 49
0.4326661440000001
 49
-29.85396423600001
 53
326.3099327
 43
10.2
 44
0.72
 45
-0.0000001596020127
 46
8.399999824188462
 79
     2
 49
0.4326661440000001
 49
-29.85396423600001
 53
326.3099327
 43
18.6
 44
0.72
 45
-0.0000001596020127
 46
8.399999824188462
 79
     2
 49
0.4326661440000001
 49
-29.85396423600001
 53
333.4349499
 43
2.16
 44
0.48
 45
0.0000000460215162
 46
8.400000143556356
 79
     2
 49
0.2683281599999999
 49
-18.514643556
 53
333.4349499
 43
10.56
 44
0.48
 45
0.0000000460215162
 46
8.400000143556356
 79
     2
 49
0.2683281599999999
 49
-18.514643556
 53
341.565052
 43
2.399999999999999
 44
0.36
 45
-0.0000002686412607
 46
8.399999851558131
 79
     2
 49
0.379473324
 49
-26.183659056
 53
341.565052
 43
10.8
 44
0.36
 45
-0.0000002686412607
 46
8.399999851558131
 79
     2
 49
0.379473324
 49
-26.183659056
 53
341.565052
 43
19.2
 44
0.36
 45
-0.0000002686412607
 46
8.399999851558131
 79
     2
 49
0.379473324
 49
-26.183659056
 53
333.4349499
 43
2.759999999999999
 44
0.24
 45
0.0000000460215162
 46
8.400000143556356
 79
     2
 49
0.2683281599999999
 49
-18.514643556
 53
333.4349499
 43
11.16
 44
0.24
 45
0.0000000460215162
 46
8.400000143556356
 79
     2
 49
0.2683281599999999
 49
-18.514643556
 53
348.6900673
 43
3.0
 44
0.12
 45
0.0000000543109101
 46
8.400000069389928
 79
     2
 49
0.6118823435999998
 49
-42.21988036799999
 53
348.6900673
 43
11.4
 44
0.12
 45
0.0000000543109101
 46
8.400000069389928
 79
     2
 49
0.6118823435999998
 49
-42.21988036799999
 53
348.6900673
 43
19.8
 44
0.12
 45
0.0000000543109101
 46
8.400000069389928
 79
     2
 49
0.6118823435999998
 49
-42.21988036799999
 53
348.6900673
 43
28.2
 44
0.12
 45
0.0000000543109101
 46
8.400000069389928
 79
     2
 49
0.6118823435999998
 49
-42.21988036799999
 53
348.6900673
 43
36.6
 44
0.12
 45
0.0000000543109101
 46
8.400000069389928
 79
     2
 49
0.6118823435999998
 49
-42.21988036799999
 53
0.0
 43
3.599999999999999
 44
0.0
 45
0.0
 46
8.4
 79
     2
 49
1.199999999999999
 49
-7.199999999999999
 53
11.3099327
 43
4.799999999999999
 44
0.0
 45
-0.0000000543109101
 46
8.400000069389928
 79
     2
 49
0.6118823435999998
 49
-42.21988036799999
 53
11.3099327
 43
13.2
 44
0.0
 45
-0.0000000543109101
 46
8.400000069389928
 79
     2
 49
0.6118823435999998
 49
-42.21988036799999
 53
11.3099327
 43
21.6
 44
0.0
 45
-0.0000000543109101
 46
8.400000069389928
 79
     2
 49
0.6118823435999998
 49
-42.21988036799999
 53
11.3099327
 43
30.0
 44
0.0
 45
-0.0000000543109101
 46
8.400000069389928
 79
     2
 49
0.6118823435999998
 49
-42.21988036799999
 53
11.3099327
 43
38.4
 44
0.0
 45
-0.0000000543109101
 46
8.400000069389928
 79
     2
 49
0.6118823435999998
 49
-42.21988036799999
 53
26.5650501
 43
5.399999999999999
 44
0.12
 45
-0.0000000460215162
 46
8.400000143556356
 79
     2
 49
0.26832816
 49
-18.514643556
 53
26.5650501
 43
13.8
 44
0.12
 45
-0.0000000460215162
 46
8.400000143556356
 79
     2
 49
0.26832816
 49
-18.514643556
 53
18.434948
 43
5.639999999999999
 44
0.24
 45
0.0000002686412607
 46
8.399999851558131
 79
     2
 49
0.3794733239999999
 49
-26.183659056
 53
18.434948
 43
14.04
 44
0.24
 45
0.0000002686412607
 46
8.399999851558131
 79
     2
 49
0.3794733239999999
 49
-26.183659056
 53
18.434948
 43
22.44
 44
0.24
 45
0.0000002686412607
 46
8.399999851558131
 79
     2
 49
0.3794733239999999
 49
-26.183659056
 53
26.5650501
 43
6.0
 44
0.36
 45
-0.0000000460215162
 46
8.400000143556356
 79
     2
 49
0.26832816
 49
-18.514643556
 53
26.5650501
 43
14.4
 44
0.36
 45
-0.0000000460215162
 46
8.400000143556356
 79
     2
 49
0.26832816
 49
-18.514643556
 53
33.6900673
 43
6.24
 44
0.48
 45
0.0000001596020127
 46
8.399999824188462
 79
     2
 49
0.4326661440000001
 49
-29.85396423600001
 53
33.6900673
 43
14.64
 44
0.48
 45
0.0000001596020127
 46
8.399999824188462
 79
     2
 49
0.4326661440000001
 49
-29.85396423600001
 53
33.6900673
 43
23.04
 44
0.48
 45
0.0000001596020127
 46
8.399999824188462
 79
     2
 49
0.4326661440000001
 49
-29.85396423600001
 53
45.0
 43
6.599999999999999
 44
0.72
 45
0.0000000000000009
 46
8.400000002875099
 79
     2
 49
1.527350688
 49
-10.352043456
 53
63.43495179999999
 43
7.679999999999999
 44
1.799999999999999
 45
-0.0000000286036308
 46
8.400000041591663
 79
     2
 49
1.073312639999999
 49
-17.70965881199999
 53
75.96376039999999
 43
8.16
 44
2.759999999999999
 45
-0.000000348785556
 46
8.399999709154096
 79
     2
 49
0.4947726600000001
 49
-34.139315184
 53
82.8749847
 43
8.279999999999999
 44
3.239999999999999
 45
-0.0000004961129005
 46
8.399999852931037
 79
     2
 49
0.9674709324
 49
-66.75549316799998
 47
0.2257511424483499
 98
        1
 10
7105.732428483967
 20
3986.936833260628
1001
GradientColor1ACI
1070
     5
1001
GradientColor2ACI
1070
     2
1001
ACAD
1010
0.0
1020
0.0
1030
0.0
  0
ENDBLK
  5
43
330
41
100
AcDbEntity
  8
0
100
AcDbBlockEnd
  0
BLOCK
  5
1AA
330
1A9
100
AcDbEntity
  8
0
100
AcDbBlockBegin
  2
Fill_2
 70
     0
 10
0.0
 20
0.0
 30
0.0
  3
Fill_2
  1

  0
INSERT
  5
280
330
1A9
100
AcDbEntity
  8
Specialized_Fills
  6
Continuous
100
AcDbBlockReference
  2
*X3
 10
0.0
 20
0.0
 30
0.0
  0
ENDBLK
  5
1AB
330
1A9
100
AcDbEntity
  8
0
100
AcDbBlockEnd
  0
BLOCK
  5
1AD
330
1AC
100
AcDbEntity
  8
0
100
AcDbBlockBegin
  2
*X3
 70
     1
 10
0.0
 20
0.0
 30
0.0
  3
*X3
  1

  0
LINE
  5
1AF
330
1AC
100
AcDbEntity
  8
Specialized_Fills
  6
Continuous
100
AcDbLine
 10
7219.72969151751
 20
3977.664113766876
 30
0.0
 11
7223.403222706868
 21
3982.042057759301
 31
0.0
  0
LINE
  5
1B0
330
1AC
100
AcDbEntity
  8
Specialized_Fills
  6
Continuous
100
AcDbLine
 10
7152.83072295394
 20
3903.366883366246
 30
0.0
 11
7156.504254143297
 21
3907.744827358671
 31
0.0
  0
LINE
  5
1B1
330
1AC
100
AcDbEntity
  8
Specialized_Fills
  6
Continuous
100
AcDbLine
 10
7152.83072295394
 20
4030.199441675974
 30
0.0
 11
7156.504254143297
 21
4034.577385668399
 31
0.0
  0
LINE
  5
1B2
330
1AC
100
AcDbEntity
  8
Specialized_Fills
  6
Continuous
100
AcDbLine
 10
7163.403749380437
 20
3846.049829795475
 30
0.0
 11
7167.077280569795
 21
3850.4277737879
 31
0.0
  0
LINE
  5
1B3
330
1AC
100
AcDbEntity
  8
Specialized_Fills
  6
Continuous
100
AcDbLine
 10
7163.403749380437
 20
3972.882388105205
 30
0.0
 11
7167.077280569795
 21
3977.26033209763
 31
0.0
  0
LINE
  5
1B4
330
1AC
100
AcDbEntity
  8
Specialized_Fills
  6
Continuous
100
AcDbLine
 10
7207.486123652738
 20
3898.585157704575
 30
0.0
 11
7208.67759647094
 21
3900.005099716143
 31
0.0
  0
LINE
  5
1B5
330
1AC
100
AcDbEntity
  8
Specialized_Fills
  6
Continuous
100
AcDbLine
 10
7207.486123652738
 20
4025.417716014304
 30
0.0
 11
7211.159654842099
 21
4029.795660006729
 31
0.0
  0
LINE
  5
1B6
330
1AC
100
AcDbEntity
  8
Specialized_Fills
  6
Continuous
100
AcDbLine
 10
7152.830726805041
 20
3903.366835651692
 30
0.0
 11
7157.385328964716
 21
3902.96835959585
 31
0.0
  0
LINE
  5
1B7
330
1AC
100
AcDbEntity
  8
Specialized_Fills
  6
Continuous
100
AcDbLine
 10
7152.830726805041
 20
4030.199393961422
 30
0.0
 11
7157.385328964716
 21
4029.800917905579
 31
0.0
  0
LINE
  5
1B8
330
1AC
100
AcDbEntity
  8
Specialized_Fills
  6
Continuous
100
AcDbLine
 10
7207.485952721146
 20
3898.585122981585
 30
0.0
 11
7207.885192480414
 21
3898.55019402862
 31
0.0
  0
LINE
  5
1B9
330
1AC
100
AcDbEntity
  8
Specialized_Fills
  6
Continuous
100
AcDbLine
 10
7207.485952721146
 20
4025.417681291314
 30
0.0
 11
7212.040554880821
 21
4025.019205235471
 31
0.0
  0
LINE
  5
1BA
330
1AC
100
AcDbEntity
  8
Specialized_Fills
  6
Continuous
100
AcDbLine
 10
7219.72969151751
 20
3977.664113766876
 30
0.0
 11
7224.284293677185
 21
3977.265637711034
 31
0.0
  0
LINE
  5
1BB
330
1AC
100
AcDbEntity
  8
Specialized_Fills
  6
Continuous
100
AcDbLine
 10
7163.403574597741
 20
3846.049842787039
 30
0.0
 11
7167.958176757416
 21
3845.651366731196
 31
0.0
  0
LINE
  5
1BC
330
1AC
100
AcDbEntity
  8
Specialized_Fills
  6
Continuous
100
AcDbLine
 10
7163.403574597741
 20
3972.882401096768
 30
0.0
 11
7167.958176757416
 21
3972.483925040926
 31
0.0
  0
LINE
  5
1BD
330
1AC
100
AcDbEntity
  8
Specialized_Fills
  6
Continuous
100
AcDbLine
 10
7224.28429151751
 20
3977.265638766875
 30
0.0
 11
7223.403258099705
 21
3982.042063069292
 31
0.0
  0
LINE
  5
1BE
330
1AC
100
AcDbEntity
  8
Specialized_Fills
  6
Continuous
100
AcDbLine
 10
7167.958100195074
 20
3845.650995174239
 30
0.0
 11
7167.07706677727
 21
3850.427419476655
 31
0.0
  0
LINE
  5
1BF
330
1AC
100
AcDbEntity
  8
Specialized_Fills
  6
Continuous
100
AcDbLine
 10
7167.958100195074
 20
3972.483553483968
 30
0.0
 11
7167.07706677727
 21
3977.259977786385
 31
0.0
  0
LINE
  5
1C0
330
1AC
100
AcDbEntity
  8
Specialized_Fills
  6
Continuous
100
AcDbLine
 10
7157.385699181422
 20
3902.968086803233
 30
0.0
 11
7156.504665763619
 21
3907.74451110565
 31
0.0
  0
LINE
  5
1C1
330
1AC
100
AcDbEntity
  8
Specialized_Fills
  6
Continuous
100
AcDbLine
 10
7157.385699181422
 20
4029.800645112962
 30
0.0
 11
7156.504665763619
 21
4034.577069415379
 31
0.0
  0
LINE
  5
1C2
330
1AC
100
AcDbEntity
  8
Specialized_Fills
  6
Continuous
100
AcDbLine
 10
7212.040850694862
 20
4025.018559830056
 30
0.0
 11
7211.159817277058
 21
4029.794984132472
 31
0.0
  0
LINE
  5
1C3
330
1AC
100
AcDbEntity
  8
Specialized_Fills
  6
Continuous
100
AcDbLine
 10
7219.72969151751
 20
3992.904113766876
 30
0.0
 11
7225.664794869368
 21
3999.089766881363
 31
0.0
  0
LINE
  5
1C4
330
1AC
100
AcDbEntity
  8
Specialized_Fills
  6
Continuous
100
AcDbLine
 10
7190.072060949273
 20
3980.291415387057
 30
0.0
 11
7196.007164301133
 21
3986.477068501545
 31
0.0
  0
LINE
  5
1C5
330
1AC
100
AcDbEntity
  8
Specialized_Fills
  6
Continuous
100
AcDbLine
 10
7226.506661517508
 20
3991.853063766875
 30
0.0
 11
7225.664790317098
 21
3999.089759361684
 31
0.0
  0
LINE
  5
1C6
330
1AC
100
AcDbEntity
  8
Specialized_Fills
  6
Continuous
100
AcDbLine
 10
7196.849043426428
 20
3979.240383396189
 30
0.0
 11
7196.007172226018
 21
3986.477078990997
 31
0.0
  0
LINE
  5
1C7
330
1AC
100
AcDbEntity
  8
Specialized_Fills
  6
Continuous
100
AcDbLine
 10
7219.72969151751
 20
3992.904113766876
 30
0.0
 11
7226.50666850777
 21
3991.853044371693
 31
0.0
  0
LINE
  5
1C8
330
1AC
100
AcDbEntity
  8
Specialized_Fills
  6
Continuous
100
AcDbLine
 10
7190.072072564753
 20
3980.291281024685
 30
0.0
 11
7196.849049555012
 21
3979.240211629502
 31
0.0
  0
LINE
  5
1C9
330
1AC
100
AcDbEntity
  8
Specialized_Fills
  6
Continuous
100
AcDbLine
 10
7134.908830380197
 20
3917.518084991991
 30
0.0
 11
7140.24424251763
 21
3919.566157823643
 31
0.0
  0
LINE
  5
1CA
330
1AC
100
AcDbEntity
  8
Specialized_Fills
  6
Continuous
100
AcDbLine
 10
7134.908830380197
 20
4044.350643301721
 30
0.0
 11
7140.24424251763
 21
4046.398716133372
 31
0.0
  0
LINE
  5
1CB
330
1AC
100
AcDbEntity
  8
Specialized_Fills
  6
Continuous
100
AcDbLine
 10
7245.890173216072
 20
4044.350643301721
 30
0.0
 11
7251.225585353505
 21
4046.398716133372
 31
0.0
  0
LINE
  5
1CC
330
1AC
100
AcDbEntity
  8
Specialized_Fills
  6
Continuous
100
AcDbLine
 10
7180.393294330814
 20
3886.838429436963
 30
0.0
 11
7185.728706468245
 21
3888.886502268614
 31
0.0
  0
LINE
  5
1CD
330
1AC
100
AcDbEntity
  8
Specialized_Fills
  6
Continuous
100
AcDbLine
 10
7180.393294330814
 20
4013.670987746691
 30
0.0
 11
7185.728706468245
 21
4015.719060578343
 31
0.0
  0
LINE
  5
1CE
330
1AC
100
AcDbEntity
  8
Specialized_Fills
  6
Continuous
100
AcDbLine
 10
7213.787284331819
 20
3935.748488001248
 30
0.0
 11
7214.144621956378
 21
3935.885657063682
 31
0.0
  0
LINE
  5
1CF
330
1AC
100
AcDbEntity
  8
Specialized_Fills
  6
Continuous
100
AcDbLine
 10
7213.787284331819
 20
4062.581046310977
 30
0.0
 11
7214.144621956378
 21
4062.71821537341
 31
0.0
  0
LINE
  5
1D0
330
1AC
100
AcDbEntity
  8
Specialized_Fills
  6
Continuous
100
AcDbLine
 10
7161.85281263225
 20
3958.414458211847
 30
0.0
 11
7167.188224769681
 21
3960.462531043499
 31
0.0
  0
LINE
  5
1D1
330
1AC
100
AcDbEntity
  8
Specialized_Fills
  6
Continuous
100
AcDbLine
 10
7161.85281263225
 20
4085.247016521576
 30
0.0
 11
7167.188224769681
 21
4087.295089353228
 31
0.0
  0
LINE
  5
1D2
330
1AC
100
AcDbEntity
  8
Specialized_Fills
  6
Continuous
100
AcDbLine
 10
7134.908957185928
 20
3917.517945293841
 30
0.0
 11
7138.699316967652
 21
3914.961315339173
 31
0.0
  0
LINE
  5
1D3
330
1AC
100
AcDbEntity
  8
Specialized_Fills
  6
Continuous
100
AcDbLine
 10
7134.908957185928
 20
4044.35050360357
 30
0.0
 11
7138.699316967652
 21
4041.793873648902
 31
0.0
  0
LINE
  5
1D4
330
1AC
100
AcDbEntity
  8
Specialized_Fills
  6
Continuous
100
AcDbLine
 10
7245.890300021803
 20
4044.35050360357
 30
0.0
 11
7249.680659803527
 21
4041.793873648902
 31
0.0
  0
LINE
  5
1D5
330
1AC
100
AcDbEntity
  8
Specialized_Fills
  6
Continuous
100
AcDbLine
 10
7180.393274566589
 20
3886.838385837823
 30
0.0
 11
7184.183634348311
 21
3884.281755883154
 31
0.0
  0
LINE
  5
1D6
330
1AC
100
AcDbEntity
  8
Specialized_Fills
  6
Continuous
100
AcDbLine
 10
7180.393274566589
 20
4013.670944147552
 30
0.0
 11
7184.183634348311
 21
4011.114314192884
 31
0.0
  0
LINE
  5
1D7
330
1AC
100
AcDbEntity
  8
Specialized_Fills
  6
Continuous
100
AcDbLine
 10
7161.852666062294
 20
3958.414554310856
 30
0.0
 11
7165.643025844016
 21
3955.857924356188
 31
0.0
  0
LINE
  5
1D8
330
1AC
100
AcDbEntity
  8
Specialized_Fills
  6
Continuous
100
AcDbLine
 10
7161.852666062294
 20
4085.247112620586
 30
0.0
 11
7165.643025844016
 21
4082.690482665918
 31
0.0
  0
LINE
  5
1D9
330
1AC
100
AcDbEntity
  8
Specialized_Fills
  6
Continuous
100
AcDbLine
 10
7213.787284331819
 20
3934.821383555544
 30
0.0
 11
7214.144435246971
 21
3935.885793800036
 31
0.0
  0
LINE
  5
1DA
330
1AC
100
AcDbEntity
  8
Specialized_Fills
  6
Continuous
100
AcDbLine
 10
7213.787284331819
 20
4061.653941865273
 30
0.0
 11
7214.144435246971
 21
4062.718352109765
 31
0.0
  0
LINE
  5
1DB
330
1AC
100
AcDbEntity
  8
Specialized_Fills
  6
Continuous
100
AcDbLine
 10
7138.699360067675
 20
3914.961314511881
 30
0.0
 11
7140.244415183179
 21
3919.566013599775
 31
0.0
  0
LINE
  5
1DC
330
1AC
100
AcDbEntity
  8
Specialized_Fills
  6
Continuous
100
AcDbLine
 10
7138.699360067675
 20
4041.793872821609
 30
0.0
 11
7140.244415183179
 21
4046.398571909504
 31
0.0
  0
LINE
  5
1DD
330
1AC
100
AcDbEntity
  8
Specialized_Fills
  6
Continuous
100
AcDbLine
 10
7249.68070290355
 20
4041.793872821609
 30
0.0
 11
7251.225758019052
 21
4046.398571909504
 31
0.0
  0
LINE
  5
1DE
330
1AC
100
AcDbEntity
  8
Specialized_Fills
  6
Continuous
100
AcDbLine
 10
7165.642984526631
 20
3955.857952026958
 30
0.0
 11
7167.188039642136
 21
3960.462651114852
 31
0.0
  0
LINE
  5
1DF
330
1AC
100
AcDbEntity
  8
Specialized_Fills
  6
Continuous
100
AcDbLine
 10
7165.642984526631
 20
4082.690510336688
 30
0.0
 11
7167.188039642136
 21
4087.295209424582
 31
0.0
  0
LINE
  5
1E0
330
1AC
100
AcDbEntity
  8
Specialized_Fills
  6
Continuous
100
AcDbLine
 10
7184.183645912672
 20
3884.281782771963
 30
0.0
 11
7185.728701028176
 21
3888.886481859857
 31
0.0
  0
LINE
  5
1E1
330
1AC
100
AcDbEntity
  8
Specialized_Fills
  6
Continuous
100
AcDbLine
 10
7184.183645912672
 20
4011.114341081692
 30
0.0
 11
7185.728701028176
 21
4015.719040169588
 31
0.0
  0
POINT
  5
1E2
330
1AC
100
AcDbEntity
  8
Specialized_Fills
  6
Continuous
100
AcDbPoint
 10
7222.509434443042
 20
3926.931090442984
 30
0.0
  0
POINT
  5
1E3
330
1AC
100
AcDbEntity
  8
Specialized_Fills
  6
Continuous
100
AcDbPoint
 10
7222.509434443042
 20
4053.763648752712
 30
0.0
  0
POINT
  5
1E4
330
1AC
100
AcDbEntity
  8
Specialized_Fills
  6
Continuous
100
AcDbPoint
 10
7221.582853467864
 20
4028.397137090767
 30
0.0
  0
POINT
  5
1E5
330
1AC
100
AcDbEntity
  8
Specialized_Fills
  6
Continuous
100
AcDbPoint
 10
7150.017208625676
 20
3931.809307601621
 30
0.0
  0
POINT
  5
1E6
330
1AC
100
AcDbEntity
  8
Specialized_Fills
  6
Continuous
100
AcDbPoint
 10
7150.017208625676
 20
4058.64186591135
 30
0.0
  0
POINT
  5
1E7
330
1AC
100
AcDbEntity
  8
Specialized_Fills
  6
Continuous
100
AcDbPoint
 10
7220.656272492687
 20
4003.030625428822
 30
0.0
  0
POINT
  5
1E8
330
1AC
100
AcDbEntity
  8
Specialized_Fills
  6
Continuous
100
AcDbPoint
 10
7149.090627650498
 20
3906.442795939675
 30
0.0
  0
POINT
  5
1E9
330
1AC
100
AcDbEntity
  8
Specialized_Fills
  6
Continuous
100
AcDbPoint
 10
7149.090627650498
 20
4033.275354249404
 30
0.0
  0
POINT
  5
1EA
330
1AC
100
AcDbEntity
  8
Specialized_Fills
  6
Continuous
100
AcDbPoint
 10
7219.72969151751
 20
3977.664113766876
 30
0.0
  0
POINT
  5
1EB
330
1AC
100
AcDbEntity
  8
Specialized_Fills
  6
Continuous
100
AcDbPoint
 10
7148.16404667532
 20
3881.076284277729
 30
0.0
  0
POINT
  5
1EC
330
1AC
100
AcDbEntity
  8
Specialized_Fills
  6
Continuous
100
AcDbPoint
 10
7148.16404667532
 20
4007.908842587458
 30
0.0
  0
POINT
  5
1ED
330
1AC
100
AcDbEntity
  8
Specialized_Fills
  6
Continuous
100
AcDbPoint
 10
7188.66790811055
 20
3912.15599027434
 30
0.0
  0
POINT
  5
1EE
330
1AC
100
AcDbEntity
  8
Specialized_Fills
  6
Continuous
100
AcDbPoint
 10
7188.66790811055
 20
4038.988548584069
 30
0.0
  0
POINT
  5
1EF
330
1AC
100
AcDbEntity
  8
Specialized_Fills
  6
Continuous
100
AcDbPoint
 10
7218.803110542332
 20
3952.29760210493
 30
0.0
  0
POINT
  5
1F0
330
1AC
100
AcDbEntity
  8
Specialized_Fills
  6
Continuous
100
AcDbPoint
 10
7218.803110542332
 20
4079.130160414659
 30
0.0
  0
POINT
  5
1F1
330
1AC
100
AcDbEntity
  8
Specialized_Fills
  6
Continuous
100
AcDbPoint
 10
7147.237465700142
 20
3855.709772615783
 30
0.0
  0
POINT
  5
1F2
330
1AC
100
AcDbEntity
  8
Specialized_Fills
  6
Continuous
100
AcDbPoint
 10
7147.237465700142
 20
3982.542330925513
 30
0.0
  0
POINT
  5
1F3
330
1AC
100
AcDbEntity
  8
Specialized_Fills
  6
Continuous
100
AcDbPoint
 10
7187.74132713537
 20
3886.789478612394
 30
0.0
  0
POINT
  5
1F4
330
1AC
100
AcDbEntity
  8
Specialized_Fills
  6
Continuous
100
AcDbPoint
 10
7187.74132713537
 20
4013.622036922123
 30
0.0
  0
POINT
  5
1F5
330
1AC
100
AcDbEntity
  8
Specialized_Fills
  6
Continuous
100
AcDbPoint
 10
7146.310884724965
 20
3830.343260953837
 30
0.0
  0
POINT
  5
1F6
330
1AC
100
AcDbEntity
  8
Specialized_Fills
  6
Continuous
100
AcDbPoint
 10
7146.310884724965
 20
3957.175819263567
 30
0.0
  0
POINT
  5
1F7
330
1AC
100
AcDbEntity
  8
Specialized_Fills
  6
Continuous
100
AcDbPoint
 10
7146.310884724965
 20
4084.008377573296
 30
0.0
  0
POINT
  5
1F8
330
1AC
100
AcDbEntity
  8
Specialized_Fills
  6
Continuous
100
AcDbPoint
 10
7186.814746160194
 20
3861.422966950448
 30
0.0
  0
POINT
  5
1F9
330
1AC
100
AcDbEntity
  8
Specialized_Fills
  6
Continuous
100
AcDbPoint
 10
7186.814746160194
 20
3988.255525260178
 30
0.0
  0
POINT
  5
1FA
330
1AC
100
AcDbEntity
  8
Specialized_Fills
  6
Continuous
100
AcDbPoint
 10
7145.384303749789
 20
3931.809307601621
 30
0.0
  0
POINT
  5
1FB
330
1AC
100
AcDbEntity
  8
Specialized_Fills
  6
Continuous
100
AcDbPoint
 10
7145.384303749789
 20
4058.64186591135
 30
0.0
  0
POINT
  5
1FC
330
1AC
100
AcDbEntity
  8
Specialized_Fills
  6
Continuous
100
AcDbPoint
 10
7185.888165185017
 20
3962.889013598232
 30
0.0
  0
POINT
  5
1FD
330
1AC
100
AcDbEntity
  8
Specialized_Fills
  6
Continuous
100
AcDbPoint
 10
7185.888165185017
 20
4089.721571907961
 30
0.0
  0
POINT
  5
1FE
330
1AC
100
AcDbEntity
  8
Specialized_Fills
  6
Continuous
100
AcDbPoint
 10
7184.961584209839
 20
3937.522501936286
 30
0.0
  0
POINT
  5
1FF
330
1AC
100
AcDbEntity
  8
Specialized_Fills
  6
Continuous
100
AcDbPoint
 10
7184.961584209839
 20
4064.355060246015
 30
0.0
  0
POINT
  5
200
330
1AC
100
AcDbEntity
  8
Specialized_Fills
  6
Continuous
100
AcDbPoint
 10
7129.764251332556
 20
3908.428511146608
 30
0.0
  0
POINT
  5
201
330
1AC
100
AcDbEntity
  8
Specialized_Fills
  6
Continuous
100
AcDbPoint
 10
7129.764251332556
 20
4035.261069456336
 30
0.0
  0
POINT
  5
202
330
1AC
100
AcDbEntity
  8
Specialized_Fills
  6
Continuous
100
AcDbPoint
 10
7240.745594168429
 20
4035.261069456336
 30
0.0
  0
POINT
  5
203
330
1AC
100
AcDbEntity
  8
Specialized_Fills
  6
Continuous
100
AcDbPoint
 10
7148.840146187819
 20
3910.939900348018
 30
0.0
  0
POINT
  5
204
330
1AC
100
AcDbEntity
  8
Specialized_Fills
  6
Continuous
100
AcDbPoint
 10
7148.840146187819
 20
4037.772458657747
 30
0.0
  0
POINT
  5
205
330
1AC
100
AcDbEntity
  8
Specialized_Fills
  6
Continuous
100
AcDbPoint
 10
7177.699519790633
 20
3914.739308961635
 30
0.0
  0
POINT
  5
206
330
1AC
100
AcDbEntity
  8
Specialized_Fills
  6
Continuous
100
AcDbPoint
 10
7177.699519790633
 20
4041.571867271365
 30
0.0
  0
POINT
  5
207
330
1AC
100
AcDbEntity
  8
Specialized_Fills
  6
Continuous
100
AcDbPoint
 10
7220.699695415338
 20
4005.206897010901
 30
0.0
  0
POINT
  5
208
330
1AC
100
AcDbEntity
  8
Specialized_Fills
  6
Continuous
100
AcDbPoint
 10
7128.794247434727
 20
3880.885727902582
 30
0.0
  0
POINT
  5
209
330
1AC
100
AcDbEntity
  8
Specialized_Fills
  6
Continuous
100
AcDbPoint
 10
7128.794247434727
 20
4007.718286212312
 30
0.0
  0
POINT
  5
20A
330
1AC
100
AcDbEntity
  8
Specialized_Fills
  6
Continuous
100
AcDbPoint
 10
7239.775590270601
 20
4007.718286212312
 30
0.0
  0
POINT
  5
20B
330
1AC
100
AcDbEntity
  8
Specialized_Fills
  6
Continuous
100
AcDbPoint
 10
7157.653621037541
 20
3884.6851365162
 30
0.0
  0
POINT
  5
20C
330
1AC
100
AcDbEntity
  8
Specialized_Fills
  6
Continuous
100
AcDbPoint
 10
7157.653621037541
 20
4011.517694825929
 30
0.0
  0
POINT
  5
20D
330
1AC
100
AcDbEntity
  8
Specialized_Fills
  6
Continuous
100
AcDbPoint
 10
7205.777759741708
 20
4017.853357880575
 30
0.0
  0
POINT
  5
20E
330
1AC
100
AcDbEntity
  8
Specialized_Fills
  6
Continuous
100
AcDbPoint
 10
7219.72969151751
 20
3977.664113766876
 30
0.0
  0
POINT
  5
20F
330
1AC
100
AcDbEntity
  8
Specialized_Fills
  6
Continuous
100
AcDbPoint
 10
7137.607722284449
 20
3854.630964070764
 30
0.0
  0
POINT
  5
210
330
1AC
100
AcDbEntity
  8
Specialized_Fills
  6
Continuous
100
AcDbPoint
 10
7137.607722284449
 20
3981.463522380494
 30
0.0
  0
POINT
  5
211
330
1AC
100
AcDbEntity
  8
Specialized_Fills
  6
Continuous
100
AcDbPoint
 10
7185.731860988616
 20
3860.96662712541
 30
0.0
  0
POINT
  5
212
330
1AC
100
AcDbEntity
  8
Specialized_Fills
  6
Continuous
100
AcDbPoint
 10
7185.731860988616
 20
3987.79918543514
 30
0.0
  0
POINT
  5
213
330
1AC
100
AcDbEntity
  8
Specialized_Fills
  6
Continuous
100
AcDbPoint
 10
7204.80775584388
 20
3990.31057463655
 30
0.0
  0
POINT
  5
214
330
1AC
100
AcDbEntity
  8
Specialized_Fills
  6
Continuous
100
AcDbPoint
 10
7228.543166367231
 20
3951.409349935058
 30
0.0
  0
POINT
  5
215
330
1AC
100
AcDbEntity
  8
Specialized_Fills
  6
Continuous
100
AcDbPoint
 10
7228.543166367231
 20
4078.241908244787
 30
0.0
  0
POINT
  5
216
330
1AC
100
AcDbEntity
  8
Specialized_Fills
  6
Continuous
100
AcDbPoint
 10
7165.685962235525
 20
3957.745012989704
 30
0.0
  0
POINT
  5
217
330
1AC
100
AcDbEntity
  8
Specialized_Fills
  6
Continuous
100
AcDbPoint
 10
7165.685962235525
 20
4084.577571299433
 30
0.0
  0
POINT
  5
218
330
1AC
100
AcDbEntity
  8
Specialized_Fills
  6
Continuous
100
AcDbPoint
 10
7184.761857090788
 20
3960.256402191113
 30
0.0
  0
POINT
  5
219
330
1AC
100
AcDbEntity
  8
Specialized_Fills
  6
Continuous
100
AcDbPoint
 10
7184.761857090788
 20
4087.088960500843
 30
0.0
  0
POINT
  5
21A
330
1AC
100
AcDbEntity
  8
Specialized_Fills
  6
Continuous
100
AcDbPoint
 10
7213.621230693601
 20
3964.055810804732
 30
0.0
  0
POINT
  5
21B
330
1AC
100
AcDbEntity
  8
Specialized_Fills
  6
Continuous
100
AcDbPoint
 10
7213.621230693601
 20
4090.888369114462
 30
0.0
  0
POINT
  5
21C
330
1AC
100
AcDbEntity
  8
Specialized_Fills
  6
Continuous
100
AcDbPoint
 10
7193.575331940508
 20
3934.001638359296
 30
0.0
  0
POINT
  5
21D
330
1AC
100
AcDbEntity
  8
Specialized_Fills
  6
Continuous
100
AcDbPoint
 10
7193.575331940508
 20
4060.834196669026
 30
0.0
  0
POINT
  5
21E
330
1AC
100
AcDbEntity
  8
Specialized_Fills
  6
Continuous
100
AcDbPoint
 10
7203.108645809009
 20
3925.065521542531
 30
0.0
  0
POINT
  5
21F
330
1AC
100
AcDbEntity
  8
Specialized_Fills
  6
Continuous
100
AcDbPoint
 10
7203.108645809009
 20
4051.898079852261
 30
0.0
  0
POINT
  5
220
330
1AC
100
AcDbEntity
  8
Specialized_Fills
  6
Continuous
100
AcDbPoint
 10
7162.431467258947
 20
3926.784144740333
 30
0.0
  0
POINT
  5
221
330
1AC
100
AcDbEntity
  8
Specialized_Fills
  6
Continuous
100
AcDbPoint
 10
7162.431467258947
 20
4053.616703050063
 30
0.0
  0
POINT
  5
222
330
1AC
100
AcDbEntity
  8
Specialized_Fills
  6
Continuous
100
AcDbPoint
 10
7178.498074301682
 20
3916.548587201326
 30
0.0
  0
POINT
  5
223
330
1AC
100
AcDbEntity
  8
Specialized_Fills
  6
Continuous
100
AcDbPoint
 10
7178.498074301682
 20
4043.381145511055
 30
0.0
  0
POINT
  5
224
330
1AC
100
AcDbEntity
  8
Specialized_Fills
  6
Continuous
100
AcDbPoint
 10
7232.73563154476
 20
4055.335326247865
 30
0.0
  0
POINT
  5
225
330
1AC
100
AcDbEntity
  8
Specialized_Fills
  6
Continuous
100
AcDbPoint
 10
7137.82089575162
 20
3918.267210399129
 30
0.0
  0
POINT
  5
226
330
1AC
100
AcDbEntity
  8
Specialized_Fills
  6
Continuous
100
AcDbPoint
 10
7137.82089575162
 20
4045.099768708857
 30
0.0
  0
POINT
  5
227
330
1AC
100
AcDbEntity
  8
Specialized_Fills
  6
Continuous
100
AcDbPoint
 10
7248.802238587494
 20
4045.099768708857
 30
0.0
  0
POINT
  5
228
330
1AC
100
AcDbEntity
  8
Specialized_Fills
  6
Continuous
100
AcDbPoint
 10
7187.948709724956
 20
3886.332270877427
 30
0.0
  0
POINT
  5
229
330
1AC
100
AcDbEntity
  8
Specialized_Fills
  6
Continuous
100
AcDbPoint
 10
7187.948709724956
 20
4013.164829187156
 30
0.0
  0
POINT
  5
22A
330
1AC
100
AcDbEntity
  8
Specialized_Fills
  6
Continuous
100
AcDbPoint
 10
7147.271531174894
 20
3888.050894075229
 30
0.0
  0
POINT
  5
22B
330
1AC
100
AcDbEntity
  8
Specialized_Fills
  6
Continuous
100
AcDbPoint
 10
7147.271531174894
 20
4014.883452384958
 30
0.0
  0
POINT
  5
22C
330
1AC
100
AcDbEntity
  8
Specialized_Fills
  6
Continuous
100
AcDbPoint
 10
7213.787284331819
 20
3972.508244173469
 30
0.0
  0
POINT
  5
22D
330
1AC
100
AcDbEntity
  8
Specialized_Fills
  6
Continuous
100
AcDbPoint
 10
7217.575695460706
 20
4016.60207558276
 30
0.0
  0
POINT
  5
22E
330
1AC
100
AcDbEntity
  8
Specialized_Fills
  6
Continuous
100
AcDbPoint
 10
7173.110105781758
 20
3847.394309061542
 30
0.0
  0
POINT
  5
22F
330
1AC
100
AcDbEntity
  8
Specialized_Fills
  6
Continuous
100
AcDbPoint
 10
7173.110105781758
 20
3974.226867371271
 30
0.0
  0
POINT
  5
230
330
1AC
100
AcDbEntity
  8
Specialized_Fills
  6
Continuous
100
AcDbPoint
 10
7189.176712824494
 20
3963.991309832265
 30
0.0
  0
POINT
  5
231
330
1AC
100
AcDbEntity
  8
Specialized_Fills
  6
Continuous
100
AcDbPoint
 10
7189.176712824494
 20
4090.823868141995
 30
0.0
  0
POINT
  5
232
330
1AC
100
AcDbEntity
  8
Specialized_Fills
  6
Continuous
100
AcDbPoint
 10
7132.432927231696
 20
3849.112932259344
 30
0.0
  0
POINT
  5
233
330
1AC
100
AcDbEntity
  8
Specialized_Fills
  6
Continuous
100
AcDbPoint
 10
7132.432927231696
 20
3975.945490569073
 30
0.0
  0
POINT
  5
234
330
1AC
100
AcDbEntity
  8
Specialized_Fills
  6
Continuous
100
AcDbPoint
 10
7243.414270067571
 20
3975.945490569073
 30
0.0
  0
POINT
  5
235
330
1AC
100
AcDbEntity
  8
Specialized_Fills
  6
Continuous
100
AcDbPoint
 10
7148.499534274432
 20
3838.877374720336
 30
0.0
  0
POINT
  5
236
330
1AC
100
AcDbEntity
  8
Specialized_Fills
  6
Continuous
100
AcDbPoint
 10
7148.499534274432
 20
3965.709933030067
 30
0.0
  0
POINT
  5
237
330
1AC
100
AcDbEntity
  8
Specialized_Fills
  6
Continuous
100
AcDbPoint
 10
7148.499534274432
 20
4092.542491339797
 30
0.0
  0
POINT
  5
238
330
1AC
100
AcDbEntity
  8
Specialized_Fills
  6
Continuous
100
AcDbPoint
 10
7198.627348247767
 20
3933.774993508365
 30
0.0
  0
POINT
  5
239
330
1AC
100
AcDbEntity
  8
Specialized_Fills
  6
Continuous
100
AcDbPoint
 10
7198.627348247767
 20
4060.607551818094
 30
0.0
  0
POINT
  5
23A
330
1AC
100
AcDbEntity
  8
Specialized_Fills
  6
Continuous
100
AcDbPoint
 10
7218.803698560245
 20
3967.428556227869
 30
0.0
  0
POINT
  5
23B
330
1AC
100
AcDbEntity
  8
Specialized_Fills
  6
Continuous
100
AcDbPoint
 10
7218.803698560245
 20
4094.261114537598
 30
0.0
  0
POINT
  5
23C
330
1AC
100
AcDbEntity
  8
Specialized_Fills
  6
Continuous
100
AcDbPoint
 10
7157.950169697705
 20
3935.493616706168
 30
0.0
  0
POINT
  5
23D
330
1AC
100
AcDbEntity
  8
Specialized_Fills
  6
Continuous
100
AcDbPoint
 10
7157.950169697705
 20
4062.326175015896
 30
0.0
  0
POINT
  5
23E
330
1AC
100
AcDbEntity
  8
Specialized_Fills
  6
Continuous
100
AcDbPoint
 10
7228.254333983518
 20
3937.212239903969
 30
0.0
  0
POINT
  5
23F
330
1AC
100
AcDbEntity
  8
Specialized_Fills
  6
Continuous
100
AcDbPoint
 10
7228.254333983518
 20
4064.044798213699
 30
0.0
  0
POINT
  5
240
330
1AC
100
AcDbEntity
  8
Specialized_Fills
  6
Continuous
100
AcDbPoint
 10
7176.159320126327
 20
3911.553178145076
 30
0.0
  0
POINT
  5
241
330
1AC
100
AcDbEntity
  8
Specialized_Fills
  6
Continuous
100
AcDbPoint
 10
7176.159320126327
 20
4038.385736454805
 30
0.0
  0
POINT
  5
242
330
1AC
100
AcDbEntity
  8
Specialized_Fills
  6
Continuous
100
AcDbPoint
 10
7131.720565710522
 20
3903.925230835076
 30
0.0
  0
POINT
  5
243
330
1AC
100
AcDbEntity
  8
Specialized_Fills
  6
Continuous
100
AcDbPoint
 10
7131.720565710522
 20
4030.757789144806
 30
0.0
  0
POINT
  5
244
330
1AC
100
AcDbEntity
  8
Specialized_Fills
  6
Continuous
100
AcDbPoint
 10
7242.701908546395
 20
4030.757789144806
 30
0.0
  0
POINT
  5
245
330
1AC
100
AcDbEntity
  8
Specialized_Fills
  6
Continuous
100
AcDbPoint
 10
7173.013257513247
 20
3866.087450077145
 30
0.0
  0
POINT
  5
246
330
1AC
100
AcDbEntity
  8
Specialized_Fills
  6
Continuous
100
AcDbPoint
 10
7173.013257513247
 20
3992.920008386876
 30
0.0
  0
POINT
  5
247
330
1AC
100
AcDbEntity
  8
Specialized_Fills
  6
Continuous
100
AcDbPoint
 10
7191.271930759348
 20
3976.189016895273
 30
0.0
  0
POINT
  5
248
330
1AC
100
AcDbEntity
  8
Specialized_Fills
  6
Continuous
100
AcDbPoint
 10
7128.574503097441
 20
3858.459502767146
 30
0.0
  0
POINT
  5
249
330
1AC
100
AcDbEntity
  8
Specialized_Fills
  6
Continuous
100
AcDbPoint
 10
7128.574503097441
 20
3985.292061076876
 30
0.0
  0
POINT
  5
24A
330
1AC
100
AcDbEntity
  8
Specialized_Fills
  6
Continuous
100
AcDbPoint
 10
7239.555845933316
 20
3985.292061076876
 30
0.0
  0
POINT
  5
24B
330
1AC
100
AcDbEntity
  8
Specialized_Fills
  6
Continuous
100
AcDbPoint
 10
7146.833176343545
 20
3841.728511275544
 30
0.0
  0
POINT
  5
24C
330
1AC
100
AcDbEntity
  8
Specialized_Fills
  6
Continuous
100
AcDbPoint
 10
7146.833176343545
 20
3968.561069585274
 30
0.0
  0
POINT
  5
24D
330
1AC
100
AcDbEntity
  8
Specialized_Fills
  6
Continuous
100
AcDbPoint
 10
7146.833176343545
 20
4095.393627895003
 30
0.0
  0
POINT
  5
24E
330
1AC
100
AcDbEntity
  8
Specialized_Fills
  6
Continuous
100
AcDbPoint
 10
7175.934692471177
 20
3941.894443146351
 30
0.0
  0
POINT
  5
24F
330
1AC
100
AcDbEntity
  8
Specialized_Fills
  6
Continuous
100
AcDbPoint
 10
7175.934692471177
 20
4068.727001456081
 30
0.0
  0
POINT
  5
250
330
1AC
100
AcDbEntity
  8
Specialized_Fills
  6
Continuous
100
AcDbPoint
 10
7131.495938055372
 20
3934.266495836352
 30
0.0
  0
POINT
  5
251
330
1AC
100
AcDbEntity
  8
Specialized_Fills
  6
Continuous
100
AcDbPoint
 10
7131.495938055372
 20
4061.09905414608
 30
0.0
  0
POINT
  5
252
330
1AC
100
AcDbEntity
  8
Specialized_Fills
  6
Continuous
100
AcDbPoint
 10
7242.477280891247
 20
4061.09905414608
 30
0.0
  0
LINE
  5
253
330
1AC
100
AcDbEntity
  8
Specialized_Fills
  6
Continuous
100
AcDbLine
 10
7128.221833817093
 20
3833.907802466863
 30
0.0
 11
7133.900858477959
 21
3833.267565088
 31
0.0
  0
LINE
  5
254
330
1AC
100
AcDbEntity
  8
Specialized_Fills
  6
Continuous
100
AcDbLine
 10
7128.221833817093
 20
3960.740360776592
 30
0.0
 11
7133.900858477959
 21
3960.100123397729
 31
0.0
  0
LINE
  5
255
330
1AC
100
AcDbEntity
  8
Specialized_Fills
  6
Continuous
100
AcDbLine
 10
7239.203176652968
 20
3960.740360776592
 30
0.0
 11
7244.882201313832
 21
3960.100123397729
 31
0.0
  0
LINE
  5
256
330
1AC
100
AcDbEntity
  8
Specialized_Fills
  6
Continuous
100
AcDbLine
 10
7128.221833817093
 20
4087.572919086322
 30
0.0
 11
7133.900858477959
 21
4086.932681707459
 31
0.0
  0
LINE
  5
257
330
1AC
100
AcDbEntity
  8
Specialized_Fills
  6
Continuous
100
AcDbLine
 10
7239.203176652968
 20
4087.572919086322
 30
0.0
 11
7244.882201313832
 21
4086.932681707459
 31
0.0
  0
LINE
  5
258
330
1AC
100
AcDbEntity
  8
Specialized_Fills
  6
Continuous
100
AcDbLine
 10
7128.221833817093
 20
3833.907802466863
 30
0.0
 11
7130.408156192458
 21
3829.892434679101
 31
0.0
  0
LINE
  5
259
330
1AC
100
AcDbEntity
  8
Specialized_Fills
  6
Continuous
100
AcDbLine
 10
7128.221833817093
 20
3960.740360776592
 30
0.0
 11
7130.408156192458
 21
3956.724992988831
 31
0.0
  0
LINE
  5
25A
330
1AC
100
AcDbEntity
  8
Specialized_Fills
  6
Continuous
100
AcDbLine
 10
7239.203176652968
 20
3960.740360776592
 30
0.0
 11
7241.389499028331
 21
3956.724992988831
 31
0.0
  0
LINE
  5
25B
330
1AC
100
AcDbEntity
  8
Specialized_Fills
  6
Continuous
100
AcDbLine
 10
7128.221833817093
 20
4087.572919086322
 30
0.0
 11
7130.408156192458
 21
4083.55755129856
 31
0.0
  0
LINE
  5
25C
330
1AC
100
AcDbEntity
  8
Specialized_Fills
  6
Continuous
100
AcDbLine
 10
7239.203176652968
 20
4087.572919086322
 30
0.0
 11
7241.389499028331
 21
4083.55755129856
 31
0.0
  0
LINE
  5
25D
330
1AC
100
AcDbEntity
  8
Specialized_Fills
  6
Continuous
100
AcDbLine
 10
7130.408155878082
 20
3829.892437062412
 30
0.0
 11
7133.900882471936
 21
3833.267538533567
 31
0.0
  0
LINE
  5
25E
330
1AC
100
AcDbEntity
  8
Specialized_Fills
  6
Continuous
100
AcDbLine
 10
7130.408155878082
 20
3956.724995372141
 30
0.0
 11
7133.900882471936
 21
3960.100096843297
 31
0.0
  0
LINE
  5
25F
330
1AC
100
AcDbEntity
  8
Specialized_Fills
  6
Continuous
100
AcDbLine
 10
7241.389498713957
 20
3956.724995372141
 30
0.0
 11
7244.882225307811
 21
3960.100096843297
 31
0.0
  0
LINE
  5
260
330
1AC
100
AcDbEntity
  8
Specialized_Fills
  6
Continuous
100
AcDbLine
 10
7130.408155878082
 20
4083.55755368187
 30
0.0
 11
7133.900882471936
 21
4086.932655153026
 31
0.0
  0
LINE
  5
261
330
1AC
100
AcDbEntity
  8
Specialized_Fills
  6
Continuous
100
AcDbLine
 10
7241.389498713957
 20
4083.55755368187
 30
0.0
 11
7244.882225307811
 21
4086.932655153026
 31
0.0
  0
LINE
  5
262
330
1AC
100
AcDbEntity
  8
Specialized_Fills
  6
Continuous
100
AcDbLine
 10
7149.856188798705
 20
3868.549851886225
 30
0.0
 11
7151.820175262455
 21
3873.916786036204
 31
0.0
  0
LINE
  5
263
330
1AC
100
AcDbEntity
  8
Specialized_Fills
  6
Continuous
100
AcDbLine
 10
7149.856188798705
 20
3995.382410195955
 30
0.0
 11
7151.820175262455
 21
4000.749344345933
 31
0.0
  0
LINE
  5
264
330
1AC
100
AcDbEntity
  8
Specialized_Fills
  6
Continuous
100
AcDbLine
 10
7149.85603989324
 20
3868.549761054196
 30
0.0
 11
7154.274305043189
 21
3869.725395803908
 31
0.0
  0
LINE
  5
265
330
1AC
100
AcDbEntity
  8
Specialized_Fills
  6
Continuous
100
AcDbLine
 10
7149.85603989324
 20
3995.382319363925
 30
0.0
 11
7154.274305043189
 21
3996.557954113637
 31
0.0
  0
LINE
  5
266
330
1AC
100
AcDbEntity
  8
Specialized_Fills
  6
Continuous
100
AcDbLine
 10
7154.274802879131
 20
3869.724889628569
 30
0.0
 11
7151.820558054996
 21
3873.916205811251
 31
0.0
  0
LINE
  5
267
330
1AC
100
AcDbEntity
  8
Specialized_Fills
  6
Continuous
100
AcDbLine
 10
7154.274802879131
 20
3996.557447938299
 30
0.0
 11
7151.820558054996
 21
4000.74876412098
 31
0.0
  0
LINE
  5
268
330
1AC
100
AcDbEntity
  8
Specialized_Fills
  6
Continuous
100
AcDbLine
 10
7188.408490121974
 20
3920.835257848119
 30
0.0
 11
7193.743902259405
 21
3922.88333067977
 31
0.0
  0
LINE
  5
269
330
1AC
100
AcDbEntity
  8
Specialized_Fills
  6
Continuous
100
AcDbLine
 10
7188.408490121974
 20
4047.667816157848
 30
0.0
 11
7193.743902259405
 21
4049.715888989499
 31
0.0
  0
LINE
  5
26A
330
1AC
100
AcDbEntity
  8
Specialized_Fills
  6
Continuous
100
AcDbLine
 10
7188.408470357749
 20
3920.835214248979
 30
0.0
 11
7192.198830139472
 21
3918.278584294311
 31
0.0
  0
LINE
  5
26B
330
1AC
100
AcDbEntity
  8
Specialized_Fills
  6
Continuous
100
AcDbLine
 10
7188.408470357749
 20
4047.66777255871
 30
0.0
 11
7192.198830139472
 21
4045.111142604041
 31
0.0
  0
LINE
  5
26C
330
1AC
100
AcDbEntity
  8
Specialized_Fills
  6
Continuous
100
AcDbLine
 10
7192.198841703834
 20
3918.27861118312
 30
0.0
 11
7193.743896819336
 21
3922.883310271014
 31
0.0
  0
LINE
  5
26D
330
1AC
100
AcDbEntity
  8
Specialized_Fills
  6
Continuous
100
AcDbLine
 10
7192.198841703834
 20
4045.111169492849
 30
0.0
 11
7193.743896819336
 21
4049.715868580744
 31
0.0
  0
LINE
  5
26E
330
1AC
100
AcDbEntity
  8
Specialized_Fills
  6
Continuous
100
AcDbLine
 10
7189.107854964703
 20
3948.587287064438
 30
0.0
 11
7194.443267102134
 21
3950.635359896089
 31
0.0
  0
LINE
  5
26F
330
1AC
100
AcDbEntity
  8
Specialized_Fills
  6
Continuous
100
AcDbLine
 10
7189.107854964703
 20
4075.419845374167
 30
0.0
 11
7194.443267102134
 21
4077.467918205818
 31
0.0
  0
LINE
  5
270
330
1AC
100
AcDbEntity
  8
Specialized_Fills
  6
Continuous
100
AcDbLine
 10
7189.107835200478
 20
3948.587243465297
 30
0.0
 11
7192.898194982202
 21
3946.030613510629
 31
0.0
  0
LINE
  5
271
330
1AC
100
AcDbEntity
  8
Specialized_Fills
  6
Continuous
100
AcDbLine
 10
7189.107835200478
 20
4075.419801775027
 30
0.0
 11
7192.898194982202
 21
4072.863171820358
 31
0.0
  0
LINE
  5
272
330
1AC
100
AcDbEntity
  8
Specialized_Fills
  6
Continuous
100
AcDbLine
 10
7192.898206546563
 20
3946.030640399438
 30
0.0
 11
7194.443261662065
 21
3950.635339487333
 31
0.0
  0
LINE
  5
273
330
1AC
100
AcDbEntity
  8
Specialized_Fills
  6
Continuous
100
AcDbLine
 10
7192.898206546563
 20
4072.863198709168
 30
0.0
 11
7194.443261662065
 21
4077.467897797062
 31
0.0
  0
LINE
  5
274
330
1AC
100
AcDbEntity
  8
Specialized_Fills
  6
Continuous
100
AcDbLine
 10
7232.829690718523
 20
4019.449839497942
 30
0.0
 11
7238.165102855955
 21
4021.497912329593
 31
0.0
  0
LINE
  5
275
330
1AC
100
AcDbEntity
  8
Specialized_Fills
  6
Continuous
100
AcDbLine
 10
7232.829670954299
 20
4019.449795898801
 30
0.0
 11
7236.62003073602
 21
4016.893165944133
 31
0.0
  0
LINE
  5
276
330
1AC
100
AcDbEntity
  8
Specialized_Fills
  6
Continuous
100
AcDbLine
 10
7236.620042300382
 20
4016.893192832942
 30
0.0
 11
7238.165097415886
 21
4021.497891920836
 31
0.0
  0
LINE
  5
277
330
1AC
100
AcDbEntity
  8
Specialized_Fills
  6
Continuous
100
AcDbLine
 10
7129.815937044845
 20
3862.862744152106
 30
0.0
 11
7135.151349182276
 21
3864.910816983758
 31
0.0
  0
LINE
  5
278
330
1AC
100
AcDbEntity
  8
Specialized_Fills
  6
Continuous
100
AcDbLine
 10
7129.815937044845
 20
3989.695302461836
 30
0.0
 11
7135.151349182276
 21
3991.743375293488
 31
0.0
  0
LINE
  5
279
330
1AC
100
AcDbEntity
  8
Specialized_Fills
  6
Continuous
100
AcDbLine
 10
7240.79727988072
 20
3989.695302461836
 30
0.0
 11
7246.13269201815
 21
3991.743375293488
 31
0.0
  0
LINE
  5
27A
330
1AC
100
AcDbEntity
  8
Specialized_Fills
  6
Continuous
100
AcDbLine
 10
7129.815937044845
 20
3862.862744152106
 30
0.0
 11
7133.606296826565
 21
3860.306114197438
 31
0.0
  0
LINE
  5
27B
330
1AC
100
AcDbEntity
  8
Specialized_Fills
  6
Continuous
100
AcDbLine
 10
7129.815937044845
 20
3989.695302461836
 30
0.0
 11
7133.606296826565
 21
3987.138672507168
 31
0.0
  0
LINE
  5
27C
330
1AC
100
AcDbEntity
  8
Specialized_Fills
  6
Continuous
100
AcDbLine
 10
7240.79727988072
 20
3989.695302461836
 30
0.0
 11
7244.58763966244
 21
3987.138672507168
 31
0.0
  0
LINE
  5
27D
330
1AC
100
AcDbEntity
  8
Specialized_Fills
  6
Continuous
100
AcDbLine
 10
7133.606287044845
 20
3860.306114152107
 30
0.0
 11
7135.151342160348
 21
3864.910813240001
 31
0.0
  0
LINE
  5
27E
330
1AC
100
AcDbEntity
  8
Specialized_Fills
  6
Continuous
100
AcDbLine
 10
7133.606287044845
 20
3987.138672461837
 30
0.0
 11
7135.151342160348
 21
3991.743371549731
 31
0.0
  0
LINE
  5
27F
330
1AC
100
AcDbEntity
  8
Specialized_Fills
  6
Continuous
100
AcDbLine
 10
7244.587629880718
 20
3987.138672461837
 30
0.0
 11
7246.132684996222
 21
3991.743371549731
 31
0.0
  0
ENDBLK
  5
1AE
330
1AC
100
AcDbEntity
  8
0
100
AcDbBlockEnd
  0
BLOCK
  5
285
330
284
100
AcDbEntity
  8
0
100
AcDbBlockBegin
  2
Fill_3
 70
     0
 10
0.0
 20
0.0
 30
0.0
  3
Fill_3
  1

  0
LINE
  5
52E
102
{ACAD_REACTORS
330
532
102
}
330
284
100
AcDbEntity
  8
Specialized_Fills
  6
Continuous
100
AcDbLine
 10
7055.782053850768
 20
4249.566293610452
 30
0.0
 11
7055.782053850767
 21
4032.636587564961
 31
0.0
  0
LINE
  5
52F
102
{ACAD_REACTORS
330
532
102
}
330
284
100
AcDbEntity
  8
Specialized_Fills
  6
Continuous
100
AcDbLine
 10
7055.782053850767
 20
4032.636587564961
 30
0.0
 11
7105.782053850766
 21
4032.636587564961
 31
0.0
  0
LINE
  5
530
102
{ACAD_REACTORS
330
532
102
}
330
284
100
AcDbEntity
  8
Specialized_Fills
  6
Continuous
100
AcDbLine
 10
7105.782053850766
 20
4032.636587564961
 30
0.0
 11
7105.782053850766
 21
4249.566293610452
 31
0.0
  0
LINE
  5
531
102
{ACAD_REACTORS
330
532
102
}
330
284
100
AcDbEntity
  8
Specialized_Fills
  6
Continuous
100
AcDbLine
 10
7105.782053850766
 20
4249.566293610452
 30
0.0
 11
7055.782053850768
 21
4249.566293610452
 31
0.0
  0
HATCH
  5
532
330
284
100
AcDbEntity
  8
0
 62
   251
420
  6250335
100
AcDbHatch
 10
0.0
 20
0.0
 30
0.0
210
0.0
220
0.0
230
1.0
  2
HPCRC1E0
 70
     0
 71
     1
 91
        1
 92
        7
 72
     0
 73
     1
 93
        4
 10
7105.782053850766
 20
4249.566293610452
 10
7055.782053850768
 20
4249.566293610452
 10
7055.782053850767
 20
4032.636587564961
 10
7105.782053850766
 20
4032.636587564961
 97
        4
330
531
330
52E
330
52F
330
530
 75
     1
 76
     2
 52
0.0
 41
0.12
 77
     0
 78
    78
 53
82.8749847
 43
0.0
 44
4.2
 45
-0.0000004961129005
 46
8.399999852931037
 79
     2
 49
0.9674709324
 49
-66.75549316799998
 53
75.96376039999999
 43
0.12
 44
5.16
 45
-0.000000348785556
 46
8.399999709154096
 79
     2
 49
0.4947726600000001
 49
-34.139315184
 53
63.43495179999999
 43
0.24
 44
5.639999999999999
 45
-0.0000000286036308
 46
8.400000041591663
 79
     2
 49
1.073312639999999
 49
-17.70965881199999
 53
45.0
 43
0.72
 44
6.599999999999999
 45
0.0000000000000009
 46
8.400000002875099
 79
     2
 49
1.527350688
 49
-10.352043456
 53
33.6900673
 43
1.799999999999999
 44
7.679999999999999
 45
0.0000001596020127
 46
8.399999824188462
 79
     2
 49
0.4326661440000001
 49
-29.85396423600001
 53
33.6900673
 43
10.2
 44
7.679999999999999
 45
0.0000001596020127
 46
8.399999824188462
 79
     2
 49
0.4326661440000001
 49
-29.85396423600001
 53
33.6900673
 43
18.6
 44
7.679999999999999
 45
0.0000001596020127
 46
8.399999824188462
 79
     2
 49
0.4326661440000001
 49
-29.85396423600001
 53
26.5650501
 43
2.16
 44
7.919999999999999
 45
-0.0000000460215162
 46
8.400000143556356
 79
     2
 49
0.26832816
 49
-18.514643556
 53
26.5650501
 43
10.56
 44
7.919999999999999
 45
-0.0000000460215162
 46
8.400000143556356
 79
     2
 49
0.26832816
 49
-18.514643556
 53
18.434948
 43
2.399999999999999
 44
8.039999999999999
 45
0.0000002686412607
 46
8.399999851558131
 79
     2
 49
0.3794733239999999
 49
-26.183659056
 53
18.434948
 43
10.8
 44
8.039999999999999
 45
0.0000002686412607
 46
8.399999851558131
 79
     2
 49
0.3794733239999999
 49
-26.183659056
 53
18.434948
 43
19.2
 44
8.039999999999999
 45
0.0000002686412607
 46
8.399999851558131
 79
     2
 49
0.3794733239999999
 49
-26.183659056
 53
26.5650501
 43
2.759999999999999
 44
8.16
 45
-0.0000000460215162
 46
8.400000143556356
 79
     2
 49
0.26832816
 49
-18.514643556
 53
26.5650501
 43
11.16
 44
8.16
 45
-0.0000000460215162
 46
8.400000143556356
 79
     2
 49
0.26832816
 49
-18.514643556
 53
11.3099327
 43
3.0
 44
8.279999999999999
 45
-0.0000000543109101
 46
8.400000069389928
 79
     2
 49
0.6118823435999998
 49
-42.21988036799999
 53
11.3099327
 43
11.4
 44
8.279999999999999
 45
-0.0000000543109101
 46
8.400000069389928
 79
     2
 49
0.6118823435999998
 49
-42.21988036799999
 53
11.3099327
 43
19.8
 44
8.279999999999999
 45
-0.0000000543109101
 46
8.400000069389928
 79
     2
 49
0.6118823435999998
 49
-42.21988036799999
 53
11.3099327
 43
28.2
 44
8.279999999999999
 45
-0.0000000543109101
 46
8.400000069389928
 79
     2
 49
0.6118823435999998
 49
-42.21988036799999
 53
11.3099327
 43
36.6
 44
8.279999999999999
 45
-0.0000000543109101
 46
8.400000069389928
 79
     2
 49
0.6118823435999998
 49
-42.21988036799999
 53
0.0
 43
3.599999999999999
 44
8.4
 45
0.0
 46
8.4
 79
     2
 49
1.199999999999999
 49
-7.199999999999999
 53
348.6900673
 43
4.799999999999999
 44
8.4
 45
0.0000000543109101
 46
8.400000069389928
 79
     2
 49
0.6118823435999998
 49
-42.21988036799999
 53
348.6900673
 43
13.2
 44
8.4
 45
0.0000000543109101
 46
8.400000069389928
 79
     2
 49
0.6118823435999998
 49
-42.21988036799999
 53
348.6900673
 43
21.6
 44
8.4
 45
0.0000000543109101
 46
8.400000069389928
 79
     2
 49
0.6118823435999998
 49
-42.21988036799999
 53
348.6900673
 43
30.0
 44
8.4
 45
0.0000000543109101
 46
8.400000069389928
 79
     2
 49
0.6118823435999998
 49
-42.21988036799999
 53
348.6900673
 43
38.4
 44
8.4
 45
0.0000000543109101
 46
8.400000069389928
 79
     2
 49
0.6118823435999998
 49
-42.21988036799999
 53
333.4349499
 43
5.399999999999999
 44
8.279999999999999
 45
0.0000000460215162
 46
8.400000143556356
 79
     2
 49
0.2683281599999999
 49
-18.514643556
 53
333.4349499
 43
13.8
 44
8.279999999999999
 45
0.0000000460215162
 46
8.400000143556356
 79
     2
 49
0.2683281599999999
 49
-18.514643556
 53
341.565052
 43
5.639999999999999
 44
8.16
 45
-0.0000002686412607
 46
8.399999851558131
 79
     2
 49
0.379473324
 49
-26.183659056
 53
341.565052
 43
14.04
 44
8.16
 45
-0.0000002686412607
 46
8.399999851558131
 79
     2
 49
0.379473324
 49
-26.183659056
 53
341.565052
 43
22.44
 44
8.16
 45
-0.0000002686412607
 46
8.399999851558131
 79
     2
 49
0.379473324
 49
-26.183659056
 53
333.4349499
 43
6.0
 44
8.039999999999999
 45
0.0000000460215162
 46
8.400000143556356
 79
     2
 49
0.2683281599999999
 49
-18.514643556
 53
333.4349499
 43
14.4
 44
8.039999999999999
 45
0.0000000460215162
 46
8.400000143556356
 79
     2
 49
0.2683281599999999
 49
-18.514643556
 53
326.3099327
 43
6.24
 44
7.919999999999999
 45
-0.0000001596020127
 46
8.399999824188462
 79
     2
 49
0.4326661440000001
 49
-29.85396423600001
 53
326.3099327
 43
14.64
 44
7.919999999999999
 45
-0.0000001596020127
 46
8.399999824188462
 79
     2
 49
0.4326661440000001
 49
-29.85396423600001
 53
326.3099327
 43
23.04
 44
7.919999999999999
 45
-0.0000001596020127
 46
8.399999824188462
 79
     2
 49
0.4326661440000001
 49
-29.85396423600001
 53
315.0
 43
6.599999999999999
 44
7.679999999999999
 45
-0.0000000000000009
 46
8.400000002875099
 79
     2
 49
1.527350688
 49
-10.352043456
 53
296.5650482
 43
7.679999999999999
 44
6.599999999999999
 45
0.0000000286036308
 46
8.400000041591663
 79
     2
 49
1.073312639999999
 49
-17.70965881199999
 53
284.0362396
 43
8.16
 44
5.639999999999999
 45
0.000000348785556
 46
8.399999709154096
 79
     2
 49
0.4947726600000001
 49
-34.139315184
 53
277.1250153
 43
8.279999999999999
 44
5.16
 45
0.0000004961129005
 46
8.399999852931037
 79
     2
 49
0.9674709324
 49
-66.75549316799998
 53
277.1250153
 43
0.0
 44
4.2
 45
0.0000004961129005
 46
8.399999852931037
 79
     2
 49
0.9674709324
 49
-66.75549316799998
 53
284.0362396
 43
0.12
 44
3.239999999999999
 45
0.000000348785556
 46
8.399999709154096
 79
     2
 49
0.4947726600000001
 49
-34.139315184
 53
296.5650482
 43
0.24
 44
2.759999999999999
 45
0.0000000286036308
 46
8.400000041591663
 79
     2
 49
1.073312639999999
 49
-17.70965881199999
 53
315.0
 43
0.72
 44
1.799999999999999
 45
-0.0000000000000009
 46
8.400000002875099
 79
     2
 49
1.527350688
 49
-10.352043456
 53
326.3099327
 43
1.799999999999999
 44
0.72
 45
-0.0000001596020127
 46
8.399999824188462
 79
     2
 49
0.4326661440000001
 49
-29.85396423600001
 53
326.3099327
 43
10.2
 44
0.72
 45
-0.0000001596020127
 46
8.399999824188462
 79
     2
 49
0.4326661440000001
 49
-29.85396423600001
 53
326.3099327
 43
18.6
 44
0.72
 45
-0.0000001596020127
 46
8.399999824188462
 79
     2
 49
0.4326661440000001
 49
-29.85396423600001
 53
333.4349499
 43
2.16
 44
0.48
 45
0.0000000460215162
 46
8.400000143556356
 79
     2
 49
0.2683281599999999
 49
-18.514643556
 53
333.4349499
 43
10.56
 44
0.48
 45
0.0000000460215162
 46
8.400000143556356
 79
     2
 49
0.2683281599999999
 49
-18.514643556
 53
341.565052
 43
2.399999999999999
 44
0.36
 45
-0.0000002686412607
 46
8.399999851558131
 79
     2
 49
0.379473324
 49
-26.183659056
 53
341.565052
 43
10.8
 44
0.36
 45
-0.0000002686412607
 46
8.399999851558131
 79
     2
 49
0.379473324
 49
-26.183659056
 53
341.565052
 43
19.2
 44
0.36
 45
-0.0000002686412607
 46
8.399999851558131
 79
     2
 49
0.379473324
 49
-26.183659056
 53
333.4349499
 43
2.759999999999999
 44
0.24
 45
0.0000000460215162
 46
8.400000143556356
 79
     2
 49
0.2683281599999999
 49
-18.514643556
 53
333.4349499
 43
11.16
 44
0.24
 45
0.0000000460215162
 46
8.400000143556356
 79
     2
 49
0.2683281599999999
 49
-18.514643556
 53
348.6900673
 43
3.0
 44
0.12
 45
0.0000000543109101
 46
8.400000069389928
 79
     2
 49
0.6118823435999998
 49
-42.21988036799999
 53
348.6900673
 43
11.4
 44
0.12
 45
0.0000000543109101
 46
8.400000069389928
 79
     2
 49
0.6118823435999998
 49
-42.21988036799999
 53
348.6900673
 43
19.8
 44
0.12
 45
0.0000000543109101
 46
8.400000069389928
 79
     2
 49
0.6118823435999998
 49
-42.21988036799999
 53
348.6900673
 43
28.2
 44
0.12
 45
0.0000000543109101
 46
8.400000069389928
 79
     2
 49
0.6118823435999998
 49
-42.21988036799999
 53
348.6900673
 43
36.6
 44
0.12
 45
0.0000000543109101
 46
8.400000069389928
 79
     2
 49
0.6118823435999998
 49
-42.21988036799999
 53
0.0
 43
3.599999999999999
 44
0.0
 45
0.0
 46
8.4
 79
     2
 49
1.199999999999999
 49
-7.199999999999999
 53
11.3099327
 43
4.799999999999999
 44
0.0
 45
-0.0000000543109101
 46
8.400000069389928
 79
     2
 49
0.6118823435999998
 49
-42.21988036799999
 53
11.3099327
 43
13.2
 44
0.0
 45
-0.0000000543109101
 46
8.400000069389928
 79
     2
 49
0.6118823435999998
 49
-42.21988036799999
 53
11.3099327
 43
21.6
 44
0.0
 45
-0.0000000543109101
 46
8.400000069389928
 79
     2
 49
0.6118823435999998
 49
-42.21988036799999
 53
11.3099327
 43
30.0
 44
0.0
 45
-0.0000000543109101
 46
8.400000069389928
 79
     2
 49
0.6118823435999998
 49
-42.21988036799999
 53
11.3099327
 43
38.4
 44
0.0
 45
-0.0000000543109101
 46
8.400000069389928
 79
     2
 49
0.6118823435999998
 49
-42.21988036799999
 53
26.5650501
 43
5.399999999999999
 44
0.12
 45
-0.0000000460215162
 46
8.400000143556356
 79
     2
 49
0.26832816
 49
-18.514643556
 53
26.5650501
 43
13.8
 44
0.12
 45
-0.0000000460215162
 46
8.400000143556356
 79
     2
 49
0.26832816
 49
-18.514643556
 53
18.434948
 43
5.639999999999999
 44
0.24
 45
0.0000002686412607
 46
8.399999851558131
 79
     2
 49
0.3794733239999999
 49
-26.183659056
 53
18.434948
 43
14.04
 44
0.24
 45
0.0000002686412607
 46
8.399999851558131
 79
     2
 49
0.3794733239999999
 49
-26.183659056
 53
18.434948
 43
22.44
 44
0.24
 45
0.0000002686412607
 46
8.399999851558131
 79
     2
 49
0.3794733239999999
 49
-26.183659056
 53
26.5650501
 43
6.0
 44
0.36
 45
-0.0000000460215162
 46
8.400000143556356
 79
     2
 49
0.26832816
 49
-18.514643556
 53
26.5650501
 43
14.4
 44
0.36
 45
-0.0000000460215162
 46
8.400000143556356
 79
     2
 49
0.26832816
 49
-18.514643556
 53
33.6900673
 43
6.24
 44
0.48
 45
0.0000001596020127
 46
8.399999824188462
 79
     2
 49
0.4326661440000001
 49
-29.85396423600001
 53
33.6900673
 43
14.64
 44
0.48
 45
0.0000001596020127
 46
8.399999824188462
 79
     2
 49
0.4326661440000001
 49
-29.85396423600001
 53
33.6900673
 43
23.04
 44
0.48
 45
0.0000001596020127
 46
8.399999824188462
 79
     2
 49
0.4326661440000001
 49
-29.85396423600001
 53
45.0
 43
6.599999999999999
 44
0.72
 45
0.0000000000000009
 46
8.400000002875099
 79
     2
 49
1.527350688
 49
-10.352043456
 53
63.43495179999999
 43
7.679999999999999
 44
1.799999999999999
 45
-0.0000000286036308
 46
8.400000041591663
 79
     2
 49
1.073312639999999
 49
-17.70965881199999
 53
75.96376039999999
 43
8.16
 44
2.759999999999999
 45
-0.000000348785556
 46
8.399999709154096
 79
     2
 49
0.4947726600000001
 49
-34.139315184
 53
82.8749847
 43
8.279999999999999
 44
3.239999999999999
 45
-0.0000004961129005
 46
8.399999852931037
 79
     2
 49
0.9674709324
 49
-66.75549316799998
 47
0.3227434521399454
 98
        1
 10
7085.964264229938
 20
4223.078277732358
1001
GradientColor1ACI
1070
     5
1001
GradientColor2ACI
1070
     2
1001
ACAD
1010
0.0
1020
0.0
1030
0.0
  0
ENDBLK
  5
286
330
284
100
AcDbEntity
  8
0
100
AcDbBlockEnd
  0
BLOCK
  5
410
330
40F
100
AcDbEntity
  8
0
100
AcDbBlockBegin
  2
Line_1
 70
     0
 10
6986.62664746231
 20
4025.475902323869
 30
0.0
  3
Line_1
  1

  0
LINE
  5
412
330
40F
100
AcDbEntity
  8
Specialized_Text
  6
Continuous
100
AcDbLine
 10
6986.62664746231
 20
4025.475902323869
 30
0.0
 11
6986.62664746231
 21
3993.135564544659
 31
0.0
  0
LINE
  5
414
330
40F
100
AcDbEntity
  8
Specialized_Text
  6
Continuous
 62
    30
420
 16742400
370
    20
100
AcDbLine
 10
6988.62664746231
 20
4023.47590232387
 30
0.0
 11
6984.62664746231
 21
4027.47590232387
 31
0.0
  0
ENDBLK
  5
411
330
40F
100
AcDbEntity
  8
0
100
AcDbBlockEnd
  0
BLOCK
  5
417
330
416
100
AcDbEntity
  8
0
100
AcDbBlockBegin
  2
Line_2
 70
     0
 10
6986.62664746231
 20
3993.135564544659
 30
0.0
  3
Line_2
  1

  0
LINE
  5
5A6
330
416
100
AcDbEntity
  8
Specialized_Text
  6
Continuous
 62
   251
420
  6250335
100
AcDbLine
 10
6986.62664746231
 20
3993.135564544659
 30
0.0
 11
6986.62664746231
 21
3938.108856098561
 31
0.0
  0
LINE
  5
5A7
330
416
100
AcDbEntity
  8
Specialized_Text
  6
Continuous
 62
   251
420
  6250335
370
    20
100
AcDbLine
 10
6986.62664746231
 20
3930.644756098561
 30
0.0
 11
6984.62664746231
 21
3938.108856098561
 31
0.0
  0
LINE
  5
5A8
330
416
100
AcDbEntity
  8
Specialized_Text
  6
Continuous
 62
   251
420
  6250335
370
    20
100
AcDbLine
 10
6986.62664746231
 20
3930.644756098561
 30
0.0
 11
6988.62664746231
 21
3938.108856098561
 31
0.0
  0
LINE
  5
5A9
330
416
100
AcDbEntity
  8
Specialized_Text
  6
Continuous
 62
   251
420
  6250335
370
    20
100
AcDbLine
 10
6984.62664746231
 20
3938.108856098561
 30
0.0
 11
6988.62664746231
 21
3938.108856098561
 31
0.0
  0
HATCH
  5
5AA
330
416
100
AcDbEntity
  8
Specialized_Text
  6
Continuous
 62
   251
420
  6250335
370
    20
100
AcDbHatch
 10
0.0
 20
0.0
 30
0.0
210
0.0
220
0.0
230
1.0
  2
SOLID
 70
     1
 71
     0
 91
        1
 92
        2
 72
     0
 73
     1
 93
        3
 10
6986.62664746231
 20
3930.644756098561
 10
6984.62664746231
 20
3938.108856098561
 10
6988.62664746231
 20
3938.108856098561
 97
        0
 75
     0
 76
     1
 98
        0
450
        0
451
        0
460
0.0
461
0.0
452
        1
462
0.0
453
        0
470

  0
ENDBLK
  5
418
330
416
100
AcDbEntity
  8
0
100
AcDbBlockEnd
  0
BLOCK
  5
430
330
42F
100
AcDbEntity
  8
0
100
AcDbBlockBegin
  2
*D7
 70
     1
 10
0.0
 20
0.0
 30
0.0
  3
*D7
  1

  0
LINE
  5
914
330
42F
100
AcDbEntity
  8
Specialized_Text
  6
Continuous
 62
     7
440
 16777216
370
    -2
100
AcDbLine
 10
7050.506705538797
 20
3963.642721915457
 30
0.0
 11
7029.527813654633
 21
3963.642721915457
 31
0.0
  0
LINE
  5
915
330
42F
100
AcDbEntity
  8
Specialized_Text
  6
Continuous
 62
     7
440
 16777216
370
    -2
100
AcDbLine
 10
7045.400495937802
 20
4010.840613617033
 30
0.0
 11
7029.527813654633
 21
4010.840613617033
 31
0.0
  0
LINE
  5
916
330
42F
100
AcDbEntity
  8
Specialized_Text
  6
Continuous
 62
     7
440
 16777216
370
    -2
100
AcDbLine
 10
7029.707813654633
 20
3967.442721915457
 30
0.0
 11
7029.707813654633
 21
3979.086183330979
 31
0.0
  0
LINE
  5
917
330
42F
100
AcDbEntity
  8
Specialized_Text
  6
Continuous
 62
     7
440
 16777216
370
    -2
100
AcDbLine
 10
7029.707813654633
 20
4007.040613617032
 30
0.0
 11
7029.707813654633
 21
3995.39715220151
 31
0.0
  0
INSERT
  5
918
330
42F
100
AcDbEntity
  8
Specialized_Text
  6
Continuous
 62
     7
440
 16777216
370
    -2
100
AcDbBlockReference
  2
ARROWHEAD_6
 10
7029.707813654633
 20
3963.642721915457
 30
0.0
 41
3.799999999999999
 42
3.799999999999999
 43
3.799999999999999
 50
270.0
  0
INSERT
  5
919
330
42F
100
AcDbEntity
  8
Specialized_Text
  6
Continuous
 62
     7
440
 16777216
370
    -2
100
AcDbBlockReference
  2
ARROWHEAD_6
 10
7029.707813654633
 20
4010.840613617033
 30
0.0
 41
3.799999999999999
 42
3.799999999999999
 43
3.799999999999999
 50
90.0
  0
MTEXT
  5
91A
330
42F
100
AcDbEntity
  8
Specialized_Text
  6
Continuous
 62
     7
440
 16777216
100
AcDbMText
 10
7029.707813654633
 20
3987.241667766246
 30
0.0
 40
6.0
 41
0.0
 46
0.0
 71
     5
 72
     1
  1
\A1;35mm \Pmin cover
  7
GENERATED_STYLE_1
 11
0.999999984769129
 21
0.0001745329243133
 31
0.0
 73
     1
 44
1.0
  0
POINT
  5
91B
330
42F
100
AcDbEntity
  8
Defpoints
  6
Continuous
 62
     0
440
 16777216
100
AcDbPoint
 10
7053.506705538797
 20
3963.642721915457
 30
0.0
  0
POINT
  5
91C
330
42F
100
AcDbEntity
  8
Defpoints
  6
Continuous
 62
     0
440
 16777216
100
AcDbPoint
 10
7048.400495937801
 20
4010.840613617033
 30
0.0
  0
POINT
  5
91D
330
42F
100
AcDbEntity
  8
Defpoints
  6
Continuous
 62
     0
440
 16777216
100
AcDbPoint
 10
7029.707813654633
 20
4010.840613617033
 30
0.0
  0
ENDBLK
  5
431
330
42F
100
AcDbEntity
  8
0
100
AcDbBlockEnd
  0
BLOCK
  5
43C
330
43B
100
AcDbEntity
  8
0
100
AcDbBlockBegin
  2
ARROWHEAD_6
 70
     0
 10
0.0
 20
0.0
 30
0.0
  3
ARROWHEAD_6
  1

  0
LINE
  5
43E
330
43B
100
AcDbEntity
  8
0
  6
Continuous
 62
     0
370
     0
100
AcDbLine
 10
-0.5
 20
-0.5
 30
0.0
 11
0.5
 21
0.5
 31
0.0
  0
LINE
  5
43F
330
43B
100
AcDbEntity
  8
0
  6
Continuous
 62
     0
370
     0
100
AcDbLine
 10
0.0
 20
0.0
 30
0.0
 11
-1.0
 21
0.0
 31
0.0
  0
ENDBLK
  5
43D
330
43B
100
AcDbEntity
  8
0
100
AcDbBlockEnd
  0
BLOCK
  5
441
330
440
100
AcDbEntity
  8
0
100
AcDbBlockBegin
  2
*D9
 70
     1
 10
0.0
 20
0.0
 30
0.0
  3
*D9
  1

  0
LINE
  5
908
330
440
100
AcDbEntity
  8
Specialized_Text
  6
Continuous
 62
     7
440
 16777216
370
    -2
100
AcDbLine
 10
7045.400495937802
 20
4010.840613617033
 30
0.0
 11
7029.527813654633
 21
4010.840613617033
 31
0.0
  0
LINE
  5
909
330
440
100
AcDbEntity
  8
Specialized_Text
  6
Continuous
 62
     7
440
 16777216
370
    -2
100
AcDbLine
 10
7051.621368609675
 20
4025.475902323869
 30
0.0
 11
7029.527813654633
 21
4025.475902323869
 31
0.0
  0
LINE
  5
90A
330
440
100
AcDbEntity
  8
Specialized_Text
  6
Continuous
 62
     7
440
 16777216
370
    -2
100
AcDbLine
 10
7029.707813654633
 20
4007.040613617032
 30
0.0
 11
7029.707813654633
 21
4003.240613617033
 31
0.0
  0
LINE
  5
90B
330
440
100
AcDbEntity
  8
Specialized_Text
  6
Continuous
 62
     7
440
 16777216
370
    -2
100
AcDbLine
 10
7029.707813654633
 20
4029.27590232387
 30
0.0
 11
7029.707813654633
 21
4033.07590232387
 31
0.0
  0
LINE
  5
90C
330
440
100
AcDbEntity
  8
Specialized_Text
  6
Continuous
 62
     7
440
 16777216
370
    -2
100
AcDbLine
 10
7029.707813654633
 20
4010.840613617033
 30
0.0
 11
7029.707813654633
 21
4014.188312480245
 31
0.0
  0
LINE
  5
90D
330
440
100
AcDbEntity
  8
Specialized_Text
  6
Continuous
 62
     7
440
 16777216
370
    -2
100
AcDbLine
 10
7029.707813654633
 20
4025.475902323869
 30
0.0
 11
7029.707813654633
 21
4022.128203460658
 31
0.0
  0
INSERT
  5
90E
330
440
100
AcDbEntity
  8
Specialized_Text
  6
Continuous
 62
     7
440
 16777216
370
    -2
100
AcDbBlockReference
  2
ARROWHEAD_6
 10
7029.707813654633
 20
4010.840613617033
 30
0.0
 41
3.799999999999999
 42
3.799999999999999
 43
3.799999999999999
 50
90.0
  0
INSERT
  5
90F
330
440
100
AcDbEntity
  8
Specialized_Text
  6
Continuous
 62
     7
440
 16777216
370
    -2
100
AcDbBlockReference
  2
ARROWHEAD_6
 10
7029.707813654633
 20
4025.475902323869
 30
0.0
 41
3.799999999999999
 42
3.799999999999999
 43
3.799999999999999
 50
270.0
  0
MTEXT
  5
910
330
440
100
AcDbEntity
  8
Specialized_Text
  6
Continuous
 62
     7
440
 16777216
100
AcDbMText
 10
7029.707813654633
 20
4018.158257970452
 30
0.0
 40
6.0
 41
0.0
 46
0.0
 71
     5
 72
     1
  1
\A1;5mm min gap
  7
GENERATED_STYLE_1
 11
0.999999984769129
 21
0.0001745329243133
 31
0.0
 73
     1
 44
1.0
  0
POINT
  5
911
330
440
100
AcDbEntity
  8
Defpoints
  6
Continuous
 62
     0
440
 16777216
100
AcDbPoint
 10
7048.400495937801
 20
4010.840613617033
 30
0.0
  0
POINT
  5
912
330
440
100
AcDbEntity
  8
Defpoints
  6
Continuous
 62
     0
440
 16777216
100
AcDbPoint
 10
7054.621368609675
 20
4025.475902323869
 30
0.0
  0
POINT
  5
913
330
440
100
AcDbEntity
  8
Defpoints
  6
Continuous
 62
     0
440
 16777216
100
AcDbPoint
 10
7029.707813654633
 20
4025.475902323869
 30
0.0
  0
ENDBLK
  5
442
330
440
100
AcDbEntity
  8
0
100
AcDbBlockEnd
  0
BLOCK
  5
44A
330
449
100
AcDbEntity
  8
0
100
AcDbBlockBegin
  2
*D10
 70
     1
 10
0.0
 20
0.0
 30
0.0
  3
*D10
  1

  0
LINE
  5
91E
330
449
100
AcDbEntity
  8
Specialized_Text
  6
Continuous
 62
     7
440
 16777216
370
    -2
100
AcDbLine
 10
7051.621368609675
 20
4025.475902323869
 30
0.0
 11
7029.527813654633
 21
4025.475902323869
 31
0.0
  0
LINE
  5
91F
330
449
100
AcDbEntity
  8
Specialized_Text
  6
Continuous
 62
     7
440
 16777216
370
    -2
100
AcDbLine
 10
7124.787156167946
 20
4101.020264567467
 30
0.0
 11
7029.527813654633
 21
4101.020264567467
 31
0.0
  0
LINE
  5
920
330
449
100
AcDbEntity
  8
Specialized_Text
  6
Continuous
 62
     7
440
 16777216
370
    -2
100
AcDbLine
 10
7029.707813654633
 20
4029.27590232387
 30
0.0
 11
7029.707813654633
 21
4050.041439315459
 31
0.0
  0
LINE
  5
921
330
449
100
AcDbEntity
  8
Specialized_Text
  6
Continuous
 62
     7
440
 16777216
370
    -2
100
AcDbLine
 10
7029.707813654633
 20
4097.220264567467
 30
0.0
 11
7029.707813654633
 21
4076.454727575874
 31
0.0
  0
INSERT
  5
922
330
449
100
AcDbEntity
  8
Specialized_Text
  6
Continuous
 62
     7
440
 16777216
370
    -2
100
AcDbBlockReference
  2
ARROWHEAD_6
 10
7029.707813654633
 20
4025.475902323869
 30
0.0
 41
3.799999999999999
 42
3.799999999999999
 43
3.799999999999999
 50
270.0
  0
INSERT
  5
923
330
449
100
AcDbEntity
  8
Specialized_Text
  6
Continuous
 62
     7
440
 16777216
370
    -2
100
AcDbBlockReference
  2
ARROWHEAD_6
 10
7029.707813654633
 20
4101.020264567467
 30
0.0
 41
3.799999999999999
 42
3.799999999999999
 43
3.799999999999999
 50
90.0
  0
MTEXT
  5
924
330
449
100
AcDbEntity
  8
Specialized_Text
  6
Continuous
 62
     7
440
 16777216
100
AcDbMText
 10
7029.707813654633
 20
4063.248083445667
 30
0.0
 40
6.0
 41
0.0
 46
0.0
 71
     5
 72
     1
  1
\A1;50mm min\Pbelow floor\Plevel
  7
GENERATED_STYLE_1
 11
0.999999984769129
 21
0.0001745329243133
 31
0.0
 73
     1
 44
1.0
  0
POINT
  5
925
330
449
100
AcDbEntity
  8
Defpoints
  6
Continuous
 62
     0
440
 16777216
100
AcDbPoint
 10
7054.621368609675
 20
4025.475902323869
 30
0.0
  0
POINT
  5
926
330
449
100
AcDbEntity
  8
Defpoints
  6
Continuous
 62
     0
440
 16777216
100
AcDbPoint
 10
7127.787156167946
 20
4101.020264567467
 30
0.0
  0
POINT
  5
927
330
449
100
AcDbEntity
  8
Defpoints
  6
Continuous
 62
     0
440
 16777216
100
AcDbPoint
 10
7029.707813654633
 20
4101.020264567467
 30
0.0
  0
ENDBLK
  5
44B
330
449
100
AcDbEntity
  8
0
100
AcDbBlockEnd
  0
BLOCK
  5
464
330
463
100
AcDbEntity
  8
0
100
AcDbBlockBegin
  2
ARROWHEAD_5
 70
     0
 10
0.0
 20
0.0
 30
0.0
  3
ARROWHEAD_5
  1

  0
SOLID
  5
466
330
463
100
AcDbEntity
  8
0
  6
Continuous
 62
     0
370
     0
100
AcDbTrace
 10
-1.0
 20
0.2679
 30
0.0
 11
0.0
 21
0.0
 31
0.0
 12
-1.0
 22
-0.2679
 32
0.0
 13
-1.0
 23
0.2679
 33
0.0
  0
LINE
  5
467
330
463
100
AcDbEntity
  8
0
  6
Continuous
 62
     0
370
     0
100
AcDbLine
 10
0.0
 20
0.0
 30
0.0
 11
-1.0
 21
0.0
 31
0.0
  0
ENDBLK
  5
465
330
463
100
AcDbEntity
  8
0
100
AcDbBlockEnd
  0
BLOCK
  5
484
330
483
100
AcDbEntity
  8
0
100
AcDbBlockBegin
  2
06C Wall _ Floor_ CONCRETE SLAB_STORY_MARKER
 70
     0
 10
0.0
 20
0.0
 30
0.0
  3
06C Wall _ Floor_ CONCRETE SLAB_STORY_MARKER
  1

  0
ENDBLK
  5
485
330
483
100
AcDbEntity
  8
0
100
AcDbBlockEnd
  0
ENDSEC
  0
SECTION
  2
ENTITIES
  0
HATCH
  5
3F
330
1F
100
AcDbEntity
  8
Specialized_Fills
  6
Continuous
 62
     7
100
AcDbHatch
 10
0.0
 20
0.0
 30
0.0
210
0.0
220
0.0
230
1.0
  2
EARTH
 70
     0
 71
     0
 91
        1
 92
        1
 93
       14
 72
     1
 10
7004.883411993907
 20
3850.421604654036
 11
7022.443275933682
 21
3834.368430222123
 72
     1
 10
7022.443275933682
 20
3834.368430222123
 11
7045.728536651356
 21
3828.420587214433
 72
     1
 10
7045.728536651356
 20
3828.420587214433
 11
7067.720170905819
 21
3829.713596003079
 72
     1
 10
7067.720170905819
 20
3829.713596003079
 11
7092.56363935946
 21
3827.672747848021
 72
     1
 10
7092.56363935946
 20
3827.672747848021
 11
7127.787156167946
 21
3825.884247978171
 72
     1
 10
7127.787156167946
 20
3825.884247978171
 11
7127.787156167946
 21
3869.755865196874
 72
     1
 10
7127.787156167946
 20
3869.755865196874
 11
7055.782053850767
 21
3869.755865196874
 72
     1
 10
7055.782053850767
 20
3869.755865196874
 11
7052.767092039648
 21
3871.612164918261
 72
     1
 10
7052.767092039648
 20
3871.612164918261
 11
7050.700495937802
 21
3874.860192660506
 72
     1
 10
7050.700495937802
 20
3874.860192660506
 11
7050.700495937802
 21
3930.644756098563
 72
     1
 10
7050.700495937802
 20
3930.644756098563
 11
6982.876647462309
 21
3930.644756098563
 72
     1
 10
6982.876647462309
 20
3930.644756098563
 11
6990.17772985816
 21
3901.589166753471
 72
     1
 10
6990.17772985816
 20
3901.589166753471
 11
6992.872686687409
 21
3877.20433290605
 72
     1
 10
6992.872686687409
 20
3877.20433290605
 11
7004.883411993907
 21
3850.421604654036
 97
        0
 75
     0
 76
     2
 52
0.0
 41
1.0
 77
     0
 78
     4
 53
44.99999999999999
 43
0.0
 44
0.0
 45
-5.515432690950196
 46
5.515432690950197
 79
     0
 53
44.99999999999999
 43
-1.838477563650065
 44
1.838477563650065
 45
-11.03086538190039
 46
11.03086538190039
 79
     0
 53
44.99999999999999
 43
-3.67695512730013
 44
3.676955127300131
 45
-11.03086538190039
 46
11.03086538190039
 79
     0
 53
135.0
 43
-5.515432690950196
 44
5.515432690950197
 45
1.838477563650065
 46
1.838477563650066
 79
     2
 49
7.799999713897703
 49
-7.799999713897703
 98
        0
  0
INSERT
  5
1A2
330
1F
100
AcDbEntity
  8
Specialized_Fills
  6
Continuous
 62
    30
420
 16742400
370
    20
100
AcDbBlockReference
  2
Fill_1
 10
0.0
 20
0.0
 30
0.0
  0
HATCH
  5
1A3
330
1F
100
AcDbEntity
  8
Specialized_Fills
  6
Continuous
100
AcDbHatch
 10
0.0
 20
0.0
 30
0.0
210
0.0
220
0.0
230
1.0
  2
LINES___ANGLED
 70
     0
 71
     1
 91
        1
 92
        2
 72
     0
 73
     1
 93
        4
 10
7107.32465644812
 20
4148.012009636811
 10
7126.324656448111
 20
4148.012009636811
 10
7126.324656448111
 20
4098.012009636811
 10
7107.32465644812
 20
4098.012009636811
 97
        1
330
1A4
 75
     0
 76
     2
 52
0.0
 41
1.0
 77
     0
 78
     1
 53
44.99999999999999
 43
0.0
 44
0.0
 45
-1.838477563650065
 46
1.838477563650065
 79
     0
 98
        0
  0
LWPOLYLINE
  5
1A4
102
{ACAD_REACTORS
330
1A3
102
}
330
1F
100
AcDbEntity
  8
Specialized_Fills
  6
Continuous
100
AcDbPolyline
 90
        4
 70
   129
 43
0.0
 10
7107.32465644812
 20
4148.012009636811
 10
7126.324656448111
 20
4148.012009636811
 10
7126.324656448111
 20
4098.012009636811
 10
7107.32465644812
 20
4098.012009636811
  0
HATCH
  5
1A5
330
1F
100
AcDbEntity
  8
Specialized_Fills
  6
Continuous
 62
   254
420
 14671839
370
    13
100
AcDbHatch
 10
0.0
 20
0.0
 30
0.0
210
0.0
220
0.0
230
1.0
  2
SOLID
 70
     1
 71
     1
 91
        1
 92
        2
 72
     0
 73
     1
 93
        4
 10
7127.787156167946
 20
4101.020264567467
 10
7127.787156167946
 20
4146.020264567482
 10
7217.787156167921
 20
4146.020264567482
 10
7217.787156167921
 20
4101.020264567467
 97
        1
330
1A6
 75
     0
 76
     1
 98
        0
450
        0
451
        0
460
0.0
461
0.0
452
        1
462
0.0
453
        0
470

  0
LWPOLYLINE
  5
1A6
102
{ACAD_REACTORS
330
1A5
102
}
330
1F
100
AcDbEntity
  8
Specialized_Fills
  6
Continuous
100
AcDbPolyline
 90
        4
 70
   129
 43
0.0
 10
7127.787156167946
 20
4101.020264567467
 10
7127.787156167946
 20
4146.020264567482
 10
7217.787156167921
 20
4146.020264567482
 10
7217.787156167921
 20
4101.020264567467
  0
HATCH
  5
1A7
330
1F
100
AcDbEntity
  8
Specialized_Fills
  6
Continuous
 62
   254
420
 14671839
370
    13
100
AcDbHatch
 10
0.0
 20
0.0
 30
0.0
210
0.0
220
0.0
230
1.0
  2
SOLID
 70
     1
 71
     1
 91
        1
 92
        2
 72
     0
 73
     1
 93
        4
 10
7229.787156167948
 20
4099.050040803336
 10
7229.787156167948
 20
4249.566293610452
 10
7217.78715616795
 20
4249.566293610452
 10
7217.78715616795
 20
4099.050040803336
 97
        1
330
1A8
 75
     0
 76
     1
 98
        0
450
        0
451
        0
460
0.0
461
0.0
452
        1
462
0.0
453
        0
470

  0
LWPOLYLINE
  5
1A8
102
{ACAD_REACTORS
330
1A7
102
}
330
1F
100
AcDbEntity
  8
Specialized_Fills
  6
Continuous
100
AcDbPolyline
 90
        4
 70
   129
 43
0.0
 10
7229.787156167948
 20
4099.050040803336
 10
7229.787156167948
 20
4249.566293610452
 10
7217.78715616795
 20
4249.566293610452
 10
7217.78715616795
 20
4099.050040803336
  0
HATCH
  5
282
330
1F
100
AcDbEntity
  8
Specialized_Fills
  6
Continuous
 62
    30
420
 16742400
370
    20
100
AcDbHatch
 10
0.0
 20
0.0
 30
0.0
210
0.0
220
0.0
230
1.0
  2
SOLID
 70
     1
 71
     1
 91
        1
 92
        2
 72
     0
 73
     1
 93
       19
 10
7105.782053850766
 20
4032.636587564961
 10
7105.782053850763
 20
4049.43658756496
 10
7106.982053850764
 20
4050.636587564961
 10
7106.982053850765
 20
4041.636587564961
 10
7120.067293776279
 20
4041.636587564961
 10
7120.067293776279
 20
4040.436587564961
 10
7106.982053850764
 20
4040.43658756496
 10
7106.982053850765
 20
4031.436587564961
 10
7060.582053850765
 20
4031.436587564961
 10
7054.621368609675
 20
4025.475902323869
 10
7054.582053850765
 20
4025.486226854066
 10
7054.582053850765
 20
4028.830700114656
 10
7055.430581988187
 20
4027.982171977233
 10
7058.884997575916
 20
4031.436587564961
 10
7055.430581988187
 20
4031.436587564961
 10
7054.582053850765
 20
4030.588059427539
 10
7054.582053850765
 20
4050.636587564961
 10
7055.782053850766
 20
4049.436587564961
 10
7055.782053850766
 20
4032.636587564961
 97
        1
330
283
 75
     0
 76
     1
 98
        0
450
        0
451
        0
460
0.0
461
0.0
452
        1
462
0.0
453
        0
470

  0
LWPOLYLINE
  5
283
102
{ACAD_REACTORS
330
282
102
}
330
1F
100
AcDbEntity
  8
Specialized_Fills
  6
Continuous
100
AcDbPolyline
 90
       19
 70
   129
 43
0.0
 10
7105.782053850766
 20
4032.636587564961
 10
7105.782053850763
 20
4049.43658756496
 10
7106.982053850764
 20
4050.636587564961
 10
7106.982053850765
 20
4041.636587564961
 10
7120.067293776279
 20
4041.636587564961
 10
7120.067293776279
 20
4040.436587564961
 10
7106.982053850764
 20
4040.43658756496
 10
7106.982053850765
 20
4031.436587564961
 10
7060.582053850765
 20
4031.436587564961
 10
7054.621368609675
 20
4025.475902323869
 10
7054.582053850765
 20
4025.486226854066
 10
7054.582053850765
 20
4028.830700114656
 10
7055.430581988187
 20
4027.982171977233
 10
7058.884997575916
 20
4031.436587564961
 10
7055.430581988187
 20
4031.436587564961
 10
7054.582053850765
 20
4030.588059427539
 10
7054.582053850765
 20
4050.636587564961
 10
7055.782053850766
 20
4049.436587564961
 10
7055.782053850766
 20
4032.636587564961
  0
INSERT
  5
3D5
330
1F
100
AcDbEntity
  8
Specialized_Fills
  6
Continuous
 62
    30
420
 16742400
370
    20
100
AcDbBlockReference
  2
Fill_3
 10
0.0
 20
0.0
 30
0.0
  0
LINE
  5
3D6
330
1F
100
AcDbEntity
  8
Specialized_Lines
  6
Continuous
100
AcDbLine
 10
7180.662156167946
 20
4157.020264567481
 30
0.0
 11
7180.662062353987
 21
4148.020264567484
 31
0.0
  0
LINE
  5
3D8
330
1F
100
AcDbEntity
  8
Specialized_Lines
  6
Continuous
100
AcDbLine
 10
7180.662062353987
 20
4148.020264567484
 30
0.0
 11
7164.911857659241
 21
4148.020264567484
 31
0.0
  0
LINE
  5
3D9
330
1F
100
AcDbEntity
  8
Specialized_Lines
  6
Continuous
100
AcDbLine
 10
7164.911857659241
 20
4148.020264567484
 30
0.0
 11
7164.912156167949
 21
4157.020264567481
 31
0.0
  0
LINE
  5
3DA
330
1F
100
AcDbEntity
  8
Specialized_Lines
  6
Continuous
100
AcDbLine
 10
7164.912156167949
 20
4157.020264567481
 30
0.0
 11
7180.662156167946
 21
4157.020264567481
 31
0.0
  0
LINE
  5
3DB
330
1F
100
AcDbEntity
  8
Specialized_Lines
  6
Continuous
100
AcDbLine
 10
7178.037156167945
 20
4149.220264567482
 30
0.0
 11
7178.037156167945
 21
4155.820264567483
 31
0.0
  0
LINE
  5
3DC
330
1F
100
AcDbEntity
  8
Specialized_Lines
  6
Continuous
100
AcDbLine
 10
7167.537156167952
 20
4155.820264567483
 30
0.0
 11
7167.537156167952
 21
4149.220264567482
 31
0.0
  0
LINE
  5
3DD
330
1F
100
AcDbEntity
  8
Specialized_Lines
  6
Continuous
100
AcDbLine
 10
7167.537156167952
 20
4155.820264567483
 30
0.0
 11
7167.537156167952
 21
4149.220264567482
 31
0.0
  0
LINE
  5
3DE
330
1F
100
AcDbEntity
  8
Specialized_Lines
  6
Continuous
100
AcDbLine
 10
7162.287156167947
 20
4149.220264567482
 30
0.0
 11
7162.287156167947
 21
4155.820264567483
 31
0.0
  0
LINE
  5
3DF
330
1F
100
AcDbEntity
  8
Specialized_Lines
  6
Continuous
100
AcDbLine
 10
7178.037156167945
 20
4155.820264567483
 30
0.0
 11
7178.037156167945
 21
4149.220264567482
 31
0.0
  0
LINE
  5
3E0
330
1F
100
AcDbEntity
  8
Specialized_Lines
  6
Continuous
100
AcDbLine
 10
7183.287156167948
 20
4149.220264567482
 30
0.0
 11
7183.287156167948
 21
4155.820264567483
 31
0.0
  0
LINE
  5
3E1
330
1F
100
AcDbEntity
  8
Specialized_Lines
  6
Continuous
100
AcDbLine
 10
7160.787156167947
 20
4146.020264567482
 30
0.0
 11
7184.787156167948
 21
4146.020264567482
 31
0.0
  0
LINE
  5
3E2
330
1F
100
AcDbEntity
  8
Specialized_Lines
  6
Continuous
100
AcDbLine
 10
7184.787156167948
 20
4146.020264567482
 30
0.0
 11
7184.787156167948
 21
4148.020264567484
 31
0.0
  0
LINE
  5
3E3
330
1F
100
AcDbEntity
  8
Specialized_Lines
  6
Continuous
100
AcDbLine
 10
7184.787156167948
 20
4148.020264567484
 30
0.0
 11
7160.787156167947
 21
4148.020264567484
 31
0.0
  0
LINE
  5
3E4
330
1F
100
AcDbEntity
  8
Specialized_Lines
  6
Continuous
100
AcDbLine
 10
7160.787156167947
 20
4148.020264567484
 30
0.0
 11
7160.787156167947
 21
4146.020264567482
 31
0.0
  0
LINE
  5
3E5
330
1F
100
AcDbEntity
  8
Specialized_Lines
  6
Continuous
100
AcDbLine
 10
7166.787156167949
 20
4056.020264567482
 30
0.0
 11
7166.787156167949
 21
4048.020264567481
 31
0.0
  0
LINE
  5
3E6
330
1F
100
AcDbEntity
  8
Specialized_Lines
  6
Continuous
100
AcDbLine
 10
7166.787156167949
 20
4048.020264567481
 30
0.0
 11
7168.78715616795
 21
4046.020264567483
 31
0.0
  0
LINE
  5
3E7
330
1F
100
AcDbEntity
  8
Specialized_Lines
  6
Continuous
100
AcDbLine
 10
7168.78715616795
 20
4046.020264567483
 30
0.0
 11
7176.787156167946
 21
4046.020264567483
 31
0.0
  0
LINE
  5
3E8
330
1F
100
AcDbEntity
  8
Specialized_Lines
  6
Continuous
100
AcDbLine
 10
7176.787156167946
 20
4046.020264567483
 30
0.0
 11
7178.787156167948
 21
4048.020264567481
 31
0.0
  0
LINE
  5
3E9
330
1F
100
AcDbEntity
  8
Specialized_Lines
  6
Continuous
100
AcDbLine
 10
7178.787156167948
 20
4048.020264567481
 30
0.0
 11
7178.787156167948
 21
4056.020264567482
 31
0.0
  0
LINE
  5
3EA
330
1F
100
AcDbEntity
  8
Specialized_Lines
  6
Continuous
100
AcDbLine
 10
7178.787156167948
 20
4056.020264567482
 30
0.0
 11
7166.787156167949
 21
4056.020264567482
 31
0.0
  0
LINE
  5
3EB
330
1F
100
AcDbEntity
  8
Specialized_Lines
  6
Continuous
100
AcDbLine
 10
7168.78715616795
 20
4056.020264567482
 30
0.0
 11
7168.78715616795
 21
4046.020264567483
 31
0.0
  0
LINE
  5
3EC
330
1F
100
AcDbEntity
  8
Specialized_Lines
  6
Continuous
100
AcDbLine
 10
7176.787156167946
 20
4056.020264567482
 30
0.0
 11
7176.787156167946
 21
4046.020264567483
 31
0.0
  0
LINE
  5
3ED
330
1F
100
AcDbEntity
  8
Specialized_Lines
  6
Continuous
100
AcDbLine
 10
7166.787156167949
 20
4048.020264567481
 30
0.0
 11
7178.787156167948
 21
4048.020264567481
 31
0.0
  0
LINE
  5
3EE
330
1F
100
AcDbEntity
  8
Specialized_Lines
  6
Continuous
100
AcDbLine
 10
7166.787156167949
 20
4146.020264567482
 30
0.0
 11
7166.787156167949
 21
4056.020264567482
 31
0.0
  0
LINE
  5
3EF
330
1F
100
AcDbEntity
  8
Specialized_Lines
  6
Continuous
100
AcDbLine
 10
7166.787156167949
 20
4056.020264567482
 30
0.0
 11
7178.787156167948
 21
4056.020264567482
 31
0.0
  0
LINE
  5
3F0
330
1F
100
AcDbEntity
  8
Specialized_Lines
  6
Continuous
100
AcDbLine
 10
7178.787156167948
 20
4056.020264567482
 30
0.0
 11
7178.787156167948
 21
4146.020264567482
 31
0.0
  0
LINE
  5
3F1
330
1F
100
AcDbEntity
  8
Specialized_Lines
  6
Continuous
100
AcDbLine
 10
7178.787156167948
 20
4146.020264567482
 30
0.0
 11
7166.787156167949
 21
4146.020264567482
 31
0.0
  0
LINE
  5
3F2
330
1F
100
AcDbEntity
  8
Specialized_Lines
  6
Continuous
100
AcDbLine
 10
7168.78715616795
 20
4089.020264567483
 30
0.0
 11
7176.787156167946
 21
4089.020264567483
 31
0.0
  0
LINE
  5
3F3
330
1F
100
AcDbEntity
  8
Specialized_Lines
  6
Continuous
100
AcDbLine
 10
7176.787156167946
 20
4089.020264567483
 30
0.0
 11
7178.787156167948
 21
4091.020264567482
 31
0.0
  0
LINE
  5
3F4
330
1F
100
AcDbEntity
  8
Specialized_Lines
  6
Continuous
100
AcDbLine
 10
7178.787156167948
 20
4091.020264567482
 30
0.0
 11
7166.787156167949
 21
4091.020264567482
 31
0.0
  0
LINE
  5
3F5
330
1F
100
AcDbEntity
  8
Specialized_Lines
  6
Continuous
100
AcDbLine
 10
7166.787156167949
 20
4091.020264567482
 30
0.0
 11
7168.78715616795
 21
4089.020264567483
 31
0.0
  0
LINE
  5
3F6
330
1F
100
AcDbEntity
  8
Specialized_Lines
  6
Continuous
100
AcDbLine
 10
7168.78715616795
 20
4089.020264567483
 30
0.0
 11
7168.78715616795
 21
4056.020264567482
 31
0.0
  0
LINE
  5
3F7
330
1F
100
AcDbEntity
  8
Specialized_Lines
  6
Continuous
100
AcDbLine
 10
7176.787156167946
 20
4089.020264567483
 30
0.0
 11
7176.787156167946
 21
4056.020264567482
 31
0.0
  0
LINE
  5
3F8
330
1F
100
AcDbEntity
  8
Specialized_Lines
  6
Continuous
100
AcDbLine
 10
7172.787156167949
 20
4164.020264567483
 30
0.0
 11
7172.787156167949
 21
4028.020264567482
 31
0.0
  0
ARC
  5
3F9
330
1F
100
AcDbEntity
  8
Specialized_Lines
  6
Continuous
100
AcDbCircle
 10
7172.787156167949
 20
4144.935889567491
 30
0.0
 40
12.08437499999348
100
AcDbArc
 50
64.24999688077805
 51
115.7500031192219
  0
ARC
  5
3FA
330
1F
100
AcDbEntity
  8
Specialized_Lines
  6
Continuous
100
AcDbCircle
 10
7172.787156167949
 20
4160.104639551441
 30
0.0
 40
12.08437498554815
100
AcDbArc
 50
244.2499968477426
 51
295.7500031522574
  0
ARC
  5
3FB
330
1F
100
AcDbEntity
  8
Specialized_Lines
  6
Continuous
100
AcDbCircle
 10
7164.912156167949
 20
4151.491358280356
 30
0.0
 40
3.471093725707419
100
AcDbArc
 50
220.8656568953221
 51
319.1343431046778
  0
ARC
  5
3FC
330
1F
100
AcDbEntity
  8
Specialized_Lines
  6
Continuous
100
AcDbCircle
 10
7164.912156167949
 20
4153.549170817481
 30
0.0
 40
3.471093750000875
100
AcDbArc
 50
40.8656573587882
 51
139.1343426412118
  0
ARC
  5
3FD
330
1F
100
AcDbEntity
  8
Specialized_Lines
  6
Continuous
100
AcDbCircle
 10
7180.662156167946
 20
4151.491358313815
 30
0.0
 40
3.47109374759924
100
AcDbArc
 50
220.8656573129857
 51
319.1343426870143
  0
ARC
  5
3FE
330
1F
100
AcDbEntity
  8
Specialized_Lines
  6
Continuous
100
AcDbCircle
 10
7180.662156167946
 20
4153.549170817481
 30
0.0
 40
3.471093750000875
100
AcDbArc
 50
40.8656573587882
 51
139.1343426412118
  0
LINE
  5
3FF
330
1F
100
AcDbEntity
  8
Specialized_Lines
  6
Continuous
100
AcDbLine
 10
7127.787156167946
 20
4099.050040803336
 30
0.0
 11
7127.787156167946
 21
3825.884247978171
 31
0.0
  0
LINE
  5
400
330
1F
100
AcDbEntity
  8
Specialized_Lines
  6
Continuous
100
AcDbLine
 10
7217.78715616795
 20
4146.02026446748
 30
0.0
 11
7127.787156167946
 21
4101.020264467482
 31
0.0
  0
LINE
  5
401
330
1F
100
AcDbEntity
  8
Specialized_Lines
  6
Continuous
100
AcDbLine
 10
7127.787156167946
 20
4146.020264567482
 30
0.0
 11
7217.78715616795
 21
4101.020264567484
 31
0.0
  0
LINE
  5
402
330
1F
100
AcDbEntity
  8
Specialized_Lines
  6
Continuous
100
AcDbLine
 10
7217.78715616795
 20
4249.566293610452
 30
0.0
 11
7217.78715616795
 21
4099.050040803336
 31
0.0
  0
LINE
  5
403
330
1F
100
AcDbEntity
  8
Specialized_Lines
  6
Continuous
100
AcDbLine
 10
7229.787156167948
 20
4249.566293610452
 30
0.0
 11
7229.787156167948
 21
4099.050040803336
 31
0.0
  0
LINE
  5
404
330
1F
100
AcDbEntity
  8
Specialized_Lines
  6
Continuous
100
AcDbLine
 10
7127.787156167946
 20
4249.566293610452
 30
0.0
 11
7127.787156167946
 21
4101.020264467482
 31
0.0
  0
LINE
  5
406
330
1F
100
AcDbEntity
  8
Specialized_Lines
  6
DASHEDX2
100
AcDbLine
 10
7053.138054087449
 20
4028.250759953992
 30
0.0
 11
7053.138054087449
 21
4249.531428136646
 31
0.0
  0
LINE
  5
407
330
1F
100
AcDbEntity
  8
Specialized_Lines
  6
DASHEDX2
100
AcDbLine
 10
7052.876460161177
 20
4009.090325415985
 30
0.0
 11
7123.272656735818
 21
4023.475216954175
 31
0.0
  0
LINE
  5
408
330
1F
100
AcDbEntity
  8
Specialized_Lines
  6
Continuous
100
AcDbLine
 10
7096.232394391257
 20
3869.603859186334
 30
0.0
 11
7096.080388380719
 21
3869.755865196873
 31
0.0
  0
LINE
  5
409
330
1F
100
AcDbEntity
  8
Specialized_Lines
  6
DASHEDX2
100
AcDbLine
 10
7127.85820697391
 20
4100.020264467484
 30
0.0
 11
7217.78715616795
 21
4100.020264467484
 31
0.0
  0
LINE
  5
40A
330
1F
100
AcDbEntity
  8
Specialized_Lines
  6
DASHEDX2
100
AcDbLine
 10
7052.876460161177
 20
3874.821439215809
 30
0.0
 11
7052.876460161177
 21
4009.090325415985
 31
0.0
  0
LINE
  5
40B
330
1F
100
AcDbEntity
  8
Specialized_Lines
  6
Continuous
100
AcDbLine
 10
7256.094434595019
 20
4099.050040803336
 30
0.0
 11
7127.787156167946
 21
4099.050040803336
 31
0.0
  0
LINE
  5
40D
330
1F
100
AcDbEntity
  8
Specialized_Lines
  6
Continuous
100
AcDbLine
 10
7048.400495937801
 20
3930.644756098563
 30
0.0
 11
6981.738177374229
 21
3930.64475609856
 31
0.0
  0
LINE
  5
40E
330
1F
100
AcDbEntity
  8
Specialized_Lines
  6
Continuous
100
AcDbLine
 10
6980.539502422461
 20
4025.475902323869
 30
0.0
 11
7041.595343880813
 21
4025.475902323869
 31
0.0
  0
INSERT
  5
41E
330
1F
100
AcDbEntity
  8
Specialized_Text
  6
Continuous
100
AcDbBlockReference
  2
Line_2
 10
6986.62664746231
 20
3993.135564544659
 30
0.0
  0
LINE
  5
41F
330
1F
100
AcDbEntity
  8
Specialized_Lines
  6
Continuous
100
AcDbLine
 10
7127.787156167946
 20
3869.755865196874
 30
0.0
 11
6973.133950625393
 21
3869.755865196874
 31
0.0
  0
LWPOLYLINE
  5
420
330
1F
100
AcDbEntity
  8
Specialized_Lines
  6
Continuous
100
AcDbPolyline
 90
        4
 70
   129
 43
0.0
 10
7217.78715616795
 20
4146.02026446748
 10
7127.787156167946
 20
4146.02026446748
 10
7127.787156167946
 20
4101.020264467482
 10
7217.78715616795
 20
4101.020264467482
  0
LWPOLYLINE
  5
421
330
1F
100
AcDbEntity
  8
Specialized_Lines
  6
Continuous
100
AcDbPolyline
 90
        4
 70
   129
 43
0.0
 10
7126.324656448111
 20
4098.012009636811
 10
7107.324656448112
 20
4098.012009636811
 10
7107.324656448112
 20
4148.012009636811
 10
7126.324656448111
 20
4148.012009636811
  0
LWPOLYLINE
  5
423
330
1F
100
AcDbEntity
  8
Specialized_Fills
  6
DASHEDX2
 62
   253
420
 10461087
370
    20
100
AcDbPolyline
 90
        4
 70
   128
 43
0.0
 10
7127.787155875646
 20
4191.02026456108
 42
0.6180339902741404
 10
7163.787156277743
 20
4173.020264459449
 10
7181.787156218141
 20
4186.520264538843
 42
-2.000000011029643
 10
7181.787156218141
 20
4150.520264538843
  0
LWPOLYLINE
  5
424
330
1F
100
AcDbEntity
  8
Specialized_Fills
  6
DASHEDX2
 62
   253
420
 10461087
370
    20
100
AcDbPolyline
 90
        6
 70
   128
 43
0.0
 10
7127.787155875646
 20
4191.02026456108
 42
-0.6180339902741404
 10
7163.787156277743
 20
4209.020264662711
 10
7181.787156218141
 20
4195.520264583315
 42
2.000000011029643
 10
7181.787156218141
 20
4231.520264583315
 10
7163.787156239561
 20
4218.020264554676
 42
-0.8684172712964468
 10
7132.321770086271
 20
4249.566293610452
  0
LWPOLYLINE
  5
425
330
1F
100
AcDbEntity
  8
Specialized_Fills
  6
DASHEDX2
 62
   253
420
 10461087
370
    20
100
AcDbPolyline
 90
        3
 70
   128
 43
0.0
 10
7172.787155875646
 20
4157.020264461078
 10
7163.787156239561
 20
4164.020264567482
 42
0.6180339892997294
 10
7127.787156167946
 20
4146.020264567482
  0
LWPOLYLINE
  5
426
330
1F
100
AcDbEntity
  8
Specialized_Fills
  6
DASHEDX2
 62
   253
420
 10461087
370
    20
100
AcDbPolyline
 90
        2
 70
   128
 43
0.0
 10
7169.725784110603
 20
4249.566293610452
 10
7171.574636956522
 20
4248.179653963265
  0
LWPOLYLINE
  5
42B
330
1F
100
AcDbEntity
  8
Specialized_Lines
  6
DASHEDX2
100
AcDbPolyline
 90
        4
 70
   128
 43
0.0
 10
7054.581571148609
 20
3964.593364324721
 10
7054.581571148609
 20
4008.117049155595
 10
7126.051584988324
 20
4022.263945208101
 10
7126.051584988324
 20
4072.260046165179
  0
LWPOLYLINE
  5
42C
330
1F
100
AcDbEntity
  8
Specialized_Lines
  6
DASHEDX2
100
AcDbPolyline
 90
        4
 70
   128
 43
0.0
 10
7126.915923863257
 20
4249.566293610452
 10
7126.915923863257
 20
4073.567270031494
 10
7126.900456871377
 20
4073.540256935554
 10
7126.984381450128
 20
4022.437495198571
  0
LWPOLYLINE
  5
42D
330
1F
100
AcDbEntity
  8
0
  6
Continuous
100
AcDbPolyline
 90
        6
 70
   128
 43
0.0
 10
7242.526353017312
 20
4249.566293610452
 10
7179.069941399291
 20
4249.566293610452
 10
7177.069941399295
 20
4255.061248449361
 10
7173.069941399289
 20
4244.071338771543
 10
7171.069941399294
 20
4249.566293610452
 10
7036.954892666191
 20
4249.566293610452
  0
ARC
  5
42E
330
1F
100
AcDbEntity
  8
Specialized_Lines
  6
Continuous
100
AcDbCircle
 10
7118.72318834428
 20
4034.186053449607
 30
0.0
 40
6.873274524013092
100
AcDbArc
 50
12.9877900798581
 51
77.29704005892187
  0
DIMENSION
  5
439
330
1F
100
AcDbEntity
  8
Specialized_Text
  6
Continuous
100
AcDbDimension
280
     0
  2
*D7
 10
7029.707813654633
 20
4010.840613617033
 30
0.0
 11
7029.707813654633
 21
3987.241667766246
 31
0.0
 70
    32
  1
35mm \Pmin cover
 71
     5
 42
47.19789170157627
 73
     0
 74
     0
 75
     0
 53
0.01
  3
GENERATED_STYLE__1
100
AcDbAlignedDimension
 13
7053.506705538797
 23
3963.642721915457
 33
0.0
 14
7048.400495937801
 24
4010.840613617033
 34
0.0
 50
90.0
100
AcDbRotatedDimension
1001
ACAD
1000
DSTYLE
1002
{
1070
    42
1040
3.0
1070
    77
1070
     0
1002
}
  0
DIMENSION
  5
448
330
1F
100
AcDbEntity
  8
Specialized_Text
  6
Continuous
100
AcDbDimension
280
     0
  2
*D9
 10
7029.707813654633
 20
4025.475902323869
 30
0.0
 11
7029.707813654633
 21
4018.158257970452
 31
0.0
 70
    32
  1
5mm min gap
 71
     5
 42
14.63528870683694
 73
     0
 74
     0
 75
     0
 53
0.01
  3
GENERATED_STYLE__1
100
AcDbAlignedDimension
 13
7048.400495937801
 23
4010.840613617033
 33
0.0
 14
7054.621368609675
 24
4025.475902323869
 34
0.0
 50
90.0
100
AcDbRotatedDimension
1001
ACAD
1000
DSTYLE
1002
{
1070
    42
1040
3.0
1070
    77
1070
     0
1002
}
  0
DIMENSION
  5
452
330
1F
100
AcDbEntity
  8
Specialized_Text
  6
Continuous
100
AcDbDimension
280
     0
  2
*D10
 10
7029.707813654633
 20
4101.020264567467
 30
0.0
 11
7029.707813654633
 21
4063.248083445667
 31
0.0
 70
   160
  1
50mm min\Pbelow floor\Plevel
 71
     5
 42
75.54436224359779
 73
     0
 74
     0
 75
     0
 53
0.01
  3
GENERATED_STYLE__2
100
AcDbAlignedDimension
 13
7054.621368609675
 23
4025.475902323869
 33
0.0
 14
7127.787156167946
 24
4101.020264567467
 34
0.0
 50
90.0
100
AcDbRotatedDimension
1001
ACAD
1000
DSTYLE
1002
{
1070
    42
1040
3.0
1002
}
  0
MTEXT
  5
460
102
{ACAD_REACTORS
330
461
102
}
330
1F
100
AcDbEntity
  8
Specialized_Text
  6
Continuous
100
AcDbMText
 10
7260.544088839754
 20
4000.833959620821
 30
0.0
 40
5.5
 41
86.70938746235307
 46
34.29491925229958
 71
     4
 72
     1
  1
{Protecto EIFS tape must lap down face of wall by minimum of  35mm and onto building wrap by minimum of 50mm}
  7
GENERATED_STYLE_1
 73
     1
 44
1.0
  0
LEADER
  5
461
330
1F
100
AcDbEntity
  8
Specialized_Text
  6
Continuous
 62
   251
420
  6250335
370
    13
100
AcDbLeader
  3
GENERATED_STYLE__4
 73
     0
 40
42.6356298317417
 41
83.04024556616644
 76
     2
 10
7053.597760692399
 20
4000.958767226037
 30
0.0
 10
7260.454088839754
 20
4000.833959620821
 30
0.0
340
460
  0
MTEXT
  5
468
102
{ACAD_REACTORS
330
469
102
}
330
1F
100
AcDbEntity
  8
Specialized_Text
  6
Continuous
100
AcDbMText
 10
7264.038540413498
 20
4150.910951558842
 30
0.0
 40
5.5
 41
72.43522208520492
 46
0.0
 71
     4
 72
     1
  1
{ramset fastener}
  7
GENERATED_STYLE_1
 73
     1
 44
1.0
  0
LEADER
  5
469
330
1F
100
AcDbEntity
  8
Specialized_Text
  6
Continuous
 62
   251
420
  6250335
370
    13
100
AcDbLeader
  3
GENERATED_STYLE__4
 73
     0
 40
5.687585266030014
 41
52.98908594815825
 76
     2
 10
7178.505866806216
 20
4153.968872413013
 30
0.0
 10
7263.948540413498
 20
4150.910951558842
 30
0.0
340
468
  0
MTEXT
  5
46A
102
{ACAD_REACTORS
330
46B
102
}
330
1F
100
AcDbEntity
  8
Specialized_Text
  6
Continuous
100
AcDbMText
 10
7264.038540413498
 20
4241.640407210469
 30
0.0
 40
5.5
 41
82.49043399250579
 46
11.69019862340035
 71
     4
 72
     1
  1
{cavity insulation minimum R=0.9}
  7
GENERATED_STYLE_1
 73
     1
 44
1.133339310788889
  0
LEADER
  5
46B
330
1F
100
AcDbEntity
  8
Specialized_Text
  6
Continuous
 62
   251
420
  6250335
370
    13
100
AcDbLeader
  3
GENERATED_STYLE__4
 73
     0
 40
16.0089982524907
 41
53.4317871759891
 76
     2
 10
7197.235394074479
 20
4241.581652825578
 30
0.0
 10
7263.948540413498
 20
4241.640407210469
 30
0.0
340
46A
  0
MTEXT
  5
46C
102
{ACAD_REACTORS
330
46D
102
}
330
1F
100
AcDbEntity
  8
Specialized_Text
  6
Continuous
100
AcDbMText
 10
7264.018020137847
 20
4109.657861612231
 30
0.0
 40
5.5
 41
82.741997905018
 46
42.85527430922683
 71
     4
 72
     1
  1
{discontinuous horizontal 45mm x 20mm ventilated EPS battens on 15° slope and no longer than 100mm in length as required for fixing}
  7
GENERATED_STYLE_1
 73
     1
 44
1.0
  0
LEADER
  5
46D
330
1F
100
AcDbEntity
  8
Specialized_Text
  6
Continuous
 62
   251
420
  6250335
370
    13
100
AcDbLeader
  3
GENERATED_STYLE__4
 73
     0
 40
62.47339699863573
 41
81.64085948158255
 76
     2
 10
7115.236182957804
 20
4109.683599907611
 30
0.0
 10
7263.928020137846
 20
4109.657861612231
 30
0.0
340
46C
  0
MTEXT
  5
46E
102
{ACAD_REACTORS
330
46F
102
}
330
1F
100
AcDbEntity
  8
Specialized_Text
  6
Continuous
100
AcDbMText
 10
7264.038540413498
 20
4181.486357293202
 30
0.0
 40
5.5
 41
80.04849177696639
 46
0.0
 71
     4
 72
     1
  1
{approved breather type building wrap must be continuous across timber / concrete face as installed by builder}
  7
GENERATED_STYLE_1
 73
     1
 44
1.0
  0
LEADER
  5
46F
330
1F
100
AcDbEntity
  8
Specialized_Text
  6
Continuous
 62
   251
420
  6250335
370
    13
100
AcDbLeader
  3
GENERATED_STYLE__4
 73
     0
 40
43.87369258753978
 41
78.85709413369713
 76
     2
 10
7127.085492950304
 20
4182.293266101248
 30
0.0
 10
7263.948540413498
 20
4181.486357293202
 30
0.0
340
46E
  0
MTEXT
  5
470
102
{ACAD_REACTORS
330
471
102
}
330
1F
100
AcDbEntity
  8
Specialized_Text
  6
Continuous
100
AcDbMText
 10
7260.015603719857
 20
3940.348242717229
 30
0.0
 40
5.5
 41
82.05463602966549
 46
12.7753880690717
 71
     4
 72
     1
  1
70mm EPS or {\C30;\c30975;Neopor® EPS} thickness as required
  7
GENERATED_STYLE_1
 73
     1
 44
1.0
  0
LEADER
  5
471
330
1F
100
AcDbEntity
  8
Specialized_Text
  6
Continuous
 62
   251
420
  6250335
370
    13
100
AcDbLeader
  3
GENERATED_STYLE__4
 73
     0
 40
25.55161437016826
 41
80.45156889495226
 76
     2
 10
7112.630781208655
 20
3940.779848761484
 30
0.0
 10
7259.925603719857
 20
3940.348242717229
 30
0.0
340
470
  0
MTEXT
  5
472
102
{ACAD_REACTORS
330
473
102
}
330
1F
100
AcDbEntity
  8
Specialized_Text
  6
Continuous
100
AcDbMText
 10
7260.379631773441
 20
4040.256254636904
 30
0.0
 40
5.5
 41
87.05065659940803
 46
11.72934696708585
 71
     4
 72
     1
  1
{proprietary CAVITECLAD base bead}
  7
GENERATED_STYLE_1
 73
     1
 44
1.0
  0
LEADER
  5
473
330
1F
100
AcDbEntity
  8
Specialized_Text
  6
Continuous
 62
   251
420
  6250335
370
    13
100
AcDbLeader
  3
GENERATED_STYLE__4
 73
     0
 40
14.85425193269668
 41
86.19918144611187
 76
     2
 10
7107.033143315151
 20
4038.911378511609
 30
0.0
 10
7260.28963177344
 20
4040.256254636904
 30
0.0
340
472
  0
MTEXT
  5
474
102
{ACAD_REACTORS
330
475
102
}
330
1F
100
AcDbEntity
  8
Specialized_Text
  6
Continuous
100
AcDbMText
 10
7260.029321189401
 20
3965.003487384058
 30
0.0
 40
5.5
 41
82.79620568384846
 46
12.76459704330639
 71
     4
 72
     1
  1
{reinforcing mesh and selected plaster finish}
  7
GENERATED_STYLE_1
 73
     1
 44
1.0
  0
LEADER
  5
475
330
1F
100
AcDbEntity
  8
Specialized_Text
  6
Continuous
 62
   251
420
  6250335
370
    13
100
AcDbLeader
  3
GENERATED_STYLE__4
 73
     0
 40
16.38494770350159
 41
73.14324693042292
 76
     2
 10
7048.400495937801
 20
3965.736324765263
 30
0.0
 10
7259.939321189401
 20
3965.003487384058
 30
0.0
340
474
  0
MTEXT
  5
476
102
{ACAD_REACTORS
330
477
102
}
330
1F
100
AcDbEntity
  8
Specialized_Text
  6
Continuous
100
AcDbMText
 10
7264.142652780593
 20
4061.567332329923
 30
0.0
 40
5.5
 41
13.08612
 46
0.0
 71
     4
 72
     1
  1
{DPC}
  7
GENERATED_STYLE_1
 73
     1
 44
1.0
  0
LEADER
  5
477
330
1F
100
AcDbEntity
  8
Specialized_Text
  6
Continuous
 62
   251
420
  6250335
370
    13
100
AcDbLeader
  3
GENERATED_STYLE__4
 73
     0
 40
5.687585266030014
 41
15.30695770804911
 76
     3
 10
7199.502534554186
 20
4100.020264467484
 30
0.0
 10
7199.525333365881
 20
4061.567332329923
 30
0.0
 10
7264.052652780593
 20
4061.567332329923
 30
0.0
340
476
  0
MTEXT
  5
47A
330
1F
100
AcDbEntity
  8
Specialized_Text
  6
Continuous
 62
    30
420
 16742400
370
    20
100
AcDbMText
 10
7241.885770655604
 20
3826.393881322845
 30
0.0
 40
5.5
 41
94.13362276457972
 46
0.0
 71
     7
 72
     1
  1
{note:  punchings in base bead provide ventilation openings of 1000mm\A1{\H0.7x;\S2^  ;} per lineal metre}
  7
GENERATED_STYLE_1
 73
     1
 44
1.128235429831225
  0
MTEXT
  5
47C
330
1F
100
AcDbEntity
  8
Specialized_Text
  6
Continuous
 62
    30
420
 16742400
370
    20
100
AcDbMText
 10
7241.547036804573
 20
3867.954123781164
 30
0.0
 40
5.5
 41
94.13362276457972
 46
0.0
 71
     7
 72
     1
  1
{note: the expected durability of the cladding that continues into the ground may be reduced and is not covered under a standard warranty}
  7
GENERATED_STYLE_1
 73
     1
 44
1.128848749676029
  0
MTEXT
  5
47F
330
1F
100
AcDbEntity
  8
Specialized_Text
  6
Continuous
100
AcDbMText
 10
7002.613865546376
 20
3880.827948600195
 30
0.0
 40
5.5
 41
39.31521827115603
 46
0.0
 71
     7
 72
     1
  1
{approx. \P100 mm below ground level}
  7
GENERATED_STYLE_1
 73
     1
 44
1.128986620416135
  0
MTEXT
  5
480
330
1F
100
AcDbEntity
  8
Specialized_Text
  6
Continuous
100
AcDbMText
 10
6987.623298257756
 20
3939.801399932342
 30
0.0
 40
5.5
 41
0.0
 46
0.0
 71
     4
 72
     1
  1
{>100 to paved ground\P>175 to unpaved ground}
  7
GENERATED_STYLE_1
 11
0.0000000000000001
 21
1.0
 31
0.0
 73
     1
 44
1.135210107484258
  0
MTEXT
  5
481
102
{ACAD_REACTORS
330
482
102
}
330
1F
100
AcDbEntity
  8
Specialized_Text
  6
Continuous
100
AcDbMText
 10
7264.13772975398
 20
4219.197838316062
 30
0.0
 40
5.5
 41
82.15236843665467
 46
12.79219426115562
 71
     4
 72
     1
  1
50mm EPS or {\C30;\c30975;75mm Neopor® EPS}
  7
GENERATED_STYLE_1
 73
     1
 44
1.127211339394292
  0
LEADER
  5
482
330
1F
100
AcDbEntity
  8
Specialized_Text
  6
Continuous
 62
   251
420
  6250335
370
    13
100
AcDbLeader
  3
GENERATED_STYLE__4
 73
     0
 40
17.56298313442043
 41
70.49079126875852
 76
     2
 10
7080.252690629918
 20
4219.10990248629
 30
0.0
 10
7264.04772975398
 20
4219.197838316062
 30
0.0
340
481
  0
LINE
  5
4EB
330
1F
100
AcDbEntity
  8
Viewport
 62
     7
420
 16777215
100
AcDbLine
 10
7348.038639891851
 20
4297.177135817657
 30
0.0
 11
7348.038639891851
 21
3757.12752017886
 31
0.0
  0
LINE
  5
4EC
330
1F
100
AcDbEntity
  8
Viewport
 62
     7
420
 16777215
100
AcDbLine
 10
7348.038639891851
 20
3757.12752017886
 30
0.0
 11
6974.896912805867
 21
3757.12752017886
 31
0.0
  0
MTEXT
  5
4EF
330
1F
100
AcDbEntity
  8
Specialized_Lines
 62
    30
420
 16742400
100
AcDbMText
 10
7053.193277596346
 20
3798.460386439183
 30
0.0
 40
7.0
 41
63.23088711380842
 46
0.0
 71
     1
 72
     5
  1
CAVITECLAD
  7
GENERATED_STYLE_2
 73
     1
 44
1.0
1001
ACAD
1000
ACAD_MTEXT_COLUMN_INFO_BEGIN
1070
    75
1070
     2
1070
    79
1070
     0
1070
    76
1070
     1
1070
    78
1070
     0
1070
    48
1040
63.23088711380842
1070
    49
1040
12.5
1070
    50
1070
     1
1040
0.0
1000
ACAD_MTEXT_COLUMN_INFO_END
  0
LINE
  5
4F0
330
1F
100
AcDbEntity
  8
Viewport
 62
     7
420
 16777215
100
AcDbLine
 10
6974.896912805867
 20
3757.12752017886
 30
0.0
 11
6974.896912805867
 21
4297.177135817657
 31
0.0
  0
LINE
  5
4F1
330
1F
100
AcDbEntity
  8
Viewport
 62
     7
420
 16777215
100
AcDbLine
 10
7348.038639891851
 20
4297.177135817657
 30
0.0
 11
6974.896912805867
 21
4297.177135817657
 31
0.0
  0
MTEXT
  5
4F2
330
1F
100
AcDbEntity
  8
Specialized_Lines
100
AcDbMText
 10
7051.726312610796
 20
3814.055673418354
 30
0.0
 40
9.5
 41
317.9980165120378
 46
0.0
 71
     1
 72
     5
  1
{\fArial|b1|i0|c0|p34;Wall / Floor: CONCRETE SLAB (Below Ground)}
 73
     1
 44
1.0
1001
ACAD
1000
ACAD_MTEXT_COLUMN_INFO_BEGIN
1070
    75
1070
     2
1070
    79
1070
     0
1070
    76
1070
     1
1070
    78
1070
     0
1070
    48
1040
317.9980165120378
1070
    49
1040
12.5
1070
    50
1070
     1
1040
0.0
1000
ACAD_MTEXT_COLUMN_INFO_END
  0
MTEXT
  5
4F3
330
1F
100
AcDbEntity
  8
Specialized_Lines
 62
    30
420
 16742400
100
AcDbMText
 10
7022.941457129427
 20
3794.512701898699
 30
0.0
 40
4.0
 41
34.37092666967328
 46
0.0
 71
     5
 72
     5
  1
SCALE: 1:2
  7
GENERATED_STYLE_2
 73
     1
 44
1.0
1001
ACAD
1000
ACAD_MTEXT_COLUMN_INFO_BEGIN
1070
    75
1070
     2
1070
    79
1070
     0
1070
    76
1070
     1
1070
    78
1070
     0
1070
    48
1040
34.37092666967328
1070
    49
1040
12.5
1070
    50
1070
     1
1040
0.0
1000
ACAD_MTEXT_COLUMN_INFO_END
  0
HATCH
  5
4F4
330
1F
100
AcDbEntity
  8
0
 62
    30
420
 16742400
100
AcDbHatch
 10
0.0
 20
0.0
 30
0.0
210
0.0
220
0.0
230
1.0
  2
SOLID
 70
     1
 71
     0
 91
        1
 92
        1
 93
        4
 72
     1
 10
7046.095442510943
 20
3799.53566139909
 11
7046.095442510943
 21
3819.53566139909
 72
     1
 10
7046.095442510943
 20
3819.53566139909
 11
7001.095442510943
 21
3819.53566139909
 72
     1
 10
7001.095442510943
 20
3819.53566139909
 11
7001.095442510943
 21
3799.53566139909
 72
     1
 10
7001.095442510943
 20
3799.53566139909
 11
7046.095442510943
 21
3799.53566139909
 97
        0
 75
     1
 76
     1
 98
        1
 10
7031.510615700472
 20
3805.669341902214
450
        0
451
        0
460
0.0
461
0.0
452
        0
462
1.0
453
        2
463
0.0
 63
     5
421
      255
463
1.0
 63
     2
421
 16776960
470
LINEAR
1001
GradientColor1ACI
1070
     5
1001
GradientColor2ACI
1070
     2
1001
ACAD
1010
0.0
1020
0.0
1030
0.0
  0
LWPOLYLINE
  5
4F5
330
1F
100
AcDbEntity
  8
0
100
AcDbPolyline
 90
        5
 70
     0
 43
0.0
 10
7001.095442510943
 20
3819.53566139909
 10
7001.095442510943
 20
3799.53566139909
 10
7046.095442510943
 20
3799.53566139909
 10
7046.095442510943
 20
3819.53566139909
 10
7001.095442510943
 20
3819.53566139909
  0
MTEXT
  5
4F6
330
1F
100
AcDbEntity
  8
Specialized_Lines
100
AcDbMText
 10
7023.80025759983
 20
3809.340816752701
 30
0.0
 40
10.0
 41
90.34063603881987
 46
0.0
 71
     5
 72
     5
  1
{\fArial|b1|i0|c0|p34;06C}
 73
     1
 44
1.0
1001
ACAD
1000
ACAD_MTEXT_COLUMN_INFO_BEGIN
1070
    75
1070
     2
1070
    79
1070
     0
1070
    76
1070
     1
1070
    78
1070
     0
1070
    48
1040
90.34063603881987
1070
    49
1040
12.5
1070
    50
1070
     1
1040
0.0
1000
ACAD_MTEXT_COLUMN_INFO_END
  0
LWPOLYLINE
  5
4F7
330
1F
100
AcDbEntity
  8
0
100
AcDbPolyline
 90
        4
 70
     0
 43
0.0
 10
7001.095442510943
 20
3799.53566139909
 10
7001.095442510943
 20
3789.53566139909
 10
7046.095442510943
 20
3789.53566139909
 10
7046.095442510943
 20
3799.53566139909
  0
LWPOLYLINE
  5
62D
330
1F
100
AcDbEntity
  8
Specialized_Fills
  6
DASHEDX2
 62
   253
420
 10461087
370
    20
100
AcDbPolyline
 90
        3
 70
   128
 43
0.0
 10
7173.923938862387
 20
4246.41767751767
 10
7181.787156179956
 20
4240.520264475281
 42
0.4846012553164829
 10
7215.928774678141
 20
4249.566293610452
  0
LINE
  5
636
330
1F
100
AcDbEntity
  8
Specialized_Lines
  6
PLASTER
 48
3.0
100
AcDbLine
 10
7055.782053850767
 20
3872.856135870559
 30
0.0
 11
7052.767092039648
 21
3871.612164918261
 31
0.0
  0
LINE
  5
637
330
1F
100
AcDbEntity
  8
Specialized_Lines
  6
PLASTER
 48
3.0
100
AcDbLine
 10
7052.767092039648
 20
3871.612164918261
 30
0.0
 11
7050.700495937802
 21
3874.860192660506
 31
0.0
  0
LINE
  5
638
330
1F
100
AcDbEntity
  8
Specialized_Lines
  6
PLASTER
 48
3.0
100
AcDbLine
 10
7050.700495937802
 20
3874.860192660506
 30
0.0
 11
7050.700495937802
 21
4008.208637189439
 31
0.0
  0
LINE
  5
639
330
1F
100
AcDbEntity
  8
Specialized_Lines
  6
PLASTER
 48
3.0
100
AcDbLine
 10
7050.700495937802
 20
4008.208637189439
 30
0.0
 11
7052.416347732457
 21
4010.538995824084
 31
0.0
  0
LINE
  5
63A
330
1F
100
AcDbEntity
  8
Specialized_Lines
  6
PLASTER
 48
3.0
100
AcDbLine
 10
7052.416347732457
 20
4010.538995824084
 30
0.0
 11
7124.048284958108
 21
4025.20944826815
 31
0.0
  0
LINE
  5
63B
330
1F
100
AcDbEntity
  8
Specialized_Lines
  6
PLASTER
 48
3.0
100
AcDbLine
 10
7124.048284958108
 20
4025.20944826815
 30
0.0
 11
7126.051584988324
 21
4025.397728563062
 31
0.0
  0
LWPOLYLINE
  5
63C
330
1F
100
AcDbEntity
  8
Specialized_Lines
  6
PLASTER
 48
3.0
100
AcDbPolyline
 90
        4
 70
     0
 43
0.0
 10
7050.700495937802
 20
4249.566293610452
 10
7050.700495937802
 20
4026.90869390735
 10
7052.464592189561
 20
4025.354581503616
 10
7054.582053850765
 20
4025.486226854066
  0
MTEXT
  5
63D
330
1F
100
AcDbEntity
  8
Specialized_Text
  6
Continuous
100
AcDbMText
 10
6986.459181248553
 20
4246.101811540255
 30
0.0
 40
3.0
 41
48.87340123734884
 46
0.0
 71
     4
 72
     1
  1
Appraisal No.510 [2013]
  7
GENERATED_STYLE_2
 73
     1
 44
1.0
  0
IMAGE
  5
63E
330
1F
100
AcDbEntity
  8
0
 62
     7
420
 16777215
160
               140
310
8C00000001000000840000000600000005000000562167C7A047BB40F827CDD36699B0400000000000000000562167C7A047BB40C9DFC5582DC9B040000000000000000071EA6852477ABB40C9DFC5582DC9B040000000000000000071EA6852477ABB40F827CDD36699B0400000000000000000562167C7A047BB40F827CD
310
D36699B0400000000000000000
100
AcDbRasterImage
 90
        0
 10
6983.628042646063
 20
4249.40166933275
 30
0.0
 11
0.0611721721957824
 21
0.0
 31
0.0
 12
0.0
 22
0.0611721721957824
 32
0.0
 13
828.0
 23
781.0
340
5F9
 70
     7
280
     0
281
    50
282
    50
283
     0
290
     0
360
63F
 71
     1
 91
        2
 14
-0.5
 24
-0.5
 14
827.5
 24
780.5
  0
IMAGE
  5
640
330
1F
100
AcDbEntity
  8
0
 62
     7
420
 16777215
160
               140
310
8C0000000100000084000000060000000500000049AE8D3E6A46BC40724E7F465E9FB040000000000000000049AE8D3E6A46BC40F5E5B1298CC6B0400000000000000000D2CF4DE409B4BC40F5E5B1298CC6B0400000000000000000D2CF4DE409B4BC40724E7F465E9FB040000000000000000049AE8D3E6A46BC40724E7F
310
465E9FB0400000000000000000
100
AcDbRasterImage
 90
        0
 10
7238.415016989755
 20
4255.368263203289
 30
0.0
 11
0.0434841820317712
 21
0.0
 31
0.0
 12
0.0
 22
0.0434841820317712
 32
0.0
 13
2521.0
 23
901.0
340
5FA
 70
     7
280
     0
281
    50
282
    50
283
     0
290
     0
360
641
 71
     1
 91
        2
 14
-0.5
 24
-0.5
 14
2520.5
 24
900.5
  0
HATCH
  5
74E
330
1F
100
AcDbEntity
  8
0
 62
    30
420
 16742400
100
AcDbHatch
 10
0.0
 20
0.0
 30
0.0
210
0.0
220
0.0
230
1.0
  2
SOLID
 70
     1
 71
     1
 91
        1
 92
        7
 72
     0
 73
     1
 93
        4
 10
7001.016519470787
 20
3775.714060671227
 10
7001.016519470787
 20
3770.714060671227
 10
7006.01651947079
 20
3770.714060671227
 10
7006.016519470783
 20
3775.714060671228
 97
        1
330
74F
 75
     1
 76
     1
 47
0.0321901215665183
 98
        1
 10
7002.805967599488
 20
3774.291080080984
450
        0
451
        0
460
0.0
461
0.0
452
        0
462
1.0
453
        2
463
0.0
 63
     5
421
      255
463
1.0
 63
     2
421
 16776960
470
LINEAR
1001
GradientColor1ACI
1070
     5
1001
GradientColor2ACI
1070
     2
1001
ACAD
1010
0.0
1020
0.0
1030
0.0
  0
LWPOLYLINE
  5
74F
102
{ACAD_REACTORS
330
74E
102
}
330
1F
100
AcDbEntity
  8
0
 62
    30
420
 16742400
100
AcDbPolyline
 90
        4
 70
     1
 43
0.0
 10
7001.016519470787
 20
3775.714060671227
 10
7006.016519470783
 20
3775.714060671228
 10
7006.01651947079
 20
3770.714060671227
 10
7001.016519470787
 20
3770.714060671227
  0
LINE
  5
750
330
1F
100
AcDbEntity
  8
0
 62
    30
420
 16742400
100
AcDbLine
 10
7001.016519470787
 20
3775.714060671227
 30
0.0
 11
7006.016519470787
 21
3775.714060671227
 31
0.0
  0
LWPOLYLINE
  5
751
330
1F
100
AcDbEntity
  8
0
370
     5
100
AcDbPolyline
 90
        2
 70
     0
 43
0.0
 10
7006.016519470787
 20
3773.214060671227
 10
7327.170577394467
 20
3773.214060671227
  0
MTEXT
  5
752
330
1F
100
AcDbEntity
  8
Specialized_Text
  6
Continuous
100
AcDbMText
 10
7009.580198785922
 20
3775.740527704819
 30
0.0
 40
3.0
 41
163.0041735515597
 46
0.0
 71
     4
 72
     1
  1
© copyright 2013 Specialized Building Products Ltd
  7
GENERATED_STYLE_2
 73
     1
 44
1.0
  0
MTEXT
  5
753
330
1F
100
AcDbEntity
  8
Specialized_Text
  6
Continuous
100
AcDbMText
 10
7187.481199459601
 20
3775.740527704819
 30
0.0
 40
3.0
 41
163.0041735515597
 46
0.0
 71
     4
 72
     1
  1
All Dimensions to be site checked before construction & installation
  7
GENERATED_STYLE_2
 73
     1
 44
1.0
  0
MTEXT
  5
754
330
1F
100
AcDbEntity
  8
Specialized_Text
  6
Continuous
 62
    30
420
 16742400
370
    20
100
AcDbMText
 10
7226.036573248812
 20
3762.616623884706
 30
0.0
 40
5.5
 41
111.9228601720179
 46
0.0
 71
     7
 72
     1
  1
{\fArial Unicode MS|b1|i0|c0|p34;web \fArial Unicode MS|b0|i0|c0|p34;\C256;www.specialized.co.nz}
  7
GENERATED_STYLE_2
 73
     1
 44
1.12662050634974
  0
LWPOLYLINE
  5
760
330
1F
100
AcDbEntity
  8
Specialized_Lines
 48
3.0
100
AcDbPolyline
 90
        8
 70
     0
 43
0.0
 10
7127.787156167946
 20
3825.884247978171
 42
0.1583968758023702
 10
7174.214754089486
 20
3843.069693239886
 42
0.1171610208378527
 10
7198.441591273577
 20
3872.044490773641
 42
-0.1582377139356057
 10
7218.37409640966
 20
3911.058958112504
 42
0.0691445018753315
 10
7248.454722986709
 20
3960.385973433531
 42
0.0885692426834054
 10
7252.325195476498
 20
4014.339798588633
 42
-0.0972088598326242
 10
7256.216407570438
 20
4061.567332329923
 42
0.2107311943111793
 10
7256.094434595019
 20
4099.050040803336
  0
LINE
  5
79C
330
1F
100
AcDbEntity
  8
Specialized_Text
  6
Continuous
100
AcDbLine
 10
6986.62664746231
 20
4025.475902323869
 30
0.0
 11
6986.62664746231
 21
3993.135564544659
 31
0.0
  0
LINE
  5
79D
330
1F
100
AcDbEntity
  8
Specialized_Text
  6
Continuous
 62
     7
370
    20
100
AcDbLine
 10
6988.62664746231
 20
4023.47590232387
 30
0.0
 11
6984.62664746231
 21
4027.47590232387
 31
0.0
  0
LINE
  5
928
330
1F
100
AcDbEntity
  8
Specialized_Text
  6
Continuous
100
AcDbLine
 10
6986.62664746231
 20
3866.755865196873
 30
0.0
 11
6986.62664746231
 21
3869.755865196874
 31
0.0
  0
LINE
  5
929
330
1F
100
AcDbEntity
  8
Specialized_Text
  6
Continuous
100
AcDbLine
 10
6986.62664746231
 20
3869.755865196874
 30
0.0
 11
6986.62664746231
 21
3930.644756098563
 31
0.0
  0
LINE
  5
92A
330
1F
100
AcDbEntity
  8
Specialized_Text
  6
Continuous
 62
     7
370
    20
100
AcDbLine
 10
6984.62664746231
 20
3871.755865196873
 30
0.0
 11
6988.62664746231
 21
3867.755865196874
 31
0.0
  0
LINE
  5
92B
330
1F
100
AcDbEntity
  8
Specialized_Text
  6
Continuous
 62
     7
370
    20
100
AcDbLine
 10
6988.62664746231
 20
3928.644756098563
 30
0.0
 11
6984.62664746231
 21
3932.644756098563
 31
0.0
  0
LINE
  5
92C
330
1F
100
AcDbEntity
  8
Specialized_Text
  6
Continuous
100
AcDbLine
 10
6986.62664746231
 20
3930.644756098563
 30
0.0
 11
6986.62664746231
 21
3933.644756098563
 31
0.0
  0
LINE
  5
92D
330
1F
100
AcDbEntity
  8
Specialized_Text
  6
Continuous
100
AcDbLine
 10
7044.883166733845
 20
3869.755865196874
 30
0.0
 11
6982.876647462309
 21
3869.755865196874
 31
0.0
  0
LINE
  5
92E
330
1F
100
AcDbEntity
  8
Specialized_Text
  6
Continuous
100
AcDbLine
 10
6990.376647462309
 20
3930.644756098563
 30
0.0
 11
6982.876647462309
 21
3930.644756098563
 31
0.0
  0
LINE
  5
94D
330
1F
100
AcDbEntity
  8
Specialized_Fills
  6
Continuous
100
AcDbLine
 10
7219.72969151751
 20
3977.664113766876
 30
0.0
 11
7223.403222706868
 21
3982.042057759301
 31
0.0
  0
LINE
  5
94E
330
1F
100
AcDbEntity
  8
Specialized_Fills
  6
Continuous
100
AcDbLine
 10
7152.83072295394
 20
3903.366883366246
 30
0.0
 11
7156.504254143297
 21
3907.744827358671
 31
0.0
  0
LINE
  5
94F
330
1F
100
AcDbEntity
  8
Specialized_Fills
  6
Continuous
100
AcDbLine
 10
7152.83072295394
 20
4030.199441675974
 30
0.0
 11
7156.504254143297
 21
4034.577385668399
 31
0.0
  0
LINE
  5
950
330
1F
100
AcDbEntity
  8
Specialized_Fills
  6
Continuous
100
AcDbLine
 10
7163.403749380437
 20
3846.049829795475
 30
0.0
 11
7167.077280569795
 21
3850.4277737879
 31
0.0
  0
LINE
  5
951
330
1F
100
AcDbEntity
  8
Specialized_Fills
  6
Continuous
100
AcDbLine
 10
7163.403749380437
 20
3972.882388105205
 30
0.0
 11
7167.077280569795
 21
3977.26033209763
 31
0.0
  0
LINE
  5
952
330
1F
100
AcDbEntity
  8
Specialized_Fills
  6
Continuous
100
AcDbLine
 10
7207.486123652738
 20
3898.585157704575
 30
0.0
 11
7208.67759647094
 21
3900.005099716143
 31
0.0
  0
LINE
  5
953
330
1F
100
AcDbEntity
  8
Specialized_Fills
  6
Continuous
100
AcDbLine
 10
7207.486123652738
 20
4025.417716014304
 30
0.0
 11
7211.159654842099
 21
4029.795660006729
 31
0.0
  0
LINE
  5
954
330
1F
100
AcDbEntity
  8
Specialized_Fills
  6
Continuous
100
AcDbLine
 10
7152.830726805041
 20
3903.366835651692
 30
0.0
 11
7157.385328964716
 21
3902.96835959585
 31
0.0
  0
LINE
  5
955
330
1F
100
AcDbEntity
  8
Specialized_Fills
  6
Continuous
100
AcDbLine
 10
7152.830726805041
 20
4030.199393961422
 30
0.0
 11
7157.385328964716
 21
4029.800917905579
 31
0.0
  0
LINE
  5
956
330
1F
100
AcDbEntity
  8
Specialized_Fills
  6
Continuous
100
AcDbLine
 10
7207.485952721146
 20
3898.585122981585
 30
0.0
 11
7207.885192480414
 21
3898.55019402862
 31
0.0
  0
LINE
  5
957
330
1F
100
AcDbEntity
  8
Specialized_Fills
  6
Continuous
100
AcDbLine
 10
7207.485952721146
 20
4025.417681291314
 30
0.0
 11
7212.040554880821
 21
4025.019205235471
 31
0.0
  0
LINE
  5
958
330
1F
100
AcDbEntity
  8
Specialized_Fills
  6
Continuous
100
AcDbLine
 10
7219.72969151751
 20
3977.664113766876
 30
0.0
 11
7224.284293677185
 21
3977.265637711034
 31
0.0
  0
LINE
  5
959
330
1F
100
AcDbEntity
  8
Specialized_Fills
  6
Continuous
100
AcDbLine
 10
7163.403574597741
 20
3846.049842787039
 30
0.0
 11
7167.958176757416
 21
3845.651366731196
 31
0.0
  0
LINE
  5
95A
330
1F
100
AcDbEntity
  8
Specialized_Fills
  6
Continuous
100
AcDbLine
 10
7163.403574597741
 20
3972.882401096768
 30
0.0
 11
7167.958176757416
 21
3972.483925040926
 31
0.0
  0
LINE
  5
95B
330
1F
100
AcDbEntity
  8
Specialized_Fills
  6
Continuous
100
AcDbLine
 10
7224.28429151751
 20
3977.265638766875
 30
0.0
 11
7223.403258099705
 21
3982.042063069292
 31
0.0
  0
LINE
  5
95C
330
1F
100
AcDbEntity
  8
Specialized_Fills
  6
Continuous
100
AcDbLine
 10
7167.958100195074
 20
3845.650995174239
 30
0.0
 11
7167.07706677727
 21
3850.427419476655
 31
0.0
  0
LINE
  5
95D
330
1F
100
AcDbEntity
  8
Specialized_Fills
  6
Continuous
100
AcDbLine
 10
7167.958100195074
 20
3972.483553483968
 30
0.0
 11
7167.07706677727
 21
3977.259977786385
 31
0.0
  0
LINE
  5
95E
330
1F
100
AcDbEntity
  8
Specialized_Fills
  6
Continuous
100
AcDbLine
 10
7157.385699181422
 20
3902.968086803233
 30
0.0
 11
7156.504665763619
 21
3907.74451110565
 31
0.0
  0
LINE
  5
95F
330
1F
100
AcDbEntity
  8
Specialized_Fills
  6
Continuous
100
AcDbLine
 10
7157.385699181422
 20
4029.800645112962
 30
0.0
 11
7156.504665763619
 21
4034.577069415379
 31
0.0
  0
LINE
  5
960
330
1F
100
AcDbEntity
  8
Specialized_Fills
  6
Continuous
100
AcDbLine
 10
7212.040850694862
 20
4025.018559830056
 30
0.0
 11
7211.159817277058
 21
4029.794984132472
 31
0.0
  0
LINE
  5
961
330
1F
100
AcDbEntity
  8
Specialized_Fills
  6
Continuous
100
AcDbLine
 10
7219.72969151751
 20
3992.904113766876
 30
0.0
 11
7225.664794869368
 21
3999.089766881363
 31
0.0
  0
LINE
  5
962
330
1F
100
AcDbEntity
  8
Specialized_Fills
  6
Continuous
100
AcDbLine
 10
7190.072060949273
 20
3980.291415387057
 30
0.0
 11
7196.007164301133
 21
3986.477068501545
 31
0.0
  0
LINE
  5
963
330
1F
100
AcDbEntity
  8
Specialized_Fills
  6
Continuous
100
AcDbLine
 10
7226.506661517508
 20
3991.853063766875
 30
0.0
 11
7225.664790317098
 21
3999.089759361684
 31
0.0
  0
LINE
  5
964
330
1F
100
AcDbEntity
  8
Specialized_Fills
  6
Continuous
100
AcDbLine
 10
7196.849043426428
 20
3979.240383396189
 30
0.0
 11
7196.007172226018
 21
3986.477078990997
 31
0.0
  0
LINE
  5
965
330
1F
100
AcDbEntity
  8
Specialized_Fills
  6
Continuous
100
AcDbLine
 10
7219.72969151751
 20
3992.904113766876
 30
0.0
 11
7226.50666850777
 21
3991.853044371693
 31
0.0
  0
LINE
  5
966
330
1F
100
AcDbEntity
  8
Specialized_Fills
  6
Continuous
100
AcDbLine
 10
7190.072072564753
 20
3980.291281024685
 30
0.0
 11
7196.849049555012
 21
3979.240211629502
 31
0.0
  0
LINE
  5
967
330
1F
100
AcDbEntity
  8
Specialized_Fills
  6
Continuous
100
AcDbLine
 10
7134.908830380197
 20
3917.518084991991
 30
0.0
 11
7140.24424251763
 21
3919.566157823643
 31
0.0
  0
LINE
  5
968
330
1F
100
AcDbEntity
  8
Specialized_Fills
  6
Continuous
100
AcDbLine
 10
7134.908830380197
 20
4044.350643301721
 30
0.0
 11
7140.24424251763
 21
4046.398716133372
 31
0.0
  0
LINE
  5
969
330
1F
100
AcDbEntity
  8
Specialized_Fills
  6
Continuous
100
AcDbLine
 10
7245.890173216072
 20
4044.350643301721
 30
0.0
 11
7251.225585353505
 21
4046.398716133372
 31
0.0
  0
LINE
  5
96A
330
1F
100
AcDbEntity
  8
Specialized_Fills
  6
Continuous
100
AcDbLine
 10
7180.393294330814
 20
3886.838429436963
 30
0.0
 11
7185.728706468245
 21
3888.886502268614
 31
0.0
  0
LINE
  5
96B
330
1F
100
AcDbEntity
  8
Specialized_Fills
  6
Continuous
100
AcDbLine
 10
7180.393294330814
 20
4013.670987746691
 30
0.0
 11
7185.728706468245
 21
4015.719060578343
 31
0.0
  0
LINE
  5
96C
330
1F
100
AcDbEntity
  8
Specialized_Fills
  6
Continuous
100
AcDbLine
 10
7213.787284331819
 20
3935.748488001248
 30
0.0
 11
7214.144621956378
 21
3935.885657063682
 31
0.0
  0
LINE
  5
96D
330
1F
100
AcDbEntity
  8
Specialized_Fills
  6
Continuous
100
AcDbLine
 10
7213.787284331819
 20
4062.581046310977
 30
0.0
 11
7214.144621956378
 21
4062.71821537341
 31
0.0
  0
LINE
  5
96E
330
1F
100
AcDbEntity
  8
Specialized_Fills
  6
Continuous
100
AcDbLine
 10
7161.85281263225
 20
3958.414458211847
 30
0.0
 11
7167.188224769681
 21
3960.462531043499
 31
0.0
  0
LINE
  5
96F
330
1F
100
AcDbEntity
  8
Specialized_Fills
  6
Continuous
100
AcDbLine
 10
7161.85281263225
 20
4085.247016521576
 30
0.0
 11
7166.787156167949
 21
4087.14113354144
 31
0.0
  0
LINE
  5
970
330
1F
100
AcDbEntity
  8
Specialized_Fills
  6
Continuous
100
AcDbLine
 10
7134.908957185928
 20
3917.517945293841
 30
0.0
 11
7138.699316967652
 21
3914.961315339173
 31
0.0
  0
LINE
  5
971
330
1F
100
AcDbEntity
  8
Specialized_Fills
  6
Continuous
100
AcDbLine
 10
7134.908957185928
 20
4044.35050360357
 30
0.0
 11
7138.699316967652
 21
4041.793873648902
 31
0.0
  0
LINE
  5
972
330
1F
100
AcDbEntity
  8
Specialized_Fills
  6
Continuous
100
AcDbLine
 10
7245.890300021803
 20
4044.35050360357
 30
0.0
 11
7249.680659803527
 21
4041.793873648902
 31
0.0
  0
LINE
  5
973
330
1F
100
AcDbEntity
  8
Specialized_Fills
  6
Continuous
100
AcDbLine
 10
7180.393274566589
 20
3886.838385837823
 30
0.0
 11
7184.183634348311
 21
3884.281755883154
 31
0.0
  0
LINE
  5
974
330
1F
100
AcDbEntity
  8
Specialized_Fills
  6
Continuous
100
AcDbLine
 10
7180.393274566589
 20
4013.670944147552
 30
0.0
 11
7184.183634348311
 21
4011.114314192884
 31
0.0
  0
LINE
  5
975
330
1F
100
AcDbEntity
  8
Specialized_Fills
  6
Continuous
100
AcDbLine
 10
7161.852666062294
 20
3958.414554310856
 30
0.0
 11
7165.643025844016
 21
3955.857924356188
 31
0.0
  0
LINE
  5
976
330
1F
100
AcDbEntity
  8
Specialized_Fills
  6
Continuous
100
AcDbLine
 10
7161.852666062294
 20
4085.247112620586
 30
0.0
 11
7165.643025844016
 21
4082.690482665918
 31
0.0
  0
LINE
  5
977
330
1F
100
AcDbEntity
  8
Specialized_Fills
  6
Continuous
100
AcDbLine
 10
7213.787284331819
 20
3934.821383555544
 30
0.0
 11
7214.144435246971
 21
3935.885793800036
 31
0.0
  0
LINE
  5
978
330
1F
100
AcDbEntity
  8
Specialized_Fills
  6
Continuous
100
AcDbLine
 10
7213.787284331819
 20
4061.653941865273
 30
0.0
 11
7214.144435246971
 21
4062.718352109765
 31
0.0
  0
LINE
  5
979
330
1F
100
AcDbEntity
  8
Specialized_Fills
  6
Continuous
100
AcDbLine
 10
7138.699360067675
 20
3914.961314511881
 30
0.0
 11
7140.244415183179
 21
3919.566013599775
 31
0.0
  0
LINE
  5
97A
330
1F
100
AcDbEntity
  8
Specialized_Fills
  6
Continuous
100
AcDbLine
 10
7138.699360067675
 20
4041.793872821609
 30
0.0
 11
7140.244415183179
 21
4046.398571909504
 31
0.0
  0
LINE
  5
97B
330
1F
100
AcDbEntity
  8
Specialized_Fills
  6
Continuous
100
AcDbLine
 10
7249.68070290355
 20
4041.793872821609
 30
0.0
 11
7251.225758019052
 21
4046.398571909504
 31
0.0
  0
LINE
  5
97C
330
1F
100
AcDbEntity
  8
Specialized_Fills
  6
Continuous
100
AcDbLine
 10
7165.642984526631
 20
3955.857952026958
 30
0.0
 11
7167.188039642136
 21
3960.462651114852
 31
0.0
  0
LINE
  5
97D
330
1F
100
AcDbEntity
  8
Specialized_Fills
  6
Continuous
100
AcDbLine
 10
7165.642984526631
 20
4082.690510336688
 30
0.0
 11
7166.787156167949
 21
4086.100463845983
 31
0.0
  0
LINE
  5
97E
330
1F
100
AcDbEntity
  8
Specialized_Fills
  6
Continuous
100
AcDbLine
 10
7184.183645912672
 20
3884.281782771963
 30
0.0
 11
7185.728701028176
 21
3888.886481859857
 31
0.0
  0
LINE
  5
97F
330
1F
100
AcDbEntity
  8
Specialized_Fills
  6
Continuous
100
AcDbLine
 10
7184.183645912672
 20
4011.114341081692
 30
0.0
 11
7185.728701028176
 21
4015.719040169588
 31
0.0
  0
POINT
  5
980
330
1F
100
AcDbEntity
  8
Specialized_Fills
  6
Continuous
100
AcDbPoint
 10
7222.509434443042
 20
3926.931090442984
 30
0.0
  0
POINT
  5
981
330
1F
100
AcDbEntity
  8
Specialized_Fills
  6
Continuous
100
AcDbPoint
 10
7222.509434443042
 20
4053.763648752712
 30
0.0
  0
POINT
  5
982
330
1F
100
AcDbEntity
  8
Specialized_Fills
  6
Continuous
100
AcDbPoint
 10
7221.582853467864
 20
4028.397137090767
 30
0.0
  0
POINT
  5
983
330
1F
100
AcDbEntity
  8
Specialized_Fills
  6
Continuous
100
AcDbPoint
 10
7150.017208625676
 20
3931.809307601621
 30
0.0
  0
POINT
  5
984
330
1F
100
AcDbEntity
  8
Specialized_Fills
  6
Continuous
100
AcDbPoint
 10
7150.017208625676
 20
4058.64186591135
 30
0.0
  0
POINT
  5
985
330
1F
100
AcDbEntity
  8
Specialized_Fills
  6
Continuous
100
AcDbPoint
 10
7220.656272492687
 20
4003.030625428822
 30
0.0
  0
POINT
  5
986
330
1F
100
AcDbEntity
  8
Specialized_Fills
  6
Continuous
100
AcDbPoint
 10
7149.090627650498
 20
3906.442795939675
 30
0.0
  0
POINT
  5
987
330
1F
100
AcDbEntity
  8
Specialized_Fills
  6
Continuous
100
AcDbPoint
 10
7149.090627650498
 20
4033.275354249404
 30
0.0
  0
POINT
  5
988
330
1F
100
AcDbEntity
  8
Specialized_Fills
  6
Continuous
100
AcDbPoint
 10
7219.72969151751
 20
3977.664113766876
 30
0.0
  0
POINT
  5
989
330
1F
100
AcDbEntity
  8
Specialized_Fills
  6
Continuous
100
AcDbPoint
 10
7148.16404667532
 20
3881.076284277729
 30
0.0
  0
POINT
  5
98A
330
1F
100
AcDbEntity
  8
Specialized_Fills
  6
Continuous
100
AcDbPoint
 10
7148.16404667532
 20
4007.908842587458
 30
0.0
  0
POINT
  5
98B
330
1F
100
AcDbEntity
  8
Specialized_Fills
  6
Continuous
100
AcDbPoint
 10
7188.66790811055
 20
3912.15599027434
 30
0.0
  0
POINT
  5
98C
330
1F
100
AcDbEntity
  8
Specialized_Fills
  6
Continuous
100
AcDbPoint
 10
7188.66790811055
 20
4038.988548584069
 30
0.0
  0
POINT
  5
98D
330
1F
100
AcDbEntity
  8
Specialized_Fills
  6
Continuous
100
AcDbPoint
 10
7218.803110542332
 20
3952.29760210493
 30
0.0
  0
POINT
  5
98E
330
1F
100
AcDbEntity
  8
Specialized_Fills
  6
Continuous
100
AcDbPoint
 10
7218.803110542332
 20
4079.130160414659
 30
0.0
  0
POINT
  5
98F
330
1F
100
AcDbEntity
  8
Specialized_Fills
  6
Continuous
100
AcDbPoint
 10
7147.237465700142
 20
3855.709772615783
 30
0.0
  0
POINT
  5
990
330
1F
100
AcDbEntity
  8
Specialized_Fills
  6
Continuous
100
AcDbPoint
 10
7147.237465700142
 20
3982.542330925513
 30
0.0
  0
POINT
  5
991
330
1F
100
AcDbEntity
  8
Specialized_Fills
  6
Continuous
100
AcDbPoint
 10
7187.74132713537
 20
3886.789478612394
 30
0.0
  0
POINT
  5
992
330
1F
100
AcDbEntity
  8
Specialized_Fills
  6
Continuous
100
AcDbPoint
 10
7187.74132713537
 20
4013.622036922123
 30
0.0
  0
POINT
  5
993
330
1F
100
AcDbEntity
  8
Specialized_Fills
  6
Continuous
100
AcDbPoint
 10
7146.310884724965
 20
3830.343260953837
 30
0.0
  0
POINT
  5
994
330
1F
100
AcDbEntity
  8
Specialized_Fills
  6
Continuous
100
AcDbPoint
 10
7146.310884724965
 20
3957.175819263567
 30
0.0
  0
POINT
  5
995
330
1F
100
AcDbEntity
  8
Specialized_Fills
  6
Continuous
100
AcDbPoint
 10
7146.310884724965
 20
4084.008377573296
 30
0.0
  0
POINT
  5
996
330
1F
100
AcDbEntity
  8
Specialized_Fills
  6
Continuous
100
AcDbPoint
 10
7186.814746160194
 20
3861.422966950448
 30
0.0
  0
POINT
  5
997
330
1F
100
AcDbEntity
  8
Specialized_Fills
  6
Continuous
100
AcDbPoint
 10
7186.814746160194
 20
3988.255525260178
 30
0.0
  0
POINT
  5
998
330
1F
100
AcDbEntity
  8
Specialized_Fills
  6
Continuous
100
AcDbPoint
 10
7145.384303749789
 20
3931.809307601621
 30
0.0
  0
POINT
  5
999
330
1F
100
AcDbEntity
  8
Specialized_Fills
  6
Continuous
100
AcDbPoint
 10
7145.384303749789
 20
4058.64186591135
 30
0.0
  0
POINT
  5
99A
330
1F
100
AcDbEntity
  8
Specialized_Fills
  6
Continuous
100
AcDbPoint
 10
7185.888165185017
 20
3962.889013598232
 30
0.0
  0
POINT
  5
99B
330
1F
100
AcDbEntity
  8
Specialized_Fills
  6
Continuous
100
AcDbPoint
 10
7185.888165185017
 20
4089.721571907961
 30
0.0
  0
POINT
  5
99C
330
1F
100
AcDbEntity
  8
Specialized_Fills
  6
Continuous
100
AcDbPoint
 10
7184.961584209839
 20
3937.522501936286
 30
0.0
  0
POINT
  5
99D
330
1F
100
AcDbEntity
  8
Specialized_Fills
  6
Continuous
100
AcDbPoint
 10
7184.961584209839
 20
4064.355060246015
 30
0.0
  0
POINT
  5
99E
330
1F
100
AcDbEntity
  8
Specialized_Fills
  6
Continuous
100
AcDbPoint
 10
7129.764251332556
 20
3908.428511146608
 30
0.0
  0
POINT
  5
99F
330
1F
100
AcDbEntity
  8
Specialized_Fills
  6
Continuous
100
AcDbPoint
 10
7129.764251332556
 20
4035.261069456336
 30
0.0
  0
POINT
  5
9A0
330
1F
100
AcDbEntity
  8
Specialized_Fills
  6
Continuous
100
AcDbPoint
 10
7240.745594168429
 20
4035.261069456336
 30
0.0
  0
POINT
  5
9A1
330
1F
100
AcDbEntity
  8
Specialized_Fills
  6
Continuous
100
AcDbPoint
 10
7148.840146187819
 20
3910.939900348018
 30
0.0
  0
POINT
  5
9A2
330
1F
100
AcDbEntity
  8
Specialized_Fills
  6
Continuous
100
AcDbPoint
 10
7148.840146187819
 20
4037.772458657747
 30
0.0
  0
POINT
  5
9A3
330
1F
100
AcDbEntity
  8
Specialized_Fills
  6
Continuous
100
AcDbPoint
 10
7177.699519790633
 20
3914.739308961635
 30
0.0
  0
POINT
  5
9A4
330
1F
100
AcDbEntity
  8
Specialized_Fills
  6
Continuous
100
AcDbPoint
 10
7177.699519790633
 20
4041.571867271365
 30
0.0
  0
POINT
  5
9A5
330
1F
100
AcDbEntity
  8
Specialized_Fills
  6
Continuous
100
AcDbPoint
 10
7220.699695415338
 20
4005.206897010901
 30
0.0
  0
POINT
  5
9A6
330
1F
100
AcDbEntity
  8
Specialized_Fills
  6
Continuous
100
AcDbPoint
 10
7128.794247434727
 20
3880.885727902582
 30
0.0
  0
POINT
  5
9A7
330
1F
100
AcDbEntity
  8
Specialized_Fills
  6
Continuous
100
AcDbPoint
 10
7128.794247434727
 20
4007.718286212312
 30
0.0
  0
POINT
  5
9A8
330
1F
100
AcDbEntity
  8
Specialized_Fills
  6
Continuous
100
AcDbPoint
 10
7239.775590270601
 20
4007.718286212312
 30
0.0
  0
POINT
  5
9A9
330
1F
100
AcDbEntity
  8
Specialized_Fills
  6
Continuous
100
AcDbPoint
 10
7157.653621037541
 20
3884.6851365162
 30
0.0
  0
POINT
  5
9AA
330
1F
100
AcDbEntity
  8
Specialized_Fills
  6
Continuous
100
AcDbPoint
 10
7157.653621037541
 20
4011.517694825929
 30
0.0
  0
POINT
  5
9AB
330
1F
100
AcDbEntity
  8
Specialized_Fills
  6
Continuous
100
AcDbPoint
 10
7205.777759741708
 20
4017.853357880575
 30
0.0
  0
POINT
  5
9AC
330
1F
100
AcDbEntity
  8
Specialized_Fills
  6
Continuous
100
AcDbPoint
 10
7219.72969151751
 20
3977.664113766876
 30
0.0
  0
POINT
  5
9AD
330
1F
100
AcDbEntity
  8
Specialized_Fills
  6
Continuous
100
AcDbPoint
 10
7137.607722284449
 20
3854.630964070764
 30
0.0
  0
POINT
  5
9AE
330
1F
100
AcDbEntity
  8
Specialized_Fills
  6
Continuous
100
AcDbPoint
 10
7137.607722284449
 20
3981.463522380494
 30
0.0
  0
POINT
  5
9AF
330
1F
100
AcDbEntity
  8
Specialized_Fills
  6
Continuous
100
AcDbPoint
 10
7185.731860988616
 20
3860.96662712541
 30
0.0
  0
POINT
  5
9B0
330
1F
100
AcDbEntity
  8
Specialized_Fills
  6
Continuous
100
AcDbPoint
 10
7185.731860988616
 20
3987.79918543514
 30
0.0
  0
POINT
  5
9B1
330
1F
100
AcDbEntity
  8
Specialized_Fills
  6
Continuous
100
AcDbPoint
 10
7204.80775584388
 20
3990.31057463655
 30
0.0
  0
POINT
  5
9B2
330
1F
100
AcDbEntity
  8
Specialized_Fills
  6
Continuous
100
AcDbPoint
 10
7228.543166367231
 20
3951.409349935058
 30
0.0
  0
POINT
  5
9B3
330
1F
100
AcDbEntity
  8
Specialized_Fills
  6
Continuous
100
AcDbPoint
 10
7228.543166367231
 20
4078.241908244787
 30
0.0
  0
POINT
  5
9B4
330
1F
100
AcDbEntity
  8
Specialized_Fills
  6
Continuous
100
AcDbPoint
 10
7165.685962235525
 20
3957.745012989704
 30
0.0
  0
POINT
  5
9B5
330
1F
100
AcDbEntity
  8
Specialized_Fills
  6
Continuous
100
AcDbPoint
 10
7165.685962235525
 20
4084.577571299433
 30
0.0
  0
POINT
  5
9B6
330
1F
100
AcDbEntity
  8
Specialized_Fills
  6
Continuous
100
AcDbPoint
 10
7184.761857090788
 20
3960.256402191113
 30
0.0
  0
POINT
  5
9B7
330
1F
100
AcDbEntity
  8
Specialized_Fills
  6
Continuous
100
AcDbPoint
 10
7184.761857090788
 20
4087.088960500843
 30
0.0
  0
POINT
  5
9B8
330
1F
100
AcDbEntity
  8
Specialized_Fills
  6
Continuous
100
AcDbPoint
 10
7213.621230693601
 20
3964.055810804732
 30
0.0
  0
POINT
  5
9B9
330
1F
100
AcDbEntity
  8
Specialized_Fills
  6
Continuous
100
AcDbPoint
 10
7213.621230693601
 20
4090.888369114462
 30
0.0
  0
POINT
  5
9BA
330
1F
100
AcDbEntity
  8
Specialized_Fills
  6
Continuous
100
AcDbPoint
 10
7193.575331940508
 20
3934.001638359296
 30
0.0
  0
POINT
  5
9BB
330
1F
100
AcDbEntity
  8
Specialized_Fills
  6
Continuous
100
AcDbPoint
 10
7193.575331940508
 20
4060.834196669026
 30
0.0
  0
POINT
  5
9BC
330
1F
100
AcDbEntity
  8
Specialized_Fills
  6
Continuous
100
AcDbPoint
 10
7203.108645809009
 20
3925.065521542531
 30
0.0
  0
POINT
  5
9BD
330
1F
100
AcDbEntity
  8
Specialized_Fills
  6
Continuous
100
AcDbPoint
 10
7203.108645809009
 20
4051.898079852261
 30
0.0
  0
POINT
  5
9BE
330
1F
100
AcDbEntity
  8
Specialized_Fills
  6
Continuous
100
AcDbPoint
 10
7162.431467258947
 20
3926.784144740333
 30
0.0
  0
POINT
  5
9BF
330
1F
100
AcDbEntity
  8
Specialized_Fills
  6
Continuous
100
AcDbPoint
 10
7162.431467258947
 20
4053.616703050063
 30
0.0
  0
POINT
  5
9C0
330
1F
100
AcDbEntity
  8
Specialized_Fills
  6
Continuous
100
AcDbPoint
 10
7178.498074301682
 20
3916.548587201326
 30
0.0
  0
POINT
  5
9C1
330
1F
100
AcDbEntity
  8
Specialized_Fills
  6
Continuous
100
AcDbPoint
 10
7178.498074301682
 20
4043.381145511055
 30
0.0
  0
POINT
  5
9C2
330
1F
100
AcDbEntity
  8
Specialized_Fills
  6
Continuous
100
AcDbPoint
 10
7232.73563154476
 20
4055.335326247865
 30
0.0
  0
POINT
  5
9C3
330
1F
100
AcDbEntity
  8
Specialized_Fills
  6
Continuous
100
AcDbPoint
 10
7137.82089575162
 20
3918.267210399129
 30
0.0
  0
POINT
  5
9C4
330
1F
100
AcDbEntity
  8
Specialized_Fills
  6
Continuous
100
AcDbPoint
 10
7137.82089575162
 20
4045.099768708857
 30
0.0
  0
POINT
  5
9C5
330
1F
100
AcDbEntity
  8
Specialized_Fills
  6
Continuous
100
AcDbPoint
 10
7248.802238587494
 20
4045.099768708857
 30
0.0
  0
POINT
  5
9C6
330
1F
100
AcDbEntity
  8
Specialized_Fills
  6
Continuous
100
AcDbPoint
 10
7187.948709724956
 20
3886.332270877427
 30
0.0
  0
POINT
  5
9C7
330
1F
100
AcDbEntity
  8
Specialized_Fills
  6
Continuous
100
AcDbPoint
 10
7187.948709724956
 20
4013.164829187156
 30
0.0
  0
POINT
  5
9C8
330
1F
100
AcDbEntity
  8
Specialized_Fills
  6
Continuous
100
AcDbPoint
 10
7147.271531174894
 20
3888.050894075229
 30
0.0
  0
POINT
  5
9C9
330
1F
100
AcDbEntity
  8
Specialized_Fills
  6
Continuous
100
AcDbPoint
 10
7147.271531174894
 20
4014.883452384958
 30
0.0
  0
POINT
  5
9CA
330
1F
100
AcDbEntity
  8
Specialized_Fills
  6
Continuous
100
AcDbPoint
 10
7213.787284331819
 20
3972.508244173469
 30
0.0
  0
POINT
  5
9CB
330
1F
100
AcDbEntity
  8
Specialized_Fills
  6
Continuous
100
AcDbPoint
 10
7217.575695460706
 20
4016.60207558276
 30
0.0
  0
POINT
  5
9CC
330
1F
100
AcDbEntity
  8
Specialized_Fills
  6
Continuous
100
AcDbPoint
 10
7173.110105781758
 20
3847.394309061542
 30
0.0
  0
POINT
  5
9CD
330
1F
100
AcDbEntity
  8
Specialized_Fills
  6
Continuous
100
AcDbPoint
 10
7173.110105781758
 20
3974.226867371271
 30
0.0
  0
POINT
  5
9CE
330
1F
100
AcDbEntity
  8
Specialized_Fills
  6
Continuous
100
AcDbPoint
 10
7189.176712824494
 20
3963.991309832265
 30
0.0
  0
POINT
  5
9CF
330
1F
100
AcDbEntity
  8
Specialized_Fills
  6
Continuous
100
AcDbPoint
 10
7189.176712824494
 20
4090.823868141995
 30
0.0
  0
POINT
  5
9D0
330
1F
100
AcDbEntity
  8
Specialized_Fills
  6
Continuous
100
AcDbPoint
 10
7132.432927231696
 20
3849.112932259344
 30
0.0
  0
POINT
  5
9D1
330
1F
100
AcDbEntity
  8
Specialized_Fills
  6
Continuous
100
AcDbPoint
 10
7132.432927231696
 20
3975.945490569073
 30
0.0
  0
POINT
  5
9D2
330
1F
100
AcDbEntity
  8
Specialized_Fills
  6
Continuous
100
AcDbPoint
 10
7243.414270067571
 20
3975.945490569073
 30
0.0
  0
POINT
  5
9D3
330
1F
100
AcDbEntity
  8
Specialized_Fills
  6
Continuous
100
AcDbPoint
 10
7148.499534274432
 20
3838.877374720336
 30
0.0
  0
POINT
  5
9D4
330
1F
100
AcDbEntity
  8
Specialized_Fills
  6
Continuous
100
AcDbPoint
 10
7148.499534274432
 20
3965.709933030067
 30
0.0
  0
POINT
  5
9D5
330
1F
100
AcDbEntity
  8
Specialized_Fills
  6
Continuous
100
AcDbPoint
 10
7148.499534274432
 20
4092.542491339797
 30
0.0
  0
POINT
  5
9D6
330
1F
100
AcDbEntity
  8
Specialized_Fills
  6
Continuous
100
AcDbPoint
 10
7198.627348247767
 20
3933.774993508365
 30
0.0
  0
POINT
  5
9D7
330
1F
100
AcDbEntity
  8
Specialized_Fills
  6
Continuous
100
AcDbPoint
 10
7198.627348247767
 20
4060.607551818094
 30
0.0
  0
POINT
  5
9D8
330
1F
100
AcDbEntity
  8
Specialized_Fills
  6
Continuous
100
AcDbPoint
 10
7218.803698560245
 20
3967.428556227869
 30
0.0
  0
POINT
  5
9D9
330
1F
100
AcDbEntity
  8
Specialized_Fills
  6
Continuous
100
AcDbPoint
 10
7218.803698560245
 20
4094.261114537598
 30
0.0
  0
POINT
  5
9DA
330
1F
100
AcDbEntity
  8
Specialized_Fills
  6
Continuous
100
AcDbPoint
 10
7157.950169697705
 20
3935.493616706168
 30
0.0
  0
POINT
  5
9DB
330
1F
100
AcDbEntity
  8
Specialized_Fills
  6
Continuous
100
AcDbPoint
 10
7157.950169697705
 20
4062.326175015896
 30
0.0
  0
POINT
  5
9DC
330
1F
100
AcDbEntity
  8
Specialized_Fills
  6
Continuous
100
AcDbPoint
 10
7228.254333983518
 20
3937.212239903969
 30
0.0
  0
POINT
  5
9DD
330
1F
100
AcDbEntity
  8
Specialized_Fills
  6
Continuous
100
AcDbPoint
 10
7228.254333983518
 20
4064.044798213699
 30
0.0
  0
POINT
  5
9DE
330
1F
100
AcDbEntity
  8
Specialized_Fills
  6
Continuous
100
AcDbPoint
 10
7176.159320126327
 20
3911.553178145076
 30
0.0
  0
POINT
  5
9DF
330
1F
100
AcDbEntity
  8
Specialized_Fills
  6
Continuous
100
AcDbPoint
 10
7176.159320126327
 20
4038.385736454805
 30
0.0
  0
POINT
  5
9E0
330
1F
100
AcDbEntity
  8
Specialized_Fills
  6
Continuous
100
AcDbPoint
 10
7131.720565710522
 20
3903.925230835076
 30
0.0
  0
POINT
  5
9E1
330
1F
100
AcDbEntity
  8
Specialized_Fills
  6
Continuous
100
AcDbPoint
 10
7131.720565710522
 20
4030.757789144806
 30
0.0
  0
POINT
  5
9E2
330
1F
100
AcDbEntity
  8
Specialized_Fills
  6
Continuous
100
AcDbPoint
 10
7242.701908546395
 20
4030.757789144806
 30
0.0
  0
POINT
  5
9E3
330
1F
100
AcDbEntity
  8
Specialized_Fills
  6
Continuous
100
AcDbPoint
 10
7173.013257513247
 20
3866.087450077145
 30
0.0
  0
POINT
  5
9E4
330
1F
100
AcDbEntity
  8
Specialized_Fills
  6
Continuous
100
AcDbPoint
 10
7173.013257513247
 20
3992.920008386876
 30
0.0
  0
POINT
  5
9E5
330
1F
100
AcDbEntity
  8
Specialized_Fills
  6
Continuous
100
AcDbPoint
 10
7191.271930759348
 20
3976.189016895273
 30
0.0
  0
POINT
  5
9E6
330
1F
100
AcDbEntity
  8
Specialized_Fills
  6
Continuous
100
AcDbPoint
 10
7128.574503097441
 20
3858.459502767146
 30
0.0
  0
POINT
  5
9E7
330
1F
100
AcDbEntity
  8
Specialized_Fills
  6
Continuous
100
AcDbPoint
 10
7128.574503097441
 20
3985.292061076876
 30
0.0
  0
POINT
  5
9E8
330
1F
100
AcDbEntity
  8
Specialized_Fills
  6
Continuous
100
AcDbPoint
 10
7239.555845933316
 20
3985.292061076876
 30
0.0
  0
POINT
  5
9E9
330
1F
100
AcDbEntity
  8
Specialized_Fills
  6
Continuous
100
AcDbPoint
 10
7146.833176343545
 20
3841.728511275544
 30
0.0
  0
POINT
  5
9EA
330
1F
100
AcDbEntity
  8
Specialized_Fills
  6
Continuous
100
AcDbPoint
 10
7146.833176343545
 20
3968.561069585274
 30
0.0
  0
POINT
  5
9EB
330
1F
100
AcDbEntity
  8
Specialized_Fills
  6
Continuous
100
AcDbPoint
 10
7146.833176343545
 20
4095.393627895003
 30
0.0
  0
POINT
  5
9EC
330
1F
100
AcDbEntity
  8
Specialized_Fills
  6
Continuous
100
AcDbPoint
 10
7175.934692471177
 20
3941.894443146351
 30
0.0
  0
POINT
  5
9EE
330
1F
100
AcDbEntity
  8
Specialized_Fills
  6
Continuous
100
AcDbPoint
 10
7131.495938055372
 20
3934.266495836352
 30
0.0
  0
POINT
  5
9EF
330
1F
100
AcDbEntity
  8
Specialized_Fills
  6
Continuous
100
AcDbPoint
 10
7131.495938055372
 20
4061.09905414608
 30
0.0
  0
POINT
  5
9F0
330
1F
100
AcDbEntity
  8
Specialized_Fills
  6
Continuous
100
AcDbPoint
 10
7242.477280891247
 20
4061.09905414608
 30
0.0
  0
LINE
  5
9F1
330
1F
100
AcDbEntity
  8
Specialized_Fills
  6
Continuous
100
AcDbLine
 10
7128.221833817093
 20
3833.907802466863
 30
0.0
 11
7133.900858477959
 21
3833.267565088
 31
0.0
  0
LINE
  5
9F2
330
1F
100
AcDbEntity
  8
Specialized_Fills
  6
Continuous
100
AcDbLine
 10
7128.221833817093
 20
3960.740360776592
 30
0.0
 11
7133.900858477959
 21
3960.100123397729
 31
0.0
  0
LINE
  5
9F3
330
1F
100
AcDbEntity
  8
Specialized_Fills
  6
Continuous
100
AcDbLine
 10
7239.203176652968
 20
3960.740360776592
 30
0.0
 11
7244.882201313832
 21
3960.100123397729
 31
0.0
  0
LINE
  5
9F4
330
1F
100
AcDbEntity
  8
Specialized_Fills
  6
Continuous
100
AcDbLine
 10
7128.221833817093
 20
4087.572919086322
 30
0.0
 11
7133.900858477959
 21
4086.932681707459
 31
0.0
  0
LINE
  5
9F5
330
1F
100
AcDbEntity
  8
Specialized_Fills
  6
Continuous
100
AcDbLine
 10
7239.203176652968
 20
4087.572919086322
 30
0.0
 11
7244.882201313832
 21
4086.932681707459
 31
0.0
  0
LINE
  5
9F6
330
1F
100
AcDbEntity
  8
Specialized_Fills
  6
Continuous
100
AcDbLine
 10
7128.221833817093
 20
3833.907802466863
 30
0.0
 11
7130.408156192458
 21
3829.892434679101
 31
0.0
  0
LINE
  5
9F7
330
1F
100
AcDbEntity
  8
Specialized_Fills
  6
Continuous
100
AcDbLine
 10
7128.221833817093
 20
3960.740360776592
 30
0.0
 11
7130.408156192458
 21
3956.724992988831
 31
0.0
  0
LINE
  5
9F8
330
1F
100
AcDbEntity
  8
Specialized_Fills
  6
Continuous
100
AcDbLine
 10
7239.203176652968
 20
3960.740360776592
 30
0.0
 11
7241.389499028331
 21
3956.724992988831
 31
0.0
  0
LINE
  5
9F9
330
1F
100
AcDbEntity
  8
Specialized_Fills
  6
Continuous
100
AcDbLine
 10
7128.221833817093
 20
4087.572919086322
 30
0.0
 11
7130.408156192458
 21
4083.55755129856
 31
0.0
  0
LINE
  5
9FA
330
1F
100
AcDbEntity
  8
Specialized_Fills
  6
Continuous
100
AcDbLine
 10
7239.203176652968
 20
4087.572919086322
 30
0.0
 11
7241.389499028331
 21
4083.55755129856
 31
0.0
  0
LINE
  5
9FB
330
1F
100
AcDbEntity
  8
Specialized_Fills
  6
Continuous
100
AcDbLine
 10
7130.408155878082
 20
3829.892437062412
 30
0.0
 11
7133.900882471936
 21
3833.267538533567
 31
0.0
  0
LINE
  5
9FC
330
1F
100
AcDbEntity
  8
Specialized_Fills
  6
Continuous
100
AcDbLine
 10
7130.408155878082
 20
3956.724995372141
 30
0.0
 11
7133.900882471936
 21
3960.100096843297
 31
0.0
  0
LINE
  5
9FD
330
1F
100
AcDbEntity
  8
Specialized_Fills
  6
Continuous
100
AcDbLine
 10
7241.389498713957
 20
3956.724995372141
 30
0.0
 11
7244.882225307811
 21
3960.100096843297
 31
0.0
  0
LINE
  5
9FE
330
1F
100
AcDbEntity
  8
Specialized_Fills
  6
Continuous
100
AcDbLine
 10
7130.408155878082
 20
4083.55755368187
 30
0.0
 11
7133.900882471936
 21
4086.932655153026
 31
0.0
  0
LINE
  5
9FF
330
1F
100
AcDbEntity
  8
Specialized_Fills
  6
Continuous
100
AcDbLine
 10
7241.389498713957
 20
4083.55755368187
 30
0.0
 11
7244.882225307811
 21
4086.932655153026
 31
0.0
  0
LINE
  5
A00
330
1F
100
AcDbEntity
  8
Specialized_Fills
  6
Continuous
100
AcDbLine
 10
7149.856188798705
 20
3868.549851886225
 30
0.0
 11
7151.820175262455
 21
3873.916786036204
 31
0.0
  0
LINE
  5
A01
330
1F
100
AcDbEntity
  8
Specialized_Fills
  6
Continuous
100
AcDbLine
 10
7149.856188798705
 20
3995.382410195955
 30
0.0
 11
7151.820175262455
 21
4000.749344345933
 31
0.0
  0
LINE
  5
A02
330
1F
100
AcDbEntity
  8
Specialized_Fills
  6
Continuous
100
AcDbLine
 10
7149.85603989324
 20
3868.549761054196
 30
0.0
 11
7154.274305043189
 21
3869.725395803908
 31
0.0
  0
LINE
  5
A03
330
1F
100
AcDbEntity
  8
Specialized_Fills
  6
Continuous
100
AcDbLine
 10
7149.85603989324
 20
3995.382319363925
 30
0.0
 11
7154.274305043189
 21
3996.557954113637
 31
0.0
  0
LINE
  5
A04
330
1F
100
AcDbEntity
  8
Specialized_Fills
  6
Continuous
100
AcDbLine
 10
7154.274802879131
 20
3869.724889628569
 30
0.0
 11
7151.820558054996
 21
3873.916205811251
 31
0.0
  0
LINE
  5
A05
330
1F
100
AcDbEntity
  8
Specialized_Fills
  6
Continuous
100
AcDbLine
 10
7154.274802879131
 20
3996.557447938299
 30
0.0
 11
7151.820558054996
 21
4000.74876412098
 31
0.0
  0
LINE
  5
A06
330
1F
100
AcDbEntity
  8
Specialized_Fills
  6
Continuous
100
AcDbLine
 10
7188.408490121974
 20
3920.835257848119
 30
0.0
 11
7193.743902259405
 21
3922.88333067977
 31
0.0
  0
LINE
  5
A07
330
1F
100
AcDbEntity
  8
Specialized_Fills
  6
Continuous
100
AcDbLine
 10
7188.408490121974
 20
4047.667816157848
 30
0.0
 11
7193.743902259405
 21
4049.715888989499
 31
0.0
  0
LINE
  5
A08
330
1F
100
AcDbEntity
  8
Specialized_Fills
  6
Continuous
100
AcDbLine
 10
7188.408470357749
 20
3920.835214248979
 30
0.0
 11
7192.198830139472
 21
3918.278584294311
 31
0.0
  0
LINE
  5
A09
330
1F
100
AcDbEntity
  8
Specialized_Fills
  6
Continuous
100
AcDbLine
 10
7188.408470357749
 20
4047.66777255871
 30
0.0
 11
7192.198830139472
 21
4045.111142604041
 31
0.0
  0
LINE
  5
A0A
330
1F
100
AcDbEntity
  8
Specialized_Fills
  6
Continuous
100
AcDbLine
 10
7192.198841703834
 20
3918.27861118312
 30
0.0
 11
7193.743896819336
 21
3922.883310271014
 31
0.0
  0
LINE
  5
A0B
330
1F
100
AcDbEntity
  8
Specialized_Fills
  6
Continuous
100
AcDbLine
 10
7192.198841703834
 20
4045.111169492849
 30
0.0
 11
7193.743896819336
 21
4049.715868580744
 31
0.0
  0
LINE
  5
A0C
330
1F
100
AcDbEntity
  8
Specialized_Fills
  6
Continuous
100
AcDbLine
 10
7189.107854964703
 20
3948.587287064438
 30
0.0
 11
7194.443267102134
 21
3950.635359896089
 31
0.0
  0
LINE
  5
A0D
330
1F
100
AcDbEntity
  8
Specialized_Fills
  6
Continuous
100
AcDbLine
 10
7189.107854964703
 20
4075.419845374167
 30
0.0
 11
7194.443267102134
 21
4077.467918205818
 31
0.0
  0
LINE
  5
A0E
330
1F
100
AcDbEntity
  8
Specialized_Fills
  6
Continuous
100
AcDbLine
 10
7189.107835200478
 20
3948.587243465297
 30
0.0
 11
7192.898194982202
 21
3946.030613510629
 31
0.0
  0
LINE
  5
A0F
330
1F
100
AcDbEntity
  8
Specialized_Fills
  6
Continuous
100
AcDbLine
 10
7189.107835200478
 20
4075.419801775027
 30
0.0
 11
7192.898194982202
 21
4072.863171820358
 31
0.0
  0
LINE
  5
A10
330
1F
100
AcDbEntity
  8
Specialized_Fills
  6
Continuous
100
AcDbLine
 10
7192.898206546563
 20
3946.030640399438
 30
0.0
 11
7194.443261662065
 21
3950.635339487333
 31
0.0
  0
LINE
  5
A11
330
1F
100
AcDbEntity
  8
Specialized_Fills
  6
Continuous
100
AcDbLine
 10
7192.898206546563
 20
4072.863198709168
 30
0.0
 11
7194.443261662065
 21
4077.467897797062
 31
0.0
  0
LINE
  5
A12
330
1F
100
AcDbEntity
  8
Specialized_Fills
  6
Continuous
100
AcDbLine
 10
7232.829690718523
 20
4019.449839497942
 30
0.0
 11
7238.165102855955
 21
4021.497912329593
 31
0.0
  0
LINE
  5
A13
330
1F
100
AcDbEntity
  8
Specialized_Fills
  6
Continuous
100
AcDbLine
 10
7232.829670954299
 20
4019.449795898801
 30
0.0
 11
7236.62003073602
 21
4016.893165944133
 31
0.0
  0
LINE
  5
A14
330
1F
100
AcDbEntity
  8
Specialized_Fills
  6
Continuous
100
AcDbLine
 10
7236.620042300382
 20
4016.893192832942
 30
0.0
 11
7238.165097415886
 21
4021.497891920836
 31
0.0
  0
LINE
  5
A15
330
1F
100
AcDbEntity
  8
Specialized_Fills
  6
Continuous
100
AcDbLine
 10
7129.815937044845
 20
3862.862744152106
 30
0.0
 11
7135.151349182276
 21
3864.910816983758
 31
0.0
  0
LINE
  5
A16
330
1F
100
AcDbEntity
  8
Specialized_Fills
  6
Continuous
100
AcDbLine
 10
7129.815937044845
 20
3989.695302461836
 30
0.0
 11
7135.151349182276
 21
3991.743375293488
 31
0.0
  0
LINE
  5
A17
330
1F
100
AcDbEntity
  8
Specialized_Fills
  6
Continuous
100
AcDbLine
 10
7240.79727988072
 20
3989.695302461836
 30
0.0
 11
7246.13269201815
 21
3991.743375293488
 31
0.0
  0
LINE
  5
A18
330
1F
100
AcDbEntity
  8
Specialized_Fills
  6
Continuous
100
AcDbLine
 10
7129.815937044845
 20
3862.862744152106
 30
0.0
 11
7133.606296826565
 21
3860.306114197438
 31
0.0
  0
LINE
  5
A19
330
1F
100
AcDbEntity
  8
Specialized_Fills
  6
Continuous
100
AcDbLine
 10
7129.815937044845
 20
3989.695302461836
 30
0.0
 11
7133.606296826565
 21
3987.138672507168
 31
0.0
  0
LINE
  5
A1A
330
1F
100
AcDbEntity
  8
Specialized_Fills
  6
Continuous
100
AcDbLine
 10
7240.79727988072
 20
3989.695302461836
 30
0.0
 11
7244.58763966244
 21
3987.138672507168
 31
0.0
  0
LINE
  5
A1B
330
1F
100
AcDbEntity
  8
Specialized_Fills
  6
Continuous
100
AcDbLine
 10
7133.606287044845
 20
3860.306114152107
 30
0.0
 11
7135.151342160348
 21
3864.910813240001
 31
0.0
  0
LINE
  5
A1C
330
1F
100
AcDbEntity
  8
Specialized_Fills
  6
Continuous
100
AcDbLine
 10
7133.606287044845
 20
3987.138672461837
 30
0.0
 11
7135.151342160348
 21
3991.743371549731
 31
0.0
  0
LINE
  5
A1D
330
1F
100
AcDbEntity
  8
Specialized_Fills
  6
Continuous
100
AcDbLine
 10
7244.587629880718
 20
3987.138672461837
 30
0.0
 11
7246.132684996222
 21
3991.743371549731
 31
0.0
  0
ENDSEC
  0
SECTION
  2
OBJECTS
  0
DICTIONARY
  5
C
330
0
100
AcDbDictionary
281
     1
  3
ACAD_CIP_PREVIOUS_PRODUCT_INFO
350
4C4
  3
ACAD_COLOR
350
4B8
  3
ACAD_DETAILVIEWSTYLE
350
4BD
  3
ACAD_GROUP
350
D
  3
ACAD_IMAGE_DICT
350
4E6
  3
ACAD_IMAGE_VARS
350
4EA
  3
ACAD_LAYOUT
350
1A
  3
ACAD_MATERIAL
350
3B
  3
ACAD_MLEADERSTYLE
350
4AB
  3
ACAD_MLINESTYLE
350
17
  3
ACAD_PLOTSETTINGS
350
19
  3
ACAD_PLOTSTYLENAME
350
E
  3
ACAD_SCALELIST
350
17C
  3
ACAD_SECTIONVIEWSTYLE
350
4BB
  3
ACAD_TABLESTYLE
350
4AA
  3
ACAD_VISUALSTYLE
350
2A
  3
ACAD_WIPEOUT_VARS
350
4C6
  3
ACDB_RECOMPOSE_DATA
350
AAA
  3
AcDbVariableDictionary
350
488
  3
AcDsDecomposeData
350
AB0
  3
WATERMARKS
350
486
  0
DICTIONARY
  5
4D2
330
2
100
AcDbDictionary
280
     1
281
     1
  3
ACAD_LAYERSTATES
360
4D3
  0
DICTIONARY
  5
51F
330
10
100
AcDbDictionary
280
     1
281
     1
  3
ADSK_XREC_LAYER_RECONCILED
360
520
  0
DICTIONARY
  5
521
330
40
100
AcDbDictionary
280
     1
281
     1
  3
ADSK_XREC_LAYER_RECONCILED
360
522
  0
DICTIONARY
  5
523
330
3D7
100
AcDbDictionary
280
     1
281
     1
  3
ADSK_XREC_LAYER_RECONCILED
360
524
  0
DICTIONARY
  5
525
330
413
100
AcDbDictionary
280
     1
281
     1
  3
ADSK_XREC_LAYER_RECONCILED
360
526
  0
DICTIONARY
  5
4CA
330
4C9
100
AcDbDictionary
280
     1
281
     1
  3
ADSK_XREC_LAYER_RECONCILED
360
527
  0
DICTIONARY
  5
62E
330
1F
100
AcDbDictionary
280
     1
281
     1
  3
ACAD_SORTENTS
360
62F
  0
DICTIONARY
  5
551
330
41
100
AcDbDictionary
280
     1
281
     1
  3
ACAD_SORTENTS
360
557
  0
DICTIONARY
  5
533
330
284
100
AcDbDictionary
280
     1
281
     1
  3
ACAD_SORTENTS
360
535
  0
DICTIONARY
  5
5AB
330
416
100
AcDbDictionary
280
     1
281
     1
  0
IMAGEDEF_REACTOR
  5
63F
330
63E
100
AcDbRasterImageDefReactor
 90
        2
330
63E
  0
IMAGEDEF_REACTOR
  5
641
330
640
100
AcDbRasterImageDefReactor
 90
        2
330
640
  0
XRECORD
  5
4C4
102
{ACAD_REACTORS
330
C
102
}
330
C
100
AcDbXrecord
280
     1
300
ACD
300
2014
300
BDSPRM_F_S
  0
DICTIONARY
  5
4B8
102
{ACAD_REACTORS
330
C
102
}
330
C
100
AcDbDictionary
281
     1
  0
DICTIONARY
  5
4BD
102
{ACAD_REACTORS
330
C
102
}
330
C
100
AcDbDictionary
281
     1
  3
Imperial24
350
4BE
  0
DICTIONARY
  5
D
102
{ACAD_REACTORS
330
C
102
}
330
C
100
AcDbDictionary
281
     1
  0
DICTIONARY
  5
4E6
102
{ACAD_REACTORS
330
C
102
}
330
C
100
AcDbDictionary
281
     1
  3
BRANZ logo. Do not place on drawing without number 510-
350
5F9
  3
logo sharp
350
5FA
  0
RASTERVARIABLES
  5
4EA
102
{ACAD_REACTORS
330
C
102
}
330
C
100
AcDbRasterVariables
 90
        0
 70
     1
 71
     1
 72
     0
  0
DICTIONARY
  5
1A
102
{ACAD_REACTORS
330
C
102
}
330
C
100
AcDbDictionary
281
     1
  3
Layout1
350
1E
  3
Layout2
350
26
  3
Model
350
22
  0
DICTIONARY
  5
3B
102
{ACAD_REACTORS
330
C
102
}
330
C
100
AcDbDictionary
281
     1
  3
ByBlock
350
3D
  3
ByLayer
350
3C
  3
Global
350
3E
  0
DICTIONARY
  5
4AB
102
{ACAD_REACTORS
330
C
102
}
330
C
100
AcDbDictionary
281
     1
  3
Standard
350
4BA
  0
DICTIONARY
  5
17
102
{ACAD_REACTORS
330
C
102
}
330
C
100
AcDbDictionary
281
     1
  3
Standard
350
18
  0
DICTIONARY
  5
19
102
{ACAD_REACTORS
330
C
102
}
330
C
100
AcDbDictionary
281
     1
  0
ACDBDICTIONARYWDFLT
  5
E
102
{ACAD_REACTORS
330
C
102
}
330
C
100
AcDbDictionary
281
     1
  3
Normal
350
F
100
AcDbDictionaryWithDefault
340
F
  0
DICTIONARY
  5
17C
102
{ACAD_REACTORS
330
C
102
}
330
C
100
AcDbDictionary
281
     1
  3
A0
350
17D
  3
A1
350
17E
  3
A2
350
17F
  3
A3
350
180
  3
A4
350
181
  3
A5
350
182
  3
A6
350
183
  3
A7
350
184
  3
A8
350
185
  3
A9
350
186
  3
B0
350
187
  3
B1
350
188
  3
B2
350
189
  3
B3
350
18A
  3
B4
350
18B
  3
B5
350
18C
  3
B6
350
18D
  3
B7
350
18E
  3
B8
350
18F
  3
B9
350
190
  3
C0
350
191
  3
C1
350
192
  3
C2
350
193
  3
C3
350
194
  3
C4
350
195
  3
C5
350
196
  3
C6
350
197
  3
C7
350
198
  3
C8
350
199
  3
C9
350
19A
  3
D0
350
19B
  3
D1
350
19C
  3
D2
350
19D
  0
DICTIONARY
  5
4BB
102
{ACAD_REACTORS
330
C
102
}
330
C
100
AcDbDictionary
281
     1
  3
Imperial24
350
4BC
  0
DICTIONARY
  5
4AA
102
{ACAD_REACTORS
330
C
102
}
330
C
100
AcDbDictionary
281
     1
  3
Standard
350
4B9
  0
DICTIONARY
  5
2A
102
{ACAD_REACTORS
330
C
102
}
330
C
100
AcDbDictionary
281
     1
  3
2dWireframe
350
2F
  3
3D Hidden
350
31
  3
3dWireframe
350
30
  3
Basic
350
32
  3
Brighten
350
36
  3
ColorChange
350
3A
  3
Conceptual
350
34
  3
Dim
350
35
  3
EdgeColorOff
350
4B7
  3
Facepattern
350
39
  3
Flat
350
2B
  3
FlatWithEdges
350
2C
  3
Gouraud
350
2D
  3
GouraudWithEdges
350
2E
  3
Hidden
350
4AF
  3
JitterOff
350
4B5
  3
Linepattern
350
38
  3
OverhangOff
350
4B6
  3
Realistic
350
33
  3
Shaded
350
4B4
  3
Shaded with edges
350
4B3
  3
Shades of Gray
350
4B0
  3
Sketchy
350
4B1
  3
Thicken
350
37
  3
Wireframe
350
4AE
  3
X-Ray
350
4B2
  0
WIPEOUTVARIABLES
  5
4C6
102
{ACAD_REACTORS
330
C
102
}
330
C
100
AcDbWipeoutVariables
 70
     1
  0
XRECORD
  5
AAA
102
{ACAD_REACTORS
330
C
102
}
330
C
100
AcDbXrecord
280
     1
 90
        1
330
4B9
330
4EF
330
4F2
330
4F3
330
4F6
  0
DICTIONARY
  5
488
102
{ACAD_REACTORS
330
C
102
}
330
C
100
AcDbDictionary
281
     1
  3
CANNOSCALE
350
489
  3
CMLEADERSTYLE
350
56C
  3
CTABLESTYLE
350
56B
  3
CVIEWDETAILSTYLE
350
56D
  3
CVIEWSECTIONSTYLE
350
56E
  3
HPCOLOR
350
517
  3
LAYEREVAL
350
56F
  3
LAYERNOTIFY
350
570
  0
DICTIONARY
  5
AB0
102
{ACAD_REACTORS
330
C
102
}
330
C
100
AcDbDictionary
281
     1
  3
AcDsRecords
350
AB2
  3
AcDsSchemas
350
AB1
1001
ACAD
1070
     2
  0
DICTIONARY
  5
486
102
{ACAD_REACTORS
330
C
102
}
330
C
100
AcDbDictionary
281
     1
  3
AC_WATERMARK
350
487
  0
DICTIONARY
  5
4D3
102
{ACAD_REACTORS
330
4D2
102
}
330
4D2
100
AcDbDictionary
281
     1
  0
XRECORD
  5
520
102
{ACAD_REACTORS
330
51F
102
}
330
51F
100
AcDbXrecord
280
     1
290
     1
  0
XRECORD
  5
522
102
{ACAD_REACTORS
330
521
102
}
330
521
100
AcDbXrecord
280
     1
290
     1
  0
XRECORD
  5
524
102
{ACAD_REACTORS
330
523
102
}
330
523
100
AcDbXrecord
280
     1
290
     1
  0
XRECORD
  5
526
102
{ACAD_REACTORS
330
525
102
}
330
525
100
AcDbXrecord
280
     1
290
     1
  0
XRECORD
  5
527
102
{ACAD_REACTORS
330
4CA
102
}
330
4CA
100
AcDbXrecord
280
     1
290
     1
  0
SORTENTSTABLE
  5
62F
102
{ACAD_REACTORS
330
62E
102
}
330
62E
100
AcDbSortentsTable
330
1F
331
991
  5
439
331
952
  5
3DA
331
9C8
  5
754
331
A07
  5
980
331
999
  5
46B
331
95A
  5
3E2
331
9D0
  5
92C
331
63C
  5
A12
331
A0F
  5
988
331
962
  5
3EA
331
9D8
  5
951
331
A17
  5
990
331
3E3
  5
9A6
331
3EB
  5
9AE
331
461
  5
9EA
331
3F3
  5
9B6
331
469
  5
9EC
331
3FB
  5
9BE
331
471
  5
9F4
331
96A
  5
3F2
331
9A1
  5
473
331
9E0
  5
959
331
4F7
  5
A0B
331
972
  5
3FA
331
9A9
  5
47D
331
9E8
  5
961
331
97A
  5
402
331
9B1
  5
4F1
331
9F0
  5
969
331
754
  5
A1C
331
982
  5
40B
331
9B9
  5
637
331
9F8
  5
971
331
92B
  5
9E5
331
403
  5
9C6
331
40B
  5
9CD
331
481
  5
9FF
331
3DC
  5
99F
331
452
  5
9E1
331
98A
  5
424
331
9C1
  5
640
331
79C
  5
9D0
331
62D
  5
9DA
331
A00
  5
979
331
992
  5
448
331
953
  5
3DB
331
9C9
  5
760
331
A08
  5
981
331
99A
  5
46C
331
95B
  5
3E3
331
9D1
  5
92D
331
63D
  5
A13
331
A10
  5
989
331
963
  5
3EB
331
9D9
  5
952
331
1A8
  5
1A8
331
3E4
  5
9A7
331
423
  5
9D6
331
3EC
  5
9AF
331
42B
  5
9DB
331
3F4
  5
9B7
331
46A
  5
9ED
331
4F0
  5
A04
331
3FC
  5
9BF
331
472
  5
9F5
331
96B
  5
3F3
331
9A2
  5
474
331
9E1
  5
95A
331
973
  5
3FB
331
9AA
  5
480
331
9E9
  5
962
331
97B
  5
403
331
9B2
  5
4F3
331
9F1
  5
96A
331
A18
  5
991
331
983
  5
40D
331
9BA
  5
638
331
9F9
  5
972
331
92C
  5
9E6
331
404
  5
9C7
331
47A
  5
9FB
331
3D5
  5
999
331
482
  5
A00
331
3DD
  5
9A0
331
A01
  5
97A
331
79D
  5
9D1
331
98B
  5
425
331
9C2
  5
74E
331
A09
  5
982
331
993
  5
452
331
636
  5
A0C
331
954
  5
3DC
331
9CA
  5
79C
331
A11
  5
98A
331
99B
  5
46D
331
63E
  5
A14
331
95C
  5
3E4
331
9D2
  5
92E
331
964
  5
3EC
331
9DA
  5
953
331
3E5
  5
9A8
331
424
  5
9D7
331
3ED
  5
9B0
331
42C
  5
9DC
331
3F5
  5
9B8
331
46B
  5
9EE
331
4F1
  5
A05
331
3FD
  5
9C0
331
473
  5
9F6
331
96C
  5
3F4
331
9A3
  5
475
331
9E2
  5
95B
331
974
  5
3FC
331
9AB
  5
481
331
9EA
  5
963
331
74E
  5
A16
331
A19
  5
992
331
97C
  5
404
331
9B3
  5
4F4
331
9F2
  5
96B
331
984
  5
40E
331
9BB
  5
639
331
9FA
  5
973
331
92D
  5
9E7
331
3D6
  5
99A
331
40D
  5
9CE
331
3DE
  5
9A1
331
1A2
  5
1A3
331
A02
  5
97B
331
98C
  5
426
331
94D
  5
283
331
9C3
  5
74F
331
A0A
  5
983
331
994
  5
45E
331
955
  5
3DD
331
9CB
  5
79D
331
637
  5
A0D
331
A12
  5
98B
331
99C
  5
46E
331
95D
  5
3E5
331
9D3
  5
94C
331
965
  5
3ED
331
9DB
  5
954
331
3E6
  5
9A9
331
425
  5
9D8
331
3EE
  5
9B1
331
42D
  5
9DD
331
3F6
  5
9B9
331
46C
  5
9EF
331
4F2
  5
A06
331
3FE
  5
9C1
331
474
  5
9F7
331
96D
  5
3F5
331
9A4
  5
476
331
9E3
  5
95C
331
975
  5
3FD
331
9AC
  5
482
331
9EB
  5
964
331
74F
  5
A17
331
A1A
  5
993
331
97D
  5
406
331
9B4
  5
4F5
331
9F3
  5
96C
331
985
  5
41E
331
9BC
  5
63A
331
9FB
  5
974
331
92E
  5
9E8
331
406
  5
9C8
331
47C
  5
9FC
331
40E
  5
9CF
331
3DF
  5
9A2
331
4EB
  5
A01
331
1A3
  5
1A4
331
41E
  5
9D2
331
98D
  5
429
331
94E
  5
3D5
331
9C4
  5
750
331
A03
  5
97C
331
995
  5
460
331
956
  5
3DE
331
9CC
  5
928
331
638
  5
A0E
331
A0B
  5
984
331
99D
  5
46F
331
95E
  5
3E6
331
9D4
  5
94D
331
640
  5
A15
331
A13
  5
98C
331
966
  5
3EE
331
9DC
  5
955
331
3E7
  5
9AA
331
426
  5
9D9
331
3EF
  5
9B2
331
42E
  5
9DE
331
3F7
  5
9BA
331
46D
  5
9F0
331
4F3
  5
A07
331
3FF
  5
9C2
331
475
  5
9F8
331
96E
  5
3F6
331
9A5
  5
477
331
9E4
  5
95D
331
976
  5
3FE
331
9AD
  5
4EB
331
9EC
  5
965
331
750
  5
A18
331
97E
  5
407
331
9B5
  5
4F6
331
9F4
  5
96D
331
760
  5
A1D
331
A1B
  5
994
331
986
  5
41F
331
9BD
  5
63B
331
9FC
  5
975
331
407
  5
9C9
331
3D8
  5
99B
331
4EC
  5
A02
331
1A4
  5
1A5
331
41F
  5
9D3
331
98E
  5
42C
331
94F
  5
3D6
331
9C5
  5
751
331
A04
  5
97D
331
996
  5
461
331
957
  5
3DF
331
9CD
  5
929
331
639
  5
A0F
331
A0C
  5
985
331
99E
  5
470
331
95F
  5
3E7
331
9D5
  5
94E
331
A14
  5
98D
331
967
  5
3EF
331
9DD
  5
956
331
3E0
  5
9A3
331
3E8
  5
9AB
331
3F0
  5
9B3
331
3F8
  5
9BB
331
46E
  5
9F1
331
4F4
  5
A08
331
476
  5
9F9
331
96F
  5
3F7
331
9A6
  5
478
331
9E5
  5
95E
331
977
  5
3FF
331
9AE
  5
4EC
331
751
  5
A19
331
97F
  5
408
331
9B6
  5
4F7
331
9F5
  5
96E
331
928
  5
9E2
331
A1C
  5
995
331
987
  5
420
331
9BE
  5
63C
331
9FD
  5
976
331
400
  5
9C3
331
408
  5
9CA
331
3D9
  5
99C
331
1A5
  5
1A6
331
98F
  5
42D
331
950
  5
3D8
331
9C6
  5
752
331
A05
  5
97E
331
997
  5
469
331
958
  5
3E0
331
9CE
  5
92A
331
63A
  5
A10
331
A0D
  5
986
331
99F
  5
471
331
960
  5
3E8
331
9D6
  5
94F
331
A15
  5
98E
331
9DE
  5
957
331
3E1
  5
9A4
331
420
  5
9D4
331
3E9
  5
9AC
331
3F1
  5
9B4
331
3F9
  5
9BC
331
46F
  5
9F2
331
968
  5
3F0
331
4F5
  5
A09
331
477
  5
9FA
331
970
  5
3F8
331
9A7
  5
479
331
9E6
  5
95F
331
978
  5
400
331
9AF
  5
4ED
331
9EE
  5
967
331
752
  5
A1A
331
980
  5
409
331
9B7
  5
5FE
331
9F6
  5
96F
331
929
  5
9E3
331
A1D
  5
996
331
9BF
  5
63D
331
9FE
  5
977
331
282
  5
997
331
401
  5
9C4
331
409
  5
9CB
331
448
  5
9E0
331
47F
  5
9FD
331
3DA
  5
99D
331
988
  5
421
331
1A6
  5
1A7
331
990
  5
42E
331
951
  5
3D9
331
9C7
  5
753
331
3F
  5
1A2
331
A06
  5
97F
331
998
  5
46A
331
959
  5
3E1
331
9CF
  5
92B
331
63B
  5
A11
331
A0E
  5
987
331
961
  5
3E9
331
9D7
  5
950
331
A16
  5
98F
331
9DF
  5
958
331
3E2
  5
9A5
331
421
  5
9D5
331
3EA
  5
9AD
331
460
  5
9E9
331
3F2
  5
9B5
331
468
  5
9EB
331
3FA
  5
9BD
331
439
  5
9DF
331
470
  5
9F3
331
969
  5
3F1
331
9A0
  5
472
331
4F6
  5
A0A
331
971
  5
3F9
331
9A8
  5
47A
331
9E7
  5
960
331
979
  5
401
331
9B0
  5
4F0
331
9EF
  5
968
331
753
  5
A1B
331
981
  5
40A
331
9B8
  5
636
331
9F7
  5
970
331
92A
  5
9E4
331
9FF
  5
978
331
283
  5
998
331
402
  5
9C5
331
40A
  5
9CC
331
480
  5
9FE
331
3DB
  5
99E
331
4EF
  5
A03
331
989
  5
423
331
9C0
  5
63E
331
1A7
  5
3F
  0
SORTENTSTABLE
  5
557
102
{ACAD_REACTORS
330
551
102
}
330
551
100
AcDbSortentsTable
330
41
331
550
  5
558
331
54E
  5
555
331
55D
  5
54F
331
54F
  5
556
331
54D
  5
550
  0
SORTENTSTABLE
  5
535
102
{ACAD_REACTORS
330
533
102
}
330
533
100
AcDbSortentsTable
330
284
331
52F
  5
530
331
532
  5
52E
331
530
  5
531
331
52E
  5
52F
331
531
  5
532
  0
ACDBDETAILVIEWSTYLE
  5
4BE
102
{ACAD_XDICTIONARY
360
568
102
}
102
{ACAD_REACTORS
330
4BD
102
}
330
4BD
100
AcDbModelDocViewStyle
 70
     0
  3
Imperial24
290
     0
100
AcDbDetailViewStyle
 70
     0
 71
     0
 90
        3
 71
     1
340
11
 62
   256
 40
0.24
340
0
 62
   256
 40
0.24
300

 40
0.36
280
     3
 71
     2
340
16
 90
       25
 62
   256
 71
     3
340
11
 62
   256
 40
0.24
 90
        1
 40
0.75
 90
        1
300
%<\AcVar ViewType \f "%tc1">% %<\AcVar ViewDetailId>%\PSCALE %<\AcVar ViewScale \f "%sn">%
 71
     4
340
16
 90
       25
 62
   256
340
16
 90
       25
 62
   256
280
     0
  0
IMAGEDEF
  5
5F9
102
{ACAD_REACTORS
330
4E6
330
63F
102
}
330
4E6
100
AcDbRasterImageDef
 90
        0
  1
P:\VERT-X CONSULTING LTD\2013\10 Oct\1310-015- Specialized Construction Products - Contract draughting\Drawings\BRANZ logo. Do not place on drawing without number 510-.jpg
 10
828.0
 20
781.0
 11
0.0846666666666667
 21
0.0846666666666667
280
     1
281
     5
  0
IMAGEDEF
  5
5FA
102
{ACAD_REACTORS
330
4E6
330
641
102
}
330
4E6
100
AcDbRasterImageDef
 90
        0
  1
P:\VERT-X CONSULTING LTD\2013\10 Oct\1310-015- Specialized Construction Products - Contract draughting\Drawings\logo sharp.JPG
 10
2521.0
 20
901.0
 11
0.2645833333333333
 21
0.2645833333333333
280
     1
281
     5
  0
LAYOUT
  5
1E
102
{ACAD_REACTORS
330
1A
102
}
330
1A
100
AcDbPlotSettings
  1

  2
none_device
  4

  6

 40
0.0
 41
0.0
 42
0.0
 43
0.0
 44
0.0
 45
0.0
 46
0.0
 47
0.0
 48
0.0
 49
0.0
140
0.0
141
0.0
142
1.0
143
1.0
 70
   688
 72
     0
 73
     0
 74
     5
  7

 75
    16
147
1.0
 76
     0
 77
     2
 78
   300
148
0.0
149
0.0
100
AcDbLayout
  1
Layout1
 70
     1
 71
     1
 10
0.0
 20
0.0
 11
12.0
 21
9.0
 12
0.0
 22
0.0
 32
0.0
 14
1.000000000000000E+20
 24
1.000000000000000E+20
 34
1.000000000000000E+20
 15
-1.000000000000000E+20
 25
-1.000000000000000E+20
 35
-1.000000000000000E+20
146
0.0
 13
0.0
 23
0.0
 33
0.0
 16
1.0
 26
0.0
 36
0.0
 17
0.0
 27
1.0
 37
0.0
 76
     0
330
1B
  0
LAYOUT
  5
26
102
{ACAD_REACTORS
330
1A
102
}
330
1A
100
AcDbPlotSettings
  1

  2
none_device
  4

  6

 40
0.0
 41
0.0
 42
0.0
 43
0.0
 44
0.0
 45
0.0
 46
0.0
 47
0.0
 48
0.0
 49
0.0
140
0.0
141
0.0
142
1.0
143
1.0
 70
   688
 72
     0
 73
     0
 74
     5
  7

 75
    16
147
1.0
 76
     0
 77
     2
 78
   300
148
0.0
149
0.0
100
AcDbLayout
  1
Layout2
 70
     1
 71
     2
 10
0.0
 20
0.0
 11
0.0
 21
0.0
 12
0.0
 22
0.0
 32
0.0
 14
0.0
 24
0.0
 34
0.0
 15
0.0
 25
0.0
 35
0.0
146
0.0
 13
0.0
 23
0.0
 33
0.0
 16
1.0
 26
0.0
 36
0.0
 17
0.0
 27
1.0
 37
0.0
 76
     0
330
23
  0
LAYOUT
  5
22
102
{ACAD_REACTORS
330
1A
102
}
330
1A
100
AcDbPlotSettings
  1

  2
none_device
  4

  6

 40
0.0
 41
0.0
 42
0.0
 43
0.0
 44
0.0
 45
0.0
 46
0.0
 47
0.0
 48
0.0
 49
0.0
140
0.0
141
0.0
142
1.0
143
1.0
 70
  1712
 72
     0
 73
     0
 74
     0
  7

 75
     0
147
1.0
 76
     0
 77
     2
 78
   300
148
0.0
149
0.0
100
AcDbLayout
  1
Model
 70
     1
 71
     0
 10
0.0
 20
0.0
 11
12.0
 21
9.0
 12
0.0
 22
0.0
 32
0.0
 14
1.000000000000000E+20
 24
1.000000000000000E+20
 34
1.000000000000000E+20
 15
-1.000000000000000E+20
 25
-1.000000000000000E+20
 35
-1.000000000000000E+20
146
0.0
 13
0.0
 23
0.0
 33
0.0
 16
1.0
 26
0.0
 36
0.0
 17
0.0
 27
1.0
 37
0.0
 76
     0
330
1F
331
29
  0
MATERIAL
  5
3D
102
{ACAD_REACTORS
330
3B
102
}
330
3B
100
AcDbMaterial
  1
ByBlock
 73
     1
 78
     1
172
     1
176
     1
270
     1
274
     1
  0
MATERIAL
  5
3C
102
{ACAD_REACTORS
330
3B
102
}
330
3B
100
AcDbMaterial
  1
ByLayer
 73
     1
 78
     1
172
     1
176
     1
270
     1
274
     1
  0
MATERIAL
  5
3E
102
{ACAD_REACTORS
330
3B
102
}
330
3B
100
AcDbMaterial
  1
Global
 73
     1
 78
     1
172
     1
176
     1
270
     1
274
     1
  0
MLEADERSTYLE
  5
4BA
102
{ACAD_XDICTIONARY
360
AE7
102
}
102
{ACAD_REACTORS
330
4AB
102
}
330
4AB
100
AcDbMLeaderStyle
179
     2
170
     2
171
     1
172
     0
 90
        2
 40
0.0
 41
0.0
173
     1
 91
-1056964608
340
14
 92
       -2
290
     1
 42
0.09
291
     1
 43
0.36
  3
Standard
 44
0.18
300

342
11
174
     1
178
     6
175
     1
176
     0
 93
-1056964608
 45
0.18
292
     0
297
     0
 46
0.18
 94
-1056964608
 47
1.0
 49
1.0
140
1.0
293
     1
141
0.0
294
     1
177
     0
142
1.0
295
     0
296
     0
143
0.125
271
     0
272
     9
273
     9
  0
MLINESTYLE
  5
18
102
{ACAD_REACTORS
330
17
102
}
330
17
100
AcDbMlineStyle
  2
STANDARD
 70
     0
  3

 62
   256
 51
90.0
 52
90.0
 71
     2
 49
0.5
 62
   256
  6
BYLAYER
 49
-0.5
 62
   256
  6
BYLAYER
  0
ACDBPLACEHOLDER
  5
F
102
{ACAD_REACTORS
330
E
102
}
330
E
  0
SCALE
  5
17D
102
{ACAD_REACTORS
330
17C
102
}
330
17C
100
AcDbScale
 70
     0
300
1:1
140
1.0
141
1.0
290
     1
  0
SCALE
  5
17E
102
{ACAD_REACTORS
330
17C
102
}
330
17C
100
AcDbScale
 70
     0
300
1:2
140
1.0
141
2.0
290
     0
  0
SCALE
  5
17F
102
{ACAD_REACTORS
330
17C
102
}
330
17C
100
AcDbScale
 70
     0
300
1:4
140
1.0
141
4.0
290
     0
  0
SCALE
  5
180
102
{ACAD_REACTORS
330
17C
102
}
330
17C
100
AcDbScale
 70
     0
300
1:5
140
1.0
141
5.0
290
     0
  0
SCALE
  5
181
102
{ACAD_REACTORS
330
17C
102
}
330
17C
100
AcDbScale
 70
     0
300
1:8
140
1.0
141
8.0
290
     0
  0
SCALE
  5
182
102
{ACAD_REACTORS
330
17C
102
}
330
17C
100
AcDbScale
 70
     0
300
1:10
140
1.0
141
10.0
290
     0
  0
SCALE
  5
183
102
{ACAD_REACTORS
330
17C
102
}
330
17C
100
AcDbScale
 70
     0
300
1:16
140
1.0
141
16.0
290
     0
  0
SCALE
  5
184
102
{ACAD_REACTORS
330
17C
102
}
330
17C
100
AcDbScale
 70
     0
300
1:20
140
1.0
141
20.0
290
     0
  0
SCALE
  5
185
102
{ACAD_REACTORS
330
17C
102
}
330
17C
100
AcDbScale
 70
     0
300
1:30
140
1.0
141
30.0
290
     0
  0
SCALE
  5
186
102
{ACAD_REACTORS
330
17C
102
}
330
17C
100
AcDbScale
 70
     0
300
1:40
140
1.0
141
40.0
290
     0
  0
SCALE
  5
187
102
{ACAD_REACTORS
330
17C
102
}
330
17C
100
AcDbScale
 70
     0
300
1:50
140
1.0
141
50.0
290
     0
  0
SCALE
  5
188
102
{ACAD_REACTORS
330
17C
102
}
330
17C
100
AcDbScale
 70
     0
300
1:100
140
1.0
141
100.0
290
     0
  0
SCALE
  5
189
102
{ACAD_REACTORS
330
17C
102
}
330
17C
100
AcDbScale
 70
     0
300
2:1
140
2.0
141
1.0
290
     0
  0
SCALE
  5
18A
102
{ACAD_REACTORS
330
17C
102
}
330
17C
100
AcDbScale
 70
     0
300
4:1
140
4.0
141
1.0
290
     0
  0
SCALE
  5
18B
102
{ACAD_REACTORS
330
17C
102
}
330
17C
100
AcDbScale
 70
     0
300
8:1
140
8.0
141
1.0
290
     0
  0
SCALE
  5
18C
102
{ACAD_REACTORS
330
17C
102
}
330
17C
100
AcDbScale
 70
     0
300
10:1
140
10.0
141
1.0
290
     0
  0
SCALE
  5
18D
102
{ACAD_REACTORS
330
17C
102
}
330
17C
100
AcDbScale
 70
     0
300
100:1
140
100.0
141
1.0
290
     0
  0
SCALE
  5
18E
102
{ACAD_REACTORS
330
17C
102
}
330
17C
100
AcDbScale
 70
     0
300
1/128" = 1'-0"
140
0.0078125
141
12.0
290
     0
  0
SCALE
  5
18F
102
{ACAD_REACTORS
330
17C
102
}
330
17C
100
AcDbScale
 70
     0
300
1/64" = 1'-0"
140
0.015625
141
12.0
290
     0
  0
SCALE
  5
190
102
{ACAD_REACTORS
330
17C
102
}
330
17C
100
AcDbScale
 70
     0
300
1/32" = 1'-0"
140
0.03125
141
12.0
290
     0
  0
SCALE
  5
191
102
{ACAD_REACTORS
330
17C
102
}
330
17C
100
AcDbScale
 70
     0
300
1/16" = 1'-0"
140
0.0625
141
12.0
290
     0
  0
SCALE
  5
192
102
{ACAD_REACTORS
330
17C
102
}
330
17C
100
AcDbScale
 70
     0
300
3/32" = 1'-0"
140
0.09375
141
12.0
290
     0
  0
SCALE
  5
193
102
{ACAD_REACTORS
330
17C
102
}
330
17C
100
AcDbScale
 70
     0
300
1/8" = 1'-0"
140
0.125
141
12.0
290
     0
  0
SCALE
  5
194
102
{ACAD_REACTORS
330
17C
102
}
330
17C
100
AcDbScale
 70
     0
300
3/16" = 1'-0"
140
0.1875
141
12.0
290
     0
  0
SCALE
  5
195
102
{ACAD_REACTORS
330
17C
102
}
330
17C
100
AcDbScale
 70
     0
300
1/4" = 1'-0"
140
0.25
141
12.0
290
     0
  0
SCALE
  5
196
102
{ACAD_REACTORS
330
17C
102
}
330
17C
100
AcDbScale
 70
     0
300
3/8" = 1'-0"
140
0.375
141
12.0
290
     0
  0
SCALE
  5
197
102
{ACAD_REACTORS
330
17C
102
}
330
17C
100
AcDbScale
 70
     0
300
1/2" = 1'-0"
140
0.5
141
12.0
290
     0
  0
SCALE
  5
198
102
{ACAD_REACTORS
330
17C
102
}
330
17C
100
AcDbScale
 70
     0
300
3/4" = 1'-0"
140
0.75
141
12.0
290
     0
  0
SCALE
  5
199
102
{ACAD_REACTORS
330
17C
102
}
330
17C
100
AcDbScale
 70
     0
300
1" = 1'-0"
140
1.0
141
12.0
290
     0
  0
SCALE
  5
19A
102
{ACAD_REACTORS
330
17C
102
}
330
17C
100
AcDbScale
 70
     0
300
1-1/2" = 1'-0"
140
1.5
141
12.0
290
     0
  0
SCALE
  5
19B
102
{ACAD_REACTORS
330
17C
102
}
330
17C
100
AcDbScale
 70
     0
300
3" = 1'-0"
140
3.0
141
12.0
290
     0
  0
SCALE
  5
19C
102
{ACAD_REACTORS
330
17C
102
}
330
17C
100
AcDbScale
 70
     0
300
6" = 1'-0"
140
6.0
141
12.0
290
     0
  0
SCALE
  5
19D
102
{ACAD_REACTORS
330
17C
102
}
330
17C
100
AcDbScale
 70
     0
300
1'-0" = 1'-0"
140
12.0
141
12.0
290
     0
  0
ACDBSECTIONVIEWSTYLE
  5
4BC
102
{ACAD_XDICTIONARY
360
566
102
}
102
{ACAD_REACTORS
330
4BB
102
}
330
4BB
100
AcDbModelDocViewStyle
 70
     0
  3
Imperial24
290
     0
100
AcDbSectionViewStyle
 70
     0
 71
     0
 90
       78
 71
     1
340
11
 62
   256
 40
0.24
340
0
340
0
 62
   256
 40
0.24
300
I, O, Q, S, X, Z
 40
0.48
 90
        3
 40
0.18
 90
        1
 71
     2
340
16
 90
       25
 62
   256
340
16
 90
       50
 62
   256
 40
0.24
 40
0.0
 40
0.24
 71
     3
340
11
 62
   256
 40
0.24
 90
        1
 40
0.75
 90
        1
300
%<\AcVar ViewType \f "%tc1">% %<\AcVar ViewSectionStartId>%-%<\AcVar ViewSectionEndId>%\PSCALE %<\AcVar ViewScale \f "%sn">%
 71
     4
 62
   256
 62
   257
300
ANSI31
 40
1.0
 90
        0
290
     0
290
     0
 90
        6
 40
0.0
 40
1.570796326794896
 40
0.2617993877991494
 40
1.308996938995747
 40
-0.2617993877991494
 40
1.832595714594046
  0
TABLESTYLE
  5
4B9
102
{ACAD_XDICTIONARY
360
AA8
102
}
102
{ACAD_REACTORS
330
4AA
102
}
330
4AA
100
AcDbTableStyle
280
     0
  3
Standard
 70
     0
 71
     0
 40
0.06
 41
0.06
280
     0
281
     0
  7
Standard
140
0.18
170
     2
 62
     0
 63
     7
283
     0
 90
      512
 91
        0
  1

274
    -2
284
     1
 64
     0
275
    -2
285
     1
 65
     0
276
    -2
286
     1
 66
     0
277
    -2
287
     1
 67
     0
278
    -2
288
     1
 68
     0
279
    -2
289
     1
 69
     0
  7
Standard
140
0.25
170
     5
 62
     0
 63
     7
283
     0
 90
      512
 91
        0
  1

274
    -2
284
     1
 64
     0
275
    -2
285
     1
 65
     0
276
    -2
286
     1
 66
     0
277
    -2
287
     1
 67
     0
278
    -2
288
     1
 68
     0
279
    -2
289
     1
 69
     0
  7
Standard
140
0.18
170
     5
 62
     0
 63
     7
283
     0
 90
      512
 91
        0
  1

274
    -2
284
     1
 64
     0
275
    -2
285
     1
 65
     0
276
    -2
286
     1
 66
     0
277
    -2
287
     1
 67
     0
278
    -2
288
     1
 68
     0
279
    -2
289
     1
 69
     0
  0
VISUALSTYLE
  5
2F
102
{ACAD_XDICTIONARY
360
ABB
102
}
102
{ACAD_REACTORS
330
2A
102
}
330
2A
100
AcDbVisualStyle
  2
2dWireframe
 70
     4
177
     2
291
     0
 71
     0
176
     1
 72
     2
176
     1
 73
     0
176
     1
 90
        0
176
     1
 40
0.6
176
     1
 41
30.0
176
     1
 63
     7
421
 16777215
176
     1
 74
     1
176
     1
 91
        4
176
     1
 64
     7
176
     1
 65
   257
176
     1
 75
     1
176
     1
175
     1
176
     1
 42
1.0
176
     1
 92
        0
176
     1
 66
   257
176
     1
 43
1.0
176
     1
 76
     1
176
     1
 77
     6
176
     1
 78
     2
176
     1
 67
     7
176
     1
 79
     5
176
     1
170
     0
176
     1
171
     0
176
     1
290
     0
176
     1
 93
        1
176
     1
 44
0.0
176
     1
173
     0
176
     1
1001
ACAD
1000
AcDbSavedByObjectVersion
1070
     0
  0
VISUALSTYLE
  5
31
102
{ACAD_XDICTIONARY
360
ABF
102
}
102
{ACAD_REACTORS
330
2A
102
}
330
2A
100
AcDbVisualStyle
  2
3D Hidden
 70
     6
177
     2
291
     0
 71
     1
176
     1
 72
     2
176
     1
 73
     2
176
     1
 90
        0
176
     1
 40
0.6
176
     1
 41
30.0
176
     1
 63
     7
421
 16777215
176
     1
 74
     2
176
     1
 91
        2
176
     1
 64
     7
176
     1
 65
   257
176
     1
 75
     2
176
     1
175
     1
176
     1
 42
40.0
176
     1
 92
        0
176
     1
 66
   257
176
     1
 43
1.0
176
     1
 76
     1
176
     1
 77
     6
176
     1
 78
     2
176
     1
 67
     7
176
     1
 79
     3
176
     1
170
     0
176
     1
171
     0
176
     1
290
     0
176
     1
 93
        1
176
     1
 44
0.0
176
     1
173
     0
176
     1
1001
ACAD
1000
AcDbSavedByObjectVersion
1070
     0
  0
VISUALSTYLE
  5
30
102
{ACAD_XDICTIONARY
360
ABD
102
}
102
{ACAD_REACTORS
330
2A
102
}
330
2A
100
AcDbVisualStyle
  2
3dWireframe
 70
     5
177
     2
291
     0
 71
     0
176
     1
 72
     2
176
     1
 73
     0
176
     1
 90
        0
176
     1
 40
0.6
176
     1
 41
30.0
176
     1
 63
     7
421
 16777215
176
     1
 74
     1
176
     1
 91
        4
176
     1
 64
     7
176
     1
 65
   257
176
     1
 75
     1
176
     1
175
     1
176
     1
 42
1.0
176
     1
 92
        0
176
     1
 66
   257
176
     1
 43
1.0
176
     1
 76
     1
176
     1
 77
     6
176
     1
 78
     2
176
     1
 67
     7
176
     1
 79
     5
176
     1
170
     0
176
     1
171
     0
176
     1
290
     0
176
     1
 93
        1
176
     1
 44
0.0
176
     1
173
     0
176
     1
1001
ACAD
1000
AcDbSavedByObjectVersion
1070
     0
  0
VISUALSTYLE
  5
32
102
{ACAD_XDICTIONARY
360
AC1
102
}
102
{ACAD_REACTORS
330
2A
102
}
330
2A
100
AcDbVisualStyle
  2
Basic
 70
     7
177
     2
291
     1
 71
     1
176
     1
 72
     0
176
     1
 73
     1
176
     1
 90
        0
176
     1
 40
0.6
176
     1
 41
30.0
176
     1
 63
     7
421
 16777215
176
     1
 74
     0
176
     1
 91
        4
176
     1
 64
     7
176
     1
 65
   257
176
     1
 75
     1
176
     1
175
     1
176
     1
 42
1.0
176
     1
 92
        8
176
     1
 66
     7
176
     1
 43
1.0
176
     1
 76
     1
176
     1
 77
     6
176
     1
 78
     2
176
     1
 67
     7
176
     1
 79
     5
176
     1
170
     0
176
     1
171
     0
176
     1
290
     0
176
     1
 93
        1
176
     1
 44
0.0
176
     1
173
     0
176
     1
1001
ACAD
1000
AcDbSavedByObjectVersion
1070
     0
  0
VISUALSTYLE
  5
36
102
{ACAD_XDICTIONARY
360
AC9
102
}
102
{ACAD_REACTORS
330
2A
102
}
330
2A
100
AcDbVisualStyle
  2
Brighten
 70
    12
177
     2
291
     1
 71
     2
176
     1
 72
     2
176
     1
 73
     0
176
     1
 90
        0
176
     1
 40
0.6
176
     1
 41
30.0
176
     1
 63
     7
421
 16777215
176
     1
 74
     1
176
     1
 91
        4
176
     1
 64
     7
176
     1
 65
   257
176
     1
 75
     1
176
     1
175
     1
176
     1
 42
1.0
176
     1
 92
        8
176
     1
 66
     7
176
     1
 43
1.0
176
     1
 76
     1
176
     1
 77
     6
176
     1
 78
     2
176
     1
 67
     7
176
     1
 79
     5
176
     1
170
     0
176
     1
171
     0
176
     1
290
     0
176
     1
 93
        1
176
     1
 44
50.0
176
     1
173
     0
176
     1
1001
ACAD
1000
AcDbSavedByObjectVersion
1070
     0
  0
VISUALSTYLE
  5
3A
102
{ACAD_XDICTIONARY
360
AD1
102
}
102
{ACAD_REACTORS
330
2A
102
}
330
2A
100
AcDbVisualStyle
  2
ColorChange
 70
    16
177
     2
291
     1
 71
     2
176
     1
 72
     2
176
     1
 73
     3
176
     1
 90
        0
176
     1
 40
0.6
176
     1
 41
30.0
176
     1
 63
     8
421
  8421504
176
     1
 74
     1
176
     1
 91
        4
176
     1
 64
     7
176
     1
 65
   257
176
     1
 75
     1
176
     1
175
     1
176
     1
 42
1.0
176
     1
 92
        8
176
     1
 66
     8
424
  8421504
176
     1
 43
1.0
176
     1
 76
     1
176
     1
 77
     6
176
     1
 78
     2
176
     1
 67
     7
176
     1
 79
     5
176
     1
170
     0
176
     1
171
     0
176
     1
290
     0
176
     1
 93
        1
176
     1
 44
0.0
176
     1
173
     0
176
     1
1001
ACAD
1000
AcDbSavedByObjectVersion
1070
     0
  0
VISUALSTYLE
  5
34
102
{ACAD_XDICTIONARY
360
AC5
102
}
102
{ACAD_REACTORS
330
2A
102
}
330
2A
100
AcDbVisualStyle
  2
Conceptual
 70
     9
177
     2
291
     0
 71
     3
176
     1
 72
     2
176
     1
 73
     0
176
     1
 90
        0
176
     1
 40
0.6
176
     1
 41
30.0
176
     1
 63
     7
421
 16777215
176
     1
 74
     2
176
     1
 91
        2
176
     1
 64
     7
176
     1
 65
   257
176
     1
 75
     1
176
     1
175
     1
176
     1
 42
40.0
176
     1
 92
        8
176
     1
 66
     7
176
     1
 43
1.0
176
     1
 76
     1
176
     1
 77
     6
176
     1
 78
     2
176
     1
 67
     7
176
     1
 79
     3
176
     1
170
     0
176
     1
171
     0
176
     1
290
     0
176
     1
 93
        1
176
     1
 44
0.0
176
     1
173
     0
176
     1
1001
ACAD
1000
AcDbSavedByObjectVersion
1070
     0
  0
VISUALSTYLE
  5
35
102
{ACAD_XDICTIONARY
360
AC7
102
}
102
{ACAD_REACTORS
330
2A
102
}
330
2A
100
AcDbVisualStyle
  2
Dim
 70
    11
177
     2
291
     1
 71
     2
176
     1
 72
     2
176
     1
 73
     0
176
     1
 90
        0
176
     1
 40
0.6
176
     1
 41
30.0
176
     1
 63
     7
421
 16777215
176
     1
 74
     1
176
     1
 91
        4
176
     1
 64
     7
176
     1
 65
   257
176
     1
 75
     1
176
     1
175
     1
176
     1
 42
1.0
176
     1
 92
        8
176
     1
 66
     7
176
     1
 43
1.0
176
     1
 76
     1
176
     1
 77
     6
176
     1
 78
     2
176
     1
 67
     7
176
     1
 79
     5
176
     1
170
     0
176
     1
171
     0
176
     1
290
     0
176
     1
 93
        1
176
     1
 44
-50.0
176
     1
173
     0
176
     1
1001
ACAD
1000
AcDbSavedByObjectVersion
1070
     0
  0
VISUALSTYLE
  5
4B7
102
{ACAD_XDICTIONARY
360
AE5
102
}
102
{ACAD_REACTORS
330
2A
102
}
330
2A
100
AcDbVisualStyle
  2
EdgeColorOff
 70
    22
177
     2
291
     1
 71
     2
176
     0
 72
     2
176
     0
 73
     0
176
     0
 90
        0
176
     0
 40
0.6
176
     0
 41
30.0
176
     0
 63
     7
421
 16777215
176
     0
 74
     1
176
     0
 91
        4
176
     0
 64
     7
176
     0
 65
   257
176
     0
 75
     1
176
     0
175
     1
176
     0
 42
1.0
176
     0
 92
        8
176
     2
 66
     7
176
     0
 43
1.0
176
     0
 76
     1
176
     0
 77
     6
176
     0
 78
     2
176
     0
 67
     7
176
     0
 79
     5
176
     0
170
     0
176
     0
171
     0
176
     0
290
     0
176
     0
 93
        1
176
     0
 44
0.0
176
     0
173
     0
176
     0
1001
ACAD
1000
AcDbSavedByObjectVersion
1070
     0
  0
VISUALSTYLE
  5
39
102
{ACAD_XDICTIONARY
360
ACF
102
}
102
{ACAD_REACTORS
330
2A
102
}
330
2A
100
AcDbVisualStyle
  2
Facepattern
 70
    15
177
     2
291
     1
 71
     2
176
     1
 72
     2
176
     1
 73
     0
176
     1
 90
        0
176
     1
 40
0.6
176
     1
 41
30.0
176
     1
 63
     7
421
 16777215
176
     1
 74
     1
176
     1
 91
        4
176
     1
 64
     7
176
     1
 65
   257
176
     1
 75
     1
176
     1
175
     1
176
     1
 42
1.0
176
     1
 92
        8
176
     1
 66
     7
176
     1
 43
1.0
176
     1
 76
     1
176
     1
 77
     6
176
     1
 78
     2
176
     1
 67
     7
176
     1
 79
     5
176
     1
170
     0
176
     1
171
     0
176
     1
290
     0
176
     1
 93
        1
176
     1
 44
0.0
176
     1
173
     0
176
     1
1001
ACAD
1000
AcDbSavedByObjectVersion
1070
     0
  0
VISUALSTYLE
  5
2B
102
{ACAD_XDICTIONARY
360
AB3
102
}
102
{ACAD_REACTORS
330
2A
102
}
330
2A
100
AcDbVisualStyle
  2
Flat
 70
     0
177
     2
291
     1
 71
     2
176
     1
 72
     1
176
     1
 73
     1
176
     1
 90
        2
176
     1
 40
0.6
176
     1
 41
30.0
176
     1
 63
     7
421
 16777215
176
     1
 74
     0
176
     1
 91
        4
176
     1
 64
     7
176
     1
 65
   257
176
     1
 75
     1
176
     1
175
     1
176
     1
 42
1.0
176
     1
 92
        8
176
     1
 66
     7
176
     1
 43
1.0
176
     1
 76
     1
176
     1
 77
     6
176
     1
 78
     2
176
     1
 67
     7
176
     1
 79
     5
176
     1
170
     0
176
     1
171
     0
176
     1
290
     0
176
     1
 93
       13
176
     1
 44
0.0
176
     1
173
     0
176
     1
1001
ACAD
1000
AcDbSavedByObjectVersion
1070
     0
  0
VISUALSTYLE
  5
2C
102
{ACAD_XDICTIONARY
360
AB5
102
}
102
{ACAD_REACTORS
330
2A
102
}
330
2A
100
AcDbVisualStyle
  2
FlatWithEdges
 70
     1
177
     2
291
     1
 71
     2
176
     1
 72
     1
176
     1
 73
     1
176
     1
 90
        2
176
     1
 40
0.6
176
     1
 41
30.0
176
     1
 63
     7
421
 16777215
176
     1
 74
     1
176
     1
 91
        4
176
     1
 64
     7
176
     1
 65
   257
176
     1
 75
     1
176
     1
175
     1
176
     1
 42
1.0
176
     1
 92
        0
176
     1
 66
   257
176
     1
 43
1.0
176
     1
 76
     1
176
     1
 77
     6
176
     1
 78
     2
176
     1
 67
     7
176
     1
 79
     5
176
     1
170
     0
176
     1
171
     0
176
     1
290
     0
176
     1
 93
       13
176
     1
 44
0.0
176
     1
173
     0
176
     1
1001
ACAD
1000
AcDbSavedByObjectVersion
1070
     0
  0
VISUALSTYLE
  5
2D
102
{ACAD_XDICTIONARY
360
AB7
102
}
102
{ACAD_REACTORS
330
2A
102
}
330
2A
100
AcDbVisualStyle
  2
Gouraud
 70
     2
177
     2
291
     1
 71
     2
176
     1
 72
     2
176
     1
 73
     1
176
     1
 90
        2
176
     1
 40
0.6
176
     1
 41
30.0
176
     1
 63
     7
421
 16777215
176
     1
 74
     0
176
     1
 91
        4
176
     1
 64
     7
176
     1
 65
   257
176
     1
 75
     1
176
     1
175
     1
176
     1
 42
1.0
176
     1
 92
        0
176
     1
 66
     7
176
     1
 43
1.0
176
     1
 76
     1
176
     1
 77
     6
176
     1
 78
     2
176
     1
 67
     7
176
     1
 79
     5
176
     1
170
     0
176
     1
171
     0
176
     1
290
     0
176
     1
 93
       13
176
     1
 44
0.0
176
     1
173
     0
176
     1
1001
ACAD
1000
AcDbSavedByObjectVersion
1070
     0
  0
VISUALSTYLE
  5
2E
102
{ACAD_XDICTIONARY
360
AB9
102
}
102
{ACAD_REACTORS
330
2A
102
}
330
2A
100
AcDbVisualStyle
  2
GouraudWithEdges
 70
     3
177
     2
291
     1
 71
     2
176
     1
 72
     2
176
     1
 73
     1
176
     1
 90
        2
176
     1
 40
0.6
176
     1
 41
30.0
176
     1
 63
     7
421
 16777215
176
     1
 74
     1
176
     1
 91
        4
176
     1
 64
     7
176
     1
 65
   257
176
     1
 75
     1
176
     1
175
     1
176
     1
 42
1.0
176
     1
 92
        0
176
     1
 66
   257
176
     1
 43
1.0
176
     1
 76
     1
176
     1
 77
     6
176
     1
 78
     2
176
     1
 67
     7
176
     1
 79
     5
176
     1
170
     0
176
     1
171
     0
176
     1
290
     0
176
     1
 93
       13
176
     1
 44
0.0
176
     1
173
     0
176
     1
1001
ACAD
1000
AcDbSavedByObjectVersion
1070
     0
  0
VISUALSTYLE
  5
4AF
102
{ACAD_XDICTIONARY
360
AD5
102
}
102
{ACAD_REACTORS
330
2A
102
}
330
2A
100
AcDbVisualStyle
  2
Hidden
 70
     6
177
     2
291
     0
 71
     1
176
     1
 72
     2
176
     1
 73
     2
176
     1
 90
        0
176
     1
 40
0.6
176
     1
 41
30.0
176
     1
 63
     7
421
 16777215
176
     1
 74
     2
176
     1
 91
        2
176
     1
 64
     7
176
     1
 65
   257
176
     1
 75
     2
176
     1
175
     1
176
     1
 42
40.0
176
     1
 92
        0
176
     1
 66
   257
176
     1
 43
1.0
176
     1
 76
     1
176
     1
 77
     6
176
     1
 78
     2
176
     1
 67
     7
176
     1
 79
     3
176
     1
170
     0
176
     1
171
     0
176
     1
290
     0
176
     1
 93
        1
176
     1
 44
0.0
176
     1
173
     0
176
     1
1001
ACAD
1000
AcDbSavedByObjectVersion
1070
     0
  0
VISUALSTYLE
  5
4B5
102
{ACAD_XDICTIONARY
360
AE1
102
}
102
{ACAD_REACTORS
330
2A
102
}
330
2A
100
AcDbVisualStyle
  2
JitterOff
 70
    20
177
     2
291
     1
 71
     2
176
     0
 72
     2
176
     0
 73
     0
176
     0
 90
        0
176
     0
 40
0.6
176
     0
 41
30.0
176
     0
 63
     7
421
 16777215
176
     0
 74
     1
176
     0
 91
        4
176
     0
 64
     7
176
     0
 65
   257
176
     0
 75
     1
176
     0
175
     1
176
     0
 42
1.0
176
     0
 92
       10
176
     2
 66
     7
176
     0
 43
1.0
176
     0
 76
     1
176
     0
 77
     6
176
     0
 78
     2
176
     0
 67
     7
176
     0
 79
     5
176
     0
170
     0
176
     0
171
     0
176
     0
290
     0
176
     0
 93
        1
176
     0
 44
0.0
176
     0
173
     0
176
     0
1001
ACAD
1000
AcDbSavedByObjectVersion
1070
     0
  0
VISUALSTYLE
  5
38
102
{ACAD_XDICTIONARY
360
ACD
102
}
102
{ACAD_REACTORS
330
2A
102
}
330
2A
100
AcDbVisualStyle
  2
Linepattern
 70
    14
177
     2
291
     1
 71
     2
176
     1
 72
     2
176
     1
 73
     0
176
     1
 90
        0
176
     1
 40
0.6
176
     1
 41
30.0
176
     1
 63
     7
421
 16777215
176
     1
 74
     1
176
     1
 91
        4
176
     1
 64
     7
176
     1
 65
   257
176
     1
 75
     7
176
     1
175
     7
176
     1
 42
1.0
176
     1
 92
        8
176
     1
 66
     7
176
     1
 43
1.0
176
     1
 76
     1
176
     1
 77
     6
176
     1
 78
     2
176
     1
 67
     7
176
     1
 79
     5
176
     1
170
     0
176
     1
171
     0
176
     1
290
     0
176
     1
 93
        1
176
     1
 44
0.0
176
     1
173
     0
176
     1
1001
ACAD
1000
AcDbSavedByObjectVersion
1070
     0
  0
VISUALSTYLE
  5
4B6
102
{ACAD_XDICTIONARY
360
AE3
102
}
102
{ACAD_REACTORS
330
2A
102
}
330
2A
100
AcDbVisualStyle
  2
OverhangOff
 70
    21
177
     2
291
     1
 71
     2
176
     0
 72
     2
176
     0
 73
     0
176
     0
 90
        0
176
     0
 40
0.6
176
     0
 41
30.0
176
     0
 63
     7
421
 16777215
176
     0
 74
     1
176
     0
 91
        4
176
     0
 64
     7
176
     0
 65
   257
176
     0
 75
     1
176
     0
175
     1
176
     0
 42
1.0
176
     0
 92
        9
176
     2
 66
     7
176
     0
 43
1.0
176
     0
 76
     1
176
     0
 77
     6
176
     0
 78
     2
176
     0
 67
     7
176
     0
 79
     5
176
     0
170
     0
176
     0
171
     0
176
     0
290
     0
176
     0
 93
        1
176
     0
 44
0.0
176
     0
173
     0
176
     0
1001
ACAD
1000
AcDbSavedByObjectVersion
1070
     0
  0
VISUALSTYLE
  5
33
102
{ACAD_XDICTIONARY
360
AC3
102
}
102
{ACAD_REACTORS
330
2A
102
}
330
2A
100
AcDbVisualStyle
  2
Realistic
 70
     8
177
     2
291
     0
 71
     2
176
     1
 72
     2
176
     1
 73
     0
176
     1
 90
        0
176
     1
 40
0.6
176
     1
 41
30.0
176
     1
 63
     7
421
 16777215
176
     1
 74
     1
176
     1
 91
        0
176
     1
 64
     7
176
     1
 65
   257
176
     1
 75
     1
176
     1
175
     1
176
     1
 42
1.0
176
     1
 92
        8
176
     1
 66
     8
424
  7895160
176
     1
 43
1.0
176
     1
 76
     1
176
     1
 77
     6
176
     1
 78
     2
176
     1
 67
     7
176
     1
 79
     5
176
     1
170
     0
176
     1
171
     0
176
     1
290
     0
176
     1
 93
       13
176
     1
 44
0.0
176
     1
173
     0
176
     1
1001
ACAD
1000
AcDbSavedByObjectVersion
1070
     0
  0
VISUALSTYLE
  5
4B4
102
{ACAD_XDICTIONARY
360
ADF
102
}
102
{ACAD_REACTORS
330
2A
102
}
330
2A
100
AcDbVisualStyle
  2
Shaded
 70
    27
177
     2
291
     0
 71
     2
176
     1
 72
     2
176
     1
 73
     1
176
     1
 90
        2
176
     1
 40
0.6
176
     1
 41
30.0
176
     1
 63
     7
421
 16777215
176
     1
 74
     0
176
     1
 91
        4
176
     1
 64
     7
176
     1
 65
   257
176
     1
 75
     1
176
     1
175
     1
176
     1
 42
1.0
176
     1
 92
        8
176
     1
 66
   257
176
     1
 43
1.0
176
     1
 76
     1
176
     1
 77
     6
176
     1
 78
     2
176
     1
 67
     8
425
  7895160
176
     1
 79
     3
176
     1
170
     0
176
     1
171
     0
176
     1
290
     0
176
     1
 93
        5
176
     1
 44
0.0
176
     1
173
     0
176
     1
1001
ACAD
1000
AcDbSavedByObjectVersion
1070
     0
  0
VISUALSTYLE
  5
4B3
102
{ACAD_XDICTIONARY
360
ADD
102
}
102
{ACAD_REACTORS
330
2A
102
}
330
2A
100
AcDbVisualStyle
  2
Shaded with edges
 70
    26
177
     2
291
     0
 71
     2
176
     1
 72
     2
176
     1
 73
     1
176
     1
 90
        2
176
     1
 40
0.6
176
     1
 41
30.0
176
     1
 63
     7
421
 16777215
176
     1
 74
     1
176
     1
 91
       10
176
     1
 64
     7
176
     1
 65
   257
176
     1
 75
     2
176
     1
175
     1
176
     1
 42
1.0
176
     1
 92
        8
176
     1
 66
   257
176
     1
 43
1.0
176
     1
 76
     1
176
     1
 77
     6
176
     1
 78
     2
176
     1
 67
     7
176
     1
 79
     3
176
     1
170
     0
176
     1
171
     0
176
     1
290
     0
176
     1
 93
        5
176
     1
 44
0.0
176
     1
173
     0
176
     1
1001
ACAD
1000
AcDbSavedByObjectVersion
1070
     0
  0
VISUALSTYLE
  5
4B0
102
{ACAD_XDICTIONARY
360
AD7
102
}
102
{ACAD_REACTORS
330
2A
102
}
330
2A
100
AcDbVisualStyle
  2
Shades of Gray
 70
    23
177
     2
291
     0
 71
     2
176
     1
 72
     2
176
     1
 73
     3
176
     1
 90
        0
176
     1
 40
0.6
176
     1
 41
30.0
176
     1
 63
     7
421
 16777215
176
     1
 74
     2
176
     1
 91
        2
176
     1
 64
     7
176
     1
 65
     7
176
     1
 75
     1
176
     1
175
     1
176
     1
 42
40.0
176
     1
 92
        8
176
     1
 66
     7
176
     1
 43
1.0
176
     1
 76
     1
176
     1
 77
     6
176
     1
 78
     2
176
     1
 67
     7
176
     1
 79
     3
176
     1
170
     0
176
     1
171
     0
176
     1
290
     0
176
     1
 93
        1
176
     1
 44
0.0
176
     1
173
     0
176
     1
1001
ACAD
1000
AcDbSavedByObjectVersion
1070
     0
  0
VISUALSTYLE
  5
4B1
102
{ACAD_XDICTIONARY
360
AD9
102
}
102
{ACAD_REACTORS
330
2A
102
}
330
2A
100
AcDbVisualStyle
  2
Sketchy
 70
    24
177
     2
291
     0
 71
     1
176
     1
 72
     2
176
     1
 73
     2
176
     1
 90
        0
176
     1
 40
0.6
176
     1
 41
30.0
176
     1
 63
     7
421
 16777215
176
     1
 74
     2
176
     1
 91
        2
176
     1
 64
     7
176
     1
 65
     7
176
     1
 75
     1
176
     1
175
     1
176
     1
 42
40.0
176
     1
 92
       11
176
     1
 66
     7
176
     1
 43
1.0
176
     1
 76
     1
176
     1
 77
     6
176
     1
 78
     2
176
     1
 67
     7
176
     1
 79
     6
176
     1
170
     0
176
     1
171
     0
176
     1
290
     0
176
     1
 93
        1
176
     1
 44
0.0
176
     1
173
     0
176
     1
1001
ACAD
1000
AcDbSavedByObjectVersion
1070
     0
  0
VISUALSTYLE
  5
37
102
{ACAD_XDICTIONARY
360
ACB
102
}
102
{ACAD_REACTORS
330
2A
102
}
330
2A
100
AcDbVisualStyle
  2
Thicken
 70
    13
177
     2
291
     1
 71
     2
176
     1
 72
     2
176
     1
 73
     0
176
     1
 90
        0
176
     1
 40
0.6
176
     1
 41
30.0
176
     1
 63
     7
421
 16777215
176
     1
 74
     1
176
     1
 91
        4
176
     1
 64
     7
176
     1
 65
   257
176
     1
 75
     1
176
     1
175
     1
176
     1
 42
1.0
176
     1
 92
       12
176
     1
 66
     7
176
     1
 43
1.0
176
     1
 76
     1
176
     1
 77
     6
176
     1
 78
     2
176
     1
 67
     7
176
     1
 79
     5
176
     1
170
     0
176
     1
171
     0
176
     1
290
     0
176
     1
 93
        1
176
     1
 44
0.0
176
     1
173
     0
176
     1
1001
ACAD
1000
AcDbSavedByObjectVersion
1070
     0
  0
VISUALSTYLE
  5
4AE
102
{ACAD_XDICTIONARY
360
AD3
102
}
102
{ACAD_REACTORS
330
2A
102
}
330
2A
100
AcDbVisualStyle
  2
Wireframe
 70
     5
177
     2
291
     0
 71
     0
176
     1
 72
     2
176
     1
 73
     0
176
     1
 90
        0
176
     1
 40
0.6
176
     1
 41
30.0
176
     1
 63
     7
421
 16777215
176
     1
 74
     1
176
     1
 91
        4
176
     1
 64
     7
176
     1
 65
   257
176
     1
 75
     1
176
     1
175
     1
176
     1
 42
1.0
176
     1
 92
        0
176
     1
 66
   257
176
     1
 43
1.0
176
     1
 76
     1
176
     1
 77
     6
176
     1
 78
     2
176
     1
 67
     7
176
     1
 79
     3
176
     1
170
     0
176
     1
171
     0
176
     1
290
     0
176
     1
 93
        1
176
     1
 44
0.0
176
     1
173
     0
176
     1
1001
ACAD
1000
AcDbSavedByObjectVersion
1070
     0
  0
VISUALSTYLE
  5
4B2
102
{ACAD_XDICTIONARY
360
ADB
102
}
102
{ACAD_REACTORS
330
2A
102
}
330
2A
100
AcDbVisualStyle
  2
X-Ray
 70
    25
177
     2
291
     0
 71
     2
176
     1
 72
     2
176
     1
 73
     1
176
     1
 90
        1
176
     1
 40
0.5
176
     1
 41
30.0
176
     1
 63
     7
421
 16777215
176
     1
 74
     1
176
     1
 91
        0
176
     1
 64
     7
176
     1
 65
   257
176
     1
 75
     1
176
     1
175
     1
176
     1
 42
1.0
176
     1
 92
        8
176
     1
 66
     7
176
     1
 43
1.0
176
     1
 76
     1
176
     1
 77
     6
176
     1
 78
     2
176
     1
 67
     7
176
     1
 79
     3
176
     1
170
     0
176
     1
171
     0
176
     1
290
     0
176
     1
 93
       13
176
     1
 44
0.0
176
     1
173
     0
176
     1
1001
ACAD
1000
AcDbSavedByObjectVersion
1070
     0
  0
DICTIONARYVAR
  5
489
102
{ACAD_REACTORS
330
488
102
}
330
488
100
DictionaryVariables
280
     0
  1
1:1
  0
DICTIONARYVAR
  5
56C
102
{ACAD_REACTORS
330
488
102
}
330
488
100
DictionaryVariables
280
     0
  1
STANDARD
  0
DICTIONARYVAR
  5
56B
102
{ACAD_REACTORS
330
488
102
}
330
488
100
DictionaryVariables
280
     0
  1
STANDARD
  0
DICTIONARYVAR
  5
56D
102
{ACAD_REACTORS
330
488
102
}
330
488
100
DictionaryVariables
280
     0
  1
Imperial24
  0
DICTIONARYVAR
  5
56E
102
{ACAD_REACTORS
330
488
102
}
330
488
100
DictionaryVariables
280
     0
  1
Imperial24
  0
DICTIONARYVAR
  5
517
102
{ACAD_REACTORS
330
488
102
}
330
488
100
DictionaryVariables
280
     0
  1
RGB:95,95,95
  0
DICTIONARYVAR
  5
56F
102
{ACAD_REACTORS
330
488
102
}
330
488
100
DictionaryVariables
280
     0
  1
1
  0
DICTIONARYVAR
  5
570
102
{ACAD_REACTORS
330
488
102
}
330
488
100
DictionaryVariables
280
     0
  1
15
  0
DICTIONARY
  5
AB2
102
{ACAD_REACTORS
330
AB0
102
}
330
AB0
100
AcDbDictionary
281
     1
  0
DICTIONARY
  5
AB1
102
{ACAD_REACTORS
330
AB0
102
}
330
AB0
100
AcDbDictionary
281
     1
  3
2128655512
350
AAB
  3
2128655520
350
AAC
  3
2128655528
350
AAD
  3
2128655536
350
AAE
  3
2128655544
350
AAF
  0
XRECORD
  5
487
102
{ACAD_REACTORS
330
486
102
}
330
486
100
AcDbXrecord
280
     1
1000
This DWG file was created in ArchiCAD(TM)®
  0
DICTIONARY
  5
568
330
4BE
100
AcDbDictionary
280
     1
281
     1
  3
ACAD_XREC_ROUNDTRIP
360
AEA
  0
DICTIONARY
  5
AE7
330
4BA
100
AcDbDictionary
280
     1
281
     1
  3
ACAD_XREC_ROUNDTRIP
360
AE8
  0
DICTIONARY
  5
566
330
4BC
100
AcDbDictionary
280
     1
281
     1
  3
ACAD_XREC_ROUNDTRIP
360
AE9
  0
DICTIONARY
  5
AA8
330
4B9
100
AcDbDictionary
280
     1
281
     1
  3
ACAD_ROUNDTRIP_2008_TABLESTYLE_CELLSTYLEMAP
360
AA9
  0
DICTIONARY
  5
ABB
330
2F
100
AcDbDictionary
280
     1
281
     1
  3
ACAD_XREC_ROUNDTRIP
360
ABC
  0
DICTIONARY
  5
ABF
330
31
100
AcDbDictionary
280
     1
281
     1
  3
ACAD_XREC_ROUNDTRIP
360
AC0
  0
DICTIONARY
  5
ABD
330
30
100
AcDbDictionary
280
     1
281
     1
  3
ACAD_XREC_ROUNDTRIP
360
ABE
  0
DICTIONARY
  5
AC1
330
32
100
AcDbDictionary
280
     1
281
     1
  3
ACAD_XREC_ROUNDTRIP
360
AC2
  0
DICTIONARY
  5
AC9
330
36
100
AcDbDictionary
280
     1
281
     1
  3
ACAD_XREC_ROUNDTRIP
360
ACA
  0
DICTIONARY
  5
AD1
330
3A
100
AcDbDictionary
280
     1
281
     1
  3
ACAD_XREC_ROUNDTRIP
360
AD2
  0
DICTIONARY
  5
AC5
330
34
100
AcDbDictionary
280
     1
281
     1
  3
ACAD_XREC_ROUNDTRIP
360
AC6
  0
DICTIONARY
  5
AC7
330
35
100
AcDbDictionary
280
     1
281
     1
  3
ACAD_XREC_ROUNDTRIP
360
AC8
  0
DICTIONARY
  5
AE5
330
4B7
100
AcDbDictionary
280
     1
281
     1
  3
ACAD_XREC_ROUNDTRIP
360
AE6
  0
DICTIONARY
  5
ACF
330
39
100
AcDbDictionary
280
     1
281
     1
  3
ACAD_XREC_ROUNDTRIP
360
AD0
  0
DICTIONARY
  5
AB3
330
2B
100
AcDbDictionary
280
     1
281
     1
  3
ACAD_XREC_ROUNDTRIP
360
AB4
  0
DICTIONARY
  5
AB5
330
2C
100
AcDbDictionary
280
     1
281
     1
  3
ACAD_XREC_ROUNDTRIP
360
AB6
  0
DICTIONARY
  5
AB7
330
2D
100
AcDbDictionary
280
     1
281
     1
  3
ACAD_XREC_ROUNDTRIP
360
AB8
  0
DICTIONARY
  5
AB9
330
2E
100
AcDbDictionary
280
     1
281
     1
  3
ACAD_XREC_ROUNDTRIP
360
ABA
  0
DICTIONARY
  5
AD5
330
4AF
100
AcDbDictionary
280
     1
281
     1
  3
ACAD_XREC_ROUNDTRIP
360
AD6
  0
DICTIONARY
  5
AE1
330
4B5
100
AcDbDictionary
280
     1
281
     1
  3
ACAD_XREC_ROUNDTRIP
360
AE2
  0
DICTIONARY
  5
ACD
330
38
100
AcDbDictionary
280
     1
281
     1
  3
ACAD_XREC_ROUNDTRIP
360
ACE
  0
DICTIONARY
  5
AE3
330
4B6
100
AcDbDictionary
280
     1
281
     1
  3
ACAD_XREC_ROUNDTRIP
360
AE4
  0
DICTIONARY
  5
AC3
330
33
100
AcDbDictionary
280
     1
281
     1
  3
ACAD_XREC_ROUNDTRIP
360
AC4
  0
DICTIONARY
  5
ADF
330
4B4
100
AcDbDictionary
280
     1
281
     1
  3
ACAD_XREC_ROUNDTRIP
360
AE0
  0
DICTIONARY
  5
ADD
330
4B3
100
AcDbDictionary
280
     1
281
     1
  3
ACAD_XREC_ROUNDTRIP
360
ADE
  0
DICTIONARY
  5
AD7
330
4B0
100
AcDbDictionary
280
     1
281
     1
  3
ACAD_XREC_ROUNDTRIP
360
AD8
  0
DICTIONARY
  5
AD9
330
4B1
100
AcDbDictionary
280
     1
281
     1
  3
ACAD_XREC_ROUNDTRIP
360
ADA
  0
DICTIONARY
  5
ACB
330
37
100
AcDbDictionary
280
     1
281
     1
  3
ACAD_XREC_ROUNDTRIP
360
ACC
  0
DICTIONARY
  5
AD3
330
4AE
100
AcDbDictionary
280
     1
281
     1
  3
ACAD_XREC_ROUNDTRIP
360
AD4
  0
DICTIONARY
  5
ADB
330
4B2
100
AcDbDictionary
280
     1
281
     1
  3
ACAD_XREC_ROUNDTRIP
360
ADC
  0
XRECORD
  5
AAB
102
{ACAD_REACTORS
330
AB1
102
}
330
AB1
100
AcDbXrecord
280
     1
  1
AcDb_Thumbnail_Schema
102
{ATTRRECORD
341
AAC
  2
AcDbDs::TreatedAsObjectData
280
     1
291
     1
102
ATTRRECORD}
102
{ATTRRECORD
341
AAD
  2
AcDbDs::Legacy
280
     1
291
     1
102
ATTRRECORD}
  2
AcDbDs::ID
280
    10
 91
        8
102
{ATTRRECORD
341
AAE
  2
AcDs:Indexable
280
     1
291
     1
102
ATTRRECORD}
102
{ATTRRECORD
341
AAF
  2
AcDbDs::HandleAttribute
280
     7
282
     1
102
ATTRRECORD}
  2
Thumbnail_Data
280
    15
 91
        0
  0
XRECORD
  5
AAC
102
{ACAD_REACTORS
330
AB1
102
}
330
AB1
100
AcDbXrecord
280
     1
  1
AcDbDs::TreatedAsObjectDataSchema
  2
AcDbDs::TreatedAsObjectData
280
     1
 91
        0
  0
XRECORD
  5
AAD
102
{ACAD_REACTORS
330
AB1
102
}
330
AB1
100
AcDbXrecord
280
     1
  1
AcDbDs::LegacySchema
  2
AcDbDs::Legacy
280
     1
 91
        0
  0
XRECORD
  5
AAE
102
{ACAD_REACTORS
330
AB1
102
}
330
AB1
100
AcDbXrecord
280
     1
  1
AcDbDs::IndexedPropertySchema
  2
AcDs:Indexable
280
     1
 91
        0
  0
XRECORD
  5
AAF
102
{ACAD_REACTORS
330
AB1
102
}
330
AB1
100
AcDbXrecord
280
     1
  1
AcDbDs::HandleAttributeSchema
  2
AcDbDs::HandleAttribute
280
     7
 91
        1
284
     1
  0
XRECORD
  5
AEA
102
{ACAD_REACTORS
330
568
102
}
330
568
100
AcDbXrecord
280
     1
102
DISPLAYNAME
  1
Imperial24
102
FLAGS
 90
        0
  0
XRECORD
  5
AE8
102
{ACAD_REACTORS
330
AE7
102
}
330
AE7
100
AcDbXrecord
280
     1
102
ACAD_ROUNDTRIP_2012_MLEADER_STYLE
298
     1
  0
XRECORD
  5
AE9
102
{ACAD_REACTORS
330
566
102
}
330
566
100
AcDbXrecord
280
     1
102
DISPLAYNAME
  1
Imperial24
102
FLAGS
 90
        0
  0
CELLSTYLEMAP
  5
AA9
102
{ACAD_REACTORS
330
AA8
102
}
330
AA8
100
AcDbCellStyleMap
 90
        3
300
CELLSTYLE
  1
TABLEFORMAT_BEGIN
 90
        5
170
     1
 91
        0
 92
    32768
 62
   257
 93
        1
300
CONTENTFORMAT
  1
CONTENTFORMAT_BEGIN
 90
        0
 91
        0
 92
      512
 93
        0
300

 40
0.0
140
1.0
 94
        5
 62
     0
340
11
144
0.25
309
CONTENTFORMAT_END
171
     0
 94
        0
309
TABLEFORMAT_END
  1
CELLSTYLE_BEGIN
 90
        1
 91
        1
300
_TITLE
309
CELLSTYLE_END
300
CELLSTYLE
  1
TABLEFORMAT_BEGIN
 90
        5
170
     1
 91
        0
 92
        0
 62
   257
 93
        1
300
CONTENTFORMAT
  1
CONTENTFORMAT_BEGIN
 90
        0
 91
        0
 92
      512
 93
        0
300

 40
0.0
140
1.0
 94
        5
 62
     0
340
11
144
0.18
309
CONTENTFORMAT_END
171
     0
 94
        0
309
TABLEFORMAT_END
  1
CELLSTYLE_BEGIN
 90
        2
 91
        1
300
_HEADER
309
CELLSTYLE_END
300
CELLSTYLE
  1
TABLEFORMAT_BEGIN
 90
        5
170
     1
 91
        0
 92
        0
 62
   257
 93
        1
300
CONTENTFORMAT
  1
CONTENTFORMAT_BEGIN
 90
        0
 91
        0
 92
      512
 93
        0
300

 40
0.0
140
1.0
 94
        2
 62
     0
340
11
144
0.18
309
CONTENTFORMAT_END
171
     0
 94
        0
309
TABLEFORMAT_END
  1
CELLSTYLE_BEGIN
 90
        3
 91
        2
300
_DATA
309
CELLSTYLE_END
  0
XRECORD
  5
ABC
102
{ACAD_REACTORS
330
ABB
102
}
330
ABB
100
AcDbXrecord
280
     1
102
RTVSPost2010Prop28
280
     1
102
RTVSPost2010PropOp28
 70
     1
102
RTVSPost2010Prop29
280
     1
102
RTVSPost2010PropOp29
 70
     1
102
RTVSPost2010Prop30
280
     0
102
RTVSPost2010PropOp30
 70
     1
102
RTVSPost2010Prop31
280
     0
102
RTVSPost2010PropOp31
 70
     1
102
RTVSPost2010Prop32
280
     0
102
RTVSPost2010PropOp32
 70
     1
102
RTVSPost2010Prop33
280
     0
102
RTVSPost2010PropOp33
 70
     1
102
RTVSPost2010Prop34
280
     0
102
RTVSPost2010PropOp34
 70
     1
102
RTVSPost2010Prop35
280
     0
102
RTVSPost2010PropOp35
 70
     1
102
RTVSPost2010Prop36
280
     0
102
RTVSPost2010PropOp36
 70
     1
102
RTVSPost2010Prop37
 90
       50
102
RTVSPost2010PropOp37
 70
     1
102
RTVSPost2010Prop38
140
0.0
102
RTVSPost2010PropOp38
 70
     1
102
RTVSPost2010Prop39
140
1.0
102
RTVSPost2010PropOp39
 70
     1
102
RTVSPost2010Prop40
 90
        0
102
RTVSPost2010PropOp40
 70
     1
102
RTVSPost2010Prop41ColorIndex
 90
       18
102
RTVSPost2010Prop41ColorRGB
 90
        0
102
RTVSPost2010PropOp41
 70
     1
102
RTVSPost2010Prop42
 90
       50
102
RTVSPost2010PropOp42
 70
     1
102
RTVSPost2010Prop43
 90
        3
102
RTVSPost2010PropOp43
 70
     1
102
RTVSPost2010Prop44ColorIndex
 90
        5
102
RTVSPost2010Prop44ColorRGB
 90
      255
102
RTVSPost2010PropOp44
 70
     1
102
RTVSPost2010Prop45
280
     0
102
RTVSPost2010PropOp45
 70
     1
102
RTVSPost2010Prop46
 90
       50
102
RTVSPost2010PropOp46
 70
     1
102
RTVSPost2010Prop47
 90
       50
102
RTVSPost2010PropOp47
 70
     1
102
RTVSPost2010Prop48
 90
       50
102
RTVSPost2010PropOp48
 70
     1
102
RTVSPost2010Prop49
280
     0
102
RTVSPost2010PropOp49
 70
     1
102
RTVSPost2010Prop50
 90
       50
102
RTVSPost2010PropOp50
 70
     1
102
RTVSPost2010Prop51ColorIndex
 90
      256
102
RTVSPost2010Prop51ColorRGB
 90
-16777216
102
RTVSPost2010PropOp51
 70
     0
102
RTVSPost2010Prop52
140
1.0
102
RTVSPost2010PropOp52
 70
     0
102
RTVSPost2010Prop53
 90
        2
102
RTVSPost2010PropOp53
 70
     1
102
RTVSPost2010Prop54
  1
strokes_ogs.tif
102
RTVSPost2010PropOp54
 70
     1
102
RTVSPost2010Prop55
280
     0
102
RTVSPost2010PropOp55
 70
     1
102
RTVSPost2010Prop56
140
1.0
102
RTVSPost2010PropOp56
 70
     1
102
RTVSPost2010Prop57
140
1.0
102
RTVSPost2010PropOp57
 70
     1
  0
XRECORD
  5
AC0
102
{ACAD_REACTORS
330
ABF
102
}
330
ABF
100
AcDbXrecord
280
     1
102
RTVSPost2010Prop28
280
     0
102
RTVSPost2010PropOp28
 70
     1
102
RTVSPost2010Prop29
280
     1
102
RTVSPost2010PropOp29
 70
     1
102
RTVSPost2010Prop30
280
     1
102
RTVSPost2010PropOp30
 70
     1
102
RTVSPost2010Prop31
280
     0
102
RTVSPost2010PropOp31
 70
     1
102
RTVSPost2010Prop32
280
     0
102
RTVSPost2010PropOp32
 70
     1
102
RTVSPost2010Prop33
280
     0
102
RTVSPost2010PropOp33
 70
     1
102
RTVSPost2010Prop34
280
     0
102
RTVSPost2010PropOp34
 70
     1
102
RTVSPost2010Prop35
280
     0
102
RTVSPost2010PropOp35
 70
     1
102
RTVSPost2010Prop36
280
     0
102
RTVSPost2010PropOp36
 70
     1
102
RTVSPost2010Prop37
 90
       50
102
RTVSPost2010PropOp37
 70
     1
102
RTVSPost2010Prop38
140
0.0
102
RTVSPost2010PropOp38
 70
     1
102
RTVSPost2010Prop39
140
1.0
102
RTVSPost2010PropOp39
 70
     1
102
RTVSPost2010Prop40
 90
        0
102
RTVSPost2010PropOp40
 70
     1
102
RTVSPost2010Prop41ColorIndex
 90
       18
102
RTVSPost2010Prop41ColorRGB
 90
        0
102
RTVSPost2010PropOp41
 70
     1
102
RTVSPost2010Prop42
 90
       50
102
RTVSPost2010PropOp42
 70
     1
102
RTVSPost2010Prop43
 90
        3
102
RTVSPost2010PropOp43
 70
     1
102
RTVSPost2010Prop44ColorIndex
 90
        5
102
RTVSPost2010Prop44ColorRGB
 90
      255
102
RTVSPost2010PropOp44
 70
     1
102
RTVSPost2010Prop45
280
     0
102
RTVSPost2010PropOp45
 70
     1
102
RTVSPost2010Prop46
 90
       50
102
RTVSPost2010PropOp46
 70
     1
102
RTVSPost2010Prop47
 90
       50
102
RTVSPost2010PropOp47
 70
     1
102
RTVSPost2010Prop48
 90
       50
102
RTVSPost2010PropOp48
 70
     1
102
RTVSPost2010Prop49
280
     0
102
RTVSPost2010PropOp49
 70
     1
102
RTVSPost2010Prop50
 90
       50
102
RTVSPost2010PropOp50
 70
     1
102
RTVSPost2010Prop51ColorIndex
 90
      256
102
RTVSPost2010Prop51ColorRGB
 90
-16777216
102
RTVSPost2010PropOp51
 70
     0
102
RTVSPost2010Prop52
140
1.0
102
RTVSPost2010PropOp52
 70
     0
102
RTVSPost2010Prop53
 90
        2
102
RTVSPost2010PropOp53
 70
     1
102
RTVSPost2010Prop54
  1
strokes_ogs.tif
102
RTVSPost2010PropOp54
 70
     1
102
RTVSPost2010Prop55
280
     0
102
RTVSPost2010PropOp55
 70
     1
102
RTVSPost2010Prop56
140
1.0
102
RTVSPost2010PropOp56
 70
     1
102
RTVSPost2010Prop57
140
1.0
102
RTVSPost2010PropOp57
 70
     1
  0
XRECORD
  5
ABE
102
{ACAD_REACTORS
330
ABD
102
}
330
ABD
100
AcDbXrecord
280
     1
102
RTVSPost2010Prop28
280
     0
102
RTVSPost2010PropOp28
 70
     1
102
RTVSPost2010Prop29
280
     1
102
RTVSPost2010PropOp29
 70
     1
102
RTVSPost2010Prop30
280
     1
102
RTVSPost2010PropOp30
 70
     1
102
RTVSPost2010Prop31
280
     0
102
RTVSPost2010PropOp31
 70
     1
102
RTVSPost2010Prop32
280
     0
102
RTVSPost2010PropOp32
 70
     1
102
RTVSPost2010Prop33
280
     0
102
RTVSPost2010PropOp33
 70
     1
102
RTVSPost2010Prop34
280
     0
102
RTVSPost2010PropOp34
 70
     1
102
RTVSPost2010Prop35
280
     0
102
RTVSPost2010PropOp35
 70
     1
102
RTVSPost2010Prop36
280
     0
102
RTVSPost2010PropOp36
 70
     1
102
RTVSPost2010Prop37
 90
       50
102
RTVSPost2010PropOp37
 70
     1
102
RTVSPost2010Prop38
140
0.0
102
RTVSPost2010PropOp38
 70
     1
102
RTVSPost2010Prop39
140
1.0
102
RTVSPost2010PropOp39
 70
     1
102
RTVSPost2010Prop40
 90
        0
102
RTVSPost2010PropOp40
 70
     1
102
RTVSPost2010Prop41ColorIndex
 90
       18
102
RTVSPost2010Prop41ColorRGB
 90
        0
102
RTVSPost2010PropOp41
 70
     1
102
RTVSPost2010Prop42
 90
       50
102
RTVSPost2010PropOp42
 70
     1
102
RTVSPost2010Prop43
 90
        3
102
RTVSPost2010PropOp43
 70
     1
102
RTVSPost2010Prop44ColorIndex
 90
        5
102
RTVSPost2010Prop44ColorRGB
 90
      255
102
RTVSPost2010PropOp44
 70
     1
102
RTVSPost2010Prop45
280
     0
102
RTVSPost2010PropOp45
 70
     1
102
RTVSPost2010Prop46
 90
       50
102
RTVSPost2010PropOp46
 70
     1
102
RTVSPost2010Prop47
 90
       50
102
RTVSPost2010PropOp47
 70
     1
102
RTVSPost2010Prop48
 90
       50
102
RTVSPost2010PropOp48
 70
     1
102
RTVSPost2010Prop49
280
     0
102
RTVSPost2010PropOp49
 70
     1
102
RTVSPost2010Prop50
 90
       50
102
RTVSPost2010PropOp50
 70
     1
102
RTVSPost2010Prop51ColorIndex
 90
      256
102
RTVSPost2010Prop51ColorRGB
 90
-16777216
102
RTVSPost2010PropOp51
 70
     0
102
RTVSPost2010Prop52
140
1.0
102
RTVSPost2010PropOp52
 70
     0
102
RTVSPost2010Prop53
 90
        2
102
RTVSPost2010PropOp53
 70
     1
102
RTVSPost2010Prop54
  1
strokes_ogs.tif
102
RTVSPost2010PropOp54
 70
     1
102
RTVSPost2010Prop55
280
     0
102
RTVSPost2010PropOp55
 70
     1
102
RTVSPost2010Prop56
140
1.0
102
RTVSPost2010PropOp56
 70
     1
102
RTVSPost2010Prop57
140
1.0
102
RTVSPost2010PropOp57
 70
     1
  0
XRECORD
  5
AC2
102
{ACAD_REACTORS
330
AC1
102
}
330
AC1
100
AcDbXrecord
280
     1
102
RTVSPost2010Prop28
280
     0
102
RTVSPost2010PropOp28
 70
     1
102
RTVSPost2010Prop29
280
     1
102
RTVSPost2010PropOp29
 70
     1
102
RTVSPost2010Prop30
280
     1
102
RTVSPost2010PropOp30
 70
     1
102
RTVSPost2010Prop31
280
     0
102
RTVSPost2010PropOp31
 70
     1
102
RTVSPost2010Prop32
280
     0
102
RTVSPost2010PropOp32
 70
     1
102
RTVSPost2010Prop33
280
     0
102
RTVSPost2010PropOp33
 70
     1
102
RTVSPost2010Prop34
280
     0
102
RTVSPost2010PropOp34
 70
     1
102
RTVSPost2010Prop35
280
     0
102
RTVSPost2010PropOp35
 70
     1
102
RTVSPost2010Prop36
280
     0
102
RTVSPost2010PropOp36
 70
     1
102
RTVSPost2010Prop37
 90
       50
102
RTVSPost2010PropOp37
 70
     1
102
RTVSPost2010Prop38
140
0.0
102
RTVSPost2010PropOp38
 70
     1
102
RTVSPost2010Prop39
140
1.0
102
RTVSPost2010PropOp39
 70
     1
102
RTVSPost2010Prop40
 90
        0
102
RTVSPost2010PropOp40
 70
     1
102
RTVSPost2010Prop41ColorIndex
 90
       18
102
RTVSPost2010Prop41ColorRGB
 90
        0
102
RTVSPost2010PropOp41
 70
     1
102
RTVSPost2010Prop42
 90
       50
102
RTVSPost2010PropOp42
 70
     1
102
RTVSPost2010Prop43
 90
        3
102
RTVSPost2010PropOp43
 70
     1
102
RTVSPost2010Prop44ColorIndex
 90
        5
102
RTVSPost2010Prop44ColorRGB
 90
      255
102
RTVSPost2010PropOp44
 70
     1
102
RTVSPost2010Prop45
280
     0
102
RTVSPost2010PropOp45
 70
     1
102
RTVSPost2010Prop46
 90
       50
102
RTVSPost2010PropOp46
 70
     1
102
RTVSPost2010Prop47
 90
       50
102
RTVSPost2010PropOp47
 70
     1
102
RTVSPost2010Prop48
 90
       50
102
RTVSPost2010PropOp48
 70
     1
102
RTVSPost2010Prop49
280
     0
102
RTVSPost2010PropOp49
 70
     1
102
RTVSPost2010Prop50
 90
       50
102
RTVSPost2010PropOp50
 70
     1
102
RTVSPost2010Prop51ColorIndex
 90
      256
102
RTVSPost2010Prop51ColorRGB
 90
-16777216
102
RTVSPost2010PropOp51
 70
     0
102
RTVSPost2010Prop52
140
1.0
102
RTVSPost2010PropOp52
 70
     0
102
RTVSPost2010Prop53
 90
        2
102
RTVSPost2010PropOp53
 70
     1
102
RTVSPost2010Prop54
  1
strokes_ogs.tif
102
RTVSPost2010PropOp54
 70
     1
102
RTVSPost2010Prop55
280
     0
102
RTVSPost2010PropOp55
 70
     1
102
RTVSPost2010Prop56
140
1.0
102
RTVSPost2010PropOp56
 70
     1
102
RTVSPost2010Prop57
140
1.0
102
RTVSPost2010PropOp57
 70
     1
  0
XRECORD
  5
ACA
102
{ACAD_REACTORS
330
AC9
102
}
330
AC9
100
AcDbXrecord
280
     1
102
RTVSPost2010Prop28
280
     0
102
RTVSPost2010PropOp28
 70
     1
102
RTVSPost2010Prop29
280
     1
102
RTVSPost2010PropOp29
 70
     1
102
RTVSPost2010Prop30
280
     1
102
RTVSPost2010PropOp30
 70
     1
102
RTVSPost2010Prop31
280
     0
102
RTVSPost2010PropOp31
 70
     1
102
RTVSPost2010Prop32
280
     0
102
RTVSPost2010PropOp32
 70
     1
102
RTVSPost2010Prop33
280
     0
102
RTVSPost2010PropOp33
 70
     1
102
RTVSPost2010Prop34
280
     0
102
RTVSPost2010PropOp34
 70
     1
102
RTVSPost2010Prop35
280
     0
102
RTVSPost2010PropOp35
 70
     1
102
RTVSPost2010Prop36
280
     0
102
RTVSPost2010PropOp36
 70
     1
102
RTVSPost2010Prop37
 90
       50
102
RTVSPost2010PropOp37
 70
     1
102
RTVSPost2010Prop38
140
0.0
102
RTVSPost2010PropOp38
 70
     1
102
RTVSPost2010Prop39
140
1.0
102
RTVSPost2010PropOp39
 70
     1
102
RTVSPost2010Prop40
 90
        0
102
RTVSPost2010PropOp40
 70
     1
102
RTVSPost2010Prop41ColorIndex
 90
       18
102
RTVSPost2010Prop41ColorRGB
 90
        0
102
RTVSPost2010PropOp41
 70
     1
102
RTVSPost2010Prop42
 90
       50
102
RTVSPost2010PropOp42
 70
     1
102
RTVSPost2010Prop43
 90
        3
102
RTVSPost2010PropOp43
 70
     1
102
RTVSPost2010Prop44ColorIndex
 90
        5
102
RTVSPost2010Prop44ColorRGB
 90
      255
102
RTVSPost2010PropOp44
 70
     1
102
RTVSPost2010Prop45
280
     0
102
RTVSPost2010PropOp45
 70
     1
102
RTVSPost2010Prop46
 90
       50
102
RTVSPost2010PropOp46
 70
     1
102
RTVSPost2010Prop47
 90
       50
102
RTVSPost2010PropOp47
 70
     1
102
RTVSPost2010Prop48
 90
       50
102
RTVSPost2010PropOp48
 70
     1
102
RTVSPost2010Prop49
280
     0
102
RTVSPost2010PropOp49
 70
     1
102
RTVSPost2010Prop50
 90
       50
102
RTVSPost2010PropOp50
 70
     1
102
RTVSPost2010Prop51ColorIndex
 90
      256
102
RTVSPost2010Prop51ColorRGB
 90
-16777216
102
RTVSPost2010PropOp51
 70
     0
102
RTVSPost2010Prop52
140
1.0
102
RTVSPost2010PropOp52
 70
     0
102
RTVSPost2010Prop53
 90
        2
102
RTVSPost2010PropOp53
 70
     1
102
RTVSPost2010Prop54
  1
strokes_ogs.tif
102
RTVSPost2010PropOp54
 70
     1
102
RTVSPost2010Prop55
280
     0
102
RTVSPost2010PropOp55
 70
     1
102
RTVSPost2010Prop56
140
1.0
102
RTVSPost2010PropOp56
 70
     1
102
RTVSPost2010Prop57
140
1.0
102
RTVSPost2010PropOp57
 70
     1
  0
XRECORD
  5
AD2
102
{ACAD_REACTORS
330
AD1
102
}
330
AD1
100
AcDbXrecord
280
     1
102
RTVSPost2010Prop28
280
     0
102
RTVSPost2010PropOp28
 70
     1
102
RTVSPost2010Prop29
280
     1
102
RTVSPost2010PropOp29
 70
     1
102
RTVSPost2010Prop30
280
     1
102
RTVSPost2010PropOp30
 70
     1
102
RTVSPost2010Prop31
280
     0
102
RTVSPost2010PropOp31
 70
     1
102
RTVSPost2010Prop32
280
     0
102
RTVSPost2010PropOp32
 70
     1
102
RTVSPost2010Prop33
280
     0
102
RTVSPost2010PropOp33
 70
     1
102
RTVSPost2010Prop34
280
     0
102
RTVSPost2010PropOp34
 70
     1
102
RTVSPost2010Prop35
280
     0
102
RTVSPost2010PropOp35
 70
     1
102
RTVSPost2010Prop36
280
     0
102
RTVSPost2010PropOp36
 70
     1
102
RTVSPost2010Prop37
 90
       50
102
RTVSPost2010PropOp37
 70
     1
102
RTVSPost2010Prop38
140
0.0
102
RTVSPost2010PropOp38
 70
     1
102
RTVSPost2010Prop39
140
1.0
102
RTVSPost2010PropOp39
 70
     1
102
RTVSPost2010Prop40
 90
        0
102
RTVSPost2010PropOp40
 70
     1
102
RTVSPost2010Prop41ColorIndex
 90
       18
102
RTVSPost2010Prop41ColorRGB
 90
        0
102
RTVSPost2010PropOp41
 70
     1
102
RTVSPost2010Prop42
 90
       50
102
RTVSPost2010PropOp42
 70
     1
102
RTVSPost2010Prop43
 90
        3
102
RTVSPost2010PropOp43
 70
     1
102
RTVSPost2010Prop44ColorIndex
 90
        5
102
RTVSPost2010Prop44ColorRGB
 90
      255
102
RTVSPost2010PropOp44
 70
     1
102
RTVSPost2010Prop45
280
     0
102
RTVSPost2010PropOp45
 70
     1
102
RTVSPost2010Prop46
 90
       50
102
RTVSPost2010PropOp46
 70
     1
102
RTVSPost2010Prop47
 90
       50
102
RTVSPost2010PropOp47
 70
     1
102
RTVSPost2010Prop48
 90
       50
102
RTVSPost2010PropOp48
 70
     1
102
RTVSPost2010Prop49
280
     0
102
RTVSPost2010PropOp49
 70
     1
102
RTVSPost2010Prop50
 90
       50
102
RTVSPost2010PropOp50
 70
     1
102
RTVSPost2010Prop51ColorIndex
 90
      256
102
RTVSPost2010Prop51ColorRGB
 90
-16777216
102
RTVSPost2010PropOp51
 70
     0
102
RTVSPost2010Prop52
140
1.0
102
RTVSPost2010PropOp52
 70
     0
102
RTVSPost2010Prop53
 90
        2
102
RTVSPost2010PropOp53
 70
     1
102
RTVSPost2010Prop54
  1
strokes_ogs.tif
102
RTVSPost2010PropOp54
 70
     1
102
RTVSPost2010Prop55
280
     0
102
RTVSPost2010PropOp55
 70
     1
102
RTVSPost2010Prop56
140
1.0
102
RTVSPost2010PropOp56
 70
     1
102
RTVSPost2010Prop57
140
1.0
102
RTVSPost2010PropOp57
 70
     1
  0
XRECORD
  5
AC6
102
{ACAD_REACTORS
330
AC5
102
}
330
AC5
100
AcDbXrecord
280
     1
102
RTVSPost2010Prop28
280
     0
102
RTVSPost2010PropOp28
 70
     1
102
RTVSPost2010Prop29
280
     1
102
RTVSPost2010PropOp29
 70
     1
102
RTVSPost2010Prop30
280
     1
102
RTVSPost2010PropOp30
 70
     1
102
RTVSPost2010Prop31
280
     0
102
RTVSPost2010PropOp31
 70
     1
102
RTVSPost2010Prop32
280
     0
102
RTVSPost2010PropOp32
 70
     1
102
RTVSPost2010Prop33
280
     0
102
RTVSPost2010PropOp33
 70
     1
102
RTVSPost2010Prop34
280
     0
102
RTVSPost2010PropOp34
 70
     1
102
RTVSPost2010Prop35
280
     0
102
RTVSPost2010PropOp35
 70
     1
102
RTVSPost2010Prop36
280
     0
102
RTVSPost2010PropOp36
 70
     1
102
RTVSPost2010Prop37
 90
       50
102
RTVSPost2010PropOp37
 70
     1
102
RTVSPost2010Prop38
140
0.0
102
RTVSPost2010PropOp38
 70
     1
102
RTVSPost2010Prop39
140
1.0
102
RTVSPost2010PropOp39
 70
     1
102
RTVSPost2010Prop40
 90
        0
102
RTVSPost2010PropOp40
 70
     1
102
RTVSPost2010Prop41ColorIndex
 90
       18
102
RTVSPost2010Prop41ColorRGB
 90
        0
102
RTVSPost2010PropOp41
 70
     1
102
RTVSPost2010Prop42
 90
       50
102
RTVSPost2010PropOp42
 70
     1
102
RTVSPost2010Prop43
 90
        3
102
RTVSPost2010PropOp43
 70
     1
102
RTVSPost2010Prop44ColorIndex
 90
        5
102
RTVSPost2010Prop44ColorRGB
 90
      255
102
RTVSPost2010PropOp44
 70
     1
102
RTVSPost2010Prop45
280
     0
102
RTVSPost2010PropOp45
 70
     1
102
RTVSPost2010Prop46
 90
       50
102
RTVSPost2010PropOp46
 70
     1
102
RTVSPost2010Prop47
 90
       50
102
RTVSPost2010PropOp47
 70
     1
102
RTVSPost2010Prop48
 90
       50
102
RTVSPost2010PropOp48
 70
     1
102
RTVSPost2010Prop49
280
     0
102
RTVSPost2010PropOp49
 70
     1
102
RTVSPost2010Prop50
 90
       50
102
RTVSPost2010PropOp50
 70
     1
102
RTVSPost2010Prop51ColorIndex
 90
      256
102
RTVSPost2010Prop51ColorRGB
 90
-16777216
102
RTVSPost2010PropOp51
 70
     0
102
RTVSPost2010Prop52
140
1.0
102
RTVSPost2010PropOp52
 70
     0
102
RTVSPost2010Prop53
 90
        2
102
RTVSPost2010PropOp53
 70
     1
102
RTVSPost2010Prop54
  1
strokes_ogs.tif
102
RTVSPost2010PropOp54
 70
     1
102
RTVSPost2010Prop55
280
     0
102
RTVSPost2010PropOp55
 70
     1
102
RTVSPost2010Prop56
140
1.0
102
RTVSPost2010PropOp56
 70
     1
102
RTVSPost2010Prop57
140
1.0
102
RTVSPost2010PropOp57
 70
     1
  0
XRECORD
  5
AC8
102
{ACAD_REACTORS
330
AC7
102
}
330
AC7
100
AcDbXrecord
280
     1
102
RTVSPost2010Prop28
280
     0
102
RTVSPost2010PropOp28
 70
     1
102
RTVSPost2010Prop29
280
     1
102
RTVSPost2010PropOp29
 70
     1
102
RTVSPost2010Prop30
280
     1
102
RTVSPost2010PropOp30
 70
     1
102
RTVSPost2010Prop31
280
     0
102
RTVSPost2010PropOp31
 70
     1
102
RTVSPost2010Prop32
280
     0
102
RTVSPost2010PropOp32
 70
     1
102
RTVSPost2010Prop33
280
     0
102
RTVSPost2010PropOp33
 70
     1
102
RTVSPost2010Prop34
280
     0
102
RTVSPost2010PropOp34
 70
     1
102
RTVSPost2010Prop35
280
     0
102
RTVSPost2010PropOp35
 70
     1
102
RTVSPost2010Prop36
280
     0
102
RTVSPost2010PropOp36
 70
     1
102
RTVSPost2010Prop37
 90
       50
102
RTVSPost2010PropOp37
 70
     1
102
RTVSPost2010Prop38
140
0.0
102
RTVSPost2010PropOp38
 70
     1
102
RTVSPost2010Prop39
140
1.0
102
RTVSPost2010PropOp39
 70
     1
102
RTVSPost2010Prop40
 90
        0
102
RTVSPost2010PropOp40
 70
     1
102
RTVSPost2010Prop41ColorIndex
 90
       18
102
RTVSPost2010Prop41ColorRGB
 90
        0
102
RTVSPost2010PropOp41
 70
     1
102
RTVSPost2010Prop42
 90
       50
102
RTVSPost2010PropOp42
 70
     1
102
RTVSPost2010Prop43
 90
        3
102
RTVSPost2010PropOp43
 70
     1
102
RTVSPost2010Prop44ColorIndex
 90
        5
102
RTVSPost2010Prop44ColorRGB
 90
      255
102
RTVSPost2010PropOp44
 70
     1
102
RTVSPost2010Prop45
280
     0
102
RTVSPost2010PropOp45
 70
     1
102
RTVSPost2010Prop46
 90
       50
102
RTVSPost2010PropOp46
 70
     1
102
RTVSPost2010Prop47
 90
       50
102
RTVSPost2010PropOp47
 70
     1
102
RTVSPost2010Prop48
 90
       50
102
RTVSPost2010PropOp48
 70
     1
102
RTVSPost2010Prop49
280
     0
102
RTVSPost2010PropOp49
 70
     1
102
RTVSPost2010Prop50
 90
       50
102
RTVSPost2010PropOp50
 70
     1
102
RTVSPost2010Prop51ColorIndex
 90
      256
102
RTVSPost2010Prop51ColorRGB
 90
-16777216
102
RTVSPost2010PropOp51
 70
     0
102
RTVSPost2010Prop52
140
1.0
102
RTVSPost2010PropOp52
 70
     0
102
RTVSPost2010Prop53
 90
        2
102
RTVSPost2010PropOp53
 70
     1
102
RTVSPost2010Prop54
  1
strokes_ogs.tif
102
RTVSPost2010PropOp54
 70
     1
102
RTVSPost2010Prop55
280
     0
102
RTVSPost2010PropOp55
 70
     1
102
RTVSPost2010Prop56
140
1.0
102
RTVSPost2010PropOp56
 70
     1
102
RTVSPost2010Prop57
140
1.0
102
RTVSPost2010PropOp57
 70
     1
  0
XRECORD
  5
AE6
102
{ACAD_REACTORS
330
AE5
102
}
330
AE5
100
AcDbXrecord
280
     1
102
RTVSPost2010Prop28
280
     0
102
RTVSPost2010PropOp28
 70
     0
102
RTVSPost2010Prop29
280
     1
102
RTVSPost2010PropOp29
 70
     0
102
RTVSPost2010Prop30
280
     1
102
RTVSPost2010PropOp30
 70
     0
102
RTVSPost2010Prop31
280
     0
102
RTVSPost2010PropOp31
 70
     0
102
RTVSPost2010Prop32
280
     0
102
RTVSPost2010PropOp32
 70
     0
102
RTVSPost2010Prop33
280
     0
102
RTVSPost2010PropOp33
 70
     0
102
RTVSPost2010Prop34
280
     0
102
RTVSPost2010PropOp34
 70
     0
102
RTVSPost2010Prop35
280
     0
102
RTVSPost2010PropOp35
 70
     0
102
RTVSPost2010Prop36
280
     0
102
RTVSPost2010PropOp36
 70
     0
102
RTVSPost2010Prop37
 90
       50
102
RTVSPost2010PropOp37
 70
     0
102
RTVSPost2010Prop38
140
0.0
102
RTVSPost2010PropOp38
 70
     0
102
RTVSPost2010Prop39
140
1.0
102
RTVSPost2010PropOp39
 70
     0
102
RTVSPost2010Prop40
 90
        0
102
RTVSPost2010PropOp40
 70
     0
102
RTVSPost2010Prop41ColorIndex
 90
       18
102
RTVSPost2010Prop41ColorRGB
 90
        0
102
RTVSPost2010PropOp41
 70
     0
102
RTVSPost2010Prop42
 90
       50
102
RTVSPost2010PropOp42
 70
     0
102
RTVSPost2010Prop43
 90
        3
102
RTVSPost2010PropOp43
 70
     0
102
RTVSPost2010Prop44ColorIndex
 90
        5
102
RTVSPost2010Prop44ColorRGB
 90
      255
102
RTVSPost2010PropOp44
 70
     0
102
RTVSPost2010Prop45
280
     0
102
RTVSPost2010PropOp45
 70
     0
102
RTVSPost2010Prop46
 90
       50
102
RTVSPost2010PropOp46
 70
     0
102
RTVSPost2010Prop47
 90
       50
102
RTVSPost2010PropOp47
 70
     0
102
RTVSPost2010Prop48
 90
       50
102
RTVSPost2010PropOp48
 70
     0
102
RTVSPost2010Prop49
280
     0
102
RTVSPost2010PropOp49
 70
     0
102
RTVSPost2010Prop50
 90
       50
102
RTVSPost2010PropOp50
 70
     0
102
RTVSPost2010Prop51ColorIndex
 90
      256
102
RTVSPost2010Prop51ColorRGB
 90
-16777216
102
RTVSPost2010PropOp51
 70
     0
102
RTVSPost2010Prop52
140
1.0
102
RTVSPost2010PropOp52
 70
     0
102
RTVSPost2010Prop53
 90
        2
102
RTVSPost2010PropOp53
 70
     0
102
RTVSPost2010Prop54
  1
strokes_ogs.tif
102
RTVSPost2010PropOp54
 70
     0
102
RTVSPost2010Prop55
280
     0
102
RTVSPost2010PropOp55
 70
     0
102
RTVSPost2010Prop56
140
1.0
102
RTVSPost2010PropOp56
 70
     0
102
RTVSPost2010Prop57
140
1.0
102
RTVSPost2010PropOp57
 70
     0
  0
XRECORD
  5
AD0
102
{ACAD_REACTORS
330
ACF
102
}
330
ACF
100
AcDbXrecord
280
     1
102
RTVSPost2010Prop28
280
     0
102
RTVSPost2010PropOp28
 70
     1
102
RTVSPost2010Prop29
280
     1
102
RTVSPost2010PropOp29
 70
     1
102
RTVSPost2010Prop30
280
     1
102
RTVSPost2010PropOp30
 70
     1
102
RTVSPost2010Prop31
280
     0
102
RTVSPost2010PropOp31
 70
     1
102
RTVSPost2010Prop32
280
     0
102
RTVSPost2010PropOp32
 70
     1
102
RTVSPost2010Prop33
280
     0
102
RTVSPost2010PropOp33
 70
     1
102
RTVSPost2010Prop34
280
     0
102
RTVSPost2010PropOp34
 70
     1
102
RTVSPost2010Prop35
280
     0
102
RTVSPost2010PropOp35
 70
     1
102
RTVSPost2010Prop36
280
     0
102
RTVSPost2010PropOp36
 70
     1
102
RTVSPost2010Prop37
 90
       50
102
RTVSPost2010PropOp37
 70
     1
102
RTVSPost2010Prop38
140
0.0
102
RTVSPost2010PropOp38
 70
     1
102
RTVSPost2010Prop39
140
1.0
102
RTVSPost2010PropOp39
 70
     1
102
RTVSPost2010Prop40
 90
        0
102
RTVSPost2010PropOp40
 70
     1
102
RTVSPost2010Prop41ColorIndex
 90
       18
102
RTVSPost2010Prop41ColorRGB
 90
        0
102
RTVSPost2010PropOp41
 70
     1
102
RTVSPost2010Prop42
 90
       50
102
RTVSPost2010PropOp42
 70
     1
102
RTVSPost2010Prop43
 90
        3
102
RTVSPost2010PropOp43
 70
     1
102
RTVSPost2010Prop44ColorIndex
 90
        5
102
RTVSPost2010Prop44ColorRGB
 90
      255
102
RTVSPost2010PropOp44
 70
     1
102
RTVSPost2010Prop45
280
     0
102
RTVSPost2010PropOp45
 70
     1
102
RTVSPost2010Prop46
 90
       50
102
RTVSPost2010PropOp46
 70
     1
102
RTVSPost2010Prop47
 90
       50
102
RTVSPost2010PropOp47
 70
     1
102
RTVSPost2010Prop48
 90
       50
102
RTVSPost2010PropOp48
 70
     1
102
RTVSPost2010Prop49
280
     0
102
RTVSPost2010PropOp49
 70
     1
102
RTVSPost2010Prop50
 90
       50
102
RTVSPost2010PropOp50
 70
     1
102
RTVSPost2010Prop51ColorIndex
 90
      256
102
RTVSPost2010Prop51ColorRGB
 90
-16777216
102
RTVSPost2010PropOp51
 70
     0
102
RTVSPost2010Prop52
140
1.0
102
RTVSPost2010PropOp52
 70
     0
102
RTVSPost2010Prop53
 90
        2
102
RTVSPost2010PropOp53
 70
     1
102
RTVSPost2010Prop54
  1
strokes_ogs.tif
102
RTVSPost2010PropOp54
 70
     1
102
RTVSPost2010Prop55
280
     0
102
RTVSPost2010PropOp55
 70
     1
102
RTVSPost2010Prop56
140
1.0
102
RTVSPost2010PropOp56
 70
     1
102
RTVSPost2010Prop57
140
1.0
102
RTVSPost2010PropOp57
 70
     1
  0
XRECORD
  5
AB4
102
{ACAD_REACTORS
330
AB3
102
}
330
AB3
100
AcDbXrecord
280
     1
102
RTVSPost2010Prop28
280
     0
102
RTVSPost2010PropOp28
 70
     1
102
RTVSPost2010Prop29
280
     1
102
RTVSPost2010PropOp29
 70
     1
102
RTVSPost2010Prop30
280
     1
102
RTVSPost2010PropOp30
 70
     1
102
RTVSPost2010Prop31
280
     0
102
RTVSPost2010PropOp31
 70
     1
102
RTVSPost2010Prop32
280
     0
102
RTVSPost2010PropOp32
 70
     1
102
RTVSPost2010Prop33
280
     0
102
RTVSPost2010PropOp33
 70
     1
102
RTVSPost2010Prop34
280
     0
102
RTVSPost2010PropOp34
 70
     1
102
RTVSPost2010Prop35
280
     0
102
RTVSPost2010PropOp35
 70
     1
102
RTVSPost2010Prop36
280
     0
102
RTVSPost2010PropOp36
 70
     1
102
RTVSPost2010Prop37
 90
       50
102
RTVSPost2010PropOp37
 70
     1
102
RTVSPost2010Prop38
140
0.0
102
RTVSPost2010PropOp38
 70
     1
102
RTVSPost2010Prop39
140
1.0
102
RTVSPost2010PropOp39
 70
     1
102
RTVSPost2010Prop40
 90
        0
102
RTVSPost2010PropOp40
 70
     1
102
RTVSPost2010Prop41ColorIndex
 90
       18
102
RTVSPost2010Prop41ColorRGB
 90
        0
102
RTVSPost2010PropOp41
 70
     1
102
RTVSPost2010Prop42
 90
       50
102
RTVSPost2010PropOp42
 70
     1
102
RTVSPost2010Prop43
 90
        3
102
RTVSPost2010PropOp43
 70
     1
102
RTVSPost2010Prop44ColorIndex
 90
        5
102
RTVSPost2010Prop44ColorRGB
 90
      255
102
RTVSPost2010PropOp44
 70
     1
102
RTVSPost2010Prop45
280
     0
102
RTVSPost2010PropOp45
 70
     1
102
RTVSPost2010Prop46
 90
       50
102
RTVSPost2010PropOp46
 70
     1
102
RTVSPost2010Prop47
 90
       50
102
RTVSPost2010PropOp47
 70
     1
102
RTVSPost2010Prop48
 90
       50
102
RTVSPost2010PropOp48
 70
     1
102
RTVSPost2010Prop49
280
     0
102
RTVSPost2010PropOp49
 70
     1
102
RTVSPost2010Prop50
 90
       50
102
RTVSPost2010PropOp50
 70
     1
102
RTVSPost2010Prop51ColorIndex
 90
      256
102
RTVSPost2010Prop51ColorRGB
 90
-16777216
102
RTVSPost2010PropOp51
 70
     0
102
RTVSPost2010Prop52
140
1.0
102
RTVSPost2010PropOp52
 70
     0
102
RTVSPost2010Prop53
 90
        2
102
RTVSPost2010PropOp53
 70
     1
102
RTVSPost2010Prop54
  1
strokes_ogs.tif
102
RTVSPost2010PropOp54
 70
     1
102
RTVSPost2010Prop55
280
     0
102
RTVSPost2010PropOp55
 70
     1
102
RTVSPost2010Prop56
140
1.0
102
RTVSPost2010PropOp56
 70
     1
102
RTVSPost2010Prop57
140
1.0
102
RTVSPost2010PropOp57
 70
     1
  0
XRECORD
  5
AB6
102
{ACAD_REACTORS
330
AB5
102
}
330
AB5
100
AcDbXrecord
280
     1
102
RTVSPost2010Prop28
280
     0
102
RTVSPost2010PropOp28
 70
     1
102
RTVSPost2010Prop29
280
     1
102
RTVSPost2010PropOp29
 70
     1
102
RTVSPost2010Prop30
280
     1
102
RTVSPost2010PropOp30
 70
     1
102
RTVSPost2010Prop31
280
     0
102
RTVSPost2010PropOp31
 70
     1
102
RTVSPost2010Prop32
280
     0
102
RTVSPost2010PropOp32
 70
     1
102
RTVSPost2010Prop33
280
     0
102
RTVSPost2010PropOp33
 70
     1
102
RTVSPost2010Prop34
280
     0
102
RTVSPost2010PropOp34
 70
     1
102
RTVSPost2010Prop35
280
     0
102
RTVSPost2010PropOp35
 70
     1
102
RTVSPost2010Prop36
280
     0
102
RTVSPost2010PropOp36
 70
     1
102
RTVSPost2010Prop37
 90
       50
102
RTVSPost2010PropOp37
 70
     1
102
RTVSPost2010Prop38
140
0.0
102
RTVSPost2010PropOp38
 70
     1
102
RTVSPost2010Prop39
140
1.0
102
RTVSPost2010PropOp39
 70
     1
102
RTVSPost2010Prop40
 90
        0
102
RTVSPost2010PropOp40
 70
     1
102
RTVSPost2010Prop41ColorIndex
 90
       18
102
RTVSPost2010Prop41ColorRGB
 90
        0
102
RTVSPost2010PropOp41
 70
     1
102
RTVSPost2010Prop42
 90
       50
102
RTVSPost2010PropOp42
 70
     1
102
RTVSPost2010Prop43
 90
        3
102
RTVSPost2010PropOp43
 70
     1
102
RTVSPost2010Prop44ColorIndex
 90
        5
102
RTVSPost2010Prop44ColorRGB
 90
      255
102
RTVSPost2010PropOp44
 70
     1
102
RTVSPost2010Prop45
280
     0
102
RTVSPost2010PropOp45
 70
     1
102
RTVSPost2010Prop46
 90
       50
102
RTVSPost2010PropOp46
 70
     1
102
RTVSPost2010Prop47
 90
       50
102
RTVSPost2010PropOp47
 70
     1
102
RTVSPost2010Prop48
 90
       50
102
RTVSPost2010PropOp48
 70
     1
102
RTVSPost2010Prop49
280
     0
102
RTVSPost2010PropOp49
 70
     1
102
RTVSPost2010Prop50
 90
       50
102
RTVSPost2010PropOp50
 70
     1
102
RTVSPost2010Prop51ColorIndex
 90
      256
102
RTVSPost2010Prop51ColorRGB
 90
-16777216
102
RTVSPost2010PropOp51
 70
     0
102
RTVSPost2010Prop52
140
1.0
102
RTVSPost2010PropOp52
 70
     0
102
RTVSPost2010Prop53
 90
        2
102
RTVSPost2010PropOp53
 70
     1
102
RTVSPost2010Prop54
  1
strokes_ogs.tif
102
RTVSPost2010PropOp54
 70
     1
102
RTVSPost2010Prop55
280
     0
102
RTVSPost2010PropOp55
 70
     1
102
RTVSPost2010Prop56
140
1.0
102
RTVSPost2010PropOp56
 70
     1
102
RTVSPost2010Prop57
140
1.0
102
RTVSPost2010PropOp57
 70
     1
  0
XRECORD
  5
AB8
102
{ACAD_REACTORS
330
AB7
102
}
330
AB7
100
AcDbXrecord
280
     1
102
RTVSPost2010Prop28
280
     0
102
RTVSPost2010PropOp28
 70
     1
102
RTVSPost2010Prop29
280
     1
102
RTVSPost2010PropOp29
 70
     1
102
RTVSPost2010Prop30
280
     1
102
RTVSPost2010PropOp30
 70
     1
102
RTVSPost2010Prop31
280
     0
102
RTVSPost2010PropOp31
 70
     1
102
RTVSPost2010Prop32
280
     0
102
RTVSPost2010PropOp32
 70
     1
102
RTVSPost2010Prop33
280
     0
102
RTVSPost2010PropOp33
 70
     1
102
RTVSPost2010Prop34
280
     0
102
RTVSPost2010PropOp34
 70
     1
102
RTVSPost2010Prop35
280
     0
102
RTVSPost2010PropOp35
 70
     1
102
RTVSPost2010Prop36
280
     0
102
RTVSPost2010PropOp36
 70
     1
102
RTVSPost2010Prop37
 90
       50
102
RTVSPost2010PropOp37
 70
     1
102
RTVSPost2010Prop38
140
0.0
102
RTVSPost2010PropOp38
 70
     1
102
RTVSPost2010Prop39
140
1.0
102
RTVSPost2010PropOp39
 70
     1
102
RTVSPost2010Prop40
 90
        0
102
RTVSPost2010PropOp40
 70
     1
102
RTVSPost2010Prop41ColorIndex
 90
       18
102
RTVSPost2010Prop41ColorRGB
 90
        0
102
RTVSPost2010PropOp41
 70
     1
102
RTVSPost2010Prop42
 90
       50
102
RTVSPost2010PropOp42
 70
     1
102
RTVSPost2010Prop43
 90
        3
102
RTVSPost2010PropOp43
 70
     1
102
RTVSPost2010Prop44ColorIndex
 90
        5
102
RTVSPost2010Prop44ColorRGB
 90
      255
102
RTVSPost2010PropOp44
 70
     1
102
RTVSPost2010Prop45
280
     0
102
RTVSPost2010PropOp45
 70
     1
102
RTVSPost2010Prop46
 90
       50
102
RTVSPost2010PropOp46
 70
     1
102
RTVSPost2010Prop47
 90
       50
102
RTVSPost2010PropOp47
 70
     1
102
RTVSPost2010Prop48
 90
       50
102
RTVSPost2010PropOp48
 70
     1
102
RTVSPost2010Prop49
280
     0
102
RTVSPost2010PropOp49
 70
     1
102
RTVSPost2010Prop50
 90
       50
102
RTVSPost2010PropOp50
 70
     1
102
RTVSPost2010Prop51ColorIndex
 90
      256
102
RTVSPost2010Prop51ColorRGB
 90
-16777216
102
RTVSPost2010PropOp51
 70
     0
102
RTVSPost2010Prop52
140
1.0
102
RTVSPost2010PropOp52
 70
     0
102
RTVSPost2010Prop53
 90
        2
102
RTVSPost2010PropOp53
 70
     1
102
RTVSPost2010Prop54
  1
strokes_ogs.tif
102
RTVSPost2010PropOp54
 70
     1
102
RTVSPost2010Prop55
280
     0
102
RTVSPost2010PropOp55
 70
     1
102
RTVSPost2010Prop56
140
1.0
102
RTVSPost2010PropOp56
 70
     1
102
RTVSPost2010Prop57
140
1.0
102
RTVSPost2010PropOp57
 70
     1
  0
XRECORD
  5
ABA
102
{ACAD_REACTORS
330
AB9
102
}
330
AB9
100
AcDbXrecord
280
     1
102
RTVSPost2010Prop28
280
     0
102
RTVSPost2010PropOp28
 70
     1
102
RTVSPost2010Prop29
280
     1
102
RTVSPost2010PropOp29
 70
     1
102
RTVSPost2010Prop30
280
     1
102
RTVSPost2010PropOp30
 70
     1
102
RTVSPost2010Prop31
280
     0
102
RTVSPost2010PropOp31
 70
     1
102
RTVSPost2010Prop32
280
     0
102
RTVSPost2010PropOp32
 70
     1
102
RTVSPost2010Prop33
280
     0
102
RTVSPost2010PropOp33
 70
     1
102
RTVSPost2010Prop34
280
     0
102
RTVSPost2010PropOp34
 70
     1
102
RTVSPost2010Prop35
280
     0
102
RTVSPost2010PropOp35
 70
     1
102
RTVSPost2010Prop36
280
     0
102
RTVSPost2010PropOp36
 70
     1
102
RTVSPost2010Prop37
 90
       50
102
RTVSPost2010PropOp37
 70
     1
102
RTVSPost2010Prop38
140
0.0
102
RTVSPost2010PropOp38
 70
     1
102
RTVSPost2010Prop39
140
1.0
102
RTVSPost2010PropOp39
 70
     1
102
RTVSPost2010Prop40
 90
        0
102
RTVSPost2010PropOp40
 70
     1
102
RTVSPost2010Prop41ColorIndex
 90
       18
102
RTVSPost2010Prop41ColorRGB
 90
        0
102
RTVSPost2010PropOp41
 70
     1
102
RTVSPost2010Prop42
 90
       50
102
RTVSPost2010PropOp42
 70
     1
102
RTVSPost2010Prop43
 90
        3
102
RTVSPost2010PropOp43
 70
     1
102
RTVSPost2010Prop44ColorIndex
 90
        5
102
RTVSPost2010Prop44ColorRGB
 90
      255
102
RTVSPost2010PropOp44
 70
     1
102
RTVSPost2010Prop45
280
     0
102
RTVSPost2010PropOp45
 70
     1
102
RTVSPost2010Prop46
 90
       50
102
RTVSPost2010PropOp46
 70
     1
102
RTVSPost2010Prop47
 90
       50
102
RTVSPost2010PropOp47
 70
     1
102
RTVSPost2010Prop48
 90
       50
102
RTVSPost2010PropOp48
 70
     1
102
RTVSPost2010Prop49
280
     0
102
RTVSPost2010PropOp49
 70
     1
102
RTVSPost2010Prop50
 90
       50
102
RTVSPost2010PropOp50
 70
     1
102
RTVSPost2010Prop51ColorIndex
 90
      256
102
RTVSPost2010Prop51ColorRGB
 90
-16777216
102
RTVSPost2010PropOp51
 70
     0
102
RTVSPost2010Prop52
140
1.0
102
RTVSPost2010PropOp52
 70
     0
102
RTVSPost2010Prop53
 90
        2
102
RTVSPost2010PropOp53
 70
     1
102
RTVSPost2010Prop54
  1
strokes_ogs.tif
102
RTVSPost2010PropOp54
 70
     1
102
RTVSPost2010Prop55
280
     0
102
RTVSPost2010PropOp55
 70
     1
102
RTVSPost2010Prop56
140
1.0
102
RTVSPost2010PropOp56
 70
     1
102
RTVSPost2010Prop57
140
1.0
102
RTVSPost2010PropOp57
 70
     1
  0
XRECORD
  5
AD6
102
{ACAD_REACTORS
330
AD5
102
}
330
AD5
100
AcDbXrecord
280
     1
102
RTVSPost2010Prop28
280
     0
102
RTVSPost2010PropOp28
 70
     1
102
RTVSPost2010Prop29
280
     1
102
RTVSPost2010PropOp29
 70
     1
102
RTVSPost2010Prop30
280
     1
102
RTVSPost2010PropOp30
 70
     1
102
RTVSPost2010Prop31
280
     0
102
RTVSPost2010PropOp31
 70
     1
102
RTVSPost2010Prop32
280
     0
102
RTVSPost2010PropOp32
 70
     1
102
RTVSPost2010Prop33
280
     0
102
RTVSPost2010PropOp33
 70
     1
102
RTVSPost2010Prop34
280
     0
102
RTVSPost2010PropOp34
 70
     1
102
RTVSPost2010Prop35
280
     0
102
RTVSPost2010PropOp35
 70
     1
102
RTVSPost2010Prop36
280
     0
102
RTVSPost2010PropOp36
 70
     1
102
RTVSPost2010Prop37
 90
       50
102
RTVSPost2010PropOp37
 70
     1
102
RTVSPost2010Prop38
140
0.0
102
RTVSPost2010PropOp38
 70
     1
102
RTVSPost2010Prop39
140
1.0
102
RTVSPost2010PropOp39
 70
     1
102
RTVSPost2010Prop40
 90
        0
102
RTVSPost2010PropOp40
 70
     1
102
RTVSPost2010Prop41ColorIndex
 90
       18
102
RTVSPost2010Prop41ColorRGB
 90
        0
102
RTVSPost2010PropOp41
 70
     1
102
RTVSPost2010Prop42
 90
       50
102
RTVSPost2010PropOp42
 70
     1
102
RTVSPost2010Prop43
 90
        3
102
RTVSPost2010PropOp43
 70
     1
102
RTVSPost2010Prop44ColorIndex
 90
        5
102
RTVSPost2010Prop44ColorRGB
 90
      255
102
RTVSPost2010PropOp44
 70
     1
102
RTVSPost2010Prop45
280
     0
102
RTVSPost2010PropOp45
 70
     1
102
RTVSPost2010Prop46
 90
       50
102
RTVSPost2010PropOp46
 70
     1
102
RTVSPost2010Prop47
 90
       50
102
RTVSPost2010PropOp47
 70
     1
102
RTVSPost2010Prop48
 90
       50
102
RTVSPost2010PropOp48
 70
     1
102
RTVSPost2010Prop49
280
     0
102
RTVSPost2010PropOp49
 70
     1
102
RTVSPost2010Prop50
 90
       50
102
RTVSPost2010PropOp50
 70
     1
102
RTVSPost2010Prop51ColorIndex
 90
      256
102
RTVSPost2010Prop51ColorRGB
 90
-16777216
102
RTVSPost2010PropOp51
 70
     0
102
RTVSPost2010Prop52
140
1.0
102
RTVSPost2010PropOp52
 70
     0
102
RTVSPost2010Prop53
 90
        2
102
RTVSPost2010PropOp53
 70
     1
102
RTVSPost2010Prop54
  1
strokes_ogs.tif
102
RTVSPost2010PropOp54
 70
     1
102
RTVSPost2010Prop55
280
     0
102
RTVSPost2010PropOp55
 70
     1
102
RTVSPost2010Prop56
140
1.0
102
RTVSPost2010PropOp56
 70
     1
102
RTVSPost2010Prop57
140
1.0
102
RTVSPost2010PropOp57
 70
     1
  0
XRECORD
  5
AE2
102
{ACAD_REACTORS
330
AE1
102
}
330
AE1
100
AcDbXrecord
280
     1
102
RTVSPost2010Prop28
280
     0
102
RTVSPost2010PropOp28
 70
     0
102
RTVSPost2010Prop29
280
     1
102
RTVSPost2010PropOp29
 70
     0
102
RTVSPost2010Prop30
280
     1
102
RTVSPost2010PropOp30
 70
     0
102
RTVSPost2010Prop31
280
     0
102
RTVSPost2010PropOp31
 70
     0
102
RTVSPost2010Prop32
280
     0
102
RTVSPost2010PropOp32
 70
     0
102
RTVSPost2010Prop33
280
     0
102
RTVSPost2010PropOp33
 70
     0
102
RTVSPost2010Prop34
280
     0
102
RTVSPost2010PropOp34
 70
     0
102
RTVSPost2010Prop35
280
     0
102
RTVSPost2010PropOp35
 70
     0
102
RTVSPost2010Prop36
280
     0
102
RTVSPost2010PropOp36
 70
     0
102
RTVSPost2010Prop37
 90
       50
102
RTVSPost2010PropOp37
 70
     0
102
RTVSPost2010Prop38
140
0.0
102
RTVSPost2010PropOp38
 70
     0
102
RTVSPost2010Prop39
140
1.0
102
RTVSPost2010PropOp39
 70
     0
102
RTVSPost2010Prop40
 90
        0
102
RTVSPost2010PropOp40
 70
     0
102
RTVSPost2010Prop41ColorIndex
 90
       18
102
RTVSPost2010Prop41ColorRGB
 90
        0
102
RTVSPost2010PropOp41
 70
     0
102
RTVSPost2010Prop42
 90
       50
102
RTVSPost2010PropOp42
 70
     0
102
RTVSPost2010Prop43
 90
        3
102
RTVSPost2010PropOp43
 70
     0
102
RTVSPost2010Prop44ColorIndex
 90
        5
102
RTVSPost2010Prop44ColorRGB
 90
      255
102
RTVSPost2010PropOp44
 70
     0
102
RTVSPost2010Prop45
280
     0
102
RTVSPost2010PropOp45
 70
     0
102
RTVSPost2010Prop46
 90
       50
102
RTVSPost2010PropOp46
 70
     0
102
RTVSPost2010Prop47
 90
       50
102
RTVSPost2010PropOp47
 70
     0
102
RTVSPost2010Prop48
 90
       50
102
RTVSPost2010PropOp48
 70
     0
102
RTVSPost2010Prop49
280
     0
102
RTVSPost2010PropOp49
 70
     0
102
RTVSPost2010Prop50
 90
       50
102
RTVSPost2010PropOp50
 70
     0
102
RTVSPost2010Prop51ColorIndex
 90
      256
102
RTVSPost2010Prop51ColorRGB
 90
-16777216
102
RTVSPost2010PropOp51
 70
     0
102
RTVSPost2010Prop52
140
1.0
102
RTVSPost2010PropOp52
 70
     0
102
RTVSPost2010Prop53
 90
        2
102
RTVSPost2010PropOp53
 70
     0
102
RTVSPost2010Prop54
  1
strokes_ogs.tif
102
RTVSPost2010PropOp54
 70
     0
102
RTVSPost2010Prop55
280
     0
102
RTVSPost2010PropOp55
 70
     0
102
RTVSPost2010Prop56
140
1.0
102
RTVSPost2010PropOp56
 70
     0
102
RTVSPost2010Prop57
140
1.0
102
RTVSPost2010PropOp57
 70
     0
  0
XRECORD
  5
ACE
102
{ACAD_REACTORS
330
ACD
102
}
330
ACD
100
AcDbXrecord
280
     1
102
RTVSPost2010Prop28
280
     0
102
RTVSPost2010PropOp28
 70
     1
102
RTVSPost2010Prop29
280
     1
102
RTVSPost2010PropOp29
 70
     1
102
RTVSPost2010Prop30
280
     1
102
RTVSPost2010PropOp30
 70
     1
102
RTVSPost2010Prop31
280
     0
102
RTVSPost2010PropOp31
 70
     1
102
RTVSPost2010Prop32
280
     0
102
RTVSPost2010PropOp32
 70
     1
102
RTVSPost2010Prop33
280
     0
102
RTVSPost2010PropOp33
 70
     1
102
RTVSPost2010Prop34
280
     0
102
RTVSPost2010PropOp34
 70
     1
102
RTVSPost2010Prop35
280
     0
102
RTVSPost2010PropOp35
 70
     1
102
RTVSPost2010Prop36
280
     0
102
RTVSPost2010PropOp36
 70
     1
102
RTVSPost2010Prop37
 90
       50
102
RTVSPost2010PropOp37
 70
     1
102
RTVSPost2010Prop38
140
0.0
102
RTVSPost2010PropOp38
 70
     1
102
RTVSPost2010Prop39
140
1.0
102
RTVSPost2010PropOp39
 70
     1
102
RTVSPost2010Prop40
 90
        0
102
RTVSPost2010PropOp40
 70
     1
102
RTVSPost2010Prop41ColorIndex
 90
       18
102
RTVSPost2010Prop41ColorRGB
 90
        0
102
RTVSPost2010PropOp41
 70
     1
102
RTVSPost2010Prop42
 90
       50
102
RTVSPost2010PropOp42
 70
     1
102
RTVSPost2010Prop43
 90
        3
102
RTVSPost2010PropOp43
 70
     1
102
RTVSPost2010Prop44ColorIndex
 90
        5
102
RTVSPost2010Prop44ColorRGB
 90
      255
102
RTVSPost2010PropOp44
 70
     1
102
RTVSPost2010Prop45
280
     0
102
RTVSPost2010PropOp45
 70
     1
102
RTVSPost2010Prop46
 90
       50
102
RTVSPost2010PropOp46
 70
     1
102
RTVSPost2010Prop47
 90
       50
102
RTVSPost2010PropOp47
 70
     1
102
RTVSPost2010Prop48
 90
       50
102
RTVSPost2010PropOp48
 70
     1
102
RTVSPost2010Prop49
280
     0
102
RTVSPost2010PropOp49
 70
     1
102
RTVSPost2010Prop50
 90
       50
102
RTVSPost2010PropOp50
 70
     1
102
RTVSPost2010Prop51ColorIndex
 90
      256
102
RTVSPost2010Prop51ColorRGB
 90
-16777216
102
RTVSPost2010PropOp51
 70
     0
102
RTVSPost2010Prop52
140
1.0
102
RTVSPost2010PropOp52
 70
     0
102
RTVSPost2010Prop53
 90
        2
102
RTVSPost2010PropOp53
 70
     1
102
RTVSPost2010Prop54
  1
strokes_ogs.tif
102
RTVSPost2010PropOp54
 70
     1
102
RTVSPost2010Prop55
280
     0
102
RTVSPost2010PropOp55
 70
     1
102
RTVSPost2010Prop56
140
1.0
102
RTVSPost2010PropOp56
 70
     1
102
RTVSPost2010Prop57
140
1.0
102
RTVSPost2010PropOp57
 70
     1
  0
XRECORD
  5
AE4
102
{ACAD_REACTORS
330
AE3
102
}
330
AE3
100
AcDbXrecord
280
     1
102
RTVSPost2010Prop28
280
     0
102
RTVSPost2010PropOp28
 70
     0
102
RTVSPost2010Prop29
280
     1
102
RTVSPost2010PropOp29
 70
     0
102
RTVSPost2010Prop30
280
     1
102
RTVSPost2010PropOp30
 70
     0
102
RTVSPost2010Prop31
280
     0
102
RTVSPost2010PropOp31
 70
     0
102
RTVSPost2010Prop32
280
     0
102
RTVSPost2010PropOp32
 70
     0
102
RTVSPost2010Prop33
280
     0
102
RTVSPost2010PropOp33
 70
     0
102
RTVSPost2010Prop34
280
     0
102
RTVSPost2010PropOp34
 70
     0
102
RTVSPost2010Prop35
280
     0
102
RTVSPost2010PropOp35
 70
     0
102
RTVSPost2010Prop36
280
     0
102
RTVSPost2010PropOp36
 70
     0
102
RTVSPost2010Prop37
 90
       50
102
RTVSPost2010PropOp37
 70
     0
102
RTVSPost2010Prop38
140
0.0
102
RTVSPost2010PropOp38
 70
     0
102
RTVSPost2010Prop39
140
1.0
102
RTVSPost2010PropOp39
 70
     0
102
RTVSPost2010Prop40
 90
        0
102
RTVSPost2010PropOp40
 70
     0
102
RTVSPost2010Prop41ColorIndex
 90
       18
102
RTVSPost2010Prop41ColorRGB
 90
        0
102
RTVSPost2010PropOp41
 70
     0
102
RTVSPost2010Prop42
 90
       50
102
RTVSPost2010PropOp42
 70
     0
102
RTVSPost2010Prop43
 90
        3
102
RTVSPost2010PropOp43
 70
     0
102
RTVSPost2010Prop44ColorIndex
 90
        5
102
RTVSPost2010Prop44ColorRGB
 90
      255
102
RTVSPost2010PropOp44
 70
     0
102
RTVSPost2010Prop45
280
     0
102
RTVSPost2010PropOp45
 70
     0
102
RTVSPost2010Prop46
 90
       50
102
RTVSPost2010PropOp46
 70
     0
102
RTVSPost2010Prop47
 90
       50
102
RTVSPost2010PropOp47
 70
     0
102
RTVSPost2010Prop48
 90
       50
102
RTVSPost2010PropOp48
 70
     0
102
RTVSPost2010Prop49
280
     0
102
RTVSPost2010PropOp49
 70
     0
102
RTVSPost2010Prop50
 90
       50
102
RTVSPost2010PropOp50
 70
     0
102
RTVSPost2010Prop51ColorIndex
 90
      256
102
RTVSPost2010Prop51ColorRGB
 90
-16777216
102
RTVSPost2010PropOp51
 70
     0
102
RTVSPost2010Prop52
140
1.0
102
RTVSPost2010PropOp52
 70
     0
102
RTVSPost2010Prop53
 90
        2
102
RTVSPost2010PropOp53
 70
     0
102
RTVSPost2010Prop54
  1
strokes_ogs.tif
102
RTVSPost2010PropOp54
 70
     0
102
RTVSPost2010Prop55
280
     0
102
RTVSPost2010PropOp55
 70
     0
102
RTVSPost2010Prop56
140
1.0
102
RTVSPost2010PropOp56
 70
     0
102
RTVSPost2010Prop57
140
1.0
102
RTVSPost2010PropOp57
 70
     0
  0
XRECORD
  5
AC4
102
{ACAD_REACTORS
330
AC3
102
}
330
AC3
100
AcDbXrecord
280
     1
102
RTVSPost2010Prop28
280
     0
102
RTVSPost2010PropOp28
 70
     1
102
RTVSPost2010Prop29
280
     1
102
RTVSPost2010PropOp29
 70
     1
102
RTVSPost2010Prop30
280
     1
102
RTVSPost2010PropOp30
 70
     1
102
RTVSPost2010Prop31
280
     0
102
RTVSPost2010PropOp31
 70
     1
102
RTVSPost2010Prop32
280
     0
102
RTVSPost2010PropOp32
 70
     1
102
RTVSPost2010Prop33
280
     0
102
RTVSPost2010PropOp33
 70
     1
102
RTVSPost2010Prop34
280
     0
102
RTVSPost2010PropOp34
 70
     1
102
RTVSPost2010Prop35
280
     0
102
RTVSPost2010PropOp35
 70
     1
102
RTVSPost2010Prop36
280
     0
102
RTVSPost2010PropOp36
 70
     1
102
RTVSPost2010Prop37
 90
       50
102
RTVSPost2010PropOp37
 70
     1
102
RTVSPost2010Prop38
140
0.0
102
RTVSPost2010PropOp38
 70
     1
102
RTVSPost2010Prop39
140
1.0
102
RTVSPost2010PropOp39
 70
     1
102
RTVSPost2010Prop40
 90
        0
102
RTVSPost2010PropOp40
 70
     1
102
RTVSPost2010Prop41ColorIndex
 90
       18
102
RTVSPost2010Prop41ColorRGB
 90
        0
102
RTVSPost2010PropOp41
 70
     1
102
RTVSPost2010Prop42
 90
       50
102
RTVSPost2010PropOp42
 70
     1
102
RTVSPost2010Prop43
 90
        3
102
RTVSPost2010PropOp43
 70
     1
102
RTVSPost2010Prop44ColorIndex
 90
        5
102
RTVSPost2010Prop44ColorRGB
 90
      255
102
RTVSPost2010PropOp44
 70
     1
102
RTVSPost2010Prop45
280
     0
102
RTVSPost2010PropOp45
 70
     1
102
RTVSPost2010Prop46
 90
       50
102
RTVSPost2010PropOp46
 70
     1
102
RTVSPost2010Prop47
 90
       50
102
RTVSPost2010PropOp47
 70
     1
102
RTVSPost2010Prop48
 90
       50
102
RTVSPost2010PropOp48
 70
     1
102
RTVSPost2010Prop49
280
     0
102
RTVSPost2010PropOp49
 70
     1
102
RTVSPost2010Prop50
 90
       50
102
RTVSPost2010PropOp50
 70
     1
102
RTVSPost2010Prop51ColorIndex
 90
      256
102
RTVSPost2010Prop51ColorRGB
 90
-16777216
102
RTVSPost2010PropOp51
 70
     0
102
RTVSPost2010Prop52
140
1.0
102
RTVSPost2010PropOp52
 70
     0
102
RTVSPost2010Prop53
 90
        2
102
RTVSPost2010PropOp53
 70
     1
102
RTVSPost2010Prop54
  1
strokes_ogs.tif
102
RTVSPost2010PropOp54
 70
     1
102
RTVSPost2010Prop55
280
     0
102
RTVSPost2010PropOp55
 70
     1
102
RTVSPost2010Prop56
140
1.0
102
RTVSPost2010PropOp56
 70
     1
102
RTVSPost2010Prop57
140
1.0
102
RTVSPost2010PropOp57
 70
     1
  0
XRECORD
  5
AE0
102
{ACAD_REACTORS
330
ADF
102
}
330
ADF
100
AcDbXrecord
280
     1
102
RTVSPost2010Prop28
280
     0
102
RTVSPost2010PropOp28
 70
     1
102
RTVSPost2010Prop29
280
     1
102
RTVSPost2010PropOp29
 70
     1
102
RTVSPost2010Prop30
280
     1
102
RTVSPost2010PropOp30
 70
     1
102
RTVSPost2010Prop31
280
     0
102
RTVSPost2010PropOp31
 70
     1
102
RTVSPost2010Prop32
280
     0
102
RTVSPost2010PropOp32
 70
     1
102
RTVSPost2010Prop33
280
     0
102
RTVSPost2010PropOp33
 70
     1
102
RTVSPost2010Prop34
280
     0
102
RTVSPost2010PropOp34
 70
     1
102
RTVSPost2010Prop35
280
     0
102
RTVSPost2010PropOp35
 70
     1
102
RTVSPost2010Prop36
280
     0
102
RTVSPost2010PropOp36
 70
     1
102
RTVSPost2010Prop37
 90
       50
102
RTVSPost2010PropOp37
 70
     1
102
RTVSPost2010Prop38
140
0.0
102
RTVSPost2010PropOp38
 70
     1
102
RTVSPost2010Prop39
140
1.0
102
RTVSPost2010PropOp39
 70
     1
102
RTVSPost2010Prop40
 90
        0
102
RTVSPost2010PropOp40
 70
     1
102
RTVSPost2010Prop41ColorIndex
 90
       18
102
RTVSPost2010Prop41ColorRGB
 90
        0
102
RTVSPost2010PropOp41
 70
     1
102
RTVSPost2010Prop42
 90
       50
102
RTVSPost2010PropOp42
 70
     1
102
RTVSPost2010Prop43
 90
        3
102
RTVSPost2010PropOp43
 70
     1
102
RTVSPost2010Prop44ColorIndex
 90
        5
102
RTVSPost2010Prop44ColorRGB
 90
      255
102
RTVSPost2010PropOp44
 70
     1
102
RTVSPost2010Prop45
280
     0
102
RTVSPost2010PropOp45
 70
     1
102
RTVSPost2010Prop46
 90
       50
102
RTVSPost2010PropOp46
 70
     1
102
RTVSPost2010Prop47
 90
       50
102
RTVSPost2010PropOp47
 70
     1
102
RTVSPost2010Prop48
 90
       50
102
RTVSPost2010PropOp48
 70
     1
102
RTVSPost2010Prop49
280
     0
102
RTVSPost2010PropOp49
 70
     1
102
RTVSPost2010Prop50
 90
       50
102
RTVSPost2010PropOp50
 70
     1
102
RTVSPost2010Prop51ColorIndex
 90
      256
102
RTVSPost2010Prop51ColorRGB
 90
-16777216
102
RTVSPost2010PropOp51
 70
     0
102
RTVSPost2010Prop52
140
1.0
102
RTVSPost2010PropOp52
 70
     0
102
RTVSPost2010Prop53
 90
        2
102
RTVSPost2010PropOp53
 70
     1
102
RTVSPost2010Prop54
  1
strokes_ogs.tif
102
RTVSPost2010PropOp54
 70
     1
102
RTVSPost2010Prop55
280
     0
102
RTVSPost2010PropOp55
 70
     1
102
RTVSPost2010Prop56
140
1.0
102
RTVSPost2010PropOp56
 70
     1
102
RTVSPost2010Prop57
140
1.0
102
RTVSPost2010PropOp57
 70
     1
  0
XRECORD
  5
ADE
102
{ACAD_REACTORS
330
ADD
102
}
330
ADD
100
AcDbXrecord
280
     1
102
RTVSPost2010Prop28
280
     0
102
RTVSPost2010PropOp28
 70
     1
102
RTVSPost2010Prop29
280
     1
102
RTVSPost2010PropOp29
 70
     1
102
RTVSPost2010Prop30
280
     1
102
RTVSPost2010PropOp30
 70
     1
102
RTVSPost2010Prop31
280
     0
102
RTVSPost2010PropOp31
 70
     1
102
RTVSPost2010Prop32
280
     0
102
RTVSPost2010PropOp32
 70
     1
102
RTVSPost2010Prop33
280
     0
102
RTVSPost2010PropOp33
 70
     1
102
RTVSPost2010Prop34
280
     0
102
RTVSPost2010PropOp34
 70
     1
102
RTVSPost2010Prop35
280
     0
102
RTVSPost2010PropOp35
 70
     1
102
RTVSPost2010Prop36
280
     0
102
RTVSPost2010PropOp36
 70
     1
102
RTVSPost2010Prop37
 90
       50
102
RTVSPost2010PropOp37
 70
     1
102
RTVSPost2010Prop38
140
0.0
102
RTVSPost2010PropOp38
 70
     1
102
RTVSPost2010Prop39
140
1.0
102
RTVSPost2010PropOp39
 70
     1
102
RTVSPost2010Prop40
 90
        0
102
RTVSPost2010PropOp40
 70
     1
102
RTVSPost2010Prop41ColorIndex
 90
       18
102
RTVSPost2010Prop41ColorRGB
 90
        0
102
RTVSPost2010PropOp41
 70
     1
102
RTVSPost2010Prop42
 90
       50
102
RTVSPost2010PropOp42
 70
     1
102
RTVSPost2010Prop43
 90
        3
102
RTVSPost2010PropOp43
 70
     1
102
RTVSPost2010Prop44ColorIndex
 90
        5
102
RTVSPost2010Prop44ColorRGB
 90
      255
102
RTVSPost2010PropOp44
 70
     1
102
RTVSPost2010Prop45
280
     0
102
RTVSPost2010PropOp45
 70
     1
102
RTVSPost2010Prop46
 90
       50
102
RTVSPost2010PropOp46
 70
     1
102
RTVSPost2010Prop47
 90
       50
102
RTVSPost2010PropOp47
 70
     1
102
RTVSPost2010Prop48
 90
       50
102
RTVSPost2010PropOp48
 70
     1
102
RTVSPost2010Prop49
280
     0
102
RTVSPost2010PropOp49
 70
     1
102
RTVSPost2010Prop50
 90
       50
102
RTVSPost2010PropOp50
 70
     1
102
RTVSPost2010Prop51ColorIndex
 90
      256
102
RTVSPost2010Prop51ColorRGB
 90
-16777216
102
RTVSPost2010PropOp51
 70
     0
102
RTVSPost2010Prop52
140
1.0
102
RTVSPost2010PropOp52
 70
     0
102
RTVSPost2010Prop53
 90
        2
102
RTVSPost2010PropOp53
 70
     1
102
RTVSPost2010Prop54
  1
strokes_ogs.tif
102
RTVSPost2010PropOp54
 70
     1
102
RTVSPost2010Prop55
280
     0
102
RTVSPost2010PropOp55
 70
     1
102
RTVSPost2010Prop56
140
1.0
102
RTVSPost2010PropOp56
 70
     1
102
RTVSPost2010Prop57
140
1.0
102
RTVSPost2010PropOp57
 70
     1
  0
XRECORD
  5
AD8
102
{ACAD_REACTORS
330
AD7
102
}
330
AD7
100
AcDbXrecord
280
     1
102
RTVSPost2010Prop28
280
     0
102
RTVSPost2010PropOp28
 70
     1
102
RTVSPost2010Prop29
280
     1
102
RTVSPost2010PropOp29
 70
     1
102
RTVSPost2010Prop30
280
     1
102
RTVSPost2010PropOp30
 70
     1
102
RTVSPost2010Prop31
280
     0
102
RTVSPost2010PropOp31
 70
     1
102
RTVSPost2010Prop32
280
     0
102
RTVSPost2010PropOp32
 70
     1
102
RTVSPost2010Prop33
280
     0
102
RTVSPost2010PropOp33
 70
     1
102
RTVSPost2010Prop34
280
     0
102
RTVSPost2010PropOp34
 70
     1
102
RTVSPost2010Prop35
280
     0
102
RTVSPost2010PropOp35
 70
     1
102
RTVSPost2010Prop36
280
     0
102
RTVSPost2010PropOp36
 70
     1
102
RTVSPost2010Prop37
 90
       50
102
RTVSPost2010PropOp37
 70
     1
102
RTVSPost2010Prop38
140
0.0
102
RTVSPost2010PropOp38
 70
     1
102
RTVSPost2010Prop39
140
1.0
102
RTVSPost2010PropOp39
 70
     1
102
RTVSPost2010Prop40
 90
        0
102
RTVSPost2010PropOp40
 70
     1
102
RTVSPost2010Prop41ColorIndex
 90
       18
102
RTVSPost2010Prop41ColorRGB
 90
        0
102
RTVSPost2010PropOp41
 70
     1
102
RTVSPost2010Prop42
 90
       50
102
RTVSPost2010PropOp42
 70
     1
102
RTVSPost2010Prop43
 90
        3
102
RTVSPost2010PropOp43
 70
     1
102
RTVSPost2010Prop44ColorIndex
 90
        5
102
RTVSPost2010Prop44ColorRGB
 90
      255
102
RTVSPost2010PropOp44
 70
     1
102
RTVSPost2010Prop45
280
     0
102
RTVSPost2010PropOp45
 70
     1
102
RTVSPost2010Prop46
 90
       50
102
RTVSPost2010PropOp46
 70
     1
102
RTVSPost2010Prop47
 90
       50
102
RTVSPost2010PropOp47
 70
     1
102
RTVSPost2010Prop48
 90
       50
102
RTVSPost2010PropOp48
 70
     1
102
RTVSPost2010Prop49
280
     0
102
RTVSPost2010PropOp49
 70
     1
102
RTVSPost2010Prop50
 90
       50
102
RTVSPost2010PropOp50
 70
     1
102
RTVSPost2010Prop51ColorIndex
 90
      256
102
RTVSPost2010Prop51ColorRGB
 90
-16777216
102
RTVSPost2010PropOp51
 70
     0
102
RTVSPost2010Prop52
140
1.0
102
RTVSPost2010PropOp52
 70
     0
102
RTVSPost2010Prop53
 90
        2
102
RTVSPost2010PropOp53
 70
     1
102
RTVSPost2010Prop54
  1
strokes_ogs.tif
102
RTVSPost2010PropOp54
 70
     1
102
RTVSPost2010Prop55
280
     0
102
RTVSPost2010PropOp55
 70
     1
102
RTVSPost2010Prop56
140
1.0
102
RTVSPost2010PropOp56
 70
     1
102
RTVSPost2010Prop57
140
1.0
102
RTVSPost2010PropOp57
 70
     1
  0
XRECORD
  5
ADA
102
{ACAD_REACTORS
330
AD9
102
}
330
AD9
100
AcDbXrecord
280
     1
102
RTVSPost2010Prop28
280
     0
102
RTVSPost2010PropOp28
 70
     1
102
RTVSPost2010Prop29
280
     1
102
RTVSPost2010PropOp29
 70
     1
102
RTVSPost2010Prop30
280
     1
102
RTVSPost2010PropOp30
 70
     1
102
RTVSPost2010Prop31
280
     0
102
RTVSPost2010PropOp31
 70
     1
102
RTVSPost2010Prop32
280
     0
102
RTVSPost2010PropOp32
 70
     1
102
RTVSPost2010Prop33
280
     0
102
RTVSPost2010PropOp33
 70
     1
102
RTVSPost2010Prop34
280
     0
102
RTVSPost2010PropOp34
 70
     1
102
RTVSPost2010Prop35
280
     0
102
RTVSPost2010PropOp35
 70
     1
102
RTVSPost2010Prop36
280
     0
102
RTVSPost2010PropOp36
 70
     1
102
RTVSPost2010Prop37
 90
       50
102
RTVSPost2010PropOp37
 70
     1
102
RTVSPost2010Prop38
140
0.0
102
RTVSPost2010PropOp38
 70
     1
102
RTVSPost2010Prop39
140
1.0
102
RTVSPost2010PropOp39
 70
     1
102
RTVSPost2010Prop40
 90
        0
102
RTVSPost2010PropOp40
 70
     1
102
RTVSPost2010Prop41ColorIndex
 90
       18
102
RTVSPost2010Prop41ColorRGB
 90
        0
102
RTVSPost2010PropOp41
 70
     1
102
RTVSPost2010Prop42
 90
       50
102
RTVSPost2010PropOp42
 70
     1
102
RTVSPost2010Prop43
 90
        3
102
RTVSPost2010PropOp43
 70
     1
102
RTVSPost2010Prop44ColorIndex
 90
        5
102
RTVSPost2010Prop44ColorRGB
 90
      255
102
RTVSPost2010PropOp44
 70
     1
102
RTVSPost2010Prop45
280
     0
102
RTVSPost2010PropOp45
 70
     1
102
RTVSPost2010Prop46
 90
       50
102
RTVSPost2010PropOp46
 70
     1
102
RTVSPost2010Prop47
 90
       50
102
RTVSPost2010PropOp47
 70
     1
102
RTVSPost2010Prop48
 90
       50
102
RTVSPost2010PropOp48
 70
     1
102
RTVSPost2010Prop49
280
     0
102
RTVSPost2010PropOp49
 70
     1
102
RTVSPost2010Prop50
 90
       50
102
RTVSPost2010PropOp50
 70
     1
102
RTVSPost2010Prop51ColorIndex
 90
      256
102
RTVSPost2010Prop51ColorRGB
 90
-16777216
102
RTVSPost2010PropOp51
 70
     0
102
RTVSPost2010Prop52
140
1.0
102
RTVSPost2010PropOp52
 70
     0
102
RTVSPost2010Prop53
 90
        2
102
RTVSPost2010PropOp53
 70
     1
102
RTVSPost2010Prop54
  1
strokes_ogs.tif
102
RTVSPost2010PropOp54
 70
     1
102
RTVSPost2010Prop55
280
     0
102
RTVSPost2010PropOp55
 70
     1
102
RTVSPost2010Prop56
140
1.0
102
RTVSPost2010PropOp56
 70
     1
102
RTVSPost2010Prop57
140
1.0
102
RTVSPost2010PropOp57
 70
     1
  0
XRECORD
  5
ACC
102
{ACAD_REACTORS
330
ACB
102
}
330
ACB
100
AcDbXrecord
280
     1
102
RTVSPost2010Prop28
280
     0
102
RTVSPost2010PropOp28
 70
     1
102
RTVSPost2010Prop29
280
     1
102
RTVSPost2010PropOp29
 70
     1
102
RTVSPost2010Prop30
280
     1
102
RTVSPost2010PropOp30
 70
     1
102
RTVSPost2010Prop31
280
     0
102
RTVSPost2010PropOp31
 70
     1
102
RTVSPost2010Prop32
280
     0
102
RTVSPost2010PropOp32
 70
     1
102
RTVSPost2010Prop33
280
     0
102
RTVSPost2010PropOp33
 70
     1
102
RTVSPost2010Prop34
280
     0
102
RTVSPost2010PropOp34
 70
     1
102
RTVSPost2010Prop35
280
     0
102
RTVSPost2010PropOp35
 70
     1
102
RTVSPost2010Prop36
280
     0
102
RTVSPost2010PropOp36
 70
     1
102
RTVSPost2010Prop37
 90
       50
102
RTVSPost2010PropOp37
 70
     1
102
RTVSPost2010Prop38
140
0.0
102
RTVSPost2010PropOp38
 70
     1
102
RTVSPost2010Prop39
140
1.0
102
RTVSPost2010PropOp39
 70
     1
102
RTVSPost2010Prop40
 90
        0
102
RTVSPost2010PropOp40
 70
     1
102
RTVSPost2010Prop41ColorIndex
 90
       18
102
RTVSPost2010Prop41ColorRGB
 90
        0
102
RTVSPost2010PropOp41
 70
     1
102
RTVSPost2010Prop42
 90
       50
102
RTVSPost2010PropOp42
 70
     1
102
RTVSPost2010Prop43
 90
        3
102
RTVSPost2010PropOp43
 70
     1
102
RTVSPost2010Prop44ColorIndex
 90
        5
102
RTVSPost2010Prop44ColorRGB
 90
      255
102
RTVSPost2010PropOp44
 70
     1
102
RTVSPost2010Prop45
280
     0
102
RTVSPost2010PropOp45
 70
     1
102
RTVSPost2010Prop46
 90
       50
102
RTVSPost2010PropOp46
 70
     1
102
RTVSPost2010Prop47
 90
       50
102
RTVSPost2010PropOp47
 70
     1
102
RTVSPost2010Prop48
 90
       50
102
RTVSPost2010PropOp48
 70
     1
102
RTVSPost2010Prop49
280
     0
102
RTVSPost2010PropOp49
 70
     1
102
RTVSPost2010Prop50
 90
       50
102
RTVSPost2010PropOp50
 70
     1
102
RTVSPost2010Prop51ColorIndex
 90
      256
102
RTVSPost2010Prop51ColorRGB
 90
-16777216
102
RTVSPost2010PropOp51
 70
     0
102
RTVSPost2010Prop52
140
1.0
102
RTVSPost2010PropOp52
 70
     0
102
RTVSPost2010Prop53
 90
        2
102
RTVSPost2010PropOp53
 70
     1
102
RTVSPost2010Prop54
  1
strokes_ogs.tif
102
RTVSPost2010PropOp54
 70
     1
102
RTVSPost2010Prop55
280
     0
102
RTVSPost2010PropOp55
 70
     1
102
RTVSPost2010Prop56
140
1.0
102
RTVSPost2010PropOp56
 70
     1
102
RTVSPost2010Prop57
140
1.0
102
RTVSPost2010PropOp57
 70
     1
  0
XRECORD
  5
AD4
102
{ACAD_REACTORS
330
AD3
102
}
330
AD3
100
AcDbXrecord
280
     1
102
RTVSPost2010Prop28
280
     0
102
RTVSPost2010PropOp28
 70
     1
102
RTVSPost2010Prop29
280
     1
102
RTVSPost2010PropOp29
 70
     1
102
RTVSPost2010Prop30
280
     1
102
RTVSPost2010PropOp30
 70
     1
102
RTVSPost2010Prop31
280
     0
102
RTVSPost2010PropOp31
 70
     1
102
RTVSPost2010Prop32
280
     0
102
RTVSPost2010PropOp32
 70
     1
102
RTVSPost2010Prop33
280
     0
102
RTVSPost2010PropOp33
 70
     1
102
RTVSPost2010Prop34
280
     0
102
RTVSPost2010PropOp34
 70
     1
102
RTVSPost2010Prop35
280
     0
102
RTVSPost2010PropOp35
 70
     1
102
RTVSPost2010Prop36
280
     0
102
RTVSPost2010PropOp36
 70
     1
102
RTVSPost2010Prop37
 90
       50
102
RTVSPost2010PropOp37
 70
     1
102
RTVSPost2010Prop38
140
0.0
102
RTVSPost2010PropOp38
 70
     1
102
RTVSPost2010Prop39
140
1.0
102
RTVSPost2010PropOp39
 70
     1
102
RTVSPost2010Prop40
 90
        0
102
RTVSPost2010PropOp40
 70
     1
102
RTVSPost2010Prop41ColorIndex
 90
       18
102
RTVSPost2010Prop41ColorRGB
 90
        0
102
RTVSPost2010PropOp41
 70
     1
102
RTVSPost2010Prop42
 90
       50
102
RTVSPost2010PropOp42
 70
     1
102
RTVSPost2010Prop43
 90
        3
102
RTVSPost2010PropOp43
 70
     1
102
RTVSPost2010Prop44ColorIndex
 90
        5
102
RTVSPost2010Prop44ColorRGB
 90
      255
102
RTVSPost2010PropOp44
 70
     1
102
RTVSPost2010Prop45
280
     0
102
RTVSPost2010PropOp45
 70
     1
102
RTVSPost2010Prop46
 90
       50
102
RTVSPost2010PropOp46
 70
     1
102
RTVSPost2010Prop47
 90
       50
102
RTVSPost2010PropOp47
 70
     1
102
RTVSPost2010Prop48
 90
       50
102
RTVSPost2010PropOp48
 70
     1
102
RTVSPost2010Prop49
280
     0
102
RTVSPost2010PropOp49
 70
     1
102
RTVSPost2010Prop50
 90
       50
102
RTVSPost2010PropOp50
 70
     1
102
RTVSPost2010Prop51ColorIndex
 90
      256
102
RTVSPost2010Prop51ColorRGB
 90
-16777216
102
RTVSPost2010PropOp51
 70
     0
102
RTVSPost2010Prop52
140
1.0
102
RTVSPost2010PropOp52
 70
     0
102
RTVSPost2010Prop53
 90
        2
102
RTVSPost2010PropOp53
 70
     1
102
RTVSPost2010Prop54
  1
strokes_ogs.tif
102
RTVSPost2010PropOp54
 70
     1
102
RTVSPost2010Prop55
280
     0
102
RTVSPost2010PropOp55
 70
     1
102
RTVSPost2010Prop56
140
1.0
102
RTVSPost2010PropOp56
 70
     1
102
RTVSPost2010Prop57
140
1.0
102
RTVSPost2010PropOp57
 70
     1
  0
XRECORD
  5
ADC
102
{ACAD_REACTORS
330
ADB
102
}
330
ADB
100
AcDbXrecord
280
     1
102
RTVSPost2010Prop28
280
     0
102
RTVSPost2010PropOp28
 70
     1
102
RTVSPost2010Prop29
280
     1
102
RTVSPost2010PropOp29
 70
     1
102
RTVSPost2010Prop30
280
     1
102
RTVSPost2010PropOp30
 70
     1
102
RTVSPost2010Prop31
280
     0
102
RTVSPost2010PropOp31
 70
     1
102
RTVSPost2010Prop32
280
     0
102
RTVSPost2010PropOp32
 70
     1
102
RTVSPost2010Prop33
280
     0
102
RTVSPost2010PropOp33
 70
     1
102
RTVSPost2010Prop34
280
     0
102
RTVSPost2010PropOp34
 70
     1
102
RTVSPost2010Prop35
280
     0
102
RTVSPost2010PropOp35
 70
     1
102
RTVSPost2010Prop36
280
     0
102
RTVSPost2010PropOp36
 70
     1
102
RTVSPost2010Prop37
 90
       50
102
RTVSPost2010PropOp37
 70
     1
102
RTVSPost2010Prop38
140
0.0
102
RTVSPost2010PropOp38
 70
     1
102
RTVSPost2010Prop39
140
1.0
102
RTVSPost2010PropOp39
 70
     1
102
RTVSPost2010Prop40
 90
        0
102
RTVSPost2010PropOp40
 70
     1
102
RTVSPost2010Prop41ColorIndex
 90
       18
102
RTVSPost2010Prop41ColorRGB
 90
        0
102
RTVSPost2010PropOp41
 70
     1
102
RTVSPost2010Prop42
 90
       50
102
RTVSPost2010PropOp42
 70
     1
102
RTVSPost2010Prop43
 90
        3
102
RTVSPost2010PropOp43
 70
     1
102
RTVSPost2010Prop44ColorIndex
 90
        5
102
RTVSPost2010Prop44ColorRGB
 90
      255
102
RTVSPost2010PropOp44
 70
     1
102
RTVSPost2010Prop45
280
     0
102
RTVSPost2010PropOp45
 70
     1
102
RTVSPost2010Prop46
 90
       50
102
RTVSPost2010PropOp46
 70
     1
102
RTVSPost2010Prop47
 90
       50
102
RTVSPost2010PropOp47
 70
     1
102
RTVSPost2010Prop48
 90
       50
102
RTVSPost2010PropOp48
 70
     1
102
RTVSPost2010Prop49
280
     0
102
RTVSPost2010PropOp49
 70
     1
102
RTVSPost2010Prop50
 90
       50
102
RTVSPost2010PropOp50
 70
     1
102
RTVSPost2010Prop51ColorIndex
 90
      256
102
RTVSPost2010Prop51ColorRGB
 90
-16777216
102
RTVSPost2010PropOp51
 70
     0
102
RTVSPost2010Prop52
140
1.0
102
RTVSPost2010PropOp52
 70
     0
102
RTVSPost2010Prop53
 90
        2
102
RTVSPost2010PropOp53
 70
     1
102
RTVSPost2010Prop54
  1
strokes_ogs.tif
102
RTVSPost2010PropOp54
 70
     1
102
RTVSPost2010Prop55
280
     0
102
RTVSPost2010PropOp55
 70
     1
102
RTVSPost2010Prop56
140
1.0
102
RTVSPost2010PropOp56
 70
     1
102
RTVSPost2010Prop57
140
1.0
102
RTVSPost2010PropOp57
 70
     1
  0
ENDSEC
  0
EOF
