999
DXF file: 104-80-45_plain_junction.dxf
999
Pro/ENGINEER 2006320 by Parametric Technology Corporation
  0
SECTION
  2
HEADER
  9
$EXTMAX
 10
420.0
 20
297.0
 30
0.0
  9
$EXTMIN
 10
0.0
 20
0.0
 30
0.0
  9
$LIMMIN
 10
0.0
 20
0.0
  9
$LIMMAX
 10
420.0
 20
297.0
  9
$VIEWCTR
 10
210.0
 20
148.5
  9
$VIEWSIZE
 40
297.0
  9
$CLAYER
  8
0
  9
$LTSCALE
 40
23.1
  9
$CELTYPE
  6
BYLAYER
  9
$DIMSCALE
 40
1.0
  9
$DIMASZ
 40
3.0
  9
$DIMEXO
 40
2.625
  9
$DIMDLI
 40
15.96
  9
$DIMEXE
 40
7.56
  9
$DIMCEN
 40
3.78
  9
$DIMLFAC
 40
1.0
  9
$DIMBLK
  1
_FILLED
  9
$DIMTXT
 40
3.0
  9
$PDMODE
 70
3
  9
$PDSIZE
 40
0.3125
  0
ENDSEC
  0
SECTION
  2
TABLES
  0
TABLE
  2
LTYPE
 70
6
  0
LTYPE
  2
BYBLOCK
 70
0
  3

 72
65
 73
0
 40
0.0
  0
LTYPE
  2
BYLAYER
 70
0
  3

 72
65
 73
0
 40
0.0
  0
LTYPE
  2
CONTINUOUS
 70
64
  3
Solid line
 72
65
 73
0
 40
0.0
  0
LTYPE
  2
CENTER
 70
64
  3
____ _ ____ _ ____ _ ____ _ ____ _ ____ _ ____
 72
65
 73
4
 40
0.6
 49
0.375
 49
-0.075
 49
0.075
 49
-0.075
  0
LTYPE
  2
HIDDEN
 70
64
  3
- - - - - - - - - - - - - - - - - - - -
 72
65
 73
2
 40
0.2
 49
0.1
 49
-0.1
  0
LTYPE
  2
PHANTOM
 70
64
  3
_____ _ _ _____ _ _ _____ _ _ _____
 72
65
 73
6
 40
0.8
 49
0.45
 49
-0.05
 49
0.1
 49
-0.05
 49
0.1
 49
-0.05
  0
LTYPE
  2
DOT
 70
64
  3
. . . . . . . . . . . . . . . . . . . .
 72
65
 73
2
 40
0.2
 49
0.1
 49
-0.1
  0
LTYPE
  2
DASHED
 70
64
  3
- - - - - - - - - - - - - - - - - - - -
 72
65
 73
2
 40
0.2
 49
0.1
 49
-0.1
  0
ENDTAB
  0
TABLE
  2
LAYER
 70
36
  0
LAYER
  2
0
 70
0
 62
7
  6
CONTINUOUS
  0
LAYER
  2
DEFAULT_1
 70
0
 62
7
  6
CENTER
  0
LAYER
  2
DEFAULT_2
 70
0
 62
8
  6
HIDDEN
  0
LAYER
  2
DEFAULT_3
 70
0
 62
7
  6
PHANTOM
  0
LAYER
  2
_2D_DELETED_OBJS
 70
0
 62
7
  6
CONTINUOUS
  0
LAYER
  2
01___PRT_ALL_DTM_PLN
 70
0
 62
7
  6
CONTINUOUS
  0
LAYER
  2
01___PRT_DEF_DTM_PLN
 70
0
 62
7
  6
CONTINUOUS
  0
LAYER
  2
02___PRT_ALL_AXES
 70
0
 62
7
  6
CONTINUOUS
  0
LAYER
  2
03___PRT_ALL_CURVES
 70
0
 62
7
  6
CONTINUOUS
  0
LAYER
  2
04___PRT_ALL_DTM_PNT
 70
0
 62
7
  6
CONTINUOUS
  0
LAYER
  2
05___PRT_ALL_DTM_CSYS
 70
0
 62
7
  6
CONTINUOUS
  0
LAYER
  2
05___PRT_DEF_DTM_CSYS
 70
0
 62
7
  6
CONTINUOUS
  0
LAYER
  2
06___PRT_ALL_SURFS
 70
0
 62
7
  6
CONTINUOUS
  0
ENDTAB
  0
TABLE
  2
STYLE
 70
1
  0
STYLE
  2
STANDARD
 70
0
 40
0.0
 41
0.6
 50
0.0
 71
0
 42
0.2
  3
txt
  4

  0
ENDTAB
  0
ENDSEC
  0
SECTION
  2
BLOCKS
  0
BLOCK
  8
0
 62
7
  6
CONTINUOUS
  2
*D0
 70
65
 10
0.0
 20
0.0
  0
TEXT
  8
0
 62
7
  6
CONTINUOUS
 10
184.369433095
 20
18.7097380139
  7
STANDARD
 40
3.0
  1
183
 41
0.6
 72
0
  0
LINE
  8
0
 62
7
  6
CONTINUOUS
 10
278.5123442607
 20
37.8711057201
 11
278.5123442607
 21
17.2097380139
  0
LINE
  8
0
 62
7
  6
CONTINUOUS
 10
95.6265219293
 20
179.1380436869
 11
95.6265219293
 21
17.2097380139
  0
LINE
  8
0
 62
7
  6
CONTINUOUS
 10
278.5123442607
 20
20.2097380139
 11
191.269433095
 21
20.2097380139
  0
LINE
  8
0
 62
7
  6
CONTINUOUS
 10
95.6265219293
 20
20.2097380139
 11
182.869433095
 21
20.2097380139
  0
INSERT
  8
0
 62
7
  6
CONTINUOUS
  2
_FILLED
 10
278.5123442607
 20
20.2097380139
 41
3.0
 42
3.0
 43
3.0
  0
INSERT
  8
0
 62
7
  6
CONTINUOUS
  2
_FILLED
 10
95.6265219293
 20
20.2097380139
 41
3.0
 42
3.0
 43
3.0
 50
180.0
  0
ENDBLK
  8
0
  6
BYBLOCK
 62
0
  0
BLOCK
  8
0
 62
7
  6
CONTINUOUS
  2
*D1
 70
65
 10
0.0
 20
0.0
  0
TEXT
  8
0
 62
7
  6
CONTINUOUS
 10
301.7198403368
 20
145.3711057201
  7
STANDARD
 40
3.0
  1
215
 41
0.6
 72
0
  0
LINE
  8
0
 62
7
  6
CONTINUOUS
 10
280.0123442607
 20
254.3711057201
 11
307.4198403368
 21
254.3711057201
  0
LINE
  8
0
 62
7
  6
CONTINUOUS
 10
280.0123442607
 20
39.3711057201
 11
307.4198403368
 21
39.3711057201
  0
LINE
  8
0
 62
7
  6
CONTINUOUS
 10
304.4198403368
 20
254.3711057201
 11
304.4198403368
 21
149.8711057201
  0
LINE
  8
0
 62
7
  6
CONTINUOUS
 10
304.4198403368
 20
39.3711057201
 11
304.4198403368
 21
143.8711057201
  0
INSERT
  8
0
 62
7
  6
CONTINUOUS
  2
_FILLED
 10
304.4198403368
 20
254.3711057201
 41
3.0
 42
3.0
 43
3.0
 50
90.0
  0
INSERT
  8
0
 62
7
  6
CONTINUOUS
  2
_FILLED
 10
304.4198403368
 20
39.3711057201
 41
3.0
 42
3.0
 43
3.0
 50
270.0
  0
ENDBLK
  8
0
  6
BYBLOCK
 62
0
  0
BLOCK
  8
0
 62
7
  6
CONTINUOUS
  2
*D2
 70
65
 10
0.0
 20
0.0
  0
TEXT
  8
0
 62
7
  6
CONTINUOUS
 10
70.8110871775
 20
124.4144772802
  7
STANDARD
 40
3.0
  1
173
 41
0.6
 72
0
  0
LINE
  8
0
 62
7
  6
CONTINUOUS
 10
187.0123442607
 20
39.3711057201
 11
70.5110871775
 21
39.3711057201
  0
LINE
  8
0
 62
7
  6
CONTINUOUS
 10
125.9463270827
 20
212.4578488403
 11
70.5110871775
 21
212.4578488403
  0
LINE
  8
0
 62
7
  6
CONTINUOUS
 10
73.5110871775
 20
39.3711057201
 11
73.5110871775
 21
122.9144772802
  0
LINE
  8
0
 62
7
  6
CONTINUOUS
 10
73.5110871775
 20
212.4578488403
 11
73.5110871775
 21
128.9144772802
  0
INSERT
  8
0
 62
7
  6
CONTINUOUS
  2
_FILLED
 10
73.5110871775
 20
39.3711057201
 41
3.0
 42
3.0
 43
3.0
 50
270.0
  0
INSERT
  8
0
 62
7
  6
CONTINUOUS
  2
_FILLED
 10
73.5110871775
 20
212.4578488403
 41
3.0
 42
3.0
 43
3.0
 50
90.0
  0
ENDBLK
  8
0
  6
BYBLOCK
 62
0
  0
BLOCK
  8
0
 62
7
  6
CONTINUOUS
  2
*D3
 70
65
 10
0.0
 20
0.0
  0
TEXT
  8
0
 62
7
  6
CONTINUOUS
 10
231.7123442607
 20
28.8890296925
  7
STANDARD
 40
3.0
  1
90
 41
0.6
 72
0
  0
LINE
  8
0
 62
7
  6
CONTINUOUS
 10
188.5123442607
 20
37.8711057201
 11
188.5123442607
 21
27.3890296925
  0
LINE
  8
0
 62
7
  6
CONTINUOUS
 10
278.5123442607
 20
37.8711057201
 11
278.5123442607
 21
27.3890296925
  0
LINE
  8
0
 62
7
  6
CONTINUOUS
 10
188.5123442607
 20
30.3890296925
 11
230.2123442607
 21
30.3890296925
  0
LINE
  8
0
 62
7
  6
CONTINUOUS
 10
278.5123442607
 20
30.3890296925
 11
236.8123442607
 21
30.3890296925
  0
INSERT
  8
0
 62
7
  6
CONTINUOUS
  2
_FILLED
 10
188.5123442607
 20
30.3890296925
 41
3.0
 42
3.0
 43
3.0
 50
180.0
  0
INSERT
  8
0
 62
7
  6
CONTINUOUS
  2
_FILLED
 10
278.5123442607
 20
30.3890296925
 41
3.0
 42
3.0
 43
3.0
  0
ENDBLK
  8
0
  6
BYBLOCK
 62
0
  0
BLOCK
  8
0
 62
7
  6
CONTINUOUS
  2
*D4
 70
65
 10
0.0
 20
0.0
  0
TEXT
  8
0
 62
7
  6
CONTINUOUS
 10
167.4168829088
 20
257.7005928946
  7
STANDARD
 40
3.0
  1
45%%d
 41
0.6222222222
 72
0
  0
LINE
  8
0
 62
7
  6
CONTINUOUS
 10
233.5123442607
 20
247.9863656548
 11
233.5123442607
 21
274.7908429564
  0
LINE
  8
0
 62
7
  6
CONTINUOUS
 10
124.9904817579
 20
214.9136941651
 11
114.4362614295
 21
225.4679144935
  0
ARC
  8
0
 62
7
  6
CONTINUOUS
 10
233.5123442607
 20
106.3918316623
 40
165.3990112942
 50
90.0
 51
110.8967921741
  0
ARC
  8
0
 62
7
  6
CONTINUOUS
 10
233.5123442607
 20
106.3918316623
 40
165.3990112942
 50
114.1220148129
 51
135.0
  0
SOLID
  8
0
 62
7
  6
CONTINUOUS
 10
230.5192692697
 20
271.0136672375
 11
233.5123442607
 21
271.7908429564
 12
230.5056659891
 22
272.5136055531
 13
230.5056659891
 23
272.5136055531
  0
SOLID
  8
0
 62
7
  6
CONTINUOUS
 10
118.1725540344
 20
225.9837070779
 11
116.557581773
 21
223.3465941499
 12
119.2235516168
 22
224.9134715516
 13
119.2235516168
 23
224.9134715516
  0
ENDBLK
  8
0
  6
BYBLOCK
 62
0
  0
BLOCK
  8
0
  2
_FILLED
 70
64
 10
0.0
 20
0.0
  0
SOLID
  8
0
  6
BYBLOCK
 62
0
 10
0.0
 20
0.0
 11
-1.0
 21
0.25
 12
-1.0
 22
-0.25
 13
-1.0
 23
-0.25
  0
ENDBLK
  8
0
  6
BYBLOCK
 62
0
  0
ENDSEC
  0
SECTION
  2
ENTITIES
  0
DIMENSION
  8
0
 62
7
  6
CONTINUOUS
  2
*D0
 10
95.6265219293
 20
20.2097380139
 11
187.069433095
 21
20.2097380139
 70
128
 13
278.5123442607
 23
37.8711057201
 14
95.6265219293
 24
179.1380436869
 50
180.0
  0
DIMENSION
  8
0
 62
7
  6
CONTINUOUS
  2
*D1
 10
304.4198403368
 20
39.3711057201
 11
304.4198403368
 21
146.8711057201
 70
128
 13
280.0123442607
 23
254.3711057201
 14
280.0123442607
 24
39.3711057201
 50
270.0
  0
DIMENSION
  8
0
 62
7
  6
CONTINUOUS
  2
*D2
 10
73.5110871775
 20
212.4578488403
 11
73.5110871775
 21
125.9144772802
 70
128
 13
187.0123442607
 23
39.3711057201
 14
125.9463270827
 24
212.4578488403
 50
90.0
  0
DIMENSION
  8
0
 62
7
  6
CONTINUOUS
  2
*D3
 10
278.5123442607
 20
30.3890296925
 11
233.5123442607
 21
30.3890296925
 70
128
 13
188.5123442607
 23
37.8711057201
 14
278.5123442607
 24
37.8711057201
  0
DIMENSION
  8
0
 62
7
  6
CONTINUOUS
  2
*D4
 10
124.9904817579
 20
214.9136941651
 11
170.2168829088
 21
259.2005928946
 70
130
 13
233.5123442607
 23
247.9863656548
 14
233.5123442607
 24
274.7908429564
 15
114.4362614295
 25
225.4679144935
 16
170.2168829088
 26
259.2005928946
  0
LINE
  8
0
 62
7
  6
CONTINUOUS
 10
0.0
 20
0.0
 11
0.0
 21
297.0
  0
LINE
  8
0
 62
7
  6
CONTINUOUS
 10
0.0
 20
0.0
 11
420.0
 21
0.0
  0
LINE
  8
0
 62
7
  6
CONTINUOUS
 10
0.0
 20
297.0
 11
420.0
 21
297.0
  0
LINE
  8
0
 62
7
  6
CONTINUOUS
 10
420.0
 20
0.0
 11
420.0
 21
297.0
  0
LINE
  8
0
 62
7
  6
CONTINUOUS
 10
279.7850912559
 20
45.8082743959
 11
278.5123442607
 21
45.6211057201
  0
LINE
  8
02___PRT_ALL_AXES
 62
7
  6
CONTINUOUS
 10
188.5123442607
 20
39.3711057201
 11
278.5123442607
 21
39.3711057201
  0
LINE
  8
0
 62
7
  6
CONTINUOUS
 10
188.5123442607
 20
49.1211057201
 11
187.2395972654
 21
48.9339370444
  0
LINE
  8
0
 62
7
  6
CONTINUOUS
 10
278.5123442607
 20
45.6211057201
 11
188.5123442607
 21
45.6211057201
  0
LINE
  8
0
 62
9
  6
CONTINUOUS
 10
187.2395972654
 20
45.8082743959
 11
279.7850912559
 21
45.8082743959
  0
LINE
  8
0
 62
9
  6
CONTINUOUS
 10
186.8123442607
 20
46.3029539636
 11
280.2123442607
 21
46.3029539636
  0
LINE
  8
0
 62
9
  6
CONTINUOUS
 10
186.8123442607
 20
48.4392574767
 11
280.2123442607
 21
48.4392574767
  0
LINE
  8
0
 62
9
  6
CONTINUOUS
 10
187.2395972654
 20
48.9339370444
 11
279.7850912559
 21
48.9339370444
  0
LINE
  8
0
 62
7
  6
CONTINUOUS
 10
278.5123442607
 20
49.1211057201
 11
188.5123442607
 21
49.1211057201
  0
LINE
  8
0
 62
7
  6
CONTINUOUS
 10
187.2395972654
 20
45.8082743959
 11
188.5123442607
 21
45.6211057201
  0
LINE
  8
02___PRT_ALL_AXES
 62
7
  6
CONTINUOUS
 10
159.2661322361
 20
244.2776539937
 11
95.6265219293
 21
180.6380436869
  0
LINE
  8
0
 62
7
  6
CONTINUOUS
 10
279.7850912559
 20
70.8082743959
 11
278.5123442607
 21
70.6211057201
  0
LINE
  8
0
 62
7
  6
CONTINUOUS
 10
278.5123442607
 20
70.6211057201
 11
188.5123442607
 21
70.6211057201
  0
LINE
  8
0
 62
9
  6
CONTINUOUS
 10
187.2395972654
 20
70.8082743959
 11
279.7850912559
 21
70.8082743959
  0
LINE
  8
0
 62
9
  6
CONTINUOUS
 10
186.8123442607
 20
71.3029539636
 11
280.2123442607
 21
71.3029539636
  0
LINE
  8
0
 62
7
  6
CONTINUOUS
 10
278.5123442607
 20
49.1211057201
 11
279.7850912559
 21
48.9339370444
  0
LINE
  8
0
 62
7
  6
CONTINUOUS
 10
187.2395972654
 20
70.8082743959
 11
188.5123442607
 21
70.6211057201
  0
LINE
  8
0
 62
7
  6
CONTINUOUS
 10
188.5123442607
 20
74.1211057201
 11
187.2395972654
 21
73.9339370444
  0
LINE
  8
0
 62
9
  6
CONTINUOUS
 10
186.8123442607
 20
73.4392574767
 11
280.2123442607
 21
73.4392574767
  0
LINE
  8
0
 62
9
  6
CONTINUOUS
 10
187.2395972654
 20
73.9339370444
 11
279.7850912559
 21
73.9339370444
  0
LINE
  8
0
 62
7
  6
CONTINUOUS
 10
278.5123442607
 20
74.1211057201
 11
188.5123442607
 21
74.1211057201
  0
POLYLINE
  8
0
 62
9
  6
CONTINUOUS
 66
1
 70
0
  0
VERTEX
  8
0
 62
9
  6
CONTINUOUS
 10
192.1745585127
 20
207.5258062585
  0
VERTEX
  8
0
 62
9
  6
CONTINUOUS
 10
192.0946774694
 20
207.4983954023
  0
VERTEX
  8
0
 62
9
  6
CONTINUOUS
 10
191.9902688718
 20
207.4717864154
  0
VERTEX
  8
0
 62
9
  6
CONTINUOUS
 10
191.8643860374
 20
207.4467572865
  0
VERTEX
  8
0
 62
9
  6
CONTINUOUS
 10
191.7207101746
 20
207.4240398522
  0
VERTEX
  8
0
 62
9
  6
CONTINUOUS
 10
191.5634427588
 20
207.4042983896
  0
VERTEX
  8
0
 62
9
  6
CONTINUOUS
 10
191.3971827439
 20
207.3881101837
  0
VERTEX
  8
0
 62
9
  6
CONTINUOUS
 10
191.2267921398
 20
207.3759486267
  0
VERTEX
  8
0
 62
9
  6
CONTINUOUS
 10
191.0572538004
 20
207.36816936
  0
VERTEX
  8
0
 62
9
  6
CONTINUOUS
 10
190.8935257229
 20
207.3649998642
  0
VERTEX
  8
0
 62
9
  6
CONTINUOUS
 10
190.740396013
 20
207.3665327942
  0
VERTEX
  8
0
 62
9
  6
CONTINUOUS
 10
190.6023427788
 20
207.3727232744
  0
VERTEX
  8
0
 62
9
  6
CONTINUOUS
 10
190.4834032121
 20
207.3833901899
  0
VERTEX
  8
0
 62
9
  6
CONTINUOUS
 10
190.3870555731
 20
207.3982214566
  0
VERTEX
  8
0
 62
9
  6
CONTINUOUS
 10
190.3161174718
 20
207.4167831401
  0
SEQEND
  0
LINE
  8
02___PRT_ALL_AXES
 62
7
  6
CONTINUOUS
 10
191.8919760443
 20
89.3223370402
 11
192.4707137003
 21
89.3918316623
  0
LINE
  8
0
 62
9
  6
CONTINUOUS
 10
278.5123442607
 20
86.7937554509
 11
188.5123442607
 21
86.7937554509
  0
LINE
  8
0
 62
9
  6
CONTINUOUS
 10
278.0123442607
 20
87.6597808547
 11
189.0123442607
 21
87.6597808547
  0
LINE
  8
02___PRT_ALL_AXES
 62
7
  6
CONTINUOUS
 10
192.4707137003
 20
89.3918316623
 11
275.0123442607
 21
89.3918316623
  0
LINE
  8
0
 62
7
  6
CONTINUOUS
 10
278.5123442607
 20
74.1211057201
 11
279.7850912559
 21
73.9339370444
  0
POLYLINE
  8
0
 62
7
  6
CONTINUOUS
 66
1
 70
0
  0
VERTEX
  8
0
 62
7
  6
CONTINUOUS
 10
192.5046187463
 20
203.1019168625
  0
VERTEX
  8
0
 62
7
  6
CONTINUOUS
 10
192.5438320094
 20
203.1133580794
  0
VERTEX
  8
0
 62
7
  6
CONTINUOUS
 10
192.5892460737
 20
203.1296895213
  0
VERTEX
  8
0
 62
7
  6
CONTINUOUS
 10
192.6409890657
 20
203.1513543498
  0
VERTEX
  8
0
 62
7
  6
CONTINUOUS
 10
192.6990601426
 20
203.1787148087
  0
VERTEX
  8
0
 62
7
  6
CONTINUOUS
 10
192.7633209582
 20
203.2120409162
  0
VERTEX
  8
0
 62
7
  6
CONTINUOUS
 10
192.8334887035
 20
203.2515008536
  0
VERTEX
  8
0
 62
7
  6
CONTINUOUS
 10
192.909129363
 20
203.2971506635
  0
VERTEX
  8
0
 62
7
  6
CONTINUOUS
 10
192.9896648892
 20
203.3489319163
  0
VERTEX
  8
0
 62
7
  6
CONTINUOUS
 10
193.0743712183
 20
203.406664274
  0
VERTEX
  8
0
 62
7
  6
CONTINUOUS
 10
193.1623708046
 20
203.4700325738
  0
VERTEX
  8
0
 62
7
  6
CONTINUOUS
 10
193.2526322067
 20
203.5385762077
  0
VERTEX
  8
0
 62
7
  6
CONTINUOUS
 10
193.3439679434
 20
203.6116747969
  0
VERTEX
  8
0
 62
7
  6
CONTINUOUS
 10
193.4350354526
 20
203.6885326862
  0
VERTEX
  8
0
 62
7
  6
CONTINUOUS
 10
193.5243493078
 20
203.7681687429
  0
VERTEX
  8
0
 62
7
  6
CONTINUOUS
 10
193.6103394259
 20
203.8494461897
  0
VERTEX
  8
0
 62
7
  6
CONTINUOUS
 10
193.6914358522
 20
203.931138786
  0
VERTEX
  8
0
 62
7
  6
CONTINUOUS
 10
193.766119288
 20
204.0119836273
  0
VERTEX
  8
0
 62
7
  6
CONTINUOUS
 10
193.832945249
 20
204.0907275612
  0
VERTEX
  8
0
 62
7
  6
CONTINUOUS
 10
193.8904915909
 20
204.1661077318
  0
VERTEX
  8
0
 62
7
  6
CONTINUOUS
 10
193.937258117
 20
204.2367744791
  0
SEQEND
  0
LINE
  8
0
 62
9
  6
CONTINUOUS
 10
128.7511508453
 20
147.5134147708
 11
190.1274711473
 21
208.8896862033
  0
LINE
  8
0
 62
9
  6
CONTINUOUS
 10
130.6830024979
 20
146.9957766806
 11
190.351416862
 21
206.6642810686
  0
LINE
  8
0
 62
7
  6
CONTINUOUS
 10
190.342579426
 20
204.6141124839
 11
133.471390177
 21
147.7429229074
  0
LINE
  8
02___PRT_ALL_AXES
 62
7
  6
CONTINUOUS
 10
95.6265219293
 20
180.6380436869
 11
128.7511508453
 21
147.5134147708
  0
LINE
  8
02___PRT_ALL_AXES
 62
7
  6
CONTINUOUS
 10
133.471390177
 20
147.7429229074
 11
191.8919760443
 21
89.3223370402
  0
POLYLINE
  8
0
 62
7
  6
CONTINUOUS
 66
1
 70
0
  0
VERTEX
  8
0
 62
7
  6
CONTINUOUS
 10
190.3425809407
 20
204.6141138758
  0
VERTEX
  8
0
 62
7
  6
CONTINUOUS
 10
190.367102671
 20
204.6423960763
  0
VERTEX
  8
0
 62
7
  6
CONTINUOUS
 10
190.3935741219
 20
204.6802009821
  0
VERTEX
  8
0
 62
7
  6
CONTINUOUS
 10
190.4216916914
 20
204.7271852481
  0
VERTEX
  8
0
 62
7
  6
CONTINUOUS
 10
190.4510985331
 20
204.7827619849
  0
VERTEX
  8
0
 62
7
  6
CONTINUOUS
 10
190.481411939
 20
204.8461206711
  0
VERTEX
  8
0
 62
7
  6
CONTINUOUS
 10
190.5122755703
 20
204.916331402
  0
VERTEX
  8
0
 62
7
  6
CONTINUOUS
 10
190.5433364777
 20
204.9923058117
  0
VERTEX
  8
0
 62
7
  6
CONTINUOUS
 10
190.5743272507
 20
205.0730123662
  0
SEQEND
  0
POLYLINE
  8
0
 62
9
  6
CONTINUOUS
 66
1
 70
0
  0
VERTEX
  8
0
 62
9
  6
CONTINUOUS
 10
192.1403843926
 20
206.7594775388
  0
VERTEX
  8
0
 62
9
  6
CONTINUOUS
 10
192.1608170096
 20
206.8524050241
  0
VERTEX
  8
0
 62
9
  6
CONTINUOUS
 10
192.1753960142
 20
206.9474208321
  0
VERTEX
  8
0
 62
9
  6
CONTINUOUS
 10
192.184736058
 20
207.0433255122
  0
VERTEX
  8
0
 62
9
  6
CONTINUOUS
 10
192.189488309
 20
207.1379225782
  0
VERTEX
  8
0
 62
9
  6
CONTINUOUS
 10
192.190465062
 20
207.2316279669
  0
VERTEX
  8
0
 62
9
  6
CONTINUOUS
 10
192.1882051757
 20
207.3261460763
  0
VERTEX
  8
0
 62
9
  6
CONTINUOUS
 10
192.1829312579
 20
207.4233454542
  0
VERTEX
  8
0
 62
9
  6
CONTINUOUS
 10
192.1745599165
 20
207.5257781747
  0
SEQEND
  0
LINE
  8
0
 62
7
  6
CONTINUOUS
 10
186.8123442607
 20
73.4392574767
 11
186.8123442607
 21
71.3029539636
  0
LINE
  8
0
 62
7
  6
CONTINUOUS
 10
186.8123442607
 20
48.4392574767
 11
186.8123442607
 21
46.3029539636
  0
LINE
  8
02___PRT_ALL_AXES
 62
7
  6
CONTINUOUS
 10
188.5123442607
 20
254.3711057201
 11
188.5123442607
 21
217.4456555314
  0
LINE
  8
02___PRT_ALL_AXES
 62
7
  6
CONTINUOUS
 10
188.5123442607
 20
86.7937554509
 11
188.5123442607
 21
74.1211057201
  0
LINE
  8
02___PRT_ALL_AXES
 62
7
  6
CONTINUOUS
 10
188.5123442607
 20
70.6211057201
 11
188.5123442607
 21
49.1211057201
  0
LINE
  8
02___PRT_ALL_AXES
 62
7
  6
CONTINUOUS
 10
188.5123442607
 20
45.6211057201
 11
188.5123442607
 21
39.3711057201
  0
POLYLINE
  8
0
 62
9
  6
CONTINUOUS
 66
1
 70
0
  0
VERTEX
  8
0
 62
9
  6
CONTINUOUS
 10
191.9346210366
 20
205.793754351
  0
VERTEX
  8
0
 62
9
  6
CONTINUOUS
 10
191.943935056
 20
205.8547196363
  0
VERTEX
  8
0
 62
9
  6
CONTINUOUS
 10
191.9574656071
 20
205.9354442469
  0
VERTEX
  8
0
 62
9
  6
CONTINUOUS
 10
191.976545868
 20
206.039660766
  0
VERTEX
  8
0
 62
9
  6
CONTINUOUS
 10
192.0028104489
 20
206.1716270721
  0
VERTEX
  8
0
 62
9
  6
CONTINUOUS
 10
192.0383494873
 20
206.3365685029
  0
VERTEX
  8
0
 62
9
  6
CONTINUOUS
 10
192.0855126875
 20
206.5393949466
  0
VERTEX
  8
0
 62
9
  6
CONTINUOUS
 10
192.1403843926
 20
206.7594775388
  0
SEQEND
  0
LINE
  8
02___PRT_ALL_AXES
 62
7
  6
CONTINUOUS
 10
277.5123442607
 20
205.7937554509
 11
275.0123442607
 21
204.350379778
  0
LINE
  8
02___PRT_ALL_AXES
 62
7
  6
CONTINUOUS
 10
275.0123442607
 20
89.3918316623
 11
278.0123442607
 21
87.6597808547
  0
POLYLINE
  8
0
 62
9
  6
CONTINUOUS
 66
1
 70
0
  0
VERTEX
  8
0
 62
9
  6
CONTINUOUS
 10
190.3514126102
 20
206.6642768213
  0
VERTEX
  8
0
 62
9
  6
CONTINUOUS
 10
190.3343788174
 20
206.928342892
  0
VERTEX
  8
0
 62
9
  6
CONTINUOUS
 10
190.3291566504
 20
207.0206565271
  0
VERTEX
  8
0
 62
9
  6
CONTINUOUS
 10
190.324602153
 20
207.1138815581
  0
VERTEX
  8
0
 62
9
  6
CONTINUOUS
 10
190.3208116975
 20
207.2095846514
  0
VERTEX
  8
0
 62
9
  6
CONTINUOUS
 10
190.3179142538
 20
207.3096246788
  0
VERTEX
  8
0
 62
9
  6
CONTINUOUS
 10
190.3161183006
 20
207.4167832362
  0
SEQEND
  0
LINE
  8
02___PRT_ALL_AXES
 62
7
  6
CENTER
 10
235.2801112136
 20
104.6240647093
 11
125.6785601297
 21
214.2256157932
  0
LINE
  8
02___PRT_ALL_AXES
 62
7
  6
CONTINUOUS
 10
130.6830024979
 20
146.9957766806
 11
133.471390177
 21
147.7429229074
  0
POLYLINE
  8
0
 62
9
  6
CONTINUOUS
 66
1
 70
0
  0
VERTEX
  8
0
 62
9
  6
CONTINUOUS
 10
190.1274669499
 20
208.8896846452
  0
VERTEX
  8
0
 62
9
  6
CONTINUOUS
 10
190.1873092874
 20
208.6199847602
  0
VERTEX
  8
0
 62
9
  6
CONTINUOUS
 10
190.2346983126
 20
208.356530356
  0
VERTEX
  8
0
 62
9
  6
CONTINUOUS
 10
190.2703867456
 20
208.1019461758
  0
VERTEX
  8
0
 62
9
  6
CONTINUOUS
 10
190.2951569997
 20
207.8592837655
  0
VERTEX
  8
0
 62
9
  6
CONTINUOUS
 10
190.3100404283
 20
207.6302794851
  0
VERTEX
  8
0
 62
9
  6
CONTINUOUS
 10
190.3161183006
 20
207.4167832362
  0
SEQEND
  0
LINE
  8
0
 62
9
  6
CONTINUOUS
 10
191.9379185829
 20
205.7864067752
 11
191.9346216507
 21
205.793754351
  0
LINE
  8
0
 62
9
  6
CONTINUOUS
 10
233.5123442607
 20
106.3918316623
 11
192.5046186281
 21
203.1019167443
  0
LINE
  8
0
 62
9
  6
CONTINUOUS
 10
186.8052374795
 20
216.7385487503
 11
190.1274711473
 21
208.8896862033
  0
LINE
  8
0
 62
9
  6
CONTINUOUS
 10
190.5743272507
 20
205.0730123662
 11
190.517606723
 21
205.2079346098
  0
LINE
  8
0
 62
9
  6
CONTINUOUS
 10
188.5123442607
 20
217.4456555314
 11
191.7131394922
 21
209.5465322007
  0
LINE
  8
0
 62
9
  6
CONTINUOUS
 10
233.5123442607
 20
106.3918316623
 11
193.9372586278
 21
204.2367744791
  0
POLYLINE
  8
0
 62
9
  6
CONTINUOUS
 66
1
 70
0
  0
VERTEX
  8
0
 62
9
  6
CONTINUOUS
 10
190.517606723
 20
205.2079346098
  0
VERTEX
  8
0
 62
9
  6
CONTINUOUS
 10
190.4823810212
 20
205.3002953092
  0
VERTEX
  8
0
 62
9
  6
CONTINUOUS
 10
190.4449117407
 20
205.4224418932
  0
VERTEX
  8
0
 62
9
  6
CONTINUOUS
 10
190.4081324287
 20
205.579947781
  0
VERTEX
  8
0
 62
9
  6
CONTINUOUS
 10
190.3756285388
 20
205.7791657091
  0
VERTEX
  8
0
 62
9
  6
CONTINUOUS
 10
190.3517649421
 20
206.0279063085
  0
VERTEX
  8
0
 62
9
  6
CONTINUOUS
 10
190.3421589846
 20
206.333560182
  0
VERTEX
  8
0
 62
9
  6
CONTINUOUS
 10
190.351416862
 20
206.6642810686
  0
SEQEND
  0
POLYLINE
  8
0
 62
9
  6
CONTINUOUS
 66
1
 70
0
  0
VERTEX
  8
0
 62
9
  6
CONTINUOUS
 10
191.7131394922
 20
209.5465322007
  0
VERTEX
  8
0
 62
9
  6
CONTINUOUS
 10
191.8457757034
 20
209.1880246944
  0
VERTEX
  8
0
 62
9
  6
CONTINUOUS
 10
191.9541494605
 20
208.8324764798
  0
VERTEX
  8
0
 62
9
  6
CONTINUOUS
 10
192.0396423508
 20
208.4843766346
  0
VERTEX
  8
0
 62
9
  6
CONTINUOUS
 10
192.1036217342
 20
208.1485742813
  0
VERTEX
  8
0
 62
9
  6
CONTINUOUS
 10
192.1479610545
 20
207.8280130476
  0
VERTEX
  8
0
 62
9
  6
CONTINUOUS
 10
192.1745603005
 20
207.5257833844
  0
SEQEND
  0
LINE
  8
02___PRT_ALL_AXES
 62
7
  6
CENTER
 10
233.5123442607
 20
36.8711057201
 11
233.5123442607
 21
256.8711057201
  0
POLYLINE
  8
0
 62
9
  6
CONTINUOUS
 66
1
 70
0
  0
VERTEX
  8
0
 62
9
  6
CONTINUOUS
 10
190.7898903914
 20
204.2632842791
  0
VERTEX
  8
0
 62
9
  6
CONTINUOUS
 10
190.6398640146
 20
204.3699359246
  0
VERTEX
  8
0
 62
9
  6
CONTINUOUS
 10
190.4910504048
 20
204.4866644036
  0
VERTEX
  8
0
 62
9
  6
CONTINUOUS
 10
190.342579426
 20
204.6141124839
  0
SEQEND
  0
POLYLINE
  8
0
 62
9
  6
CONTINUOUS
 66
1
 70
0
  0
VERTEX
  8
0
 62
9
  6
CONTINUOUS
 10
192.1403840983
 20
206.7594774065
  0
VERTEX
  8
0
 62
9
  6
CONTINUOUS
 10
192.0288761793
 20
206.876316455
  0
VERTEX
  8
0
 62
9
  6
CONTINUOUS
 10
191.8917289075
 20
206.9758453084
  0
VERTEX
  8
0
 62
9
  6
CONTINUOUS
 10
191.733690282
 20
207.0546182862
  0
VERTEX
  8
0
 62
9
  6
CONTINUOUS
 10
191.5602315583
 20
207.1099082496
  0
VERTEX
  8
0
 62
9
  6
CONTINUOUS
 10
191.3773578543
 20
207.1398010171
  0
VERTEX
  8
0
 62
9
  6
CONTINUOUS
 10
191.1914002672
 20
207.1432616456
  0
VERTEX
  8
0
 62
9
  6
CONTINUOUS
 10
191.0087966961
 20
207.1201702739
  0
VERTEX
  8
0
 62
9
  6
CONTINUOUS
 10
190.8358689557
 20
207.0713262881
  0
VERTEX
  8
0
 62
9
  6
CONTINUOUS
 10
190.6786039001
 20
206.9984206565
  0
VERTEX
  8
0
 62
9
  6
CONTINUOUS
 10
190.542446139
 20
206.903977391
  0
VERTEX
  8
0
 62
9
  6
CONTINUOUS
 10
190.4321095279
 20
206.791266161
  0
VERTEX
  8
0
 62
9
  6
CONTINUOUS
 10
190.3514139642
 20
206.6641890875
  0
SEQEND
  0
LINE
  8
02___PRT_ALL_AXES
 62
7
  6
CONTINUOUS
 10
191.8919760443
 20
89.3223370402
 11
189.0123442607
 21
87.6597808547
  0
LINE
  8
0
 62
7
  6
CONTINUOUS
 10
192.4707137003
 20
89.3918316623
 11
233.5123442607
 21
106.3918316623
  0
POLYLINE
  8
0
 62
7
  6
CONTINUOUS
 66
1
 70
0
  0
VERTEX
  8
0
 62
7
  6
CONTINUOUS
 10
194.0784557257
 20
204.3503796911
  0
VERTEX
  8
0
 62
7
  6
CONTINUOUS
 10
194.0321940712
 20
204.3384223445
  0
VERTEX
  8
0
 62
7
  6
CONTINUOUS
 10
193.9848344027
 20
204.3012022218
  0
VERTEX
  8
0
 62
7
  6
CONTINUOUS
 10
193.9372586278
 20
204.2367744791
  0
SEQEND
  0
LINE
  8
0
 62
7
  6
CONTINUOUS
 10
275.0123442607
 20
204.350379778
 11
194.0784557257
 21
204.3503796911
  0
POLYLINE
  8
0
 62
7
  6
CONTINUOUS
 66
1
 70
0
  0
VERTEX
  8
0
 62
7
  6
CONTINUOUS
 10
191.9106332436
 20
205.7966930077
  0
VERTEX
  8
0
 62
7
  6
CONTINUOUS
 10
191.8583543182
 20
205.8128859648
  0
VERTEX
  8
0
 62
7
  6
CONTINUOUS
 10
191.8008863463
 20
205.8260515874
  0
VERTEX
  8
0
 62
7
  6
CONTINUOUS
 10
191.7368137292
 20
205.8356303267
  0
VERTEX
  8
0
 62
7
  6
CONTINUOUS
 10
191.665143542
 20
205.8404192336
  0
VERTEX
  8
0
 62
7
  6
CONTINUOUS
 10
191.5849509329
 20
205.8387853122
  0
VERTEX
  8
0
 62
7
  6
CONTINUOUS
 10
191.4947862925
 20
205.8285180494
  0
VERTEX
  8
0
 62
7
  6
CONTINUOUS
 10
191.3938971051
 20
205.8067641133
  0
VERTEX
  8
0
 62
7
  6
CONTINUOUS
 10
191.2819080972
 20
205.7700371254
  0
VERTEX
  8
0
 62
7
  6
CONTINUOUS
 10
191.1604668549
 20
205.714912106
  0
VERTEX
  8
0
 62
7
  6
CONTINUOUS
 10
191.037221809
 20
205.6414485327
  0
VERTEX
  8
0
 62
7
  6
CONTINUOUS
 10
190.9190652385
 20
205.5517577031
  0
VERTEX
  8
0
 62
7
  6
CONTINUOUS
 10
190.8099874703
 20
205.4474577217
  0
VERTEX
  8
0
 62
7
  6
CONTINUOUS
 10
190.714696648
 20
205.3318870577
  0
VERTEX
  8
0
 62
7
  6
CONTINUOUS
 10
190.6350126616
 20
205.2058615395
  0
VERTEX
  8
0
 62
7
  6
CONTINUOUS
 10
190.5743273106
 20
205.0730123485
  0
SEQEND
  0
POLYLINE
  8
0
 62
9
  6
CONTINUOUS
 66
1
 70
0
  0
VERTEX
  8
0
 62
9
  6
CONTINUOUS
 10
191.9379183495
 20
205.7864063474
  0
VERTEX
  8
0
 62
9
  6
CONTINUOUS
 10
191.9288366512
 20
205.7899742317
  0
VERTEX
  8
0
 62
9
  6
CONTINUOUS
 10
191.9197393773
 20
205.7934040543
  0
VERTEX
  8
0
 62
9
  6
CONTINUOUS
 10
191.9106318112
 20
205.7966902687
  0
SEQEND
  0
POLYLINE
  8
0
 62
9
  6
CONTINUOUS
 66
1
 70
0
  0
VERTEX
  8
0
 62
9
  6
CONTINUOUS
 10
191.934621151
 20
205.7937554382
  0
VERTEX
  8
0
 62
9
  6
CONTINUOUS
 10
191.7752844664
 20
205.8569011479
  0
VERTEX
  8
0
 62
9
  6
CONTINUOUS
 10
191.6064118308
 20
205.8917508796
  0
VERTEX
  8
0
 62
9
  6
CONTINUOUS
 10
191.4331459097
 20
205.8972433569
  0
VERTEX
  8
0
 62
9
  6
CONTINUOUS
 10
191.2607631573
 20
205.8732113179
  0
VERTEX
  8
0
 62
9
  6
CONTINUOUS
 10
191.0945131325
 20
205.8203866085
  0
VERTEX
  8
0
 62
9
  6
CONTINUOUS
 10
190.9394586347
 20
205.7403778955
  0
VERTEX
  8
0
 62
9
  6
CONTINUOUS
 10
190.8003215269
 20
205.6356216782
  0
VERTEX
  8
0
 62
9
  6
CONTINUOUS
 10
190.681338941
 20
205.5093080899
  0
VERTEX
  8
0
 62
9
  6
CONTINUOUS
 10
190.5861342447
 20
205.3652837486
  0
VERTEX
  8
0
 62
9
  6
CONTINUOUS
 10
190.5176066994
 20
205.2079346168
  0
SEQEND
  0
POLYLINE
  8
0
 62
9
  6
CONTINUOUS
 66
1
 70
0
  0
VERTEX
  8
0
 62
9
  6
CONTINUOUS
 10
194.0784561155
 20
204.3503797432
  0
VERTEX
  8
0
 62
9
  6
CONTINUOUS
 10
193.0572301233
 20
205.0376888456
  0
VERTEX
  8
0
 62
9
  6
CONTINUOUS
 10
191.9379185829
 20
205.7864067752
  0
SEQEND
  0
POLYLINE
  8
0
 62
9
  6
CONTINUOUS
 66
1
 70
0
  0
VERTEX
  8
0
 62
9
  6
CONTINUOUS
 10
192.5046186281
 20
203.1019167443
  0
VERTEX
  8
0
 62
9
  6
CONTINUOUS
 10
191.6791511144
 20
203.6624103065
  0
VERTEX
  8
0
 62
9
  6
CONTINUOUS
 10
190.7898903914
 20
204.2632842791
  0
SEQEND
  0
LINE
  8
02___PRT_ALL_AXES
 62
7
  6
CONTINUOUS
 10
159.2661322361
 20
244.2776539937
 11
186.8052374795
 21
216.7385487503
  0
POLYLINE
  8
0
 62
9
  6
CONTINUOUS
 66
1
 70
0
  0
VERTEX
  8
0
 62
9
  6
CONTINUOUS
 10
191.9106332436
 20
205.7966930077
  0
VERTEX
  8
0
 62
9
  6
CONTINUOUS
 10
191.8127219903
 20
205.7961602778
  0
VERTEX
  8
0
 62
9
  6
CONTINUOUS
 10
191.703197422
 20
205.7674866836
  0
VERTEX
  8
0
 62
9
  6
CONTINUOUS
 10
191.5856086708
 20
205.711601414
  0
VERTEX
  8
0
 62
9
  6
CONTINUOUS
 10
191.4637661734
 20
205.6303154697
  0
VERTEX
  8
0
 62
9
  6
CONTINUOUS
 10
191.3416181801
 20
205.5262629537
  0
VERTEX
  8
0
 62
9
  6
CONTINUOUS
 10
191.2231228046
 20
205.4028156876
  0
VERTEX
  8
0
 62
9
  6
CONTINUOUS
 10
191.1121197636
 20
205.2639739287
  0
VERTEX
  8
0
 62
9
  6
CONTINUOUS
 10
191.0122059637
 20
205.1142367355
  0
VERTEX
  8
0
 62
9
  6
CONTINUOUS
 10
190.9266189635
 20
204.9584561831
  0
VERTEX
  8
0
 62
9
  6
CONTINUOUS
 10
190.8581320815
 20
204.801680151
  0
VERTEX
  8
0
 62
9
  6
CONTINUOUS
 10
190.8089645439
 20
204.6489887728
  0
VERTEX
  8
0
 62
9
  6
CONTINUOUS
 10
190.7807095787
 20
204.5053298393
  0
VERTEX
  8
0
 62
9
  6
CONTINUOUS
 10
190.7742827848
 20
204.3753584836
  0
VERTEX
  8
0
 62
9
  6
CONTINUOUS
 10
190.7898924506
 20
204.2632863384
  0
SEQEND
  0
LINE
  8
0
 62
9
  6
CONTINUOUS
 10
191.9346216507
 20
205.793754351
 11
277.5123442607
 21
205.7937554509
  0
LINE
  8
0
 62
9
  6
CONTINUOUS
 10
192.1745603005
 20
207.5257833844
 11
278.5123442607
 21
207.5258062585
  0
POLYLINE
  8
0
 62
9
  6
CONTINUOUS
 66
1
 70
0
  0
VERTEX
  8
0
 62
9
  6
CONTINUOUS
 10
190.1274583785
 20
208.8897223041
  0
VERTEX
  8
0
 62
9
  6
CONTINUOUS
 10
190.2698306301
 20
208.8355074317
  0
VERTEX
  8
0
 62
9
  6
CONTINUOUS
 10
190.4302506844
 20
208.8062370093
  0
VERTEX
  8
0
 62
9
  6
CONTINUOUS
 10
190.6030907955
 20
208.8029379646
  0
VERTEX
  8
0
 62
9
  6
CONTINUOUS
 10
190.7822874538
 20
208.825726163
  0
VERTEX
  8
0
 62
9
  6
CONTINUOUS
 10
190.9615540534
 20
208.8738023028
  0
VERTEX
  8
0
 62
9
  6
CONTINUOUS
 10
191.1346014138
 20
208.9454799061
  0
VERTEX
  8
0
 62
9
  6
CONTINUOUS
 10
191.2953584298
 20
209.0382444363
  0
VERTEX
  8
0
 62
9
  6
CONTINUOUS
 10
191.4381851024
 20
209.1488414852
  0
VERTEX
  8
0
 62
9
  6
CONTINUOUS
 10
191.5580704662
 20
209.2733909417
  0
VERTEX
  8
0
 62
9
  6
CONTINUOUS
 10
191.6508084496
 20
209.4075231401
  0
VERTEX
  8
0
 62
9
  6
CONTINUOUS
 10
191.7131454789
 20
209.5465322008
  0
SEQEND
  0
LINE
  8
02___PRT_ALL_AXES
 62
7
  6
CONTINUOUS
 10
275.0123442607
 20
204.350379778
 11
275.0123442607
 21
89.3918316623
  0
LINE
  8
02___PRT_ALL_AXES
 62
7
  6
CONTINUOUS
 10
278.5123442607
 20
254.3711057201
 11
278.5123442607
 21
207.5258062585
  0
LINE
  8
02___PRT_ALL_AXES
 62
7
  6
CONTINUOUS
 10
278.5123442607
 20
86.7937554509
 11
278.5123442607
 21
74.1211057201
  0
LINE
  8
02___PRT_ALL_AXES
 62
7
  6
CONTINUOUS
 10
278.5123442607
 20
70.6211057201
 11
278.5123442607
 21
49.1211057201
  0
LINE
  8
02___PRT_ALL_AXES
 62
7
  6
CONTINUOUS
 10
278.5123442607
 20
45.6211057201
 11
278.5123442607
 21
39.3711057201
  0
LINE
  8
0
 62
7
  6
CONTINUOUS
 10
280.2123442607
 20
73.4392574767
 11
280.2123442607
 21
71.3029539636
  0
LINE
  8
0
 62
7
  6
CONTINUOUS
 10
280.2123442607
 20
48.4392574767
 11
280.2123442607
 21
46.3029539636
  0
LINE
  8
02___PRT_ALL_AXES
 62
7
  6
CONTINUOUS
 10
188.5123442607
 20
254.3711057201
 11
278.5123442607
 21
254.3711057201
  0
ARC
  8
0
 62
7
  6
CONTINUOUS
 10
189.5123442607
 20
86.7937554509
 40
1.0
 50
120.0
 51
180.0
  0
ARC
  8
0
 62
7
  6
CONTINUOUS
 10
187.3123442607
 20
73.4392574767
 40
0.5
 50
98.365886124
 51
180.0
  0
ARC
  8
0
 62
7
  6
CONTINUOUS
 10
187.3123442607
 20
71.3029539636
 40
0.5
 50
180.0
 51
261.634113876
  0
ARC
  8
0
 62
7
  6
CONTINUOUS
 10
187.3123442607
 20
48.4392574767
 40
0.5
 50
98.365886124
 51
180.0
  0
ARC
  8
0
 62
7
  6
CONTINUOUS
 10
187.3123442607
 20
46.3029539636
 40
0.5
 50
180.0
 51
261.634113876
  0
ARC
  8
0
 62
7
  6
CONTINUOUS
 10
130.1653644077
 20
148.9276283332
 40
2.0
 50
225.0
 51
285.0
  0
ARC
  8
0
 62
7
  6
CONTINUOUS
 10
187.5123443585
 20
217.4456552953
 40
0.9999999979
 50
224.9999864386
 51
0.0000135794
  0
ARC
  8
0
 62
7
  6
CONTINUOUS
 10
277.5123442607
 20
86.7937554509
 40
1.0
 50
0.0
 51
60.0
  0
ARC
  8
0
 62
7
  6
CONTINUOUS
 10
279.7123442607
 20
48.4392574767
 40
0.5
 50
0.0
 51
81.634113876
  0
ARC
  8
0
 62
7
  6
CONTINUOUS
 10
279.7123442607
 20
46.3029539636
 40
0.5
 50
278.365886124
 51
360.0
  0
ARC
  8
0
 62
7
  6
CONTINUOUS
 10
279.7123442607
 20
73.4392574767
 40
0.5
 50
0.0
 51
81.634113876
  0
ARC
  8
0
 62
7
  6
CONTINUOUS
 10
279.7123442607
 20
71.3029539636
 40
0.5
 50
278.365886124
 51
360.0
  0
ARC
  8
0
 62
7
  6
CONTINUOUS
 10
276.5123442607
 20
207.5258062585
 40
2.0
 50
300.0
 51
360.0
  0
ENDSEC
  0
EOF
