  0
SECTION
  2
HEADER
  9
$ACADVER
  1
AC1015
  9
$ACADMAINTVER
 70
    20
  9
$DWGCODEPAGE
  3
ANSI_1252
  9
$INSBASE
 10
0.0
 20
0.0
 30
0.0
  9
$EXTMIN
 10
-1.000000000000000E+20
 20
-1.000000000000000E+20
 30
-1.000000000000000E+20
  9
$EXTMAX
 10
1.000000000000000E+20
 20
1.000000000000000E+20
 30
1.000000000000000E+20
  9
$LIMMIN
 10
0.0
 20
0.0
  9
$LIMMAX
 10
12.0
 20
9.0
  9
$ORTHOMODE
 70
     1
  9
$REGENMODE
 70
     1
  9
$FILLMODE
 70
     1
  9
$QTEXTMODE
 70
     0
  9
$MIRRTEXT
 70
     1
  9
$LTSCALE
 40
5.0
  9
$ATTMODE
 70
     1
  9
$TEXTSIZE
 40
0.2
  9
$TRACEWID
 40
0.05
  9
$TEXTSTYLE
  7
Standard
  9
$CLAYER
  8
Specialized_Lines
  9
$CELTYPE
  6
Continuous
  9
$CECOLOR
 62
   256
  9
$CELTSCALE
 40
3.0
  9
$DISPSILH
 70
     0
  9
$DIMSCALE
 40
1.0
  9
$DIMASZ
 40
0.18
  9
$DIMEXO
 40
0.0625
  9
$DIMDLI
 40
0.38
  9
$DIMRND
 40
0.0
  9
$DIMDLE
 40
0.0
  9
$DIMEXE
 40
0.18
  9
$DIMTP
 40
0.0
  9
$DIMTM
 40
0.0
  9
$DIMTXT
 40
0.18
  9
$DIMCEN
 40
0.09
  9
$DIMTSZ
 40
0.0
  9
$DIMTOL
 70
     0
  9
$DIMLIM
 70
     0
  9
$DIMTIH
 70
     1
  9
$DIMTOH
 70
     1
  9
$DIMSE1
 70
     0
  9
$DIMSE2
 70
     0
  9
$DIMTAD
 70
     0
  9
$DIMZIN
 70
     0
  9
$DIMBLK
  1

  9
$DIMASO
 70
     1
  9
$DIMSHO
 70
     1
  9
$DIMPOST
  1

  9
$DIMAPOST
  1

  9
$DIMALT
 70
     0
  9
$DIMALTD
 70
     2
  9
$DIMALTF
 40
25.4
  9
$DIMLFAC
 40
1.0
  9
$DIMTOFL
 70
     0
  9
$DIMTVP
 40
0.0
  9
$DIMTIX
 70
     0
  9
$DIMSOXD
 70
     0
  9
$DIMSAH
 70
     0
  9
$DIMBLK1
  1

  9
$DIMBLK2
  1

  9
$DIMSTYLE
  2
Standard
  9
$DIMCLRD
 70
     0
  9
$DIMCLRE
 70
     0
  9
$DIMCLRT
 70
     0
  9
$DIMTFAC
 40
1.0
  9
$DIMGAP
 40
0.09
  9
$DIMJUST
 70
     0
  9
$DIMSD1
 70
     0
  9
$DIMSD2
 70
     0
  9
$DIMTOLJ
 70
     1
  9
$DIMTZIN
 70
     0
  9
$DIMALTZ
 70
     0
  9
$DIMALTTZ
 70
     0
  9
$DIMUPT
 70
     0
  9
$DIMDEC
 70
     4
  9
$DIMTDEC
 70
     4
  9
$DIMALTU
 70
     2
  9
$DIMALTTD
 70
     2
  9
$DIMTXSTY
  7
Standard
  9
$DIMAUNIT
 70
     0
  9
$DIMADEC
 70
     0
  9
$DIMALTRND
 40
0.0
  9
$DIMAZIN
 70
     0
  9
$DIMDSEP
 70
    46
  9
$DIMATFIT
 70
     3
  9
$DIMFRAC
 70
     0
  9
$DIMLDRBLK
  1

  9
$DIMLUNIT
 70
     2
  9
$DIMLWD
 70
    -2
  9
$DIMLWE
 70
    -2
  9
$DIMTMOVE
 70
     0
  9
$LUNITS
 70
     2
  9
$LUPREC
 70
     4
  9
$SKETCHINC
 40
0.1
  9
$FILLETRAD
 40
0.5
  9
$AUNITS
 70
     0
  9
$AUPREC
 70
     0
  9
$MENU
  1
.
  9
$ELEVATION
 40
0.0
  9
$PELEVATION
 40
0.0
  9
$THICKNESS
 40
0.0
  9
$LIMCHECK
 70
     0
  9
$CHAMFERA
 40
0.5
  9
$CHAMFERB
 40
0.5
  9
$CHAMFERC
 40
1.0
  9
$CHAMFERD
 40
0.0
  9
$SKPOLY
 70
     0
  9
$TDCREATE
 40
2456216.552594537
  9
$TDUCREATE
 40
2456216.010927871
  9
$TDUPDATE
 40
2457071.447279375
  9
$TDUUPDATE
 40
2457070.905612709
  9
$TDINDWG
 40
0.0615776620
  9
$TDUSRTIMER
 40
0.0615776620
  9
$USRTIMER
 70
     1
  9
$ANGBASE
 50
0.0
  9
$ANGDIR
 70
     0
  9
$PDMODE
 70
     0
  9
$PDSIZE
 40
0.0
  9
$PLINEWID
 40
0.0
  9
$SPLFRAME
 70
     0
  9
$SPLINETYPE
 70
     6
  9
$SPLINESEGS
 70
     8
  9
$HANDSEED
  5
AE1
  9
$SURFTAB1
 70
     6
  9
$SURFTAB2
 70
     6
  9
$SURFTYPE
 70
     6
  9
$SURFU
 70
     6
  9
$SURFV
 70
     6
  9
$UCSBASE
  2

  9
$UCSNAME
  2

  9
$UCSORG
 10
0.0
 20
0.0
 30
0.0
  9
$UCSXDIR
 10
1.0
 20
0.0
 30
0.0
  9
$UCSYDIR
 10
0.0
 20
1.0
 30
0.0
  9
$UCSORTHOREF
  2

  9
$UCSORTHOVIEW
 70
     0
  9
$UCSORGTOP
 10
0.0
 20
0.0
 30
0.0
  9
$UCSORGBOTTOM
 10
0.0
 20
0.0
 30
0.0
  9
$UCSORGLEFT
 10
0.0
 20
0.0
 30
0.0
  9
$UCSORGRIGHT
 10
0.0
 20
0.0
 30
0.0
  9
$UCSORGFRONT
 10
0.0
 20
0.0
 30
0.0
  9
$UCSORGBACK
 10
0.0
 20
0.0
 30
0.0
  9
$PUCSBASE
  2

  9
$PUCSNAME
  2

  9
$PUCSORG
 10
0.0
 20
0.0
 30
0.0
  9
$PUCSXDIR
 10
1.0
 20
0.0
 30
0.0
  9
$PUCSYDIR
 10
0.0
 20
1.0
 30
0.0
  9
$PUCSORTHOREF
  2

  9
$PUCSORTHOVIEW
 70
     0
  9
$PUCSORGTOP
 10
0.0
 20
0.0
 30
0.0
  9
$PUCSORGBOTTOM
 10
0.0
 20
0.0
 30
0.0
  9
$PUCSORGLEFT
 10
0.0
 20
0.0
 30
0.0
  9
$PUCSORGRIGHT
 10
0.0
 20
0.0
 30
0.0
  9
$PUCSORGFRONT
 10
0.0
 20
0.0
 30
0.0
  9
$PUCSORGBACK
 10
0.0
 20
0.0
 30
0.0
  9
$USERI1
 70
     0
  9
$USERI2
 70
     0
  9
$USERI3
 70
     0
  9
$USERI4
 70
     0
  9
$USERI5
 70
     0
  9
$USERR1
 40
0.0
  9
$USERR2
 40
0.0
  9
$USERR3
 40
0.0
  9
$USERR4
 40
0.0
  9
$USERR5
 40
0.0
  9
$WORLDVIEW
 70
     1
  9
$SHADEDGE
 70
     3
  9
$SHADEDIF
 70
    70
  9
$TILEMODE
 70
     1
  9
$MAXACTVP
 70
    64
  9
$PINSBASE
 10
0.0
 20
0.0
 30
0.0
  9
$PLIMCHECK
 70
     0
  9
$PEXTMIN
 10
1.049999952316284
 20
0.7999999523162842
 30
0.0
  9
$PEXTMAX
 10
9.449999570846559
 20
7.199999570846558
 30
0.0
  9
$PLIMMIN
 10
-0.2500002402958907
 20
-0.2499999962453767
  9
$PLIMMAX
 10
10.74999951940822
 20
8.249999763458733
  9
$UNITMODE
 70
     0
  9
$VISRETAIN
 70
     1
  9
$PLINEGEN
 70
     0
  9
$PSLTSCALE
 70
     1
  9
$TREEDEPTH
 70
  3020
  9
$CMLSTYLE
  2
Standard
  9
$CMLJUST
 70
     0
  9
$CMLSCALE
 40
1.0
  9
$PROXYGRAPHICS
 70
     1
  9
$MEASUREMENT
 70
     0
  9
$CELWEIGHT
370
    -1
  9
$ENDCAPS
280
     0
  9
$JOINSTYLE
280
     0
  9
$LWDISPLAY
290
     1
  9
$INSUNITS
 70
     0
  9
$HYPERLINKBASE
  1

  9
$STYLESHEET
  1

  9
$XEDIT
290
     1
  9
$CEPSNTYPE
380
     0
  9
$PSTYLEMODE
290
     1
  9
$FINGERPRINTGUID
  2
{7ADC7CB6-738E-4619-8F50-EB7F45B3FCD2}
  9
$VERSIONGUID
  2
{84D5A66F-DA33-45A2-9FF2-62E86B4F7F7D}
  9
$EXTNAMES
290
     1
  9
$PSVPSCALE
 40
0.0
  9
$OLESTARTUP
290
     0
  0
ENDSEC
  0
SECTION
  2
CLASSES
  0
CLASS
  1
ACDBDICTIONARYWDFLT
  2
AcDbDictionaryWithDefault
  3
ObjectDBX Classes
 90
        0
280
     0
281
     0
  0
CLASS
  1
VISUALSTYLE
  2
AcDbVisualStyle
  3
ObjectDBX Classes
 90
     4095
280
     0
281
     0
  0
CLASS
  1
MATERIAL
  2
AcDbMaterial
  3
ObjectDBX Classes
 90
     1153
280
     0
281
     0
  0
CLASS
  1
SCALE
  2
AcDbScale
  3
ObjectDBX Classes
 90
     1153
280
     0
281
     0
  0
CLASS
  1
DICTIONARYVAR
  2
AcDbDictionaryVar
  3
ObjectDBX Classes
 90
        0
280
     0
281
     0
  0
CLASS
  1
TABLESTYLE
  2
AcDbTableStyle
  3
ObjectDBX Classes
 90
     4095
280
     0
281
     0
  0
CLASS
  1
MLEADERSTYLE
  2
AcDbMLeaderStyle
  3
ACDB_MLEADERSTYLE_CLASS
 90
     4095
280
     0
281
     0
  0
CLASS
  1
ACDBSECTIONVIEWSTYLE
  2
AcDbSectionViewStyle
  3
ObjectDBX Classes
 90
     1025
280
     0
281
     0
  0
CLASS
  1
ACDBDETAILVIEWSTYLE
  2
AcDbDetailViewStyle
  3
ObjectDBX Classes
 90
     1025
280
     0
281
     0
  0
CLASS
  1
EXACXREFPANELOBJECT
  2
ExAcXREFPanelObject
  3
EXAC_ESW
 90
     1025
280
     0
281
     0
  0
CLASS
  1
NPOCOLLECTION
  2
AcDbImpNonPersistentObjectsCollection
  3
ObjectDBX Classes
 90
     1153
280
     0
281
     0
  0
CLASS
  1
IMAGE
  2
AcDbRasterImage
  3
ISM
 90
    34943
280
     0
281
     1
  0
CLASS
  1
IMAGEDEF_REACTOR
  2
AcDbRasterImageDefReactor
  3
ISM
 90
        1
280
     0
281
     0
  0
CLASS
  1
SORTENTSTABLE
  2
AcDbSortentsTable
  3
ObjectDBX Classes
 90
        0
280
     0
281
     0
  0
CLASS
  1
IMAGEDEF
  2
AcDbRasterImageDef
  3
ISM
 90
    32768
280
     0
281
     0
  0
CLASS
  1
RASTERVARIABLES
  2
AcDbRasterVariables
  3
ISM
 90
        0
280
     0
281
     0
  0
CLASS
  1
ACAD_EVALUATION_GRAPH
  2
AcDbEvalGraph
  3
ObjectDBX Classes
 90
    33921
280
     0
281
     0
  0
CLASS
  1
ACAECUSTOBJ
  2
AcAeEditorObj
  3
AcAeEditorObj
 90
    33792
280
     0
281
     0
  0
CLASS
  1
ACDB_DYNAMICBLOCKPURGEPREVENTER_VERSION
  2
AcDbDynamicBlockPurgePreventer
  3
ObjectDBX Classes
 90
     1153
280
     0
281
     0
  0
CLASS
  1
ACDBASSOCNETWORK
  2
AcDbAssocNetwork
  3
ObjectDBX Classes
 90
     1025
280
     0
281
     0
  0
CLASS
  1
ACDBASSOC2DCONSTRAINTGROUP
  2
AcDbAssoc2dConstraintGroup
  3
ObjectDBX Classes
 90
     1025
280
     0
281
     0
  0
CLASS
  1
ACDBASSOCGEOMDEPENDENCY
  2
AcDbAssocGeomDependency
  3
ObjectDBX Classes
 90
     1025
280
     0
281
     0
  0
CLASS
  1
SPATIAL_FILTER
  2
AcDbSpatialFilter
  3
ObjectDBX Classes
 90
        0
280
     0
281
     0
  0
CLASS
  1
PDFUNDERLAY
  2
AcDbPdfReference
  3
ObjectDBX Classes
 90
     4095
280
     0
281
     1
  0
CLASS
  1
PDFDEFINITION
  2
AcDbPdfDefinition
  3
ObjectDBX Classes
 90
    33921
280
     0
281
     0
  0
CLASS
  1
CELLSTYLEMAP
  2
AcDbCellStyleMap
  3
ObjectDBX Classes
 90
     1152
280
     0
281
     0
  0
CLASS
  1
ACDBPLACEHOLDER
  2
AcDbPlaceHolder
  3
ObjectDBX Classes
 90
        0
280
     0
281
     0
  0
CLASS
  1
LAYOUT
  2
AcDbLayout
  3
ObjectDBX Classes
 90
        0
280
     0
281
     0
  0
ENDSEC
  0
SECTION
  2
TABLES
  0
TABLE
  2
VPORT
  5
8
330
0
100
AcDbSymbolTable
 70
     1
  0
VPORT
  5
29
330
8
100
AcDbSymbolTableRecord
100
AcDbViewportTableRecord
  2
*Active
 70
     0
 10
0.0
 20
0.0
 11
1.0
 21
1.0
 12
7192.291547896399
 22
3132.116599654541
 13
0.0
 23
0.0
 14
0.5
 24
0.5
 15
0.5
 25
0.5
 16
0.0
 26
0.0
 36
1.0
 17
0.0
 27
0.0
 37
0.0
 40
840.1285120870335
 41
1.710191082802547
 42
50.0
 43
0.0
 44
0.0
 50
0.0
 51
0.0
 71
     0
 72
   100
 73
     1
 74
     3
 75
     0
 76
     0
 77
     0
 78
     0
281
     0
 65
     1
110
0.0
120
0.0
130
0.0
111
1.0
121
0.0
131
0.0
112
0.0
122
1.0
132
0.0
 79
     0
146
0.0
1001
ACAD_NAV_VCDISPLAY
1070
     3
  0
ENDTAB
  0
TABLE
  2
LTYPE
  5
5
330
0
100
AcDbSymbolTable
 70
     6
  0
LTYPE
  5
14
330
5
100
AcDbSymbolTableRecord
100
AcDbLinetypeTableRecord
  2
ByBlock
 70
     0
  3

 72
    65
 73
     0
 40
0.0
  0
LTYPE
  5
15
330
5
100
AcDbSymbolTableRecord
100
AcDbLinetypeTableRecord
  2
ByLayer
 70
     0
  3

 72
    65
 73
     0
 40
0.0
  0
LTYPE
  5
16
330
5
100
AcDbSymbolTableRecord
100
AcDbLinetypeTableRecord
  2
Continuous
 70
     0
  3
Solid line
 72
    65
 73
     0
 40
0.0
  0
LTYPE
  5
14C
330
5
100
AcDbSymbolTableRecord
100
AcDbLinetypeTableRecord
  2
Hidden
 70
     0
  3
- - - - - 
 72
    65
 73
     2
 40
4.938889980316162
 49
2.822222709655761
 74
     0
 49
-2.1166672706604
 74
     0
  0
LTYPE
  5
160
330
5
100
AcDbSymbolTableRecord
100
AcDbLinetypeTableRecord
  2
Sketch
 70
     0
  3
??????????
 72
    65
 73
     3
 40
40.0
 49
0.0
 74
     4
 75
     1
340
161
 46
0.3174603174603174
 50
0.0
 44
0.0
 45
0.0
 49
-40.0
 74
     0
 49
0.0
 74
     0
  0
LTYPE
  5
1EF
330
5
100
AcDbSymbolTableRecord
100
AcDbLinetypeTableRecord
  2
ZIGZAG
 70
     0
  3
Zig zag /\/\/\/\/\/\/\/\/\/\/\/\/\/\/\/\/\/\/\/
 72
    65
 73
     4
 40
0.8001000000000001
 49
0.0001
 74
     0
 49
-0.2
 74
     4
 75
   131
340
1F3
 46
0.2
 50
0.0
 44
-0.2
 45
0.0
 49
-0.4
 74
     4
 75
   131
340
1F3
 46
0.2
 50
180.0
 44
0.2
 45
0.0
 49
-0.2
 74
     0
  0
LTYPE
  5
27A
330
5
100
AcDbSymbolTableRecord
100
AcDbLinetypeTableRecord
  2
DASHEDX2
 70
     0
  3
Dashed (2x) ____  ____  ____  ____  ____  ___
 72
    65
 73
     2
 40
1.5
 49
1.0
 74
     0
 49
-0.5
 74
     0
  0
LTYPE
  5
2C8
330
5
100
AcDbSymbolTableRecord
100
AcDbLinetypeTableRecord
  2
PLASTER
 70
     0
  3
PLASTER
 72
    65
 73
     2
 40
2.379214999999999
 49
0.000024
 74
     4
 75
     1
340
2C9
 46
0.2
 50
0.0
 44
0.0
 45
0.0
 49
-2.379191
 74
     0
  0
ENDTAB
  0
TABLE
  2
LAYER
  5
2
102
{ACAD_XDICTIONARY
360
1FA
102
}
330
0
100
AcDbSymbolTable
 70
     8
  0
LAYER
  5
10
102
{ACAD_XDICTIONARY
360
254
102
}
330
2
100
AcDbSymbolTableRecord
100
AcDbLayerTableRecord
  2
0
 70
     0
 62
     7
  6
Continuous
370
    -3
390
F
  0
LAYER
  5
40
102
{ACAD_XDICTIONARY
360
256
102
}
330
2
100
AcDbSymbolTableRecord
100
AcDbLayerTableRecord
  2
Specialized_Fills
 70
     0
 62
     7
  6
Continuous
370
    -3
390
F
  0
LAYER
  5
14E
102
{ACAD_XDICTIONARY
360
258
102
}
330
2
100
AcDbSymbolTableRecord
100
AcDbLayerTableRecord
  2
Specialized_Lines
 70
     0
 62
     7
  6
Continuous
370
    -3
390
F
  0
LAYER
  5
193
102
{ACAD_XDICTIONARY
360
25A
102
}
330
2
100
AcDbSymbolTableRecord
100
AcDbLayerTableRecord
  2
Specialized_Text
 70
     0
 62
     7
  6
Continuous
370
    -3
390
F
  0
LAYER
  5
1F0
102
{ACAD_XDICTIONARY
360
1F1
102
}
330
2
100
AcDbSymbolTableRecord
100
AcDbLayerTableRecord
  2
Viewport
 70
     0
 62
     7
  6
Continuous
370
    -3
390
F
1001
AcAecLayerStandard
1000

1000

1001
AcCmTransparency
1071
        0
  0
LAYER
  5
357
330
2
100
AcDbSymbolTableRecord
100
AcDbLayerTableRecord
  2
Defpoints
 70
     0
 62
     7
  6
Continuous
290
     0
370
    -3
390
F
  0
LAYER
  5
7BD
330
2
100
AcDbSymbolTableRecord
100
AcDbLayerTableRecord
  2
eps
 70
     0
 62
   254
  6
Continuous
370
    -3
390
F
1001
AcAecLayerStandard
1000

1000

1001
AcCmTransparency
1071
        0
  0
LAYER
  5
8DB
102
{ACAD_XDICTIONARY
360
8DC
102
}
330
2
100
AcDbSymbolTableRecord
100
AcDbLayerTableRecord
  2
TEXT
 70
     0
 62
    18
  6
Continuous
370
     0
390
F
1001
AcCmTransparency
1071
 33554687
  0
ENDTAB
  0
TABLE
  2
STYLE
  5
3
330
0
100
AcDbSymbolTable
 70
     6
  0
STYLE
  5
11
330
3
100
AcDbSymbolTableRecord
100
AcDbTextStyleTableRecord
  2
Standard
 70
     0
 40
0.0
 41
1.0
 50
0.0
 71
     0
 42
0.2
  3
txt
  4
BIGFONT.SHX
  0
STYLE
  5
161
330
3
100
AcDbSymbolTableRecord
100
AcDbTextStyleTableRecord
  2

 70
     1
 40
0.2
 41
1.0
 50
0.0
 71
     0
 42
0.2
  3
09A Roof _ Wall_ RIDGE APRON FLASHING1.Shx
  4

  0
STYLE
  5
171
330
3
100
AcDbSymbolTableRecord
100
AcDbTextStyleTableRecord
  2
GENERATED_STYLE_1
 70
     0
 40
0.0
 41
1.0
 50
0.0
 71
     0
 42
0.2
  3
ARIALUNI.TTF
  4

1001
ACAD
1000
Arial Unicode MS
1071
       34
  0
STYLE
  5
1F2
330
3
100
AcDbSymbolTableRecord
100
AcDbTextStyleTableRecord
  2
GENERATED_STYLE_2
 70
     0
 40
0.0
 41
1.0
 50
0.0
 71
     0
 42
0.2
  3
ARIALUNI.TTF
  4

1001
ACAD
1000
Arial Unicode MS
1071
       34
  0
STYLE
  5
1F3
330
3
100
AcDbSymbolTableRecord
100
AcDbTextStyleTableRecord
  2

 70
     1
 40
0.0
 41
1.0
 50
0.0
 71
     0
 42
0.2
  3
ltypeshp.shx
  4

  0
STYLE
  5
2C9
330
3
100
AcDbSymbolTableRecord
100
AcDbTextStyleTableRecord
  2

 70
     1
 40
0.0
 41
1.0
 50
0.0
 71
     0
 42
0.2
  3
P:\VERT-X CONSULTING LTD\2013\10 OCT\1310-015- SPECIALIZED CONSTRUCTION PRODUCTS - CONTRACT DRAUGHTING\DRAWINGS\PLASTER.SHX
  4

  0
ENDTAB
  0
TABLE
  2
VIEW
  5
6
330
0
100
AcDbSymbolTable
 70
     0
  0
ENDTAB
  0
TABLE
  2
UCS
  5
7
330
0
100
AcDbSymbolTable
 70
     0
  0
ENDTAB
  0
TABLE
  2
APPID
  5
9
330
0
100
AcDbSymbolTable
 70
    19
  0
APPID
  5
12
330
9
100
AcDbSymbolTableRecord
100
AcDbRegAppTableRecord
  2
ACAD
 70
     0
  0
APPID
  5
1F4
330
9
100
AcDbSymbolTableRecord
100
AcDbRegAppTableRecord
  2
ACAD_PSEXT
 70
     0
  0
APPID
  5
1F5
330
9
100
AcDbSymbolTableRecord
100
AcDbRegAppTableRecord
  2
ACAD_NAV_VCDISPLAY
 70
     0
  0
APPID
  5
1F6
330
9
100
AcDbSymbolTableRecord
100
AcDbRegAppTableRecord
  2
AcAecLayerStandard
 70
     0
  0
APPID
  5
1F7
330
9
100
AcDbSymbolTableRecord
100
AcDbRegAppTableRecord
  2
AcCmTransparency
 70
     0
  0
APPID
  5
1F8
330
9
100
AcDbSymbolTableRecord
100
AcDbRegAppTableRecord
  2
GradientColor1ACI
 70
     0
  0
APPID
  5
1F9
330
9
100
AcDbSymbolTableRecord
100
AcDbRegAppTableRecord
  2
GradientColor2ACI
 70
     0
  0
APPID
  5
230
330
9
100
AcDbSymbolTableRecord
100
AcDbRegAppTableRecord
  2
ACAUTHENVIRON
 70
     0
  0
APPID
  5
244
330
9
100
AcDbSymbolTableRecord
100
AcDbRegAppTableRecord
  2
AcDbDynamicBlockTrueName
 70
     0
  0
APPID
  5
245
330
9
100
AcDbSymbolTableRecord
100
AcDbRegAppTableRecord
  2
AcDbDynamicBlockGUID
 70
     0
  0
APPID
  5
247
330
9
100
AcDbSymbolTableRecord
100
AcDbRegAppTableRecord
  2
ACAD_EXEMPT_FROM_CAD_STANDARDS
 70
     0
  0
APPID
  5
7BE
330
9
100
AcDbSymbolTableRecord
100
AcDbRegAppTableRecord
  2
AcDbDynamicBlockTrueName2
 70
     0
  0
APPID
  5
7BF
330
9
100
AcDbSymbolTableRecord
100
AcDbRegAppTableRecord
  2
BNS_SPRHATCH
 70
     0
  0
APPID
  5
872
330
9
100
AcDbSymbolTableRecord
100
AcDbRegAppTableRecord
  2
AdeskUnderlayLayerOverrideData
 70
     0
  0
APPID
  5
8DF
330
9
100
AcDbSymbolTableRecord
100
AcDbRegAppTableRecord
  2
AcadAnnotative
 70
     0
  0
APPID
  5
8E0
330
9
100
AcDbSymbolTableRecord
100
AcDbRegAppTableRecord
  2
ACAD_DSTYLE_DIMJAG
 70
     0
  0
APPID
  5
8E1
330
9
100
AcDbSymbolTableRecord
100
AcDbRegAppTableRecord
  2
ACAD_DSTYLE_DIMTALN
 70
     0
  0
APPID
  5
ACB
330
9
100
AcDbSymbolTableRecord
100
AcDbRegAppTableRecord
  2
ACAD_MLEADERVER
 70
     0
  0
APPID
  5
ADE
330
9
100
AcDbSymbolTableRecord
100
AcDbRegAppTableRecord
  2
ACAD_OBJECT_CHANGE_GUID
 70
     0
  0
ENDTAB
  0
TABLE
  2
DIMSTYLE
  5
A
330
0
100
AcDbSymbolTable
 70
     7
100
AcDbDimStyleTable
 71
     1
340
27
  0
DIMSTYLE
105
27
330
A
100
AcDbSymbolTableRecord
100
AcDbDimStyleTableRecord
  2
Standard
 70
     0
340
11
  0
DIMSTYLE
105
174
102
{ACAD_REACTORS
330
57A
102
}
330
A
100
AcDbSymbolTableRecord
100
AcDbDimStyleTableRecord
  2
GENERATED_STYLE__1
 70
     0
 41
3.799999999999999
 42
15.11128144226159
 73
     0
 74
     0
 77
     1
140
5.0
172
     1
176
     7
177
     7
178
     7
179
     2
271
     0
279
     2
340
171
342
175
343
175
344
175
  0
DIMSTYLE
105
185
102
{ACAD_REACTORS
330
836
102
}
330
A
100
AcDbSymbolTableRecord
100
AcDbDimStyleTableRecord
  2
GENERATED_STYLE__2
 70
     0
 41
3.799999999999999
 42
16.0955097372053
 73
     0
 74
     0
 77
     1
140
5.0
172
     1
176
     7
177
     7
178
     7
179
     2
271
     0
340
171
342
175
343
175
344
175
  0
DIMSTYLE
105
191
102
{ACAD_REACTORS
330
837
102
}
330
A
100
AcDbSymbolTableRecord
100
AcDbDimStyleTableRecord
  2
GENERATED_STYLE__3
 70
     0
 41
3.799999999999999
 42
92.76432429644199
 73
     0
 74
     0
 77
     1
140
5.0
172
     1
176
     7
177
     7
178
     7
179
     2
271
     0
340
171
342
175
343
175
344
175
  0
DIMSTYLE
105
195
330
A
100
AcDbSymbolTableRecord
100
AcDbDimStyleTableRecord
  2
GENERATED_STYLE__4
 70
     0
 41
7.295999999999999
172
     1
341
196
  0
DIMSTYLE
105
8DD
330
A
100
AcDbSymbolTableRecord
100
AcDbDimStyleTableRecord
  2
Annotative
 70
     0
 40
0.0
 41
2.5
 42
0.625
 43
3.75
 44
1.25
 73
     0
 74
     0
 77
     1
 78
     8
140
2.5
141
2.5
143
0.03937007874016
147
0.625
171
     3
172
     1
271
     2
272
     2
274
     3
278
    44
283
     0
284
     8
340
11
1001
AcadAnnotative
1000
AnnotativeData
1002
{
1070
     1
1070
     1
1002
}
1001
ACAD_DSTYLE_DIMJAG
1070
   388
1040
1.5
1001
ACAD_DSTYLE_DIMTALN
1070
   392
1070
     0
  0
DIMSTYLE
105
8DE
330
A
100
AcDbSymbolTableRecord
100
AcDbDimStyleTableRecord
  2
ISO-25
 70
     0
 41
2.5
 42
0.625
 43
3.75
 44
1.25
 73
     0
 74
     0
 77
     1
 78
     8
140
2.5
141
2.5
143
0.03937007874016
147
0.625
171
     3
172
     1
271
     2
272
     2
274
     3
278
    44
283
     0
284
     8
340
11
  0
ENDTAB
  0
TABLE
  2
BLOCK_RECORD
  5
1
330
0
100
AcDbSymbolTable
 70
    10
  0
BLOCK_RECORD
  5
1F
102
{ACAD_XDICTIONARY
360
322
102
}
330
1
100
AcDbSymbolTableRecord
100
AcDbBlockTableRecord
  2
*Model_Space
340
22
  0
BLOCK_RECORD
  5
1B
330
1
100
AcDbSymbolTableRecord
100
AcDbBlockTableRecord
  2
*Paper_Space
340
1E
  0
BLOCK_RECORD
  5
23
330
1
100
AcDbSymbolTableRecord
100
AcDbBlockTableRecord
  2
*Paper_Space0
340
26
  0
BLOCK_RECORD
  5
46
102
{ACAD_XDICTIONARY
360
231
102
}
330
1
100
AcDbSymbolTableRecord
100
AcDbBlockTableRecord
  2
Fill_1
340
0
1001
AcDbDynamicBlockGUID
1000
{C0DBE963-02CE-42BF-B519-EB537D10C9CE}
  0
BLOCK_RECORD
  5
175
330
1
100
AcDbSymbolTableRecord
100
AcDbBlockTableRecord
  2
ARROWHEAD_6
340
0
102
{BLKREFS
331
932
331
933
331
93A
331
93B
331
943
331
944
102
}
  0
BLOCK_RECORD
  5
196
330
1
100
AcDbSymbolTableRecord
100
AcDbBlockTableRecord
  2
ARROWHEAD_5
340
0
  0
BLOCK_RECORD
  5
1AA
330
1
100
AcDbSymbolTableRecord
100
AcDbBlockTableRecord
  2
09A Roof _ Wall_ RIDGE APRON FL_STORY_MARKER
340
0
  0
BLOCK_RECORD
  5
5A8
330
1
100
AcDbSymbolTableRecord
100
AcDbBlockTableRecord
  2
*D5
340
0
  0
BLOCK_RECORD
  5
789
102
{ACAD_XDICTIONARY
360
78A
102
}
330
1
100
AcDbSymbolTableRecord
100
AcDbBlockTableRecord
  2
*U6
340
0
310
2800000020000000200000000100080000000000000400000000000000000000000000000000000000000000000080000080000000808000800000008000800080800000C0C0C000C0DCC000F0CAA6000020400000206000002080000020A0000020C0000020E00000400000004020000040400000406000004080000040A0
310
000040C0000040E00000600000006020000060400000606000006080000060A0000060C0000060E00000800000008020000080400000806000008080000080A0000080C0000080E00000A0000000A0200000A0400000A0600000A0800000A0A00000A0C00000A0E00000C0000000C0200000C0400000C0600000C0800000C0
310
A00000C0C00000C0E00000E0000000E0200000E0400000E0600000E0800000E0A00000E0C00000E0E00040000000400020004000400040006000400080004000A0004000C0004000E00040200000402020004020400040206000402080004020A0004020C0004020E000404000004040200040404000404060004040800040
310
40A0004040C0004040E00040600000406020004060400040606000406080004060A0004060C0004060E00040800000408020004080400040806000408080004080A0004080C0004080E00040A0000040A0200040A0400040A0600040A0800040A0A00040A0C00040A0E00040C0000040C0200040C0400040C0600040C08000
310
40C0A00040C0C00040C0E00040E0000040E0200040E0400040E0600040E0800040E0A00040E0C00040E0E00080000000800020008000400080006000800080008000A0008000C0008000E00080200000802020008020400080206000802080008020A0008020C0008020E00080400000804020008040400080406000804080
310
008040A0008040C0008040E00080600000806020008060400080606000806080008060A0008060C0008060E00080800000808020008080400080806000808080008080A0008080C0008080E00080A0000080A0200080A0400080A0600080A0800080A0A00080A0C00080A0E00080C0000080C0200080C0400080C0600080C0
310
800080C0A00080C0C00080C0E00080E0000080E0200080E0400080E0600080E0800080E0A00080E0C00080E0E000C0000000C0002000C0004000C0006000C0008000C000A000C000C000C000E000C0200000C0202000C0204000C0206000C0208000C020A000C020C000C020E000C0400000C0402000C0404000C0406000C0
310
408000C040A000C040C000C040E000C0600000C0602000C0604000C0606000C0608000C060A000C060C000C060E000C0800000C0802000C0804000C0806000C0808000C080A000C080C000C080E000C0A00000C0A02000C0A04000C0A06000C0A08000C0A0A000C0A0C000C0A0E000C0C00000C0C02000C0C04000C0C06000
310
C0C08000C0C0A000F0FBFF00A4A0A000808080000000FF0000FF000000FFFF00FF000000FF00FF00FFFF0000FFFFFF0049494949494949494949494949494949494949494949494949494949494949494949494949494949494949494949494949494949494949494949494949494949494949494949494949494949494949
310
49494949494949494949494949494949494949494949494949494949494949494949494949494949494949494949494949494949494949494949494949494949494949494949494949494949494949494949494949494949494949494949494949494949494949494949494949494949494949494949494949494949494949
310
49494949494949494949494949494949494949494949494949494949494949494949494949494949494949494949494949494949494949494949494949494949494949494949494949494949494949494949494949494949494949494949494949494949494949494949494949494949494949494949494949494949494949
310
49494949494949494949494949494949494949494949494949494949494949494949494949494949494949494949494949494949FFFF494949494949494949494949494949494949494949494949494949494949FFFFFFFFFFFFFFFFFFFFFFFFFFFFFFFFFFFFFFFFFFFFFFFFFFFF494949494949FFFFFFFFFFFFFFFFFFFFFF
310
FFFFFFFFFFFFFFFFFFFFFFFFFFFFFF494949494949FFFF49494949494949494949494949494949494949494949FFFF494949494949FFFF49494949494949494949494949494949494949494949FFFFFFFFFFFF4949FFFF49494949494949494949494949494949494949494949FFFFFFFFFFFF4949FFFF4949494949494949
310
4949494949494949494949494949FFFF494949494949FFFF49494949494949494949494949494949494949494949FFFF49494949494949494949494949494949494949494949494949494949494949494949494949494949494949494949494949494949494949494949494949494949494949494949494949494949494949
310
49494949494949494949494949494949494949494949494949494949494949494949494949494949494949494949494949494949494949494949494949494949494949494949494949494949494949494949494949494949494949494949494949494949494949494949494949494949494949494949494949494949494949
310
49494949494949494949494949494949494949494949494949494949494949494949494949494949494949494949494949494949494949494949494949494949494949494949494949494949494949494949494949494949494949494949494949494949494949494949494949494949494949494949494949494949494949
310
4949494949494949494949494949494949494949494949494949494949494949494949494949494949494949494949494949494949494949
1001
AcDbDynamicBlockTrueName2
1000
BASE FLASHING
1001
AcDbDynamicBlockGUID
1000
{50111D31-B79A-4ADB-93D8-F6FC64CE83DE}
  0
BLOCK_RECORD
  5
7AA
102
{ACAD_XDICTIONARY
360
AD9
102
}
330
1
100
AcDbSymbolTableRecord
100
AcDbBlockTableRecord
  2
therma
340
0
310
2800000020000000200000000100080000000000000400000000000000000000000000000000000000000000000080000080000000808000800000008000800080800000C0C0C000C0DCC000F0CAA6000020400000206000002080000020A0000020C0000020E00000400000004020000040400000406000004080000040A0
310
000040C0000040E00000600000006020000060400000606000006080000060A0000060C0000060E00000800000008020000080400000806000008080000080A0000080C0000080E00000A0000000A0200000A0400000A0600000A0800000A0A00000A0C00000A0E00000C0000000C0200000C0400000C0600000C0800000C0
310
A00000C0C00000C0E00000E0000000E0200000E0400000E0600000E0800000E0A00000E0C00000E0E00040000000400020004000400040006000400080004000A0004000C0004000E00040200000402020004020400040206000402080004020A0004020C0004020E000404000004040200040404000404060004040800040
310
40A0004040C0004040E00040600000406020004060400040606000406080004060A0004060C0004060E00040800000408020004080400040806000408080004080A0004080C0004080E00040A0000040A0200040A0400040A0600040A0800040A0A00040A0C00040A0E00040C0000040C0200040C0400040C0600040C08000
310
40C0A00040C0C00040C0E00040E0000040E0200040E0400040E0600040E0800040E0A00040E0C00040E0E00080000000800020008000400080006000800080008000A0008000C0008000E00080200000802020008020400080206000802080008020A0008020C0008020E00080400000804020008040400080406000804080
310
008040A0008040C0008040E00080600000806020008060400080606000806080008060A0008060C0008060E00080800000808020008080400080806000808080008080A0008080C0008080E00080A0000080A0200080A0400080A0600080A0800080A0A00080A0C00080A0E00080C0000080C0200080C0400080C0600080C0
310
800080C0A00080C0C00080C0E00080E0000080E0200080E0400080E0600080E0800080E0A00080E0C00080E0E000C0000000C0002000C0004000C0006000C0008000C000A000C000C000C000E000C0200000C0202000C0204000C0206000C0208000C020A000C020C000C020E000C0400000C0402000C0404000C0406000C0
310
408000C040A000C040C000C040E000C0600000C0602000C0604000C0606000C0608000C060A000C060C000C060E000C0800000C0802000C0804000C0806000C0808000C080A000C080C000C080E000C0A00000C0A02000C0A04000C0A06000C0A08000C0A0A000C0A0C000C0A0E000C0C00000C0C02000C0C04000C0C06000
310
C0C08000C0C0A000F0FBFF00A4A0A000808080000000FF0000FF000000FFFF00FF000000FF00FF00FFFF0000FFFFFF0049494949494949494949494949494949494949494949494949494949494949494949494949494949494949494949494949494949494949494949070749494949494949494949494949070707074949
310
49494907494949494949070707070749494949494949494949490749490707490707070707074949490707070707074949494949070707070749074949070749070707070707074949070707070707074949494907070707070707070707490707070707070707074907070707070707494949070707070707074907074949
310
07070707070707070749070707070707494949490707070707070749494949490707070707070707074949070707074949494949490707070707074907074949070707070707070707070707494949494949494949070707070707070707070749070707070707070707070749494949494949494949494949490707070707
310
07494907070707070707070707494949494949494907070707494907070707070749494949494949490707070749494949494949490707070749490707070707074949494949494949070707074949494949494907070707074949070707070707494949494949494949494949494949494949494907070707494949070707
310
07494949494949494949494949490749494949494949070707070707070749494949070707070749494949490707070707494949494949494907070707070749490707494949070749494949070707070707494949494949070707070707070749074949494949074949490707070707070749494949494907070707070707
310
07490749494949490749494907070707070707494949494949070707070707070749070749494907494949494907070707070749494949494907070707070707074949070707070707070707490707070707494949494949490707070707070707494949494949490707070749494949494949494949494949490707070707
310
07494949494949494907070707494907074949494949494949494949070707074949494949494949490707070707070707074949494949494907070707494949070707494949070707070707070707070707074949494949070707070707490707070707490707070707074907070707070707494949494907070707070749
310
07070707074907070707070749070707070707074949494949070707070707490707070707490707070707074907070707070749494949494907070707070749490707074949070707070707494907070707074949494949490707070707494949494949494949070707070749494949494949494949494949494907074949
310
4949494949494949490707494949494949494949494949494949494949494949494949494949494949494949494949494949494949494949
102
{BLKREFS
331
9B0
331
9B1
331
9B2
331
9B3
331
9B4
331
9B5
331
9B6
331
9B7
331
9B8
331
9B9
331
9BA
331
9BB
102
}
  0
BLOCK_RECORD
  5
83C
330
1
100
AcDbSymbolTableRecord
100
AcDbBlockTableRecord
  2
*D8
340
0
  0
BLOCK_RECORD
  5
848
330
1
100
AcDbSymbolTableRecord
100
AcDbBlockTableRecord
  2
*D9
340
0
  0
ENDTAB
  0
ENDSEC
  0
SECTION
  2
BLOCKS
  0
BLOCK
  5
20
330
1F
100
AcDbEntity
  8
0
100
AcDbBlockBegin
  2
*Model_Space
 70
     0
 10
0.0
 20
0.0
 30
0.0
  3
*Model_Space
  1

  0
ENDBLK
  5
21
330
1F
100
AcDbEntity
  8
0
100
AcDbBlockEnd
  0
BLOCK
  5
1C
330
1B
100
AcDbEntity
 67
     1
  8
0
100
AcDbBlockBegin
  2
*Paper_Space
 70
     0
 10
0.0
 20
0.0
 30
0.0
  3
*Paper_Space
  1

  0
ENDBLK
  5
1D
330
1B
100
AcDbEntity
 67
     1
  8
0
100
AcDbBlockEnd
  0
BLOCK
  5
24
330
23
100
AcDbEntity
 67
     1
  8
0
100
AcDbBlockBegin
  2
*Paper_Space0
 70
     0
 10
0.0
 20
0.0
 30
0.0
  3
*Paper_Space0
  1

  0
ENDBLK
  5
25
330
23
100
AcDbEntity
 67
     1
  8
0
100
AcDbBlockEnd
  0
BLOCK
  5
47
330
46
100
AcDbEntity
  8
0
100
AcDbBlockBegin
  2
Fill_1
 70
     0
 10
0.0
 20
0.0
 30
0.0
  3
Fill_1
  1

  0
LINE
  5
227
102
{ACAD_REACTORS
330
243
102
}
330
46
100
AcDbEntity
  8
Specialized_Fills
  6
Continuous
100
AcDbLine
 10
7004.153167009111
 20
4177.008770800692
 30
0.0
 11
7004.153167009111
 21
4054.6615699525
 31
0.0
  0
ARC
  5
228
102
{ACAD_REACTORS
330
243
102
}
330
46
100
AcDbEntity
  8
Specialized_Fills
  6
Continuous
100
AcDbCircle
 10
7003.864000472041
 20
4054.135848815551
 30
0.0
 40
0.5999999999969884
100
AcDbArc
 50
298.8124598079017
 51
61.18754019209833
  0
LINE
  5
229
102
{ACAD_REACTORS
330
243
102
}
330
46
100
AcDbEntity
  8
Specialized_Fills
  6
Continuous
100
AcDbLine
 10
7004.153167009111
 20
4053.610127678602
 30
0.0
 11
7004.153167009111
 21
4036.232416291262
 31
0.0
  0
LINE
  5
22A
102
{ACAD_REACTORS
330
243
102
}
330
46
100
AcDbEntity
  8
Specialized_Fills
  6
Continuous
100
AcDbLine
 10
7004.153167009111
 20
4036.232416291262
 30
0.0
 11
7054.50463887169
 21
4036.232416291262
 31
0.0
  0
LINE
  5
22B
102
{ACAD_REACTORS
330
243
102
}
330
46
100
AcDbEntity
  8
Specialized_Fills
  6
Continuous
100
AcDbLine
 10
7054.50463887169
 20
4036.232416291262
 30
0.0
 11
7054.50463887169
 21
4053.535848815556
 31
0.0
  0
LINE
  5
22C
102
{ACAD_REACTORS
330
243
102
}
330
46
100
AcDbEntity
  8
Specialized_Fills
  6
Continuous
100
AcDbLine
 10
7054.50463887169
 20
4053.535848815556
 30
0.0
 11
7054.50463887169
 21
4054.232416291262
 31
0.0
  0
LINE
  5
22D
330
46
100
AcDbEntity
  8
Specialized_Fills
  6
Continuous
100
AcDbLine
 10
7054.50463887169
 20
4054.232416291262
 30
0.0
 11
7054.793805408762
 21
4054.232416291262
 31
0.0
  0
LINE
  5
22E
102
{ACAD_REACTORS
330
243
102
}
330
46
100
AcDbEntity
  8
Specialized_Fills
  6
Continuous
100
AcDbLine
 10
7054.793805408762
 20
4054.232416291262
 30
0.0
 11
7054.793805408762
 21
4177.008770800692
 31
0.0
  0
LINE
  5
22F
102
{ACAD_REACTORS
330
243
102
}
330
46
100
AcDbEntity
  8
Specialized_Fills
  6
Continuous
100
AcDbLine
 10
7054.793805408762
 20
4177.008770800692
 30
0.0
 11
7004.153167009111
 21
4177.008770800692
 31
0.0
  0
HATCH
  5
243
330
46
100
AcDbEntity
  8
0
 62
   251
100
AcDbHatch
 10
0.0
 20
0.0
 30
0.0
210
0.0
220
0.0
230
1.0
  2
HPCRC1E0
 70
     0
 71
     1
 91
        1
 92
        7
 72
     1
 73
     1
 93
        9
 10
7054.793805408762
 20
4177.008770800692
 42
0.0
 10
7004.153167009111
 20
4177.008770800692
 42
0.0
 10
7004.153167009111
 20
4054.6615699525
 42
-0.5912515991465619
 10
7004.153167009111
 20
4053.610127678602
 42
0.0
 10
7004.153167009111
 20
4036.232416291262
 42
0.0
 10
7054.50463887169
 20
4036.232416291262
 42
0.0
 10
7054.50463887169
 20
4053.535848815556
 42
0.0
 10
7054.50463887169
 20
4054.232416291262
 42
0.0
 10
7054.793805408762
 20
4054.232416291262
 42
0.0
 97
        8
330
22F
330
227
330
228
330
229
330
22A
330
22B
330
22C
330
22E
 75
     1
 76
     2
 52
0.0
 41
0.12
 77
     0
 78
    78
 53
82.8749847
 43
0.0
 44
4.2
 45
-0.0000004961129005
 46
8.399999852931037
 79
     2
 49
0.9674709324
 49
-66.75549316799998
 53
75.96376039999999
 43
0.12
 44
5.16
 45
-0.000000348785556
 46
8.399999709154096
 79
     2
 49
0.4947726600000001
 49
-34.139315184
 53
63.43495179999999
 43
0.24
 44
5.639999999999999
 45
-0.0000000286036308
 46
8.400000041591663
 79
     2
 49
1.073312639999999
 49
-17.70965881199999
 53
45.0
 43
0.72
 44
6.599999999999999
 45
0.0000000000000009
 46
8.400000002875099
 79
     2
 49
1.527350688
 49
-10.352043456
 53
33.6900673
 43
1.799999999999999
 44
7.679999999999999
 45
0.0000001596020127
 46
8.399999824188462
 79
     2
 49
0.4326661440000001
 49
-29.85396423600001
 53
33.6900673
 43
10.2
 44
7.679999999999999
 45
0.0000001596020127
 46
8.399999824188462
 79
     2
 49
0.4326661440000001
 49
-29.85396423600001
 53
33.6900673
 43
18.6
 44
7.679999999999999
 45
0.0000001596020127
 46
8.399999824188462
 79
     2
 49
0.4326661440000001
 49
-29.85396423600001
 53
26.5650501
 43
2.16
 44
7.919999999999999
 45
-0.0000000460215162
 46
8.400000143556356
 79
     2
 49
0.26832816
 49
-18.514643556
 53
26.5650501
 43
10.56
 44
7.919999999999999
 45
-0.0000000460215162
 46
8.400000143556356
 79
     2
 49
0.26832816
 49
-18.514643556
 53
18.434948
 43
2.399999999999999
 44
8.039999999999999
 45
0.0000002686412607
 46
8.399999851558131
 79
     2
 49
0.3794733239999999
 49
-26.183659056
 53
18.434948
 43
10.8
 44
8.039999999999999
 45
0.0000002686412607
 46
8.399999851558131
 79
     2
 49
0.3794733239999999
 49
-26.183659056
 53
18.434948
 43
19.2
 44
8.039999999999999
 45
0.0000002686412607
 46
8.399999851558131
 79
     2
 49
0.3794733239999999
 49
-26.183659056
 53
26.5650501
 43
2.759999999999999
 44
8.16
 45
-0.0000000460215162
 46
8.400000143556356
 79
     2
 49
0.26832816
 49
-18.514643556
 53
26.5650501
 43
11.16
 44
8.16
 45
-0.0000000460215162
 46
8.400000143556356
 79
     2
 49
0.26832816
 49
-18.514643556
 53
11.3099327
 43
3.0
 44
8.279999999999999
 45
-0.0000000543109101
 46
8.400000069389928
 79
     2
 49
0.6118823435999998
 49
-42.21988036799999
 53
11.3099327
 43
11.4
 44
8.279999999999999
 45
-0.0000000543109101
 46
8.400000069389928
 79
     2
 49
0.6118823435999998
 49
-42.21988036799999
 53
11.3099327
 43
19.8
 44
8.279999999999999
 45
-0.0000000543109101
 46
8.400000069389928
 79
     2
 49
0.6118823435999998
 49
-42.21988036799999
 53
11.3099327
 43
28.2
 44
8.279999999999999
 45
-0.0000000543109101
 46
8.400000069389928
 79
     2
 49
0.6118823435999998
 49
-42.21988036799999
 53
11.3099327
 43
36.6
 44
8.279999999999999
 45
-0.0000000543109101
 46
8.400000069389928
 79
     2
 49
0.6118823435999998
 49
-42.21988036799999
 53
0.0
 43
3.599999999999999
 44
8.4
 45
0.0
 46
8.4
 79
     2
 49
1.199999999999999
 49
-7.199999999999999
 53
348.6900673
 43
4.799999999999999
 44
8.4
 45
0.0000000543109101
 46
8.400000069389928
 79
     2
 49
0.6118823435999998
 49
-42.21988036799999
 53
348.6900673
 43
13.2
 44
8.4
 45
0.0000000543109101
 46
8.400000069389928
 79
     2
 49
0.6118823435999998
 49
-42.21988036799999
 53
348.6900673
 43
21.6
 44
8.4
 45
0.0000000543109101
 46
8.400000069389928
 79
     2
 49
0.6118823435999998
 49
-42.21988036799999
 53
348.6900673
 43
30.0
 44
8.4
 45
0.0000000543109101
 46
8.400000069389928
 79
     2
 49
0.6118823435999998
 49
-42.21988036799999
 53
348.6900673
 43
38.4
 44
8.4
 45
0.0000000543109101
 46
8.400000069389928
 79
     2
 49
0.6118823435999998
 49
-42.21988036799999
 53
333.4349499
 43
5.399999999999999
 44
8.279999999999999
 45
0.0000000460215162
 46
8.400000143556356
 79
     2
 49
0.2683281599999999
 49
-18.514643556
 53
333.4349499
 43
13.8
 44
8.279999999999999
 45
0.0000000460215162
 46
8.400000143556356
 79
     2
 49
0.2683281599999999
 49
-18.514643556
 53
341.565052
 43
5.639999999999999
 44
8.16
 45
-0.0000002686412607
 46
8.399999851558131
 79
     2
 49
0.379473324
 49
-26.183659056
 53
341.565052
 43
14.04
 44
8.16
 45
-0.0000002686412607
 46
8.399999851558131
 79
     2
 49
0.379473324
 49
-26.183659056
 53
341.565052
 43
22.44
 44
8.16
 45
-0.0000002686412607
 46
8.399999851558131
 79
     2
 49
0.379473324
 49
-26.183659056
 53
333.4349499
 43
6.0
 44
8.039999999999999
 45
0.0000000460215162
 46
8.400000143556356
 79
     2
 49
0.2683281599999999
 49
-18.514643556
 53
333.4349499
 43
14.4
 44
8.039999999999999
 45
0.0000000460215162
 46
8.400000143556356
 79
     2
 49
0.2683281599999999
 49
-18.514643556
 53
326.3099327
 43
6.24
 44
7.919999999999999
 45
-0.0000001596020127
 46
8.399999824188462
 79
     2
 49
0.4326661440000001
 49
-29.85396423600001
 53
326.3099327
 43
14.64
 44
7.919999999999999
 45
-0.0000001596020127
 46
8.399999824188462
 79
     2
 49
0.4326661440000001
 49
-29.85396423600001
 53
326.3099327
 43
23.04
 44
7.919999999999999
 45
-0.0000001596020127
 46
8.399999824188462
 79
     2
 49
0.4326661440000001
 49
-29.85396423600001
 53
315.0
 43
6.599999999999999
 44
7.679999999999999
 45
-0.0000000000000009
 46
8.400000002875099
 79
     2
 49
1.527350688
 49
-10.352043456
 53
296.5650482
 43
7.679999999999999
 44
6.599999999999999
 45
0.0000000286036308
 46
8.400000041591663
 79
     2
 49
1.073312639999999
 49
-17.70965881199999
 53
284.0362396
 43
8.16
 44
5.639999999999999
 45
0.000000348785556
 46
8.399999709154096
 79
     2
 49
0.4947726600000001
 49
-34.139315184
 53
277.1250153
 43
8.279999999999999
 44
5.16
 45
0.0000004961129005
 46
8.399999852931037
 79
     2
 49
0.9674709324
 49
-66.75549316799998
 53
277.1250153
 43
0.0
 44
4.2
 45
0.0000004961129005
 46
8.399999852931037
 79
     2
 49
0.9674709324
 49
-66.75549316799998
 53
284.0362396
 43
0.12
 44
3.239999999999999
 45
0.000000348785556
 46
8.399999709154096
 79
     2
 49
0.4947726600000001
 49
-34.139315184
 53
296.5650482
 43
0.24
 44
2.759999999999999
 45
0.0000000286036308
 46
8.400000041591663
 79
     2
 49
1.073312639999999
 49
-17.70965881199999
 53
315.0
 43
0.72
 44
1.799999999999999
 45
-0.0000000000000009
 46
8.400000002875099
 79
     2
 49
1.527350688
 49
-10.352043456
 53
326.3099327
 43
1.799999999999999
 44
0.72
 45
-0.0000001596020127
 46
8.399999824188462
 79
     2
 49
0.4326661440000001
 49
-29.85396423600001
 53
326.3099327
 43
10.2
 44
0.72
 45
-0.0000001596020127
 46
8.399999824188462
 79
     2
 49
0.4326661440000001
 49
-29.85396423600001
 53
326.3099327
 43
18.6
 44
0.72
 45
-0.0000001596020127
 46
8.399999824188462
 79
     2
 49
0.4326661440000001
 49
-29.85396423600001
 53
333.4349499
 43
2.16
 44
0.48
 45
0.0000000460215162
 46
8.400000143556356
 79
     2
 49
0.2683281599999999
 49
-18.514643556
 53
333.4349499
 43
10.56
 44
0.48
 45
0.0000000460215162
 46
8.400000143556356
 79
     2
 49
0.2683281599999999
 49
-18.514643556
 53
341.565052
 43
2.399999999999999
 44
0.36
 45
-0.0000002686412607
 46
8.399999851558131
 79
     2
 49
0.379473324
 49
-26.183659056
 53
341.565052
 43
10.8
 44
0.36
 45
-0.0000002686412607
 46
8.399999851558131
 79
     2
 49
0.379473324
 49
-26.183659056
 53
341.565052
 43
19.2
 44
0.36
 45
-0.0000002686412607
 46
8.399999851558131
 79
     2
 49
0.379473324
 49
-26.183659056
 53
333.4349499
 43
2.759999999999999
 44
0.24
 45
0.0000000460215162
 46
8.400000143556356
 79
     2
 49
0.2683281599999999
 49
-18.514643556
 53
333.4349499
 43
11.16
 44
0.24
 45
0.0000000460215162
 46
8.400000143556356
 79
     2
 49
0.2683281599999999
 49
-18.514643556
 53
348.6900673
 43
3.0
 44
0.12
 45
0.0000000543109101
 46
8.400000069389928
 79
     2
 49
0.6118823435999998
 49
-42.21988036799999
 53
348.6900673
 43
11.4
 44
0.12
 45
0.0000000543109101
 46
8.400000069389928
 79
     2
 49
0.6118823435999998
 49
-42.21988036799999
 53
348.6900673
 43
19.8
 44
0.12
 45
0.0000000543109101
 46
8.400000069389928
 79
     2
 49
0.6118823435999998
 49
-42.21988036799999
 53
348.6900673
 43
28.2
 44
0.12
 45
0.0000000543109101
 46
8.400000069389928
 79
     2
 49
0.6118823435999998
 49
-42.21988036799999
 53
348.6900673
 43
36.6
 44
0.12
 45
0.0000000543109101
 46
8.400000069389928
 79
     2
 49
0.6118823435999998
 49
-42.21988036799999
 53
0.0
 43
3.599999999999999
 44
0.0
 45
0.0
 46
8.4
 79
     2
 49
1.199999999999999
 49
-7.199999999999999
 53
11.3099327
 43
4.799999999999999
 44
0.0
 45
-0.0000000543109101
 46
8.400000069389928
 79
     2
 49
0.6118823435999998
 49
-42.21988036799999
 53
11.3099327
 43
13.2
 44
0.0
 45
-0.0000000543109101
 46
8.400000069389928
 79
     2
 49
0.6118823435999998
 49
-42.21988036799999
 53
11.3099327
 43
21.6
 44
0.0
 45
-0.0000000543109101
 46
8.400000069389928
 79
     2
 49
0.6118823435999998
 49
-42.21988036799999
 53
11.3099327
 43
30.0
 44
0.0
 45
-0.0000000543109101
 46
8.400000069389928
 79
     2
 49
0.6118823435999998
 49
-42.21988036799999
 53
11.3099327
 43
38.4
 44
0.0
 45
-0.0000000543109101
 46
8.400000069389928
 79
     2
 49
0.6118823435999998
 49
-42.21988036799999
 53
26.5650501
 43
5.399999999999999
 44
0.12
 45
-0.0000000460215162
 46
8.400000143556356
 79
     2
 49
0.26832816
 49
-18.514643556
 53
26.5650501
 43
13.8
 44
0.12
 45
-0.0000000460215162
 46
8.400000143556356
 79
     2
 49
0.26832816
 49
-18.514643556
 53
18.434948
 43
5.639999999999999
 44
0.24
 45
0.0000002686412607
 46
8.399999851558131
 79
     2
 49
0.3794733239999999
 49
-26.183659056
 53
18.434948
 43
14.04
 44
0.24
 45
0.0000002686412607
 46
8.399999851558131
 79
     2
 49
0.3794733239999999
 49
-26.183659056
 53
18.434948
 43
22.44
 44
0.24
 45
0.0000002686412607
 46
8.399999851558131
 79
     2
 49
0.3794733239999999
 49
-26.183659056
 53
26.5650501
 43
6.0
 44
0.36
 45
-0.0000000460215162
 46
8.400000143556356
 79
     2
 49
0.26832816
 49
-18.514643556
 53
26.5650501
 43
14.4
 44
0.36
 45
-0.0000000460215162
 46
8.400000143556356
 79
     2
 49
0.26832816
 49
-18.514643556
 53
33.6900673
 43
6.24
 44
0.48
 45
0.0000001596020127
 46
8.399999824188462
 79
     2
 49
0.4326661440000001
 49
-29.85396423600001
 53
33.6900673
 43
14.64
 44
0.48
 45
0.0000001596020127
 46
8.399999824188462
 79
     2
 49
0.4326661440000001
 49
-29.85396423600001
 53
33.6900673
 43
23.04
 44
0.48
 45
0.0000001596020127
 46
8.399999824188462
 79
     2
 49
0.4326661440000001
 49
-29.85396423600001
 53
45.0
 43
6.599999999999999
 44
0.72
 45
0.0000000000000009
 46
8.400000002875099
 79
     2
 49
1.527350688
 49
-10.352043456
 53
63.43495179999999
 43
7.679999999999999
 44
1.799999999999999
 45
-0.0000000286036308
 46
8.400000041591663
 79
     2
 49
1.073312639999999
 49
-17.70965881199999
 53
75.96376039999999
 43
8.16
 44
2.759999999999999
 45
-0.000000348785556
 46
8.399999709154096
 79
     2
 49
0.4947726600000001
 49
-34.139315184
 53
82.8749847
 43
8.279999999999999
 44
3.239999999999999
 45
-0.0000004961129005
 46
8.399999852931037
 79
     2
 49
0.9674709324
 49
-66.75549316799998
 47
0.3438822143659713
 98
        1
 10
7037.819495923432
 20
4108.759128683547
1001
GradientColor1ACI
1070
     5
1001
GradientColor2ACI
1070
     2
1001
ACAD
1010
0.0
1020
0.0
1030
0.0
  0
ENDBLK
  5
48
330
46
100
AcDbEntity
  8
0
100
AcDbBlockEnd
  0
BLOCK
  5
176
330
175
100
AcDbEntity
  8
0
100
AcDbBlockBegin
  2
ARROWHEAD_6
 70
     0
 10
0.0
 20
0.0
 30
0.0
  3
ARROWHEAD_6
  1

  0
LINE
  5
178
330
175
100
AcDbEntity
  8
0
  6
Continuous
 62
     0
370
     0
100
AcDbLine
 10
-0.5
 20
-0.5
 30
0.0
 11
0.5
 21
0.5
 31
0.0
  0
LINE
  5
179
330
175
100
AcDbEntity
  8
0
  6
Continuous
 62
     0
370
     0
100
AcDbLine
 10
0.0
 20
0.0
 30
0.0
 11
-1.0
 21
0.0
 31
0.0
  0
ENDBLK
  5
177
330
175
100
AcDbEntity
  8
0
100
AcDbBlockEnd
  0
BLOCK
  5
197
330
196
100
AcDbEntity
  8
0
100
AcDbBlockBegin
  2
ARROWHEAD_5
 70
     0
 10
0.0
 20
0.0
 30
0.0
  3
ARROWHEAD_5
  1

  0
SOLID
  5
199
330
196
100
AcDbEntity
  8
0
  6
Continuous
 62
     0
370
     0
100
AcDbTrace
 10
-1.0
 20
0.2679
 30
0.0
 11
0.0
 21
0.0
 31
0.0
 12
-1.0
 22
-0.2679
 32
0.0
 13
-1.0
 23
0.2679
 33
0.0
  0
LINE
  5
19A
330
196
100
AcDbEntity
  8
0
  6
Continuous
 62
     0
370
     0
100
AcDbLine
 10
0.0
 20
0.0
 30
0.0
 11
-1.0
 21
0.0
 31
0.0
  0
ENDBLK
  5
198
330
196
100
AcDbEntity
  8
0
100
AcDbBlockEnd
  0
BLOCK
  5
1AB
330
1AA
100
AcDbEntity
  8
0
100
AcDbBlockBegin
  2
09A Roof _ Wall_ RIDGE APRON FL_STORY_MARKER
 70
     0
 10
0.0
 20
0.0
 30
0.0
  3
09A Roof _ Wall_ RIDGE APRON FL_STORY_MARKER
  1

  0
ENDBLK
  5
1AC
330
1AA
100
AcDbEntity
  8
0
100
AcDbBlockEnd
  0
BLOCK
  5
5A9
330
5A8
100
AcDbEntity
  8
0
 48
3.0
100
AcDbBlockBegin
  2
*D5
 70
     1
 10
0.0
 20
0.0
 30
0.0
  3
*D5
  1

  0
LINE
  5
92C
330
5A8
100
AcDbEntity
  8
Specialized_Lines
  6
Continuous
 62
     7
370
    -2
100
AcDbLine
 10
7074.789878797203
 20
3315.232416291264
 30
0.0
 11
7090.932911516579
 21
3315.232416291264
 31
0.0
  0
LINE
  5
92D
330
5A8
100
AcDbEntity
  8
Specialized_Lines
  6
Continuous
 62
     7
370
    -2
100
AcDbLine
 10
7061.793805408753
 20
3325.232416291263
 30
0.0
 11
7090.932911516579
 21
3325.232416291263
 31
0.0
  0
LINE
  5
92E
330
5A8
100
AcDbEntity
  8
Specialized_Lines
  6
Continuous
 62
     7
370
    -2
100
AcDbLine
 10
7090.752911516578
 20
3311.432416291263
 30
0.0
 11
7090.752911516578
 21
3307.632416291264
 31
0.0
  0
LINE
  5
92F
330
5A8
100
AcDbEntity
  8
Specialized_Lines
  6
Continuous
 62
     7
370
    -2
100
AcDbLine
 10
7090.752911516578
 20
3329.032416291263
 30
0.0
 11
7090.752911516578
 21
3332.832416291263
 31
0.0
  0
MTEXT
  5
930
330
5A8
100
AcDbEntity
  8
Specialized_Lines
  6
Continuous
 62
     7
100
AcDbMText
 10
7085.902600569368
 20
3320.232416291264
 30
0.0
 40
5.0
 41
0.0
 71
     5
 72
     1
  1
\A1;10
  7
GENERATED_STYLE_1
 11
0.0000000000000001
 21
1.0
 31
0.0
 73
     1
 44
1.0
1001
ACAD
1000
MTEXTBEGIN
1070
    73
1070
     1
1070
    44
1040
1.0
1070
    74
1070
     0
1000
MTEXTEND
  0
LINE
  5
931
330
5A8
100
AcDbEntity
  8
Specialized_Lines
  6
Continuous
 62
     7
370
    -2
100
AcDbLine
 10
7090.752911516578
 20
3315.232416291264
 30
0.0
 11
7090.752911516578
 21
3325.232416291263
 31
0.0
  0
INSERT
  5
932
330
5A8
100
AcDbEntity
  8
Specialized_Lines
  6
Continuous
 62
     7
370
    -2
100
AcDbBlockReference
  2
ARROWHEAD_6
 10
7090.752911516578
 20
3315.232416291264
 30
0.0
 41
3.799999999999999
 42
3.799999999999999
 43
3.799999999999999
 50
90.0
  0
INSERT
  5
933
330
5A8
100
AcDbEntity
  8
Specialized_Lines
  6
Continuous
 62
     7
370
    -2
100
AcDbBlockReference
  2
ARROWHEAD_6
 10
7090.752911516578
 20
3325.232416291263
 30
0.0
 41
3.799999999999999
 42
3.799999999999999
 43
3.799999999999999
 50
270.0
  0
POINT
  5
934
330
5A8
100
AcDbEntity
  8
Defpoints
  6
Continuous
 62
     0
100
AcDbPoint
 10
7068.789878797203
 20
3315.232416291264
 30
0.0
  0
POINT
  5
935
330
5A8
100
AcDbEntity
  8
Defpoints
  6
Continuous
 62
     0
100
AcDbPoint
 10
7055.793805408753
 20
3325.232416291263
 30
0.0
  0
POINT
  5
936
330
5A8
100
AcDbEntity
  8
Defpoints
  6
Continuous
 62
     0
100
AcDbPoint
 10
7090.752911516578
 20
3325.232416291263
 30
0.0
  0
ENDBLK
  5
5AA
330
5A8
100
AcDbEntity
  8
0
 48
3.0
100
AcDbBlockEnd
  0
BLOCK
  5
794
330
789
100
AcDbEntity
  8
0
 48
3.0
100
AcDbBlockBegin
  2
*U6
 70
     1
 10
0.0
 20
0.0
 30
0.0
  3
*U6
  1

  0
LINE
  5
795
330
789
100
AcDbEntity
  8
Specialized_Lines
  6
Continuous
100
AcDbLine
 10
7797.578786902071
 20
3997.530308442822
 30
0.0
 11
7747.578786902071
 21
3997.530308442822
 31
0.0
  0
HATCH
  5
796
330
789
100
AcDbEntity
  8
0
  6
Continuous
 62
    30
 48
3.0
100
AcDbHatch
 10
0.0
 20
0.0
 30
0.0
210
0.0
220
0.0
230
1.0
  2
SOLID
 70
     1
 71
     0
 91
        1
 92
        7
 72
     0
 73
     1
 93
       18
 10
7811.864026827585
 20
4006.530308442822
 10
7798.778786902072
 20
4006.530308442822
 10
7798.778786902072
 20
4015.530308442822
 10
7797.578786902071
 20
4014.330308442821
 10
7797.578786902072
 20
3997.530308442822
 10
7722.227315039494
 20
3997.530308442822
 10
7722.227315039494
 20
4014.681780305398
 10
7721.378786902072
 20
4015.530308442822
 10
7721.378786902071
 20
3995.4817803054
 10
7722.227315039494
 20
3996.330308442823
 10
7725.681730627222
 20
3996.330308442822
 10
7722.227315039495
 20
3992.875892855096
 10
7721.378786902071
 20
3993.724420992517
 10
7721.378786902071
 20
3990.330308442823
 10
7727.378786902069
 20
3996.330308442823
 10
7798.778786902072
 20
3996.330308442824
 10
7798.778786902072
 20
4005.330308442823
 10
7811.864026827585
 20
4005.330308442823
 97
        0
 75
     1
 76
     1
 47
0.1028394275951878
 98
        1
 10
7800.95723889595
 20
4005.7841323297
1001
GradientColor1ACI
1070
     5
1001
GradientColor2ACI
1070
     2
1001
ACAD
1010
0.0
1020
0.0
1030
0.0
  0
LINE
  5
797
102
{ACAD_REACTORS
330
791
102
}
330
789
100
AcDbEntity
  8
Specialized_Fills
  6
Continuous
100
AcDbLine
 10
7727.378786902069
 20
3996.330308442824
 30
0.0
 11
7721.378786902072
 21
3990.330308442825
 31
0.0
  0
LINE
  5
798
330
789
100
AcDbEntity
  8
Specialized_Fills
  6
Continuous
100
AcDbLine
 10
7721.378786902071
 20
3990.330308442823
 30
0.0
 11
7721.378786902071
 21
3993.724420992517
 31
0.0
  0
LINE
  5
799
330
789
100
AcDbEntity
  8
Specialized_Fills
  6
Continuous
100
AcDbLine
 10
7721.378786902071
 20
3993.724420992517
 30
0.0
 11
7722.227315039495
 21
3992.875892855096
 31
0.0
  0
LINE
  5
79A
330
789
100
AcDbEntity
  8
Specialized_Fills
  6
Continuous
100
AcDbLine
 10
7722.227315039495
 20
3992.875892855096
 30
0.0
 11
7725.681730627222
 21
3996.330308442822
 31
0.0
  0
LINE
  5
79B
330
789
100
AcDbEntity
  8
Specialized_Fills
  6
Continuous
100
AcDbLine
 10
7725.681730627222
 20
3996.330308442822
 30
0.0
 11
7722.227315039494
 21
3996.330308442823
 31
0.0
  0
LINE
  5
79C
330
789
100
AcDbEntity
  8
Specialized_Fills
  6
Continuous
100
AcDbLine
 10
7722.227315039494
 20
3996.330308442823
 30
0.0
 11
7721.378786902071
 21
3995.4817803054
 31
0.0
  0
LINE
  5
79D
330
789
100
AcDbEntity
  8
Specialized_Fills
  6
Continuous
100
AcDbLine
 10
7721.378786902071
 20
3995.4817803054
 30
0.0
 11
7721.378786902072
 21
4015.530308442822
 31
0.0
  0
LINE
  5
79E
102
{ACAD_REACTORS
330
790
102
}
330
789
100
AcDbEntity
  8
Specialized_Fills
  6
Continuous
100
AcDbLine
 10
7721.378786902072
 20
4015.530308442822
 30
0.0
 11
7722.227315039494
 21
4014.681780305398
 31
0.0
  0
LINE
  5
79F
102
{ACAD_REACTORS
330
792
102
}
330
789
100
AcDbEntity
  8
Specialized_Fills
  6
Continuous
100
AcDbLine
 10
7722.227315039494
 20
4014.681780305398
 30
0.0
 11
7722.227315039494
 21
3997.530308442822
 31
0.0
  0
LINE
  5
7A0
102
{ACAD_REACTORS
330
78E
102
}
330
789
100
AcDbEntity
  8
Specialized_Fills
  6
Continuous
100
AcDbLine
 10
7722.227315039494
 20
3997.530308442822
 30
0.0
 11
7797.578786902072
 21
3997.530308442822
 31
0.0
  0
LINE
  5
7A1
330
789
100
AcDbEntity
  8
Specialized_Fills
  6
Continuous
100
AcDbLine
 10
7797.578786902072
 20
3997.530308442822
 30
0.0
 11
7797.578786902071
 21
4014.330308442821
 31
0.0
  0
LINE
  5
7A2
330
789
100
AcDbEntity
  8
Specialized_Fills
  6
Continuous
100
AcDbLine
 10
7797.578786902071
 20
4014.330308442821
 30
0.0
 11
7798.778786902072
 21
4015.530308442822
 31
0.0
  0
LINE
  5
7A3
330
789
100
AcDbEntity
  8
Specialized_Fills
  6
Continuous
100
AcDbLine
 10
7798.778786902072
 20
4015.530308442822
 30
0.0
 11
7798.778786902072
 21
4006.530308442822
 31
0.0
  0
LINE
  5
7A4
330
789
100
AcDbEntity
  8
Specialized_Fills
  6
Continuous
100
AcDbLine
 10
7798.778786902072
 20
4006.530308442822
 30
0.0
 11
7811.864026827585
 21
4006.530308442822
 31
0.0
  0
LINE
  5
7A5
330
789
100
AcDbEntity
  8
Specialized_Fills
  6
Continuous
100
AcDbLine
 10
7811.864026827585
 20
4006.530308442822
 30
0.0
 11
7811.864026827585
 21
4005.330308442823
 31
0.0
  0
LINE
  5
7A6
330
789
100
AcDbEntity
  8
Specialized_Fills
  6
Continuous
100
AcDbLine
 10
7811.864026827585
 20
4005.330308442823
 30
0.0
 11
7798.778786902072
 21
4005.330308442823
 31
0.0
  0
LINE
  5
7A7
330
789
100
AcDbEntity
  8
Specialized_Fills
  6
Continuous
100
AcDbLine
 10
7798.778786902072
 20
4005.330308442823
 30
0.0
 11
7798.778786902072
 21
3996.330308442824
 31
0.0
  0
LINE
  5
7A8
102
{ACAD_REACTORS
330
78F
102
}
330
789
100
AcDbEntity
  8
Specialized_Fills
  6
Continuous
100
AcDbLine
 10
7798.778786902072
 20
3996.330308442824
 30
0.0
 11
7727.378786902069
 21
3996.330308442824
 31
0.0
  0
ENDBLK
  5
7A9
330
789
100
AcDbEntity
  8
0
 48
3.0
100
AcDbBlockEnd
  0
BLOCK
  5
7AB
330
7AA
100
AcDbEntity
  8
0
 62
     7
100
AcDbBlockBegin
  2
therma
 70
     0
 10
0.0
 20
0.0
 30
0.0
  3
therma
  1

  0
HATCH
  5
7AC
330
7AA
100
AcDbEntity
  8
eps
 62
   254
100
AcDbHatch
 10
0.0
 20
0.0
 30
0.0
210
0.0
220
0.0
230
1.0
  2
SOLID
 70
     1
 71
     1
 91
       13
 92
        7
 72
     1
 73
     1
 93
        2
 10
5.153274474768295
 20
-2.088877458424576
 42
1.0
 10
-0.8467255252317045
 20
-2.088877458424576
 42
1.0
 97
        1
330
7AD
 92
        7
 72
     1
 73
     1
 93
        2
 10
11.18338068794492
 20
-3.150707591624268
 42
1.0
 10
7.183380687944918
 20
-3.150707591624268
 42
1.0
 97
        1
330
7AE
 92
        7
 72
     1
 73
     1
 93
        2
 10
1.50424343474242
 20
-10.22395803436757
 42
1.0
 10
9.50424343474242
 20
-10.22395803436757
 42
1.0
 97
        1
330
7AF
 92
        7
 72
     1
 73
     1
 93
        2
 10
3.121692185625761
 20
-16.43286101922513
 42
1.0
 10
-0.8783078143742386
 20
-16.43286101922513
 42
1.0
 97
        1
330
7B0
 92
        7
 72
     1
 73
     1
 93
        2
 10
20.23028334799255
 20
-23.4014379273367
 42
1.0
 10
12.23028334799255
 20
-23.4014379273367
 42
1.0
 97
        1
330
7B9
 92
        7
 72
     1
 73
     1
 93
        2
 10
5.872128148083902
 20
-23.17290683493138
 42
1.0
 10
-0.1278718519160975
 20
-23.17290683493138
 42
1.0
 97
        1
330
7BB
 92
        7
 72
     1
 73
     1
 93
        2
 10
5.625021722852579
 20
-18.32128648862363
 42
1.0
 10
11.62502172285258
 20
-18.32128648862363
 42
1.0
 97
        1
330
7B4
 92
        7
 72
     1
 73
     1
 93
        2
 10
18.81562264413605
 20
-2.148910809607514
 42
1.0
 10
12.81562264413605
 20
-2.148910809607514
 42
1.0
 97
        1
330
7B6
 92
        7
 72
     1
 73
     1
 93
        2
 10
21.01098252133033
 20
-7.164015699477204
 42
1.0
 10
17.01098252133033
 20
-7.164015699477204
 42
1.0
 97
        1
330
7B3
 92
        7
 72
     1
 73
     1
 93
        2
 10
26.60587034827131
 20
-3.646358717532166
 42
1.0
 10
20.60587034827131
 20
-3.646358717532166
 42
1.0
 97
        1
330
7B8
 92
        7
 72
     1
 73
     1
 93
        2
 10
21.80413181950371
 20
-11.85245936021328
 42
1.0
 10
27.80413181950371
 20
-11.85245936021328
 42
1.0
 97
        1
330
7BA
 92
        7
 72
     1
 73
     1
 93
        2
 10
24.00715224641408
 20
-19.56290887698651
 42
1.0
 10
20.00715224641408
 20
-19.56290887698651
 42
1.0
 97
        1
330
7B2
 92
        7
 72
     1
 73
     1
 93
        2
 10
22.40377860212266
 20
-25.5089748094988
 42
1.0
 10
28.40377860212266
 20
-25.5089748094988
 42
1.0
 97
        1
330
7B7
 75
     1
 76
     1
 47
0.1543695318342555
 98
       13
 10
3.629268677542313
 20
-2.522538144440659
 10
9.4972407657051
 20
-3.564040262551316
 10
6.236338855102985
 20
-10.02363147243977
 10
1.887609562473699
 20
-16.96595259413243
 10
15.59743406924917
 20
-23.78728337988377
 10
3.820206121295086
 20
-23.42523594603063
 10
7.987802866017773
 20
-17.81103782758236
 10
15.65781158521804
 20
-2.175576020331391
 10
18.73758094779714
 20
-7.427726734728821
 10
24.41461559220716
 20
-4.04707803234578
 10
24.23348304430056
 20
-10.38567890629292
 10
22.36126400144804
 20
-17.69035534963132
 10
25.07928431521668
 20
-24.14963870152951
1001
GradientColor1ACI
1070
     5
1001
GradientColor2ACI
1070
     2
1001
ACAD
1010
0.0
1020
0.0
1030
0.0
  0
CIRCLE
  5
7AD
102
{ACAD_REACTORS
330
7AC
102
}
330
7AA
100
AcDbEntity
  8
eps
 62
   254
100
AcDbCircle
 10
2.153274474768295
 20
-2.088877458424576
 30
0.0
 40
3.0
  0
CIRCLE
  5
7AE
102
{ACAD_REACTORS
330
7AC
102
}
330
7AA
100
AcDbEntity
  8
eps
 62
   254
100
AcDbCircle
 10
9.183380687944918
 20
-3.150707591624268
 30
0.0
 40
2.0
  0
CIRCLE
  5
7AF
102
{ACAD_REACTORS
330
7AC
102
}
330
7AA
100
AcDbEntity
  8
eps
 62
   254
100
AcDbCircle
 10
5.50424343474242
 20
-10.22395803436757
 30
0.0
 40
4.0
  0
CIRCLE
  5
7B0
102
{ACAD_REACTORS
330
7AC
102
}
330
7AA
100
AcDbEntity
  8
eps
 62
   254
100
AcDbCircle
 10
1.121692185625761
 20
-16.43286101922513
 30
0.0
 40
2.0
  0
CIRCLE
  5
7B1
330
7AA
100
AcDbEntity
  8
eps
 62
   254
100
AcDbCircle
 10
8.703972890144541
 20
-26.21122040256978
 30
0.0
 40
2.0
  0
CIRCLE
  5
7B2
102
{ACAD_REACTORS
330
7AC
102
}
330
7AA
100
AcDbEntity
  8
eps
 62
   254
100
AcDbCircle
 10
22.00715224641408
 20
-19.56290887698651
 30
0.0
 40
2.0
  0
CIRCLE
  5
7B3
102
{ACAD_REACTORS
330
7AC
102
}
330
7AA
100
AcDbEntity
  8
eps
 62
   254
100
AcDbCircle
 10
19.01098252133033
 20
-7.164015699477204
 30
0.0
 40
2.0
  0
CIRCLE
  5
7B4
102
{ACAD_REACTORS
330
7AC
102
}
330
7AA
100
AcDbEntity
  8
eps
 62
   254
100
AcDbCircle
 10
8.625021722852579
 20
-18.32128648862363
 30
0.0
 40
3.0
  0
CIRCLE
  5
7B5
330
7AA
100
AcDbEntity
  8
eps
 62
   254
100
AcDbCircle
 10
14.19781484395298
 20
-11.79242597922803
 30
0.0
 40
3.0
  0
CIRCLE
  5
7B6
102
{ACAD_REACTORS
330
7AC
102
}
330
7AA
100
AcDbEntity
  8
eps
 62
   254
100
AcDbCircle
 10
15.81562264413605
 20
-2.148910809607514
 30
0.0
 40
3.0
  0
CIRCLE
  5
7B7
102
{ACAD_REACTORS
330
7AC
102
}
330
7AA
100
AcDbEntity
  8
eps
 62
   254
100
AcDbCircle
 10
25.40377860212266
 20
-25.5089748094988
 30
0.0
 40
3.0
  0
CIRCLE
  5
7B8
102
{ACAD_REACTORS
330
7AC
102
}
330
7AA
100
AcDbEntity
  8
eps
 62
   254
100
AcDbCircle
 10
23.60587034827131
 20
-3.646358717532166
 30
0.0
 40
3.0
  0
CIRCLE
  5
7B9
102
{ACAD_REACTORS
330
7AC
102
}
330
7AA
100
AcDbEntity
  8
eps
 62
   254
100
AcDbCircle
 10
16.23028334799255
 20
-23.4014379273367
 30
0.0
 40
4.0
  0
CIRCLE
  5
7BA
102
{ACAD_REACTORS
330
7AC
102
}
330
7AA
100
AcDbEntity
  8
eps
 62
   254
100
AcDbCircle
 10
24.80413181950371
 20
-11.85245936021328
 30
0.0
 40
3.0
  0
CIRCLE
  5
7BB
102
{ACAD_REACTORS
330
7AC
102
}
330
7AA
100
AcDbEntity
  8
eps
 62
   254
100
AcDbCircle
 10
2.872128148083902
 20
-23.17290683493138
 30
0.0
 40
3.0
  0
ENDBLK
  5
7BC
330
7AA
100
AcDbEntity
  8
0
 62
     7
100
AcDbBlockEnd
  0
BLOCK
  5
83D
330
83C
100
AcDbEntity
  8
0
 48
3.0
100
AcDbBlockBegin
  2
*D8
 70
     1
 10
0.0
 20
0.0
 30
0.0
  3
*D8
  1

  0
LINE
  5
937
330
83C
100
AcDbEntity
  8
Specialized_Lines
  6
Continuous
 62
     7
370
    -2
100
AcDbLine
 10
7069.073006951244
 20
3249.613238799164
 30
0.0
 11
6952.37658577547
 21
3249.613238799164
 31
0.0
  0
LINE
  5
938
330
83C
100
AcDbEntity
  8
Specialized_Lines
  6
Continuous
 62
     7
370
    -2
100
AcDbLine
 10
6969.804638871858
 20
3284.832416291257
 30
0.0
 11
6952.37658577547
 21
3284.832416291257
 31
0.0
  0
LINE
  5
939
330
83C
100
AcDbEntity
  8
Specialized_Lines
  6
Continuous
 62
     7
370
    -2
100
AcDbLine
 10
6952.55658577547
 20
3253.413238799165
 30
0.0
 11
6952.55658577547
 21
3281.032416291257
 31
0.0
  0
INSERT
  5
93A
330
83C
100
AcDbEntity
  8
Specialized_Lines
  6
Continuous
 62
     7
370
    -2
100
AcDbBlockReference
  2
ARROWHEAD_6
 10
6952.55658577547
 20
3249.613238799164
 30
0.0
 41
3.799999999999999
 42
3.799999999999999
 43
3.799999999999999
 50
270.0
  0
INSERT
  5
93B
330
83C
100
AcDbEntity
  8
Specialized_Lines
  6
Continuous
 62
     7
370
    -2
100
AcDbBlockReference
  2
ARROWHEAD_6
 10
6952.55658577547
 20
3284.832416291257
 30
0.0
 41
3.799999999999999
 42
3.799999999999999
 43
3.799999999999999
 50
90.0
  0
MTEXT
  5
93C
330
83C
100
AcDbEntity
  8
Specialized_Lines
  6
Continuous
 62
     7
100
AcDbMText
 10
6948.002015516259
 20
3267.322827545215
 30
0.0
 40
5.0
 41
0.0
 71
     5
 72
     1
  1
\A1;35
  7
GENERATED_STYLE_1
 11
0.0000000000000001
 21
1.0
 31
0.0
 73
     1
 44
1.0
1001
ACAD
1000
MTEXTBEGIN
1070
    73
1070
     1
1070
    44
1040
1.0
1070
    74
1070
     0
1000
MTEXTEND
  0
POINT
  5
93D
330
83C
100
AcDbEntity
  8
Defpoints
  6
Continuous
 62
     0
100
AcDbPoint
 10
7075.073006951244
 20
3249.613238799164
 30
0.0
  0
POINT
  5
93E
330
83C
100
AcDbEntity
  8
Defpoints
  6
Continuous
 62
     0
100
AcDbPoint
 10
6975.804638871858
 20
3284.832416291257
 30
0.0
  0
POINT
  5
93F
330
83C
100
AcDbEntity
  8
Defpoints
  6
Continuous
 62
     0
100
AcDbPoint
 10
6952.55658577547
 20
3284.832416291257
 30
0.0
  0
ENDBLK
  5
83E
330
83C
100
AcDbEntity
  8
0
 48
3.0
100
AcDbBlockEnd
  0
BLOCK
  5
849
330
848
100
AcDbEntity
  8
0
 48
3.0
100
AcDbBlockBegin
  2
*D9
 70
     1
 10
0.0
 20
0.0
 30
0.0
  3
*D9
  1

  0
LINE
  5
940
330
848
100
AcDbEntity
  8
Specialized_Lines
  6
Continuous
 62
     7
370
    -2
100
AcDbLine
 10
6969.804638871858
 20
3284.832416291257
 30
0.0
 11
6952.37658577547
 21
3284.832416291257
 31
0.0
  0
LINE
  5
941
330
848
100
AcDbEntity
  8
Specialized_Lines
  6
Continuous
 62
     7
370
    -2
100
AcDbLine
 10
7069.073006951244
 20
3360.032416291263
 30
0.0
 11
6952.37658577547
 21
3360.032416291263
 31
0.0
  0
LINE
  5
942
330
848
100
AcDbEntity
  8
Specialized_Lines
  6
Continuous
 62
     7
370
    -2
100
AcDbLine
 10
6952.55658577547
 20
3288.632416291257
 30
0.0
 11
6952.55658577547
 21
3356.232416291263
 31
0.0
  0
INSERT
  5
943
330
848
100
AcDbEntity
  8
Specialized_Lines
  6
Continuous
 62
     7
370
    -2
100
AcDbBlockReference
  2
ARROWHEAD_6
 10
6952.55658577547
 20
3284.832416291257
 30
0.0
 41
3.799999999999999
 42
3.799999999999999
 43
3.799999999999999
 50
270.0
  0
INSERT
  5
944
330
848
100
AcDbEntity
  8
Specialized_Lines
  6
Continuous
 62
     7
370
    -2
100
AcDbBlockReference
  2
ARROWHEAD_6
 10
6952.55658577547
 20
3360.032416291263
 30
0.0
 41
3.799999999999999
 42
3.799999999999999
 43
3.799999999999999
 50
90.0
  0
MTEXT
  5
945
330
848
100
AcDbEntity
  8
Specialized_Lines
  6
Continuous
 62
     7
100
AcDbMText
 10
6948.013952760462
 20
3322.532416291264
 30
0.0
 40
5.0
 41
0.0
 71
     5
 72
     1
  1
\A1;75 Min.
  7
GENERATED_STYLE_1
 11
0.0000000000000001
 21
1.0
 31
0.0
 73
     1
 44
1.0
1001
ACAD
1000
MTEXTBEGIN
1070
    73
1070
     1
1070
    44
1040
1.0
1070
    74
1070
     0
1000
MTEXTEND
  0
POINT
  5
946
330
848
100
AcDbEntity
  8
Defpoints
  6
Continuous
 62
     0
100
AcDbPoint
 10
6975.804638871858
 20
3284.832416291257
 30
0.0
  0
POINT
  5
947
330
848
100
AcDbEntity
  8
Defpoints
  6
Continuous
 62
     0
100
AcDbPoint
 10
7075.073006951244
 20
3360.032416291263
 30
0.0
  0
POINT
  5
948
330
848
100
AcDbEntity
  8
Defpoints
  6
Continuous
 62
     0
100
AcDbPoint
 10
6952.55658577547
 20
3360.032416291263
 30
0.0
  0
ENDBLK
  5
84A
330
848
100
AcDbEntity
  8
0
 48
3.0
100
AcDbBlockEnd
  0
ENDSEC
  0
SECTION
  2
ENTITIES
  0
HATCH
  5
55E
330
1F
100
AcDbEntity
  8
Specialized_Fills
  6
Continuous
100
AcDbHatch
 10
0.0
 20
0.0
 30
0.0
210
0.0
220
0.0
230
1.0
  2
LINES___ANGLED
 70
     0
 71
     1
 91
        1
 92
        1
 93
        4
 72
     1
 10
7073.491740521196
 20
3325.232416291263
 11
7055.793805408753
 21
3325.232416291263
 72
     1
 10
7055.793805408753
 20
3325.232416291263
 11
7055.793805408767
 21
3375.23241629126
 72
     1
 10
7055.793805408767
 20
3375.23241629126
 11
7073.491740521196
 21
3375.23241629126
 72
     1
 10
7073.491740521196
 20
3375.23241629126
 11
7073.491740521196
 21
3325.232416291263
 97
        1
330
55F
 75
     0
 76
     2
 52
0.0
 41
1.0
 77
     0
 78
     1
 53
44.99999999999999
 43
0.0
 44
-730.0
 45
-1.838477563650065
 46
1.838477563650065
 79
     0
 98
        0
  0
LWPOLYLINE
  5
55F
102
{ACAD_REACTORS
330
55E
102
}
330
1F
100
AcDbEntity
  8
Specialized_Fills
  6
Continuous
100
AcDbPolyline
 90
        4
 70
   129
 43
0.0
 10
7073.491740521196
 20
3325.232416291263
 10
7055.793805408753
 20
3325.232416291263
 10
7055.793805408767
 20
3375.23241629126
 10
7073.491740521196
 20
3375.23241629126
  0
HATCH
  5
560
330
1F
100
AcDbEntity
  8
Specialized_Fills
  6
Continuous
 62
   254
370
    13
100
AcDbHatch
 10
0.0
 20
0.0
 30
0.0
210
0.0
220
0.0
230
1.0
  2
SOLID
 70
     1
 71
     1
 91
        1
 92
        2
 72
     0
 73
     1
 93
        4
 10
7077.121370506012
 20
3221.842206007083
 10
7077.121370350451
 20
3361.842206007083
 10
7122.121370350446
 20
3361.842206007083
 10
7122.121370506007
 20
3221.842206007083
 97
        1
330
561
 75
     0
 76
     1
 98
        0
  0
LWPOLYLINE
  5
561
102
{ACAD_REACTORS
330
560
102
}
330
1F
100
AcDbEntity
  8
Specialized_Fills
  6
Continuous
100
AcDbPolyline
 90
        4
 70
   129
 43
0.0
 10
7077.121370506012
 20
3221.842206007083
 10
7077.121370350451
 20
3361.842206007083
 10
7122.121370350446
 20
3361.842206007083
 10
7122.121370506007
 20
3221.842206007083
  0
LINE
  5
564
330
1F
100
AcDbEntity
  8
Specialized_Lines
  6
DASHEDX2
100
AcDbLine
 10
6976.824814336049
 20
3287.226421598083
 30
0.0
 11
6976.824814336049
 21
3415.336562017436
 31
0.0
  0
LINE
  5
566
102
{ACAD_REACTORS
330
657
102
}
330
1F
100
AcDbEntity
  8
Specialized_Lines
  6
Continuous
100
AcDbLine
 10
6969.476866241324
 20
3181.746277859949
 30
0.0
 11
7039.476866241324
 21
3221.746277859949
 31
0.0
  0
LINE
  5
567
102
{ACAD_REACTORS
330
664
102
}
330
1F
100
AcDbEntity
  8
Specialized_Lines
  6
Continuous
100
AcDbLine
 10
7039.476866241324
 20
3181.746277859949
 30
0.0
 11
6969.476866241324
 21
3221.746277859949
 31
0.0
  0
LINE
  5
569
330
1F
100
AcDbEntity
  8
Specialized_Lines
  6
Continuous
100
AcDbLine
 10
7122.121370350446
 20
3361.842206007083
 30
0.0
 11
7077.121370406017
 21
3221.842206007083
 31
0.0
  0
LINE
  5
56C
330
1F
100
AcDbEntity
  8
Specialized_Lines
  6
Continuous
100
AcDbLine
 10
7167.121370406021
 20
3415.336562017436
 30
0.0
 11
7167.121370406007
 21
3004.665263775295
 31
0.0
  0
LINE
  5
56D
330
1F
100
AcDbEntity
  8
Specialized_Lines
  6
Continuous
100
AcDbLine
 10
7077.121370406017
 20
3415.336562017436
 30
0.0
 11
7077.121370406017
 21
3004.665263775295
 31
0.0
  0
LWPOLYLINE
  5
572
330
1F
100
AcDbEntity
  8
Specialized_Lines
  6
DASHEDX2
100
AcDbPolyline
 90
        4
 70
   128
 43
0.0
 10
7074.19488098205
 20
3301.357109702399
 10
7074.19488098205
 20
3361.376174580096
 10
7076.128264070518
 20
3363.388352672795
 10
7076.128264070518
 20
3415.336562017436
  0
LWPOLYLINE
  5
576
330
1F
100
AcDbEntity
  8
0
  6
Continuous
100
AcDbPolyline
 90
        6
 70
   128
 43
0.0
 10
7174.810091035372
 20
3004.665263775295
 10
7130.895940118271
 20
3004.665263775295
 10
7128.895940118276
 20
3010.160218614204
 10
7124.895940118271
 20
2999.170308936386
 10
7122.895940118276
 20
3004.665263775295
 10
7065.656130292424
 20
3004.665263775295
  0
LWPOLYLINE
  5
577
102
{ACAD_XDICTIONARY
360
AD0
102
}
102
{ACAD_REACTORS
330
681
330
683
102
}
330
1F
100
AcDbEntity
  8
0
  6
Continuous
100
AcDbPolyline
 90
        6
 70
   128
 43
0.0
 10
6899.312958374186
 20
3043.210313498147
 10
6899.312958374186
 20
3124.093454972254
 10
6904.807913213095
 20
3126.093454972254
 10
6893.818003535277
 20
3130.093454972255
 10
6899.312958374186
 20
3132.093454972253
 10
6899.312958374186
 20
3213.464556175245
  0
LWPOLYLINE
  5
578
330
1F
100
AcDbEntity
  8
0
  6
Continuous
100
AcDbPolyline
 90
        6
 70
   128
 43
0.0
 10
7173.592342430592
 20
3415.336562017436
 10
7129.678191513491
 20
3415.336562017436
 10
7127.678191513496
 20
3420.831516856345
 10
7123.678191513491
 20
3409.841607178527
 10
7121.678191513495
 20
3415.336562017436
 10
6965.818198497906
 20
3415.336562017436
  0
ARC
  5
579
330
1F
100
AcDbEntity
  8
Specialized_Lines
  6
Continuous
100
AcDbCircle
 10
7071.305486397156
 20
3312.206749353832
 30
0.0
 40
3.448842800734466
100
AcDbArc
 50
1.798356136044599
 51
83.35396854984988
  0
DIMENSION
  5
57A
330
1F
100
AcDbEntity
  8
Specialized_Lines
  6
Continuous
100
AcDbDimension
  2
*D5
 10
7090.752911516578
 20
3325.232416291263
 30
0.0
 11
7085.902600569368
 21
3320.232416291264
 31
0.0
 70
   160
  1
<>
 71
     5
 42
9.999999999999545
  3
GENERATED_STYLE__1
100
AcDbAlignedDimension
 13
7068.789878797203
 23
3315.232416291264
 33
0.0
 14
7055.793805408753
 24
3325.232416291263
 34
0.0
 50
90.0
100
AcDbRotatedDimension
1001
ACAD
1000
DSTYLE
1002
{
1070
    42
1040
6.0
1070
   147
1040
2.0
1002
}
  0
MTEXT
  5
57D
102
{ACAD_REACTORS
330
57E
102
}
330
1F
100
AcDbEntity
  8
Specialized_Text
  6
Continuous
100
AcDbMText
 10
7176.229526370272
 20
3401.733923073873
 30
0.0
 40
5.5
 41
88.82778270051511
 71
     4
 72
     1
  1
{breather type building wrap as installed by builder}
  7
GENERATED_STYLE_1
 73
     1
 44
0.8
1001
ACAD
1000
MTEXTBEGIN
1070
    73
1070
     1
1070
    44
1040
0.8
1070
    74
1070
     0
1000
MTEXTEND
1000
ACAD_MTEXT_DEFINED_HEIGHT_BEGIN
1070
    46
1040
26.48356169417234
1000
ACAD_MTEXT_DEFINED_HEIGHT_END
  0
LEADER
  5
57E
330
1F
100
AcDbEntity
  8
Specialized_Text
  6
Continuous
 62
   251
370
    13
100
AcDbLeader
  3
GENERATED_STYLE__4
 73
     0
 40
20.26045929968168
 41
72.88437926330151
 76
     2
 10
7075.250138101323
 20
3402.534712791493
 30
0.0
 10
7176.139526370272
 20
3401.733923073873
 30
0.0
340
57D
  0
MTEXT
  5
57F
102
{ACAD_REACTORS
330
580
102
}
330
1F
100
AcDbEntity
  8
Specialized_Text
  6
Continuous
100
AcDbMText
 10
7176.229526370272
 20
3279.808432437185
 30
0.0
 40
5.5
 41
89.18682691621432
 71
     4
 72
     1
  1
THERMASHELL proprietary punched base bead
  7
GENERATED_STYLE_1
 73
     1
 44
0.8
1001
ACAD
1000
MTEXTBEGIN
1070
    73
1070
     1
1070
    44
1040
0.8
1070
    74
1070
     0
1000
MTEXTEND
1000
ACAD_MTEXT_DEFINED_HEIGHT_BEGIN
1070
    46
1040
20.31444067539967
1000
ACAD_MTEXT_DEFINED_HEIGHT_END
  0
LEADER
  5
580
330
1F
100
AcDbEntity
  8
Specialized_Text
  6
Continuous
 62
   251
370
    13
100
AcDbLeader
  3
GENERATED_STYLE__4
 73
     0
 40
20.33549340609368
 41
86.31548431105048
 76
     3
 10
7029.328902940402
 20
3297.782983161749
 30
0.0
 10
7029.328902940402
 20
3279.818958802533
 30
0.0
 10
7176.139526370272
 20
3279.808432437185
 30
0.0
340
57F
  0
MTEXT
  5
581
330
1F
100
AcDbEntity
  8
Specialized_Text
  6
Continuous
100
AcDbMText
 10
7176.229526370272
 20
3158.939066364727
 30
0.0
 40
5.5
 41
88.58293036011327
 71
     4
 72
     1
  1
{flashing must extend a minimum of 75mm behind cladding and must be taped onto the building wrap with Protecto Tape (or similar) by builder}
  7
GENERATED_STYLE_1
 73
     1
 44
0.8
1001
ACAD
1000
MTEXTBEGIN
1070
    73
1070
     1
1070
    44
1040
0.8
1070
    74
1070
     0
1000
MTEXTEND
1000
ACAD_MTEXT_DEFINED_HEIGHT_BEGIN
1070
    46
1040
51.43307125672926
1000
ACAD_MTEXT_DEFINED_HEIGHT_END
  0
MTEXT
  5
583
102
{ACAD_XDICTIONARY
360
AD3
102
}
102
{ACAD_REACTORS
330
584
102
}
330
1F
100
AcDbEntity
  8
Specialized_Text
  6
Continuous
100
AcDbMText
 10
7176.21197323826
 20
3333.680526003772
 30
0.0
 40
5.5
 41
88.9595851310816
 71
     4
 72
     1
  1
{discontinuous horizontal 45mm x 20mm EPS battens on 15\U+00B0 slope and no more than 100mm in length as required for fixing}
  7
GENERATED_STYLE_1
 73
     1
 44
0.8
1001
ACAD
1000
MTEXTBEGIN
1070
    73
1070
     1
1070
    44
1040
0.8
1070
    74
1070
     0
1000
MTEXTEND
1000
ACAD_MTEXT_DEFINED_HEIGHT_BEGIN
1070
    46
1040
69.24433182931493
1000
ACAD_MTEXT_DEFINED_HEIGHT_END
  0
LEADER
  5
584
330
1F
100
AcDbEntity
  8
Specialized_Text
  6
Continuous
 62
   251
370
    13
100
AcDbLeader
  3
GENERATED_STYLE__4
 73
     0
 40
44.06577989995452
 41
84.04195088676672
 76
     2
 10
7065.132579259223
 20
3334.484736335059
 30
0.0
 10
7176.121973238259
 20
3333.680526003772
 30
0.0
340
583
  0
MTEXT
  5
585
102
{ACAD_REACTORS
330
586
102
}
330
1F
100
AcDbEntity
  8
Specialized_Text
  6
Continuous
100
AcDbMText
 10
7176.229526370272
 20
3238.758825251931
 30
0.0
 40
5.5
 41
88.47460244242046
 71
     4
 72
     1
  1
selected roofing
  7
GENERATED_STYLE_1
 73
     1
 44
0.8
1001
ACAD
1000
MTEXTBEGIN
1070
    73
1070
     1
1070
    44
1040
0.8
1070
    74
1070
     0
1000
MTEXTEND
1000
ACAD_MTEXT_DEFINED_HEIGHT_BEGIN
1070
    46
1040
16.24601538347855
1000
ACAD_MTEXT_DEFINED_HEIGHT_END
  0
LEADER
  5
586
330
1F
100
AcDbEntity
  8
Specialized_Text
  6
Continuous
 62
   251
370
    13
100
AcDbLeader
  3
GENERATED_STYLE__4
 73
     0
 40
7.207025920873125
 41
53.51057298772169
 76
     2
 10
7068.096151047324
 20
3238.639473133338
 30
0.0
 10
7176.139526370272
 20
3238.758825251931
 30
0.0
340
585
  0
MTEXT
  5
587
102
{ACAD_REACTORS
330
588
102
}
330
1F
100
AcDbEntity
  8
Specialized_Text
  6
Continuous
100
AcDbMText
 10
7176.229526370272
 20
3378.789733496318
 30
0.0
 40
5.5
 41
75.7693424223591
 71
     4
 72
     1
  1
{20mm cavity}
  7
GENERATED_STYLE_1
 73
     1
 44
1.0
1001
ACAD
1000
MTEXTBEGIN
1070
    73
1070
     1
1070
    44
1040
1.0
1070
    74
1070
     0
1000
MTEXTEND
  0
LEADER
  5
588
330
1F
100
AcDbEntity
  8
Specialized_Text
  6
Continuous
 62
   251
370
    13
100
AcDbLeader
  3
GENERATED_STYLE__4
 73
     0
 40
7.139495225102319
 41
42.82571623465211
 76
     2
 10
7063.723604396476
 20
3379.587052895965
 30
0.0
 10
7176.139526370272
 20
3378.789733496318
 30
0.0
340
587
  0
MTEXT
  5
589
330
1F
100
AcDbEntity
  8
Specialized_Text
  6
Continuous
 62
    30
370
    20
100
AcDbMText
 10
7174.629526370273
 20
3049.540872818023
 30
0.0
 40
6.0
 41
90.18337406857336
 71
     7
 72
     1
  1
{note:  punchings in base bead provide ventilation openings of 1000mm\A1{\H0.7x;\S2^  ;} per lineal metre}
  7
GENERATED_STYLE_1
 73
     1
 44
0.9
1001
ACAD
1000
MTEXTBEGIN
1070
    73
1070
     1
1070
    44
1040
0.9
1070
    74
1070
     0
1000
MTEXTEND
1000
ACAD_MTEXT_DEFINED_HEIGHT_BEGIN
1070
    46
1040
51.39180418257669
1000
ACAD_MTEXT_DEFINED_HEIGHT_END
  0
MTEXT
  5
58D
102
{ACAD_XDICTIONARY
360
AD5
102
}
102
{ACAD_REACTORS
330
58E
102
}
330
1F
100
AcDbEntity
  8
Specialized_Text
  6
Continuous
100
AcDbMText
 10
7176.229526370272
 20
3364.98008907371
 30
0.0
 40
5.5
 41
88.97426721051115
 71
     4
 72
     1
  1
{\C30;75mm Neopor\U+00AE EPS}
  7
GENERATED_STYLE_1
 73
     1
 44
0.8
1001
ACAD
1000
MTEXTBEGIN
1070
    73
1070
     1
1070
    44
1040
0.8
1070
    74
1070
     0
1000
MTEXTEND
1000
ACAD_MTEXT_DEFINED_HEIGHT_BEGIN
1070
    46
1040
27.88818280674249
1000
ACAD_MTEXT_DEFINED_HEIGHT_END
  0
LEADER
  5
58E
330
1F
100
AcDbEntity
  8
Specialized_Text
  6
Continuous
 62
   251
370
    13
100
AcDbLeader
  3
GENERATED_STYLE__4
 73
     0
 40
7.124488403819918
 41
71.08731241473397
 76
     2
 10
7029.951764621398
 20
3365.732008508172
 30
0.0
 10
7176.139526370272
 20
3364.98008907371
 30
0.0
340
58D
  0
LINE
  5
58F
330
1F
100
AcDbEntity
  8
Viewport
 62
     7
370
     5
100
AcDbLine
 10
7265.763585923479
 20
3471.919044867497
 30
0.0
 11
7265.763585923479
 21
2931.869429228701
 31
0.0
  0
LINE
  5
590
102
{ACAD_REACTORS
330
A55
102
}
330
1F
100
AcDbEntity
  8
Viewport
 62
     7
370
     5
100
AcDbLine
 10
7265.763585923479
 20
2931.869429228701
 30
0.0
 11
6892.621858837493
 21
2931.869429228701
 31
0.0
  0
MTEXT
  5
591
330
1F
100
AcDbEntity
  8
Specialized_Lines
 62
    30
100
AcDbMText
 10
6970.918223627972
 20
2973.20229457594
 30
0.0
 40
7.0
 41
63.23088711380842
 71
     1
 72
     5
  1
THERMASHELL
  7
GENERATED_STYLE_2
 73
     1
 44
1.0
1001
ACAD
1000
ACAD_MTEXT_COLUMN_INFO_BEGIN
1070
    75
1070
     2
1070
    79
1070
     0
1070
    76
1070
     1
1070
    78
1070
     0
1070
    48
1040
63.23088711380842
1070
    49
1040
12.5
1070
    50
1070
     1
1040
0.0
1000
ACAD_MTEXT_COLUMN_INFO_END
1000
MTEXTBEGIN
1070
    73
1070
     1
1070
    44
1040
1.0
1070
    74
1070
     0
1000
MTEXTEND
  0
LINE
  5
592
102
{ACAD_REACTORS
330
867
102
}
330
1F
100
AcDbEntity
  8
Viewport
 62
     7
370
     5
100
AcDbLine
 10
6892.621858837493
 20
2931.869429228701
 30
0.0
 11
6892.621858837493
 21
3471.919044867497
 31
0.0
  0
LINE
  5
593
102
{ACAD_REACTORS
330
866
102
}
330
1F
100
AcDbEntity
  8
Viewport
 62
     7
370
     5
100
AcDbLine
 10
7265.763585923479
 20
3471.919044867497
 30
0.0
 11
6892.621858837493
 21
3471.919044867497
 31
0.0
  0
MTEXT
  5
594
330
1F
100
AcDbEntity
  8
Specialized_Lines
100
AcDbMText
 10
6969.451258642422
 20
2988.797581555111
 30
0.0
 40
9.5
 41
392.0414137234157
 71
     1
 72
     5
  1
{\fArial|b1|i0|c0|p34;Roof / Wall: TRANSVERSE APRON FLASHING}
 73
     1
 44
1.0
1001
ACAD
1000
ACAD_MTEXT_COLUMN_INFO_BEGIN
1070
    75
1070
     2
1070
    79
1070
     0
1070
    76
1070
     1
1070
    78
1070
     0
1070
    48
1040
392.0414137234157
1070
    49
1040
12.5
1070
    50
1070
     1
1040
0.0
1000
ACAD_MTEXT_COLUMN_INFO_END
1000
MTEXTBEGIN
1070
    73
1070
     1
1070
    44
1040
1.0
1070
    74
1070
     0
1000
MTEXTEND
  0
MTEXT
  5
595
330
1F
100
AcDbEntity
  8
Specialized_Lines
 62
    30
100
AcDbMText
 10
6940.666403161054
 20
2969.254610035455
 30
0.0
 40
4.0
 41
34.37092666967328
 71
     5
 72
     5
  1
SCALE: 1:2
  7
GENERATED_STYLE_2
 73
     1
 44
1.0
1001
ACAD
1000
ACAD_MTEXT_COLUMN_INFO_BEGIN
1070
    75
1070
     2
1070
    79
1070
     0
1070
    76
1070
     1
1070
    78
1070
     0
1070
    48
1040
34.37092666967328
1070
    49
1040
12.5
1070
    50
1070
     1
1040
0.0
1000
ACAD_MTEXT_COLUMN_INFO_END
1000
MTEXTBEGIN
1070
    73
1070
     1
1070
    44
1040
1.0
1070
    74
1070
     0
1000
MTEXTEND
  0
HATCH
  5
596
330
1F
100
AcDbEntity
  8
0
 62
    30
370
     5
100
AcDbHatch
 10
0.0
 20
0.0
 30
0.0
210
0.0
220
0.0
230
1.0
  2
SOLID
 70
     1
 71
     0
 91
        1
 92
        1
 93
        4
 72
     1
 10
6963.820388542569
 20
2974.277569535847
 11
6963.820388542569
 21
2994.277569535846
 72
     1
 10
6963.820388542569
 20
2994.277569535846
 11
6918.82038854257
 21
2994.277569535846
 72
     1
 10
6918.82038854257
 20
2994.277569535846
 11
6918.82038854257
 21
2974.277569535847
 72
     1
 10
6918.82038854257
 20
2974.277569535847
 11
6963.820388542569
 21
2974.277569535847
 97
        0
 75
     1
 76
     1
 98
        1
 10
6949.235561732099
 20
2980.411250038971
1001
GradientColor1ACI
1070
     5
1001
GradientColor2ACI
1070
     2
1001
ACAD
1010
0.0
1020
0.0
1030
0.0
  0
LWPOLYLINE
  5
597
330
1F
100
AcDbEntity
  8
0
370
     5
100
AcDbPolyline
 90
        5
 70
     0
 43
0.0
 10
6918.82038854257
 20
2994.277569535846
 10
6918.82038854257
 20
2974.277569535847
 10
6963.820388542569
 20
2974.277569535847
 10
6963.820388542569
 20
2994.277569535846
 10
6918.82038854257
 20
2994.277569535846
  0
MTEXT
  5
598
330
1F
100
AcDbEntity
  8
Specialized_Lines
100
AcDbMText
 10
6941.525203631458
 20
2984.082724889458
 30
0.0
 40
10.0
 41
90.34063603881987
 71
     5
 72
     5
  1
{\fArial|b1|i0|c0|p34;09B}
 73
     1
 44
1.0
1001
ACAD
1000
ACAD_MTEXT_COLUMN_INFO_BEGIN
1070
    75
1070
     2
1070
    79
1070
     0
1070
    76
1070
     1
1070
    78
1070
     0
1070
    48
1040
90.34063603881987
1070
    49
1040
12.5
1070
    50
1070
     1
1040
0.0
1000
ACAD_MTEXT_COLUMN_INFO_END
1000
MTEXTBEGIN
1070
    73
1070
     1
1070
    44
1040
1.0
1070
    74
1070
     0
1000
MTEXTEND
  0
LWPOLYLINE
  5
599
330
1F
100
AcDbEntity
  8
0
370
     5
100
AcDbPolyline
 90
        4
 70
     0
 43
0.0
 10
6918.82038854257
 20
2974.277569535847
 10
6918.82038854257
 20
2964.277569535847
 10
6963.820388542569
 20
2964.277569535847
 10
6963.820388542569
 20
2974.277569535847
  0
LWPOLYLINE
  5
59A
330
1F
100
AcDbEntity
  8
Specialized_Lines
  6
PLASTER
 48
3.0
100
AcDbPolyline
 90
        4
 70
     0
 43
0.0
 10
6974.11661133235
 20
3415.336562017436
 10
6974.158362362766
 20
3286.945265438787
 10
6974.31480490556
 20
3285.743961849075
 10
6975.804638871851
 20
3284.832416291261
  0
LINE
  5
5FB
102
{ACAD_REACTORS
330
5FD
102
}
330
1F
100
AcDbEntity
  8
Specialized_Lines
  6
Continuous
 48
3.0
100
AcDbLine
 10
7075.073006951244
 20
3249.532416291263
 30
0.0
 11
6925.073006951244
 21
3249.532416291263
 31
0.0
  0
LINE
  5
5FF
102
{ACAD_REACTORS
330
600
102
}
330
1F
100
AcDbEntity
  8
Specialized_Lines
  6
Continuous
 48
3.0
100
AcDbLine
 10
6925.073006951244
 20
3249.532416291263
 30
0.0
 11
6907.39533742158
 21
3231.854746761599
 31
0.0
  0
LINE
  5
601
330
1F
100
AcDbEntity
  8
Specialized_Lines
  6
Continuous
100
AcDbLine
 10
7075.073006951244
 20
3359.532416291263
 30
0.0
 11
7075.073006951244
 21
3249.532416291263
 31
0.0
  0
LINE
  5
60E
102
{ACAD_REACTORS
330
617
102
}
330
1F
100
AcDbEntity
  8
Specialized_Lines
  6
DASHEDX2
 48
3.0
100
AcDbLine
 10
7056.410088006761
 20
3225.73487597634
 30
0.0
 11
6892.621858837495
 21
3225.73487597634
 31
0.0
  0
ARC
  5
61E
102
{ACAD_REACTORS
330
620
102
}
330
1F
100
AcDbEntity
  8
Specialized_Lines
  6
DASHEDX2
100
AcDbCircle
 10
7057.201987728911
 20
3244.703245787253
 30
0.0
 40
18.98489290076416
100
AcDbArc
 50
267.6093792210425
 51
355.4964444897552
  0
LINE
  5
61F
102
{ACAD_REACTORS
330
622
102
}
330
1F
100
AcDbEntity
  8
Specialized_Lines
  6
DASHEDX2
100
AcDbLine
 10
7076.128264070518
 20
3243.212533778002
 30
0.0
 11
7076.128264070518
 21
3360.032416291263
 31
0.0
  0
LINE
  5
624
102
{ACAD_REACTORS
330
631
102
}
330
1F
100
AcDbEntity
  8
Specialized_Lines
  6
Hidden
 48
3.0
100
AcDbLine
 10
7056.410088006761
 20
3224.734875976341
 30
0.0
 11
6892.621858837495
 21
3224.734875976341
 31
0.0
  0
LINE
  5
635
102
{ACAD_REACTORS
330
641
102
}
330
1F
100
AcDbEntity
  8
Specialized_Lines
  6
Hidden
 48
3.0
100
AcDbLine
 10
7056.410088006761
 20
3223.734875976341
 30
0.0
 11
6892.621858837495
 21
3223.734875976341
 31
0.0
  0
LINE
  5
654
102
{ACAD_REACTORS
330
655
102
}
330
1F
100
AcDbEntity
  8
Specialized_Lines
  6
Continuous
 48
3.0
100
AcDbLine
 10
7039.476866241324
 20
3221.746277859949
 30
0.0
 11
6969.476866241324
 21
3221.746277859949
 31
0.0
  0
LINE
  5
659
102
{ACAD_REACTORS
330
65A
102
}
330
1F
100
AcDbEntity
  8
Specialized_Lines
  6
Continuous
 48
3.0
100
AcDbLine
 10
6969.476866241324
 20
3221.746277859949
 30
0.0
 11
6969.476866241324
 21
3181.746277859949
 31
0.0
  0
LINE
  5
65D
102
{ACAD_REACTORS
330
65E
102
}
330
1F
100
AcDbEntity
  8
Specialized_Lines
  6
Continuous
 48
3.0
100
AcDbLine
 10
6969.476866241324
 20
3181.746277859949
 30
0.0
 11
7039.476866241324
 21
3181.746277859949
 31
0.0
  0
LINE
  5
662
102
{ACAD_REACTORS
330
663
102
}
330
1F
100
AcDbEntity
  8
Specialized_Lines
  6
Continuous
 48
3.0
100
AcDbLine
 10
7039.476866241324
 20
3181.746277859949
 30
0.0
 11
7039.476866241324
 21
3221.746277859949
 31
0.0
  0
HATCH
  5
678
330
1F
100
AcDbEntity
  8
Specialized_Lines
  6
Continuous
 62
   254
 48
3.0
100
AcDbHatch
 10
0.0
 20
0.0
 30
0.0
210
0.0
220
0.0
230
1.0
  2
SOLID
 70
     1
 71
     0
 91
        4
 92
        7
 72
     0
 73
     1
 93
        3
 10
7039.476866241324
 20
3221.746277859949
 10
6969.476866241324
 20
3221.746277859949
 10
7004.476866241325
 20
3201.746277859949
 97
        0
 92
        7
 72
     0
 73
     1
 93
        3
 10
7039.476866241324
 20
3221.746277859949
 10
7004.476866241325
 20
3201.746277859949
 10
7039.476866241324
 20
3181.746277859949
 97
        0
 92
        7
 72
     0
 73
     1
 93
        3
 10
7004.476866241325
 20
3201.746277859949
 10
6969.476866241324
 20
3181.746277859949
 10
7039.476866241324
 20
3181.746277859949
 97
        0
 92
        7
 72
     0
 73
     1
 93
        3
 10
6969.476866241324
 20
3221.746277859949
 10
6969.476866241324
 20
3181.746277859949
 10
7004.476866241325
 20
3201.746277859949
 97
        0
 75
     1
 76
     1
 47
0.1692493397420224
 98
        4
 10
6997.797283548059
 20
3213.890474042207
 10
7024.550460918153
 20
3203.058516449392
 10
7009.480634315908
 20
3193.919052033986
 10
6981.372864461658
 20
3204.920259573241
1001
GradientColor1ACI
1070
     5
1001
GradientColor2ACI
1070
     2
1001
ACAD
1010
0.0
1020
0.0
1030
0.0
  0
LINE
  5
679
102
{ACAD_REACTORS
330
67B
102
}
330
1F
100
AcDbEntity
  8
Specialized_Lines
  6
Continuous
 48
3.0
100
AcDbLine
 10
7077.121370406017
 20
3180.842206007089
 30
0.0
 11
6899.312958374186
 21
3180.842206007089
 31
0.0
  0
LINE
  5
67D
102
{ACAD_REACTORS
330
67F
102
}
330
1F
100
AcDbEntity
  8
Specialized_Lines
  6
Continuous
 48
3.0
100
AcDbLine
 10
7077.121370406017
 20
3079.377830789117
 30
0.0
 11
6899.312958374186
 21
3079.377830789117
 31
0.0
  0
LEADER
  5
68F
330
1F
100
AcDbEntity
  8
Specialized_Text
  6
Continuous
 62
   251
370
    13
100
AcDbLeader
  3
GENERATED_STYLE__4
 73
     0
 40
20.33549340609368
 41
86.31548431105048
 76
     3
 10
7039.328902940401
 20
3249.217452167429
 30
0.0
 10
7039.328902940401
 20
3158.949592730075
 30
0.0
 10
7176.139526370272
 20
3158.939066364727
 30
0.0
340
57F
  0
ARC
  5
6E2
102
{ACAD_REACTORS
330
6F6
102
}
330
1F
100
AcDbEntity
  8
Specialized_Lines
  6
Continuous
100
AcDbCircle
 10
6975.828952759759
 20
3249.602221826807
 30
0.0
 40
20.10105954943949
100
AcDbArc
 50
246.3557883390517
 51
293.7216332883365
  0
LINE
  5
6E3
330
1F
100
AcDbEntity
  8
Specialized_Lines
  6
Continuous
100
AcDbLine
 10
6967.767301928333
 20
3231.188575232983
 30
0.0
 11
6946.157335544384
 21
3242.763299213385
 31
0.0
  0
ARC
  5
6E4
330
1F
100
AcDbEntity
  8
Specialized_Lines
  6
Continuous
100
AcDbCircle
 10
6938.41350869592
 20
3224.323311530624
 30
0.0
 40
19.99999999998507
100
AcDbArc
 50
67.22015097527155
 51
112.7798490348226
  0
LINE
  5
6E5
330
1F
100
AcDbEntity
  8
Specialized_Lines
  6
Continuous
100
AcDbLine
 10
6930.669681844207
 20
3242.763299212021
 30
0.0
 11
6908.057335484257
 21
3229.883323841027
 31
0.0
  0
ARC
  5
6E6
330
1F
100
AcDbEntity
  8
Specialized_Lines
  6
Continuous
100
AcDbCircle
 10
6900.313508648013
 20
3248.323311528983
 30
0.0
 40
20.00000000004217
100
AcDbArc
 50
247.3821767870551
 51
292.7798489866905
  0
LINE
  5
6E8
330
1F
100
AcDbEntity
  8
Specialized_Lines
  6
Continuous
100
AcDbLine
 10
7068.096151047324
 20
3238.639473133338
 30
0.0
 11
7060.31354309284
 21
3233.05618070015
 31
0.0
  0
ARC
  5
6E9
330
1F
100
AcDbEntity
  8
Specialized_Lines
  6
Continuous
100
AcDbCircle
 10
7051.369271182858
 20
3250.944724520183
 30
0.0
 40
20.00000000002252
100
AcDbArc
 50
247.2201509753445
 51
296.5650511769924
  0
LINE
  5
6EA
330
1F
100
AcDbEntity
  8
Specialized_Lines
  6
Continuous
100
AcDbLine
 10
7043.625444334404
 20
3232.504736837376
 30
0.0
 11
7022.015477950455
 21
3244.079460817778
 31
0.0
  0
ARC
  5
6EB
330
1F
100
AcDbEntity
  8
Specialized_Lines
  6
Continuous
100
AcDbCircle
 10
7014.271651101991
 20
3225.639473135017
 30
0.0
 40
19.99999999998507
100
AcDbArc
 50
67.22015097527155
 51
112.7798490348226
  0
LINE
  5
6EC
102
{ACAD_REACTORS
330
6F7
102
}
330
1F
100
AcDbEntity
  8
Specialized_Lines
  6
Continuous
100
AcDbLine
 10
7006.527824250278
 20
3244.079460816414
 30
0.0
 11
6983.915477890327
 21
3231.199485445421
 31
0.0
  0
DIMENSION
  5
836
330
1F
100
AcDbEntity
  8
Specialized_Lines
  6
Continuous
100
AcDbDimension
  2
*D8
 10
6952.55658577547
 20
3284.832416291257
 30
0.0
 11
6952.556585775468
 21
3267.322827545215
 31
0.0
 70
   160
  1
<>
 71
     5
 42
35.21917749209251
  3
GENERATED_STYLE__2
100
AcDbAlignedDimension
 13
7075.073006951244
 23
3249.613238799164
 33
0.0
 14
6975.804638871858
 24
3284.832416291257
 34
0.0
 50
90.0
100
AcDbRotatedDimension
1001
ACAD
1000
DSTYLE
1002
{
1070
    42
1040
6.0
1070
    77
1070
     3
1070
   147
1040
2.0
1002
}
  0
DIMENSION
  5
837
330
1F
100
AcDbEntity
  8
Specialized_Lines
  6
Continuous
100
AcDbDimension
  2
*D9
 10
6952.55658577547
 20
3360.032416291263
 30
0.0
 11
6952.556585775468
 21
3322.532416291264
 31
0.0
 70
   160
  1
75 Min.
 71
     5
 42
75.20000000000573
  3
GENERATED_STYLE__3
100
AcDbAlignedDimension
 13
6975.804638871858
 23
3284.832416291257
 33
0.0
 14
7075.073006951244
 24
3360.032416291263
 34
0.0
 50
90.0
100
AcDbRotatedDimension
1001
ACAD
1000
DSTYLE
1002
{
1070
    42
1040
6.0
1070
    77
1070
     3
1070
   147
1040
2.0
1002
}
  0
LWPOLYLINE
  5
839
330
1F
100
AcDbEntity
  8
Specialized_Lines
 48
3.0
100
AcDbPolyline
 90
        4
 70
     0
 43
0.0
 10
6979.153167009112
 20
3415.336562017436
 10
6979.153167009112
 20
3306.232416291262
 10
7054.793805408762
 20
3306.232416291262
 10
7054.793805408762
 20
3415.336562017436
  0
PDFUNDERLAY
  5
83B
330
1F
100
AcDbEntity
  8
0
 62
     7
 92
        8
310
0800000000000000
100
AcDbUnderlayReference
340
0
 10
7008.11976175467
 20
3555.083228957688
 30
0.0
 41
14.64050888668862
 42
14.64050888668862
 43
14.64050888668862
281
   100
282
     0
 11
0.918513357764084
 21
9.215030932800971
 11
6.878692319585923
 21
7.080213791027176
  0
HATCH
  5
8EC
330
1F
100
AcDbEntity
  8
Specialized_Lines
 62
    30
100
AcDbHatch
 10
0.0
 20
0.0
 30
0.0
210
0.0
220
0.0
230
1.0
  2
SOLID
 70
     1
 71
     1
 91
        2
 92
       16
 93
        5
 72
     1
 10
6985.529490794681
 20
3288.528770261193
 11
6983.197459194854
 21
3292.567967477229
 72
     1
 10
6983.197459194854
 20
3292.567967477229
 11
6982.504638871805
 21
3292.567967477229
 72
     1
 10
6982.504638871805
 20
3292.567967477229
 11
6982.504638871805
 21
3305.032416291262
 72
     1
 10
6982.504638871805
 20
3305.032416291262
 11
7050.808763953203
 21
3305.032416291262
 72
     1
 10
7050.808763953203
 20
3305.032416291262
 11
6985.529490794681
 21
3288.528770261193
 97
        1
330
8ED
 92
        1
 93
       40
 72
     1
 10
6978.304638871851
 20
3286.702211952721
 11
6975.804638871851
 21
3286.070171902687
 72
     1
 10
6975.804638871851
 20
3286.070171902687
 11
6975.804638871851
 21
3284.832416291261
 72
     1
 10
6975.804638871851
 20
3284.832416291261
 11
7055.704638871758
 21
3305.032416291262
 72
     1
 10
7055.704638871758
 20
3305.032416291262
 11
7055.704638871758
 21
3315.032416291262
 72
     1
 10
7055.704638871758
 20
3315.032416291262
 11
7071.704638871757
 21
3315.032416291262
 72
     1
 10
7071.704638871757
 20
3315.032416291262
 11
7071.704638871757
 21
3316.232416291263
 72
     1
 10
7071.704638871757
 20
3316.232416291263
 11
7055.704638871758
 21
3316.232416291263
 72
     1
 10
7055.704638871758
 20
3316.232416291263
 11
7055.704638871758
 21
3324.232416291263
 72
     1
 10
7055.704638871758
 20
3324.232416291263
 11
7054.504638871688
 21
3324.232416291263
 72
     1
 10
7054.504638871688
 20
3324.232416291263
 11
7054.504638871572
 21
3319.916456577943
 72
     1
 10
7054.504638871572
 20
3319.916456577943
 11
7053.564946250801
 21
3319.574436434588
 72
     1
 10
7053.564946250801
 20
3319.574436434588
 11
7054.504638871688
 21
3319.232416291263
 72
     1
 10
7054.504638871688
 20
3319.232416291263
 11
7054.504638871688
 21
3306.232416291262
 72
     1
 10
7054.504638871688
 20
3306.232416291262
 11
6979.504638871688
 21
3306.232416291262
 72
     1
 10
6979.504638871688
 20
3306.232416291262
 11
6979.504638871688
 21
3319.232416291263
 72
     1
 10
6979.504638871688
 20
3319.232416291263
 11
6980.444331492575
 21
3319.574436434588
 72
     1
 10
6980.444331492575
 20
3319.574436434588
 11
6979.504638871805
 21
3319.916456577943
 72
     1
 10
6979.504638871805
 20
3319.916456577943
 11
6979.504638871805
 21
3324.232416291263
 72
     1
 10
6979.504638871805
 20
3324.232416291263
 11
6978.304638871851
 21
3324.232416291263
 72
     1
 10
6978.304638871851
 20
3324.232416291263
 11
6978.304638871851
 21
3305.032416291262
 72
     1
 10
6978.304638871851
 20
3305.032416291262
 11
6978.304638871851
 21
3303.832416291261
 72
     1
 10
6978.304638871851
 20
3303.832416291261
 11
6978.997459194784
 21
3305.032416291262
 72
     1
 10
6978.997459194784
 20
3305.032416291262
 11
6981.304638871852
 21
3305.032416291262
 72
     1
 10
6981.304638871852
 20
3305.032416291262
 11
6981.304638871852
 21
3300.732416291263
 72
     1
 10
6981.304638871852
 20
3300.732416291263
 11
6981.304638871852
 21
3300.132416291261
 72
     1
 10
6981.304638871852
 20
3300.132416291261
 11
6978.304638871851
 21
3301.332416291261
 72
     1
 10
6978.304638871851
 20
3301.332416291261
 11
6978.304638871851
 21
3297.302216291264
 72
     1
 10
6978.304638871851
 20
3297.302216291264
 11
6981.304638871852
 21
3298.502216291264
 72
     1
 10
6981.304638871852
 20
3298.502216291264
 11
6981.304638871852
 21
3297.902216291262
 72
     1
 10
6981.304638871852
 20
3297.902216291262
 11
6981.304638871852
 21
3294.202216291262
 72
     1
 10
6981.304638871852
 20
3294.202216291262
 11
6981.304638871852
 21
3293.602216291263
 72
     1
 10
6981.304638871852
 20
3293.602216291263
 11
6978.304638871851
 21
3294.802216291264
 72
     1
 10
6978.304638871851
 20
3294.802216291264
 11
6978.304638871851
 21
3290.202216291262
 72
     1
 10
6978.304638871851
 20
3290.202216291262
 11
6978.977685632926
 21
3291.367967477232
 72
     1
 10
6978.977685632926
 20
3291.367967477232
 11
6981.304638871852
 21
3291.367967477232
 72
     1
 10
6981.304638871852
 20
3291.367967477232
 11
6982.504638871805
 21
3291.367967477232
 72
     1
 10
6982.504638871805
 20
3291.367967477232
 11
6984.320341663596
 21
3288.22307799026
 72
     1
 10
6984.320341663596
 20
3288.22307799026
 11
6978.808453195657
 21
3286.829584284878
 72
     1
 10
6978.808453195657
 20
3286.829584284878
 11
6978.304638871851
 21
3287.702216291261
 72
     1
 10
6978.304638871851
 20
3287.702216291261
 11
6978.304638871851
 21
3286.702211952721
 97
        0
 75
     0
 76
     1
 98
        0
  0
REGION
  5
8ED
102
{ACAD_REACTORS
330
8EC
102
}
330
1F
100
AcDbEntity
  8
Specialized_Fills
 62
     7
100
AcDbModelerGeometry
 70
     1
  1
koo mlm n o         
  1
ni ^ *+0;:,4 ^ *+0\^ [ nf ^ LR mnfqoqoqjioo QK o  
  1
mjqlffffffffffffff fqfffffffffffffffj:rooh n:rono 
  1
=0;& {rn {n {rn {rn |
  1
3*2/ {rn {rn {m {o |
  1
,7:33 {rn {rn {rn {l {rn {n |
  1
9><: {rn {rn {k {m {rn {j 90-(>-; ;0*=3: 0*+ |
  1
300/ {rn {i {h {l |
  1
/3>1:r,*-9><: {rn honjqmgihhkkgnmmji llokqikgfjglmgfngn o o o n rn o o -:):-,:@) V V V V |
  1
300/ {rn {rn {g {l |
  1
<0:;8: {rn {f {no {rn {nn -:):-,:; {k {rn |
  1
<0:;8: {rn {nm {nl {rn {nk -:):-,:; {i {rn |
  1
<0:;8: {rn {nj {h {rn {ni -:):-,:; {k {rn |
  1
<0:;8: {rn {h {nh {rn {ng -:):-,:; {k {rn |
  1
:;8: {rn {nf {mo {h {mn 90-(>-; |
  1
<0:;8: {rn {mm {g {rn {ml -:):-,:; {i {rn |
  1
<0:;8: {rn {g {mk {rn {mj -:):-,:; {i {rn |
  1
:;8: {rn {mi {mh {g {mg 90-(>-; |
  1
<0:;8: {rn {nh {f {rn {mf -:):-,:; {k {rn |
  1
:;8: {rn {lo {nf {f {ln 90-(>-; |
  1
<0:;8: {rn {no {nj {rn {lm -:):-,:; {k {rn |
  1
:;8: {rn {mo {ll {no {lk 90-(>-; |
  1
):-+:' {rn {nn {lj |
  1
):-+:' {rn {nn {li |
  1
,+->687+r<*-): {rn ifgjqjmfkfohfkigng lmggqjmghhominnfmh o oqkfffffffffgmikifk roqgiiomjkolhfkkjhkh o Y rkqiikoilnfffmokoni Y ro |
  1
<0:;8: {rn {lh {nm {rn {lg -:):-,:; {i {rn |
  1
:;8: {rn {lf {mi {nm {ko 90-(>-; |
  1
<0:;8: {rn {nl {kn {rn {km -:):-,:; {i {rn |
  1
:;8: {rn {mh {kl {nl {kk 90-(>-; |
  1
):-+:' {rn {nk {kj |
  1
):-+:' {rn {nk {ki |
  1
,+->687+r<*-): {rn ifhjqgokilgghngjnm lmgiqohonhnfomigh o oqfifkfihnjimmnnlfm oqmkjnoklonojfilgig o V V |
  1
:;8: {rn {kh {lo {nj {kg 90-(>-; |
  1
):-+:' {rn {ni {kf |
  1
,+->687+r<*-): {rn ifglqnfhkjfnfkgjlg lmfmqjihfihkhhmmgi o n o o Y roqifmgmolmmffokmnmf Y ro |
  1
:;8: {rn {ll {kh {nh {jo 90-(>-; |
  1
):-+:' {rn {lm {jn |
  1
,+->687+r<*-): {rn hojoqgoghilfjlmolm llojqolmknimfnmini o oqfifkfihnjinfkklhl oqmkjnoklonohomoogn o Y rihqlllnjjjjojkgfof Y ro |
  1
/061+ {rn ifglqnfhkjfnfkgjlg lmfmqjihfihkhhmmgi o |
  1
/061+ {rn ifgjqjmfkfohfkigng lmggqjmghhominnfmh o |
  1
<0:;8: {rn {jm {mm {rn {jl -:):-,:; {i {rn |
  1
:;8: {rn {jk {lf {mm {jj 90-(>-; |
  1
):-+:' {rn {lg {ji |
  1
,+->687+r<*-): {rn ifhjqgokilgghngjnm lmgkqglmknimfnmiof o o n o V V |
  1
<0:;8: {rn {mk {jh {rn {jg -:):-,:; {i {rn |
  1
:;8: {rn {kl {jf {mk {io 90-(>-; |
  1
):-+:' {rn {mj {in |
  1
,+->687+r<*-): {rn ifhgqlokilgghngjnm lmgiqhommnnfjmhmoj o o n o V V |
  1
/061+ {rn ifhjqgokilgghngjnm lmgiqohonhnfomigh o |
  1
/061+ {rn ifhgqlokilgghngjnm lmgiqhommnnfjmhmoj o |
  1
):-+:' {rn {mf {im |
  1
,+->687+r<*-): {rn ifgmqjokilgghngokh lmfmqjihfihkhhmmgi o o rn o Y rnmqkikkkggnkolkkim Y ro |
  1
/061+ {rn ifgmqjokilgghngokh lmfmqjihfihkhhmmgi o |
  1
,+->687+r<*-): {rn ifgmqjokilgghngokh llojqolmknimfnmini o rn o o Y rigqloknmjognknffjk Y o |
  1
/061+ {rn hojoqgoghilfjlmolm llojqolmknimfnmini o |
  1
<0:;8: {rn {il {lh {rn {ik -:):-,:; {i {rn |
  1
:;8: {rn {ij {jk {lh {ii 90-(>-; |
  1
):-+:' {rn {jl {ih |
  1
,+->687+r<*-): {rn hojjqhokilgghnhjgn llojqolmknimfnmini o roqfifkfihnjinflkjgn roqmkjnoklonohojggln o V V |
  1
/061+ {rn ifhjqgokilgghngjnm lmgkqglmknimfnmiof o |
  1
<0:;8: {rn {kn {ig {rn {if -:):-,:; {i {rn |
  1
:;8: {rn {jf {ho {kn {hn 90-(>-; |
  1
):-+:' {rn {km {hm |
  1
,+->687+r<*-): {rn ifhgqlokilgghngjnm lmghqhommnimfnminl o oqkffffffffffjohk roqgiiomjkolhghmgmhh o V V |
  1
/061+ {rn ifhgqlokilgghngjnm lmghqhommnimfnminl o |
  1
/061+ {rn ifgmqjokilgghngokh llojqolmknimfnmini o |
  1
<0:;8: {rn {hl {jm {rn {hk -:):-,:; {i {rn |
  1
:;8: {rn {hj {ij {jm {hi 90-(>-; |
  1
):-+:' {rn {ik {hh |
  1
,+->687+r<*-): {rn hojjqhokilgghnhjgn llnjqolmknimfnmini o o rn o V V |
  1
/061+ {rn hojjqhokilgghnhjgn llojqolmknimfnmini o |
  1
<0:;8: {rn {jh {hg {rn {hf -:):-,:; {i {rn |
  1
:;8: {rn {ho {go {jh {gn 90-(>-; |
  1
):-+:' {rn {jg {gm |
  1
,+->687+r<*-): {rn ifhgqgogkjlnfjijij lmgiqgmfjgkmgkghhf o oqfifkfihnjiniknlkg oqmkjnoklonogmngjkj o V V |
  1
/061+ {rn ifhgqgogkjlnfjijij lmgiqgmfjgkmgkghhf o |
  1
<0:;8: {rn {gl {il {rn {gk -:):-,:; {i {rn |
  1
:;8: {rn {gj {hj {il {gi 90-(>-; |
  1
):-+:' {rn {hk {gh |
  1
,+->687+r<*-): {rn hohnqhokilgghnhjgn llnjqolmknimfnmini o rn o o V V |
  1
/061+ {rn hojjqhokilgghnhjgn llnjqolmknimfnmini o |
  1
<0:;8: {rn {ig {gg {rn {gf -:):-,:; {i {rn |
  1
:;8: {rn {go {fo {ig {fn 90-(>-; |
  1
):-+:' {rn {if {fm |
  1
,+->687+r<*-): {rn ifgkqlmolkniiljfin lmggqmmlohhffomjfg o roqkfffffffffgijhlil oqgiiomjkolhfmnfok o V V |
  1
/061+ {rn ifgkqlmolkniiljfin lmggqmmlohhffomjfg o |
  1
<0:;8: {rn {fl {hl {rn {fk -:):-,:; {i {rn |
  1
:;8: {rn {fj {gj {hl {fi 90-(>-; |
  1
):-+:' {rn {gk {fh |
  1
,+->687+r<*-): {rn hohnqhokilgghnhjgn llniqmlmknimfnmiml o o rn o V V |
  1
/061+ {rn hohnqhokilgghnhjgn llnjqolmknimfnmini o |
  1
<0:;8: {rn {hg {fg {rn {ff -:):-,:; {i {rn |
  1
:;8: {rn {fo {noo {hg {non 90-(>-; |
  1
):-+:' {rn {hf {nom |
  1
,+->687+r<*-): {rn ifgmqjokilgghngokh lmfnqlihfihkhhmlni o rn o o V V |
  1
/061+ {rn ifgmqjokilgghngokh lmfnqlihfihkhhmlni o |
  1
<0:;8: {rn {nol {gl {rn {nok -:):-,:; {i {rn |
  1
:;8: {rn {noj {fj {gl {noi 90-(>-; |
  1
):-+:' {rn {fk {noh |
  1
,+->687+r<*-): {rn hojjqhokilgghnhjgn llniqmlmknimfnmiml o n o o V V |
  1
/061+ {rn hohnqhokilgghnhjgn llniqmlmknimfnmiml o |
  1
<0:;8: {rn {gg {nog {rn {nof -:):-,:; {i {rn |
  1
:;8: {rn {noo {nno {gg {nnn 90-(>-; |
  1
):-+:' {rn {gf {nnm |
  1
,+->687+r<*-): {rn ifgnqlokilgghngjnm lmfnqlihfihkhhmlni o rn o o V V |
  1
/061+ {rn ifgnqlokilgghngjnm lmfnqlihfihkhhmlni o |
  1
<0:;8: {rn {nnl {fl {rn {nnk -:):-,:; {i {rn |
  1
:;8: {rn {nnj {noj {fl {nni 90-(>-; |
  1
):-+:' {rn {nok {nnh |
  1
,+->687+r<*-): {rn hojjqhokilgghnhjgn llmkqmlmknimfnmiml o o rn o V V |
  1
/061+ {rn hojjqhokilgghnhjgn llniqmlmknimfnmiml o |
  1
<0:;8: {rn {fg {nng {rn {nnf -:):-,:; {i {rn |
  1
:;8: {rn {nno {nmo {fg {nmn 90-(>-; |
  1
):-+:' {rn {ff {nmm |
  1
,+->687+r<*-): {rn ifhgqfhhigjilmfmhm lmfnqlihfihkhhmlni o roqjooooooooookfkmoj roqgiiomjkolhgnjgjlm o V V |
  1
/061+ {rn ifhgqfhhigjilmfmhm lmfnqlihfihkhhmlni o |
  1
<0:;8: {rn {nml {nol {rn {nmk -:):-,:; {i {rn |
  1
:;8: {rn {nmj {nnj {nol {nmi 90-(>-; |
  1
):-+:' {rn {nnk {nmh |
  1
,+->687+r<*-): {rn hojkqjokilgghniggl llmkqmlmknimfnmiml o n o o V V |
  1
/061+ {rn hojjqhokilgghnhjgn llmkqmlmknimfnmiml o |
  1
<0:;8: {rn {nog {nmg {rn {nmf -:):-,:; {i {rn |
  1
:;8: {rn {nmo {nlo {nog {nln 90-(>-; |
  1
):-+:' {rn {nof {nlm |
  1
,+->687+r<*-): {rn ifhgqlokilgghngjnm lmfoqmommnimfnminl o o n o V V |
  1
/061+ {rn ifhgqlokilgghngjnm lmfoqmommnimfnminl o |
  1
<0:;8: {rn {nll {nnl {rn {nlk -:):-,:; {i {rn |
  1
:;8: {rn {nlj {nmj {nnl {nli 90-(>-; |
  1
):-+:' {rn {nmk {nlh |
  1
,+->687+r<*-): {rn hojkqjokilgghniggl llnfqfnikjijhhfkmk o o n o V V |
  1
/061+ {rn hojkqjokilgghniggl llmkqmlmknimfnmiml o |
  1
<0:;8: {rn {nng {nlg {rn {nlf -:):-,:; {i {rn |
  1
:;8: {rn {nlo {nko {nng {nkn 90-(>-; |
  1
):-+:' {rn {nnf {nkm |
  1
,+->687+r<*-): {rn ifhgqlokilgghngjnm lmfkqgommnimfnmilk o oqfmgkhiifoggjmjfkn roqlhnlfoihiljknolj o V V |
  1
/061+ {rn ifhgqlokilgghngjnm lmfkqgommnimfnmilk o |
  1
<0:;8: {rn {nkl {nml {rn {nkk -:):-,:; {i {rn |
  1
:;8: {rn {nkj {nlj {nml {nki 90-(>-; |
  1
):-+:' {rn {nlk {nkh |
  1
,+->687+r<*-): {rn hojlqjikfkimjogong llnfqjhkkliklkjghg o oqflfifmimohhljfihm oqlkmomonklljfkfkfl o V V |
  1
/061+ {rn hojkqjokilgghnjhng llnfqfnikjijhhfkmk o |
  1
<0:;8: {rn {nmg {nkg {rn {nkf -:):-,:; {i {rn |
  1
:;8: {rn {nko {njo {nmg {njn 90-(>-; |
  1
):-+:' {rn {nmf {njm |
  1
,+->687+r<*-): {rn ifgnqlokilgghngjnm lmflqiommnimfnmimh o o n o V V |
  1
/061+ {rn ifgnqlokilgghngjnm lmflqiommnimfnmimh o |
  1
<0:;8: {rn {njl {nll {rn {njk -:):-,:; {i {rn |
  1
:;8: {rn {njj {nkj {nll {nji 90-(>-; |
  1
):-+:' {rn {nkk {njh |
  1
,+->687+r<*-): {rn hojkqjokilgghniggl llnfqmlmknimfnmiml o roqflfifmimohfjfmlln oqlkmomonklmfgnjlnn o V V |
  1
/061+ {rn hojlqjikfkimjogong llnfqjhkkliklkjghg o |
  1
<0:;8: {rn {nlg {njg {rn {njf -:):-,:; {i {rn |
  1
:;8: {rn {njo {nio {nlg {nin 90-(>-; |
  1
):-+:' {rn {nlf {nim |
  1
,+->687+r<*-): {rn ifgnqlokilgghngjnm lmfkqmommnimfnminl o o n o V V |
  1
/061+ {rn ifgnqlokilgghngjnm lmfkqmommnimfnminl o |
  1
<0:;8: {rn {nil {nkl {rn {nik -:):-,:; {i {rn |
  1
:;8: {rn {nij {njj {nkl {nii 90-(>-; |
  1
):-+:' {rn {njk {nih |
  1
,+->687+r<*-): {rn hojkqjokilgghniggl lloiqmlmknimfnmiml o o n o V V |
  1
/061+ {rn hojkqjokilgghniggl llnfqmlmknimfnmiml o |
  1
<0:;8: {rn {nkg {nig {rn {nif -:):-,:; {i {rn |
  1
:;8: {rn {nio {nho {nkg {nhn 90-(>-; |
  1
):-+:' {rn {nkf {nhm |
  1
,+->687+r<*-): {rn ifgnqlokilgghngjnm lmfhqfommnimfnmim o o n o V V |
  1
/061+ {rn ifgnqlokilgghngjnm lmfhqfommnimfnmim o |
  1
<0:;8: {rn {nhl {njl {rn {nhk -:):-,:; {i {rn |
  1
:;8: {rn {nhj {nij {njl {nhi 90-(>-; |
  1
):-+:' {rn {nik {nhh |
  1
,+->687+r<*-): {rn ifhfqjokilgghniggl lloiqmlmknimfnmiml o n o o V V |
  1
/061+ {rn hojkqjokilgghniggl lloiqmlmknimfnmiml o |
  1
<0:;8: {rn {njg {nhg {rn {nhf -:):-,:; {i {rn |
  1
:;8: {rn {nho {ngo {njg {ngn 90-(>-; |
  1
):-+:' {rn {njf {ngm |
  1
,+->687+r<*-): {rn ifgnqlokilgghngjnm lmfgqjommnimfnmikm o roqfmgkhiifoggjmjfog roqlhnlfoihiljknolhm o V V |
  1
/061+ {rn ifgnqlokilgghngjnm lmfgqjommnimfnmikm o |
  1
<0:;8: {rn {ngl {nil {rn {ngk -:):-,:; {i {rn |
  1
:;8: {rn {ngj {nhj {nil {ngi 90-(>-; |
  1
):-+:' {rn {nhk {ngh |
  1
,+->687+r<*-): {rn ifhfqjokilgghniggl llnfqmlmknimfnmiml o o rn o V V |
  1
/061+ {rn ifhfqjokilgghniggl lloiqmlmknimfnmiml o |
  1
<0:;8: {rn {nig {ngg {rn {ngf -:):-,:; {i {rn |
  1
:;8: {rn {ngo {nfo {nig {nfn 90-(>-; |
  1
):-+:' {rn {nif {nfm |
  1
,+->687+r<*-): {rn ifhgqlokilgghngjnm lmfhqlommnimfnmilk o o n o V V |
  1
/061+ {rn ifhgqlokilgghngjnm lmfhqlommnimfnmilk o |
  1
<0:;8: {rn {nfl {nhl {rn {nfk -:):-,:; {i {rn |
  1
:;8: {rn {nfj {ngj {nhl {nfi 90-(>-; |
  1
):-+:' {rn {ngk {nfh |
  1
,+->687+r<*-): {rn ifgoqkkkllnkfmjhkh llnfqjhkkliklkjghg o roqflfifmimohfjfmlln roqlkmomonklmfgnjlnn o V V |
  1
/061+ {rn ifhfqjokilgghniggl llnfqmlmknimfnmiml o |
  1
<0:;8: {rn {nhg {nfg {rn {nff -:):-,:; {i {rn |
  1
:;8: {rn {nfo {moo {nhg {mon 90-(>-; |
  1
):-+:' {rn {nhf {mom |
  1
,+->687+r<*-): {rn ifhgqlokilgghngjnm llonqllmknimfnmiof o oqfmgkhiifoggjmjfog roqlhnlfoihiljknolgl o V V |
  1
/061+ {rn ifhgqlokilgghngjnm llonqllmknimfnmiof o |
  1
<0:;8: {rn {mol {ngl {rn {mok -:):-,:; {i {rn |
  1
:;8: {rn {moj {nfj {ngl {moi 90-(>-; |
  1
):-+:' {rn {nfk {moh |
  1
,+->687+r<*-): {rn ifhfqjokilgghngokh llnfqfnikjijhhfkmk o oqflfifmimohhljfhoj roqlkmomonklljfkflgm o V V |
  1
/061+ {rn ifgoqkkkllnkfmjhkh llnfqjhkkliklkjghg o |
  1
<0:;8: {rn {ngg {mog {rn {mof -:):-,:; {i {rn |
  1
:;8: {rn {moo {mno {ngg {mnn 90-(>-; |
  1
):-+:' {rn {ngf {mnm |
  1
,+->687+r<*-): {rn ifgnqlokilgghngjnm llooqnlmknimfnmion o o n o V V |
  1
/061+ {rn ifgnqlokilgghngjnm llooqnlmknimfnmion o |
  1
<0:;8: {rn {mnl {nfl {rn {mnk -:):-,:; {i {rn |
  1
:;8: {rn {mnj {moj {nfl {mni 90-(>-; |
  1
):-+:' {rn {mok {mnh |
  1
,+->687+r<*-): {rn ifhfqjokilgghngokh llmkqmlmknimfnmiml o o rn o V V |
  1
/061+ {rn ifhfqjokilgghngokh llnfqfnikjijhhfkmk o |
  1
<0:;8: {rn {nfg {mnl {rn {mng -:):-,:; {i {rn |
  1
:;8: {rn {mno {mnf {nfg {mmo 90-(>-; |
  1
):-+:' {rn {nff {mmn |
  1
,+->687+r<*-): {rn ifgnqlokilgghngjnm llooqhlmknimfnmiml o o n o V V |
  1
/061+ {rn ifgnqlokilgghngjnm llooqhlmknimfnmiml o |
  1
<0:;8: {rn {mog {mol {rn {mmm -:):-,:; {i {rn |
  1
:;8: {rn {mml {mnj {mol {mmk 90-(>-; |
  1
):-+:' {rn {mnk {mmj |
  1
,+->687+r<*-): {rn ifhgqlokilgghngjnm llmkqmlmknimfnmiml o n o o V V |
  1
/061+ {rn ifhfqjokilgghngokh llmkqmlmknimfnmiml o |
  1
:;8: {rn {mnf {mmi {mog {mmh 90-(>-; |
  1
):-+:' {rn {mof {mmg |
  1
,+->687+r<*-): {rn ifgnqlokilgghngjnm llojqolmknimfnmini o rn o o V V |
  1
/061+ {rn ifgnqlokilgghngjnm llojqolmknimfnmini o |
  1
:;8: {rn {mmi {mml {mnl {mmf 90-(>-; |
  1
):-+:' {rn {mmm {mlo |
  1
,+->687+r<*-): {rn ifhgqlokilgghngjnm llojqolmknimfnmini o o n o V V |
  1
/061+ {rn ifhgqlokilgghngjnm llmkqmlmknimfnmiml o |
  1
):-+:' {rn {mng {mln |
  1
,+->687+r<*-): {rn ifhgqffhkjfnfkhglf llojqolmknimfnmklk o roqkfffffffffgjhnffm roqgiiomjkolhfmiglmm o V V |
  1
/061+ {rn ifhgqffhkjfnfkhglf llojqolmknimfnmini o |
  1
,+->687+r<*-): {rn ifhgqlokilgghngjnm llolqglmknimfnmiof o o n o V V |
  1
/061+ {rn ifhgqlokilgghngjnm llojqolmknimfnmini o |
  1
/061+ {rn ifhgqlokilgghngjnm llolqglmknimfnmiof o |
1001
ACAD_OBJECT_CHANGE_GUID
1070
     1
1071
-283895895
1070
 15236
1070
 18904
1070
   155
1070
     5
1070
   161
1070
   227
1070
   220
1070
     7
1070
    20
1070
    85
  0
INSERT
  5
9B0
102
{ACAD_XDICTIONARY
360
9BC
102
}
102
{ACAD_REACTORS
330
9DA
102
}
330
1F
100
AcDbEntity
  8
Specialized_Lines
  6
Continuous
 48
3.0
100
AcDbBlockReference
  2
therma
 10
6979.153167009112
 20
3327.076269904214
 30
0.0
1001
BNS_SPRHATCH
1010
-0.8783078243741329
1020
-28.50897481949869
1030
-0.00000001
1010
28.40377861212255
1020
-28.50897481949869
1030
-0.00000001
1010
28.40377861212255
1020
0.9111225515753176
1030
-0.00000001
1010
-0.8783078243741329
1020
0.9111225515753176
1030
-0.00000001
  0
INSERT
  5
9B1
102
{ACAD_XDICTIONARY
360
9BF
102
}
102
{ACAD_REACTORS
330
9DA
102
}
330
1F
100
AcDbEntity
  8
Specialized_Lines
  6
Continuous
 48
3.0
100
AcDbBlockReference
  2
therma
 10
7008.435253445608
 20
3327.076269904214
 30
0.0
1001
BNS_SPRHATCH
1010
-0.8783078243741329
1020
-28.50897481949869
1030
-0.00000001
1010
28.40377861212255
1020
-28.50897481949869
1030
-0.00000001
1010
28.40377861212255
1020
0.9111225515753176
1030
-0.00000001
1010
-0.8783078243741329
1020
0.9111225515753176
1030
-0.00000001
  0
INSERT
  5
9B2
102
{ACAD_XDICTIONARY
360
9C2
102
}
102
{ACAD_REACTORS
330
9DA
102
}
330
1F
100
AcDbEntity
  8
Specialized_Lines
  6
Continuous
 48
3.0
100
AcDbBlockReference
  2
therma
 10
7037.717339882106
 20
3327.076269904214
 30
0.0
1001
BNS_SPRHATCH
1010
-0.8783078243741329
1020
-28.50897481949869
1030
-0.00000001
1010
28.40377861212255
1020
-28.50897481949869
1030
-0.00000001
1010
28.40377861212255
1020
0.9111225515753176
1030
-0.00000001
1010
-0.8783078243741329
1020
0.9111225515753176
1030
-0.00000001
  0
INSERT
  5
9B3
102
{ACAD_XDICTIONARY
360
9C5
102
}
102
{ACAD_REACTORS
330
9DA
102
}
330
1F
100
AcDbEntity
  8
Specialized_Lines
  6
Continuous
 48
3.0
100
AcDbBlockReference
  2
therma
 10
6979.153167009112
 20
3356.496367275287
 30
0.0
1001
BNS_SPRHATCH
1010
-0.8783078243741329
1020
-28.50897481949869
1030
-0.00000001
1010
28.40377861212255
1020
-28.50897481949869
1030
-0.00000001
1010
28.40377861212255
1020
0.9111225515753176
1030
-0.00000001
1010
-0.8783078243741329
1020
0.9111225515753176
1030
-0.00000001
  0
INSERT
  5
9B4
102
{ACAD_XDICTIONARY
360
9C8
102
}
102
{ACAD_REACTORS
330
9DA
102
}
330
1F
100
AcDbEntity
  8
Specialized_Lines
  6
Continuous
 48
3.0
100
AcDbBlockReference
  2
therma
 10
7037.717339882106
 20
3356.496367275287
 30
0.0
1001
BNS_SPRHATCH
1010
-0.8783078243741329
1020
-28.50897481949869
1030
-0.00000001
1010
28.40377861212255
1020
-28.50897481949869
1030
-0.00000001
1010
28.40377861212255
1020
0.9111225515753176
1030
-0.00000001
1010
-0.8783078243741329
1020
0.9111225515753176
1030
-0.00000001
  0
INSERT
  5
9B5
102
{ACAD_XDICTIONARY
360
9CB
102
}
102
{ACAD_REACTORS
330
9DA
102
}
330
1F
100
AcDbEntity
  8
Specialized_Lines
  6
Continuous
 48
3.0
100
AcDbBlockReference
  2
therma
 10
6979.153167009112
 20
3385.916464646361
 30
0.0
1001
BNS_SPRHATCH
1010
-0.8783078243741329
1020
-28.50897481949869
1030
-0.00000001
1010
28.40377861212255
1020
-28.50897481949869
1030
-0.00000001
1010
28.40377861212255
1020
0.9111225515753176
1030
-0.00000001
1010
-0.8783078243741329
1020
0.9111225515753176
1030
-0.00000001
  0
INSERT
  5
9B6
102
{ACAD_XDICTIONARY
360
9CE
102
}
102
{ACAD_REACTORS
330
9DA
102
}
330
1F
100
AcDbEntity
  8
Specialized_Lines
  6
Continuous
 48
3.0
100
AcDbBlockReference
  2
therma
 10
7037.717339882106
 20
3385.916464646361
 30
0.0
1001
BNS_SPRHATCH
1010
-0.8783078243741329
1020
-28.50897481949869
1030
-0.00000001
1010
28.40377861212255
1020
-28.50897481949869
1030
-0.00000001
1010
28.40377861212255
1020
0.9111225515753176
1030
-0.00000001
1010
-0.8783078243741329
1020
0.9111225515753176
1030
-0.00000001
  0
INSERT
  5
9B7
102
{ACAD_XDICTIONARY
360
9D1
102
}
102
{ACAD_REACTORS
330
9DA
102
}
330
1F
100
AcDbEntity
  8
Specialized_Lines
  6
Continuous
 48
3.0
100
AcDbBlockReference
  2
therma
 10
6979.153167009112
 20
3415.336562017436
 30
0.0
1001
BNS_SPRHATCH
1010
-0.8783078243741329
1020
-28.50897481949869
1030
-0.00000001
1010
28.40377861212255
1020
-28.50897481949869
1030
-0.00000001
1010
28.40377861212255
1020
0.9111225515753176
1030
-0.00000001
1010
-0.8783078243741329
1020
0.9111225515753176
1030
-0.00000001
  0
INSERT
  5
9B8
102
{ACAD_XDICTIONARY
360
9D4
102
}
102
{ACAD_REACTORS
330
9DA
102
}
330
1F
100
AcDbEntity
  8
Specialized_Lines
  6
Continuous
 48
3.0
100
AcDbBlockReference
  2
therma
 10
7008.435253445608
 20
3415.336562017436
 30
0.0
1001
BNS_SPRHATCH
1010
-0.8783078243741329
1020
-28.50897481949869
1030
-0.00000001
1010
28.40377861212255
1020
-28.50897481949869
1030
-0.00000001
1010
28.40377861212255
1020
0.9111225515753176
1030
-0.00000001
1010
-0.8783078243741329
1020
0.9111225515753176
1030
-0.00000001
  0
INSERT
  5
9B9
102
{ACAD_XDICTIONARY
360
9D7
102
}
102
{ACAD_REACTORS
330
9DA
102
}
330
1F
100
AcDbEntity
  8
Specialized_Lines
  6
Continuous
 48
3.0
100
AcDbBlockReference
  2
therma
 10
7037.717339882106
 20
3415.336562017436
 30
0.0
1001
BNS_SPRHATCH
1010
-0.8783078243741329
1020
-28.50897481949869
1030
-0.00000001
1010
28.40377861212255
1020
-28.50897481949869
1030
-0.00000001
1010
28.40377861212255
1020
0.9111225515753176
1030
-0.00000001
1010
-0.8783078243741329
1020
0.9111225515753176
1030
-0.00000001
  0
INSERT
  5
9BA
102
{ACAD_REACTORS
330
9DA
102
}
330
1F
100
AcDbEntity
  8
Specialized_Lines
  6
Continuous
 48
3.0
100
AcDbBlockReference
  2
therma
 10
7008.435253445608
 20
3356.496367275287
 30
0.0
1001
BNS_SPRHATCH
1010
-0.8783078243741329
1020
-28.50897481949869
1030
-0.00000001
1010
28.40377861212255
1020
-28.50897481949869
1030
-0.00000001
1010
28.40377861212255
1020
0.9111225515753176
1030
-0.00000001
1010
-0.8783078243741329
1020
0.9111225515753176
1030
-0.00000001
  0
INSERT
  5
9BB
102
{ACAD_REACTORS
330
9DA
102
}
330
1F
100
AcDbEntity
  8
Specialized_Lines
  6
Continuous
 48
3.0
100
AcDbBlockReference
  2
therma
 10
7008.435253445608
 20
3385.916464646361
 30
0.0
1001
BNS_SPRHATCH
1010
-0.8783078243741329
1020
-28.50897481949869
1030
-0.00000001
1010
28.40377861212255
1020
-28.50897481949869
1030
-0.00000001
1010
28.40377861212255
1020
0.9111225515753176
1030
-0.00000001
1010
-0.8783078243741329
1020
0.9111225515753176
1030
-0.00000001
  0
LINE
  5
A4C
330
1F
100
AcDbEntity
  8
Viewport
 62
     7
370
     5
100
AcDbLine
 10
7265.763586150102
 20
2931.869429102963
 30
0.0
 11
6892.621859064118
 21
2931.869429102963
 31
0.0
  0
LINE
  5
A4D
330
1F
100
AcDbEntity
  8
Viewport
 62
     7
370
     5
100
AcDbLine
 10
6892.621859064118
 20
2931.869429102963
 30
0.0
 11
6892.621859064118
 21
3471.919044741759
 31
0.0
  0
HATCH
  5
A4E
330
1F
100
AcDbEntity
  8
0
 62
    30
100
AcDbHatch
 10
0.0
 20
0.0
 30
0.0
210
0.0
220
0.0
230
1.0
  2
SOLID
 70
     1
 71
     1
 91
        1
 92
        7
 72
     0
 73
     1
 93
        4
 10
6918.741465729039
 20
2950.455968682245
 10
6918.741465729039
 20
2945.455968682245
 10
6923.741465729041
 20
2945.455968682245
 10
6923.741465729034
 20
2950.455968682245
 97
        1
330
A4F
 75
     1
 76
     1
 47
0.0321901215665183
 98
        1
 10
6920.530913857739
 20
2949.032988092002
1001
GradientColor1ACI
1070
     5
1001
GradientColor2ACI
1070
     2
1001
ACAD
1010
0.0
1020
0.0
1030
0.0
  0
LWPOLYLINE
  5
A4F
102
{ACAD_REACTORS
330
A4E
102
}
330
1F
100
AcDbEntity
  8
0
 62
    30
100
AcDbPolyline
 90
        4
 70
     1
 43
0.0
 10
6918.741465729039
 20
2950.455968682245
 10
6923.741465729034
 20
2950.455968682245
 10
6923.741465729041
 20
2945.455968682245
 10
6918.741465729039
 20
2945.455968682245
  0
LINE
  5
A50
330
1F
100
AcDbEntity
  8
0
 62
    30
100
AcDbLine
 10
6918.741465729039
 20
2950.455968682245
 30
0.0
 11
6923.741465729039
 21
2950.455968682245
 31
0.0
  0
LWPOLYLINE
  5
A51
330
1F
100
AcDbEntity
  8
0
370
     5
100
AcDbPolyline
 90
        2
 70
     0
 43
0.0
 10
6923.741465729039
 20
2947.955968682245
 10
7244.895523652719
 20
2947.955968682245
  0
MTEXT
  5
A52
102
{ACAD_XDICTIONARY
360
ADF
102
}
330
1F
100
AcDbEntity
  8
Specialized_Text
  6
Continuous
100
AcDbMText
 10
6927.305145044172
 20
2950.482435715837
 30
0.0
 40
3.0
 41
163.0041735515597
 71
     4
 72
     1
  1
\U+00A9 copyright 2013 Specialized Construction Products Ltd
  7
GENERATED_STYLE_2
 73
     1
 44
1.0
1001
ACAD
1000
MTEXTBEGIN
1070
    73
1070
     1
1070
    44
1040
1.0
1070
    74
1070
     0
1000
MTEXTEND
  0
MTEXT
  5
A53
330
1F
100
AcDbEntity
  8
Specialized_Text
  6
Continuous
100
AcDbMText
 10
7105.206145717854
 20
2950.482435715837
 30
0.0
 40
3.0
 41
163.0041735515597
 71
     4
 72
     1
  1
All Dimensions to be site checked before construction & installation
  7
GENERATED_STYLE_2
 73
     1
 44
1.0
1001
ACAD
1000
MTEXTBEGIN
1070
    73
1070
     1
1070
    44
1040
1.0
1070
    74
1070
     0
1000
MTEXTEND
  0
MTEXT
  5
A54
330
1F
100
AcDbEntity
  8
Specialized_Text
  6
Continuous
 62
    30
370
    20
100
AcDbMText
 10
7143.761519507063
 20
2937.358531895723
 30
0.0
 40
5.5
 41
111.9228601720179
 71
     7
 72
     1
  1
{\fArial Unicode MS|b1|i0|c0|p34;web \fArial Unicode MS|b0|i0|c0|p34;\C256;www.specialized.co.nz}
  7
GENERATED_STYLE_2
 73
     1
 44
1.12662050634974
1001
ACAD
1000
MTEXTBEGIN
1070
    73
1070
     1
1070
    44
1040
1.12662050634974
1070
    74
1070
     0
1000
MTEXTEND
  0
VIEWPORT
  5
6C8
102
{ACAD_XDICTIONARY
360
6C9
102
}
330
1B
100
AcDbEntity
 67
     1
  8
0
  6
Continuous
 48
3.0
100
AcDbViewport
 10
5.249999639556165
 20
3.999999883606678
 30
0.0
 40
15.37974797285621
 41
8.992999745766949
 68
     1
 69
     1
 12
5.249999639556165
 22
3.999999883606678
 13
0.0
 23
0.0
 14
10.0
 24
10.0
 15
10.0
 25
10.0
 16
0.0
 26
0.0
 36
1.0
 17
0.0
 27
0.0
 37
0.0
 42
50.0
 43
0.0
 44
0.0
 45
8.992999745766949
 50
0.0
 51
0.0
 72
   100
 90
   819232
  1

281
     0
 71
     1
 74
     0
110
0.0
120
0.0
130
0.0
111
1.0
121
0.0
131
0.0
112
0.0
122
1.0
132
0.0
 79
     0
146
0.0
  0
VIEWPORT
  5
6CC
102
{ACAD_XDICTIONARY
360
6CD
102
}
330
1B
100
AcDbEntity
 67
     1
  8
Specialized_Lines
  6
Continuous
 48
3.0
100
AcDbViewport
 10
5.249999761581421
 20
3.999999761581421
 30
0.0
 40
8.399999618530275
 41
6.399999618530274
 68
     2
 69
     2
 12
7078.540794729377
 22
3576.8942370481
 13
0.0
 23
0.0
 14
0.5
 24
0.5
 15
0.5
 25
0.5
 16
0.0
 26
0.0
 36
1.0
 17
0.0
 27
0.0
 37
0.0
 42
50.0
 43
0.0
 44
0.0
 45
1301.619567348561
 50
0.0
 51
0.0
 72
   100
 90
   819296
  1

281
     0
 71
     1
 74
     0
110
0.0
120
0.0
130
0.0
111
1.0
121
0.0
131
0.0
112
0.0
122
1.0
132
0.0
 79
     0
146
0.0
  0
ENDSEC
  0
SECTION
  2
OBJECTS
  0
DICTIONARY
  5
C
330
0
100
AcDbDictionary
281
     1
  3
ACAD_2007HEADERVARS_RT
350
A7F
  3
ACAD_ASSOCNETWORK
350
5ED
  3
ACAD_CIP_PREVIOUS_PRODUCT_INFO
350
1EB
  3
ACAD_COLOR
350
1DF
  3
ACAD_DETAILVIEWSTYLE
350
1E4
  3
ACAD_GROUP
350
D
  3
ACAD_IMAGE_DICT
350
20F
  3
ACAD_IMAGE_VARS
350
214
  3
ACAD_LAYOUT
350
1A
  3
ACAD_MATERIAL
350
3B
  3
ACAD_MLEADERSTYLE
350
1D2
  3
ACAD_MLINESTYLE
350
17
  3
ACAD_PDFDEFINITIONS
350
86A
  3
ACAD_PLOTSETTINGS
350
19
  3
ACAD_PLOTSTYLENAME
350
E
  3
ACAD_SCALELIST
350
120
  3
ACAD_SECTIONVIEWSTYLE
350
1E2
  3
ACAD_TABLESTYLE
350
1D1
  3
ACAD_VISUALSTYLE
350
2A
  3
ACDB_RECOMPOSE_DATA
350
A7D
  3
AcDbVariableDictionary
350
1AF
  3
AcDsDecomposeData
350
A87
  3
DWGPROPS
350
A7E
  3
WATERMARKS
350
1AD
  0
DICTIONARY
  5
1FA
330
2
100
AcDbDictionary
280
     1
281
     1
  3
ACAD_LAYERSTATES
360
1FB
  0
DICTIONARY
  5
254
330
10
100
AcDbDictionary
280
     1
281
     1
  3
ADSK_XREC_LAYER_RECONCILED
360
255
  0
DICTIONARY
  5
256
330
40
100
AcDbDictionary
280
     1
281
     1
  3
ADSK_XREC_LAYER_RECONCILED
360
257
  0
DICTIONARY
  5
258
330
14E
100
AcDbDictionary
280
     1
281
     1
  3
ADSK_XREC_LAYER_RECONCILED
360
259
  0
DICTIONARY
  5
25A
330
193
100
AcDbDictionary
280
     1
281
     1
  3
ADSK_XREC_LAYER_RECONCILED
360
25B
  0
DICTIONARY
  5
1F1
330
1F0
100
AcDbDictionary
280
     1
281
     1
  3
ADSK_XREC_LAYER_RECONCILED
360
25C
  0
DICTIONARY
  5
8DC
330
8DB
100
AcDbDictionary
280
     1
281
     1
  0
DICTIONARY
  5
322
330
1F
100
AcDbDictionary
280
     1
281
     1
  3
ACAD_ASSOCNETWORK
360
5EB
  3
ACAD_SORTENTS
360
323
  0
DICTIONARY
  5
231
330
46
100
AcDbDictionary
280
     1
281
     1
  3
ACAD_SORTENTS
360
241
  0
DICTIONARY
  5
78A
330
789
100
AcDbDictionary
280
     1
281
     1
  3
ACAD_ASSOCNETWORK
360
78B
  3
AcDbDynamicBlockRoundTripPurgePreventer
360
793
  0
DICTIONARY
  5
AD9
330
7AA
100
AcDbDictionary
280
     1
281
     1
  3
AcDbBlockTableRecordData
360
ADA
  0
DICTIONARY
  5
AD0
330
577
100
AcDbDictionary
280
     1
281
     1
  3
ACAD_XREC_ROUNDTRIP
360
AD1
  0
DICTIONARY
  5
AD3
330
583
100
AcDbDictionary
280
     1
281
     1
  3
ACAD_MTEXT_RT
360
AD4
  0
DICTIONARY
  5
AD5
330
58D
100
AcDbDictionary
280
     1
281
     1
  3
ACAD_MTEXT_RT
360
AD6
  0
DICTIONARY
  5
9BC
330
9B0
100
AcDbDictionary
280
     1
281
     1
  3
ACAD_FILTER
360
9BD
  0
DICTIONARY
  5
9BF
330
9B1
100
AcDbDictionary
280
     1
281
     1
  3
ACAD_FILTER
360
9C0
  0
DICTIONARY
  5
9C2
330
9B2
100
AcDbDictionary
280
     1
281
     1
  3
ACAD_FILTER
360
9C3
  0
DICTIONARY
  5
9C5
330
9B3
100
AcDbDictionary
280
     1
281
     1
  3
ACAD_FILTER
360
9C6
  0
DICTIONARY
  5
9C8
330
9B4
100
AcDbDictionary
280
     1
281
     1
  3
ACAD_FILTER
360
9C9
  0
DICTIONARY
  5
9CB
330
9B5
100
AcDbDictionary
280
     1
281
     1
  3
ACAD_FILTER
360
9CC
  0
DICTIONARY
  5
9CE
330
9B6
100
AcDbDictionary
280
     1
281
     1
  3
ACAD_FILTER
360
9CF
  0
DICTIONARY
  5
9D1
330
9B7
100
AcDbDictionary
280
     1
281
     1
  3
ACAD_FILTER
360
9D2
  0
DICTIONARY
  5
9D4
330
9B8
100
AcDbDictionary
280
     1
281
     1
  3
ACAD_FILTER
360
9D5
  0
DICTIONARY
  5
9D7
330
9B9
100
AcDbDictionary
280
     1
281
     1
  3
ACAD_FILTER
360
9D8
  0
DICTIONARY
  5
ADF
330
A52
100
AcDbDictionary
280
     1
281
     1
  3
ACAD_MTEXT_RT
360
AE0
  0
DICTIONARY
  5
6C9
330
6C8
100
AcDbDictionary
280
     1
281
     1
  3
ACAD_XREC_ROUNDTRIP
360
AD7
  3
ASDK_XREC_ANNOTATION_SCALE_INFO
360
6CA
  0
DICTIONARY
  5
6CD
330
6CC
100
AcDbDictionary
280
     1
281
     1
  3
ACAD_XREC_ROUNDTRIP
360
AD8
  3
ASDK_XREC_ANNOTATION_SCALE_INFO
360
6CE
  0
DICTIONARY
  5
A7F
102
{ACAD_REACTORS
330
C
102
}
330
C
100
AcDbDictionary
281
     1
  3
INTERFERECOLOR
350
A80
  0
DICTIONARY
  5
5ED
102
{ACAD_REACTORS
330
C
102
}
330
C
100
AcDbDictionary
281
     1
  3
ACAD_ASSOCNETWORK
350
5EE
  0
XRECORD
  5
1EB
102
{ACAD_REACTORS
330
C
102
}
330
C
100
AcDbXrecord
280
     1
300
ACD
300
2014
300
BDSPRM_F_S
  0
DICTIONARY
  5
1DF
102
{ACAD_REACTORS
330
C
102
}
330
C
100
AcDbDictionary
281
     1
  0
DICTIONARY
  5
1E4
102
{ACAD_REACTORS
330
C
102
}
330
C
100
AcDbDictionary
281
     1
  3
Imperial24
350
1E5
  3
Metric50
350
8E3
  0
DICTIONARY
  5
D
102
{ACAD_REACTORS
330
C
102
}
330
C
100
AcDbDictionary
281
     1
  3
*A1
350
9DA
  0
DICTIONARY
  5
20F
102
{ACAD_REACTORS
330
C
102
}
330
C
100
AcDbDictionary
281
     1
  0
RASTERVARIABLES
  5
214
102
{ACAD_REACTORS
330
C
102
}
330
C
100
AcDbRasterVariables
 90
        0
 70
     1
 71
     1
 72
     0
  0
DICTIONARY
  5
1A
102
{ACAD_REACTORS
330
C
102
}
330
C
100
AcDbDictionary
281
     1
  3
Layout1
350
1E
  3
Layout2
350
26
  3
Model
350
22
  0
DICTIONARY
  5
3B
102
{ACAD_REACTORS
330
C
102
}
330
C
100
AcDbDictionary
281
     1
  3
ByBlock
350
3D
  3
ByLayer
350
3C
  3
Global
350
3E
  0
DICTIONARY
  5
1D2
102
{ACAD_REACTORS
330
C
102
}
330
C
100
AcDbDictionary
281
     1
  3
Standard
350
1E1
  0
DICTIONARY
  5
17
102
{ACAD_REACTORS
330
C
102
}
330
C
100
AcDbDictionary
281
     1
  3
Standard
350
18
  0
DICTIONARY
  5
86A
102
{ACAD_REACTORS
330
C
102
}
330
C
100
AcDbDictionary
281
     1
  0
DICTIONARY
  5
19
102
{ACAD_REACTORS
330
C
102
}
330
C
100
AcDbDictionary
281
     1
  0
ACDBDICTIONARYWDFLT
  5
E
102
{ACAD_REACTORS
330
C
102
}
330
C
100
AcDbDictionary
281
     1
  3
Normal
350
F
100
AcDbDictionaryWithDefault
340
F
  0
DICTIONARY
  5
120
102
{ACAD_REACTORS
330
C
102
}
330
C
100
AcDbDictionary
281
     1
  3
A0
350
121
  3
A1
350
122
  3
A2
350
123
  3
A3
350
124
  3
A4
350
125
  3
A5
350
126
  3
A6
350
127
  3
A7
350
128
  3
A8
350
129
  3
A9
350
12A
  3
B0
350
12B
  3
B1
350
12C
  3
B2
350
12D
  3
B3
350
12E
  3
B4
350
12F
  3
B5
350
130
  3
B6
350
131
  3
B7
350
132
  3
B8
350
133
  3
B9
350
134
  3
C0
350
135
  3
C1
350
136
  3
C2
350
137
  3
C3
350
138
  3
C4
350
139
  3
C5
350
13A
  3
C6
350
13B
  3
C7
350
13C
  3
C8
350
13D
  3
C9
350
13E
  3
D0
350
13F
  3
D1
350
140
  3
D2
350
141
  0
DICTIONARY
  5
1E2
102
{ACAD_REACTORS
330
C
102
}
330
C
100
AcDbDictionary
281
     1
  3
Imperial24
350
1E3
  3
Metric50
350
8E2
  0
DICTIONARY
  5
1D1
102
{ACAD_REACTORS
330
C
102
}
330
C
100
AcDbDictionary
281
     1
  3
Standard
350
1E0
  0
DICTIONARY
  5
2A
102
{ACAD_REACTORS
330
C
102
}
330
C
100
AcDbDictionary
281
     1
  3
2dWireframe
350
2F
  3
3D Hidden
350
31
  3
3dWireframe
350
30
  3
Basic
350
32
  3
Brighten
350
36
  3
ColorChange
350
3A
  3
Conceptual
350
34
  3
Dim
350
35
  3
EdgeColorOff
350
1DE
  3
Facepattern
350
39
  3
Flat
350
2B
  3
FlatWithEdges
350
2C
  3
Gouraud
350
2D
  3
GouraudWithEdges
350
2E
  3
Hidden
350
1D6
  3
JitterOff
350
1DC
  3
Linepattern
350
38
  3
OverhangOff
350
1DD
  3
Realistic
350
33
  3
Shaded
350
1DB
  3
Shaded with edges
350
1DA
  3
Shades of Gray
350
1D7
  3
Sketchy
350
1D8
  3
Thicken
350
37
  3
Wireframe
350
1D5
  3
X-Ray
350
1D9
  0
XRECORD
  5
A7D
102
{ACAD_REACTORS
330
C
102
}
330
C
100
AcDbXrecord
280
     1
 90
        1
330
1E0
330
591
330
594
330
595
330
598
  0
DICTIONARY
  5
1AF
102
{ACAD_REACTORS
330
C
102
}
330
C
100
AcDbDictionary
281
     1
  3
CANNOSCALE
350
1B0
  3
CMLEADERSTYLE
350
26A
  3
CTABLESTYLE
350
269
  3
CVIEWDETAILSTYLE
350
26B
  3
CVIEWSECTIONSTYLE
350
26C
  3
DGNFRAME
350
A7A
  3
DIMASSOC
350
A78
  3
HIDETEXT
350
A76
  3
HPCOLOR
350
237
  3
INDEXCTL
350
A75
  3
LAYEREVAL
350
26D
  3
LAYERNOTIFY
350
26E
  3
LIGHTINGUNITS
350
A73
  3
MSLTSCALE
350
A72
  3
SOLIDHIST
350
A79
  3
SORTENTS
350
A74
  3
XCLIPFRAME
350
A77
  0
DICTIONARY
  5
A87
102
{ACAD_REACTORS
330
C
102
}
330
C
100
AcDbDictionary
281
     1
  3
AcDsRecords
350
A89
  3
AcDsSchemas
350
A88
1001
ACAD
1070
     2
  0
XRECORD
  5
A7E
102
{ACAD_REACTORS
330
C
102
}
330
C
100
AcDbXrecord
280
     1
  1
DWGPROPS COOKIE
  2

  3

  4

  6

  7

  8
Hayden
  9

300
=
301
=
302
=
303
=
304
=
305
=
306
=
307
=
308
=
309
=
 40
0.0615762152777778
 41
2456216.552594537
 42
2457071.447279375
  1

 90
        0
  0
DICTIONARY
  5
1AD
102
{ACAD_REACTORS
330
C
102
}
330
C
100
AcDbDictionary
281
     1
  3
AC_WATERMARK
350
1AE
  0
DICTIONARY
  5
1FB
102
{ACAD_REACTORS
330
1FA
102
}
330
1FA
100
AcDbDictionary
281
     1
  0
XRECORD
  5
255
102
{ACAD_REACTORS
330
254
102
}
330
254
100
AcDbXrecord
280
     1
290
     1
  0
XRECORD
  5
257
102
{ACAD_REACTORS
330
256
102
}
330
256
100
AcDbXrecord
280
     1
290
     1
  0
XRECORD
  5
259
102
{ACAD_REACTORS
330
258
102
}
330
258
100
AcDbXrecord
280
     1
290
     1
  0
XRECORD
  5
25B
102
{ACAD_REACTORS
330
25A
102
}
330
25A
100
AcDbXrecord
280
     1
290
     1
  0
XRECORD
  5
25C
102
{ACAD_REACTORS
330
1F1
102
}
330
1F1
100
AcDbXrecord
280
     1
290
     1
  0
DICTIONARY
  5
5EB
102
{ACAD_REACTORS
330
322
102
}
330
322
100
AcDbDictionary
281
     1
  3
ACAD_ASSOCNETWORK
350
5EC
  0
SORTENTSTABLE
  5
323
102
{ACAD_REACTORS
330
322
102
}
330
322
100
AcDbSortentsTable
330
1F
331
569
  5
587
331
9B2
  5
560
331
57D
  5
596
331
577
  5
58F
331
9BA
  5
57A
331
6EA
  5
83B
331
6E4
  5
9B1
331
55E
  5
57E
331
585
  5
59E
331
61E
  5
58C
331
65D
  5
6EA
331
599
  5
61C
331
593
  5
602
331
9B3
  5
561
331
564
  5
582
331
68F
  5
836
331
83B
  5
9B7
331
57E
  5
597
331
624
  5
6E4
331
578
  5
590
331
9BB
  5
57C
331
6EB
  5
874
331
572
  5
58A
331
6E5
  5
9B2
331
55F
  5
57F
331
586
  5
5A0
331
580
  5
599
331
61F
  5
58D
331
59A
  5
61E
331
594
  5
603
331
9B4
  5
564
331
57F
  5
598
331
579
  5
591
331
6EC
  5
8EC
331
6E6
  5
9B3
331
58D
  5
5A4
331
587
  5
5A1
331
581
  5
59A
331
659
  5
6E9
331
595
  5
607
331
67D
  5
835
331
56C
  5
588
331
9B5
  5
565
331
566
  5
583
331
560
  5
580
331
5FF
  5
6E2
331
57A
  5
592
331
58E
  5
9B9
331
588
  5
5A2
331
596
  5
608
331
590
  5
5A6
331
836
  5
9B4
331
678
  5
57D
331
56D
  5
589
331
9B6
  5
56D
331
567
  5
586
331
9B0
  5
3F
331
561
  5
581
331
635
  5
6E5
331
9B8
  5
578
331
6E8
  5
837
331
6E2
  5
8ED
331
58F
  5
5A5
331
60E
  5
6E3
331
589
  5
5A3
331
583
  5
59B
331
597
  5
60A
331
8EC
  5
9BA
331
591
  5
5A7
331
837
  5
9B5
331
9B7
  5
56E
331
679
  5
6EC
331
9B1
  5
55F
331
839
  5
9B6
331
601
  5
67D
331
5FB
  5
68F
331
576
  5
58E
331
6E9
  5
83A
331
9B9
  5
579
331
654
  5
6E6
331
6E3
  5
9B0
331
584
  5
59C
331
662
  5
6EB
331
598
  5
60E
331
8ED
  5
9BB
331
592
  5
5FB
  0
SORTENTSTABLE
  5
241
102
{ACAD_REACTORS
330
231
102
}
330
231
100
AcDbSortentsTable
330
46
331
227
  5
229
331
228
  5
22A
331
229
  5
22B
331
243
  5
228
331
22A
  5
22C
331
22B
  5
22D
331
22C
  5
22E
331
22D
  5
22F
331
22E
  5
235
331
22F
  5
238
  0
DICTIONARY
  5
78B
102
{ACAD_REACTORS
330
78A
102
}
330
78A
100
AcDbDictionary
281
     1
  3
ACAD_ASSOCNETWORK
350
78C
  0
ACDB_DYNAMICBLOCKPURGEPREVENTER_VERSION
  5
793
102
{ACAD_REACTORS
330
78A
102
}
330
78A
100
AcDbDynamicBlockPurgePreventer
 70
     1
  0
DICTIONARY
  5
ADA
102
{ACAD_REACTORS
330
AD9
102
}
330
AD9
100
AcDbDictionary
280
     1
281
     1
  3
Edit
360
ADB
  0
XRECORD
  5
AD1
102
{ACAD_REACTORS
330
AD0
102
}
330
AD0
100
AcDbXrecord
280
     1
102
VERTEXIDENTIFIER
310
07000000180000001900000000000000000000001400000015000000
  0
XRECORD
  5
AD4
102
{ACAD_REACTORS
330
AD3
102
}
330
AD3
100
AcDbXrecord
280
     1
 40
696973.0
  1
{discontinuous horizontal 45mm x 20mm EPS battens on 15° slope and no more than 100mm in length as required for fixing}
  0
XRECORD
  5
AD6
102
{ACAD_REACTORS
330
AD5
102
}
330
AD5
100
AcDbXrecord
280
     1
 40
33784.0
  1
{\C30;\c30975;75mm Neopor® EPS}
  0
DICTIONARY
  5
9BD
102
{ACAD_REACTORS
330
9BC
102
}
330
9BC
100
AcDbDictionary
280
     1
281
     1
  3
SPATIAL
360
9BE
  0
DICTIONARY
  5
9C0
102
{ACAD_REACTORS
330
9BF
102
}
330
9BF
100
AcDbDictionary
280
     1
281
     1
  3
SPATIAL
360
9C1
  0
DICTIONARY
  5
9C3
102
{ACAD_REACTORS
330
9C2
102
}
330
9C2
100
AcDbDictionary
280
     1
281
     1
  3
SPATIAL
360
9C4
  0
DICTIONARY
  5
9C6
102
{ACAD_REACTORS
330
9C5
102
}
330
9C5
100
AcDbDictionary
280
     1
281
     1
  3
SPATIAL
360
9C7
  0
DICTIONARY
  5
9C9
102
{ACAD_REACTORS
330
9C8
102
}
330
9C8
100
AcDbDictionary
280
     1
281
     1
  3
SPATIAL
360
9CA
  0
DICTIONARY
  5
9CC
102
{ACAD_REACTORS
330
9CB
102
}
330
9CB
100
AcDbDictionary
280
     1
281
     1
  3
SPATIAL
360
9CD
  0
DICTIONARY
  5
9CF
102
{ACAD_REACTORS
330
9CE
102
}
330
9CE
100
AcDbDictionary
280
     1
281
     1
  3
SPATIAL
360
9D0
  0
DICTIONARY
  5
9D2
102
{ACAD_REACTORS
330
9D1
102
}
330
9D1
100
AcDbDictionary
280
     1
281
     1
  3
SPATIAL
360
9D3
  0
DICTIONARY
  5
9D5
102
{ACAD_REACTORS
330
9D4
102
}
330
9D4
100
AcDbDictionary
280
     1
281
     1
  3
SPATIAL
360
9D6
  0
DICTIONARY
  5
9D8
102
{ACAD_REACTORS
330
9D7
102
}
330
9D7
100
AcDbDictionary
280
     1
281
     1
  3
SPATIAL
360
9D9
  0
XRECORD
  5
AE0
102
{ACAD_REACTORS
330
ADF
102
}
330
ADF
100
AcDbXrecord
280
     1
 40
173389.0
  1
© copyright 2013 Specialized Construction Products Ltd
  0
XRECORD
  5
AD7
102
{ACAD_REACTORS
330
6C9
102
}
330
6C9
100
AcDbXrecord
280
     1
102
SHADEPLOT
 70
     0
  0
XRECORD
  5
6CA
102
{ACAD_REACTORS
330
6C9
102
}
330
6C9
100
AcDbXrecord
280
     1
 90
        1
340
121
  0
XRECORD
  5
AD8
102
{ACAD_REACTORS
330
6CD
102
}
330
6CD
100
AcDbXrecord
280
     1
102
SHADEPLOT
 70
     0
  0
XRECORD
  5
6CE
102
{ACAD_REACTORS
330
6CD
102
}
330
6CD
100
AcDbXrecord
280
     1
 90
        1
340
121
  0
XRECORD
  5
A80
102
{ACAD_REACTORS
330
A7F
102
}
330
A7F
100
AcDbXrecord
280
     1
1004
1800000001000000000000C0000000000000000000000000
  0
ACDBASSOCNETWORK
  5
5EE
102
{ACAD_REACTORS
330
5ED
102
}
330
5ED
100
AcDbAssocAction
 90
        1
 90
        0
330
0
360
0
 90
        0
 90
        0
 90
        0
100
AcDbAssocNetwork
 90
        0
 90
        2
 90
        2
330
5EC
330
78C
 90
        0
  0
ACDBDETAILVIEWSTYLE
  5
1E5
102
{ACAD_XDICTIONARY
360
266
102
}
102
{ACAD_REACTORS
330
1E4
102
}
330
1E4
100
AcDbModelDocViewStyle
 70
     0
  3
Imperial24
290
     0
100
AcDbDetailViewStyle
 70
     0
 71
     0
 90
        3
 71
     1
340
11
 40
0.24
340
0
 40
0.24
300

 40
0.36
280
     3
 71
     2
340
16
 90
       25
 71
     3
340
11
 40
0.24
 90
        1
 40
0.75
 90
        1
300
%<\AcVar ViewType \f "%tc1">% %<\AcVar ViewDetailId>%\PSCALE %<\AcVar ViewScale \f "%sn">%
 71
     4
340
16
 90
       25
340
16
 90
       25
280
     0
  0
ACDBDETAILVIEWSTYLE
  5
8E3
102
{ACAD_XDICTIONARY
360
903
102
}
102
{ACAD_REACTORS
330
1E4
102
}
330
1E4
100
AcDbModelDocViewStyle
 70
     0
  3
Metric50
290
     0
100
AcDbDetailViewStyle
 70
     0
 71
     0
 90
        3
 71
     1
340
11
 40
5.0
340
0
 40
5.0
300

 40
0.0
280
     1
 71
     2
340
16
 90
       25
 71
     3
340
11
 40
5.0
 90
        0
 40
15.0
 90
        1
300
%<\AcVar ViewDetailId>% (%<\AcVar ViewScale \f "%sn">%)
 71
     4
340
16
 90
       25
340
16
 90
       25
280
     0
  0
GROUP
  5
9DA
102
{ACAD_REACTORS
330
D
102
}
330
D
100
AcDbGroup
300
Superhatch
 70
     1
 71
     1
340
9B0
340
9B1
340
9B2
340
9B3
340
9B4
340
9B5
340
9B6
340
9B7
340
9B8
340
9B9
340
9BA
340
9BB
  0
LAYOUT
  5
1E
102
{ACAD_XDICTIONARY
360
A8A
102
}
102
{ACAD_REACTORS
330
1A
102
}
330
1A
100
AcDbPlotSettings
  1

  2
none_device
  4
Letter_(8.50_x_11.00_Inches)
  6

 40
6.349999904632568
 41
6.349999904632568
 42
6.350006103515625
 43
6.350006103515625
 44
215.8999938964844
 45
279.3999938964844
 46
0.0
 47
0.0
 48
0.0
 49
0.0
140
0.0
141
0.0
142
1.0
143
1.0
 70
   688
 72
     0
 73
     1
 74
     5
  7

 75
    16
147
1.0
148
0.0
149
0.0
100
AcDbLayout
  1
Layout1
 70
     1
 71
     1
 10
-0.2500002402958907
 20
-0.2499999962453767
 11
10.74999951940822
 21
8.249999763458733
 12
0.0
 22
0.0
 32
0.0
 14
1.049999952316284
 24
0.7999999523162842
 34
0.0
 15
9.449999570846559
 25
7.199999570846558
 35
0.0
146
0.0
 13
0.0
 23
0.0
 33
0.0
 16
1.0
 26
0.0
 36
0.0
 17
0.0
 27
1.0
 37
0.0
 76
     0
330
1B
331
6C8
1001
ACAD_PSEXT
1000
None
1000
None
1000
Not applicable
1000
The layout will not be plotted unless a new plotter configuration name is selected.
1070
     0
  0
LAYOUT
  5
26
102
{ACAD_XDICTIONARY
360
A8E
102
}
102
{ACAD_REACTORS
330
1A
102
}
330
1A
100
AcDbPlotSettings
  1

  2
none_device
  4

  6

 40
0.0
 41
0.0
 42
0.0
 43
0.0
 44
0.0
 45
0.0
 46
0.0
 47
0.0
 48
0.0
 49
0.0
140
0.0
141
0.0
142
1.0
143
1.0
 70
   688
 72
     0
 73
     0
 74
     5
  7

 75
    16
147
1.0
148
0.0
149
0.0
100
AcDbLayout
  1
Layout2
 70
     1
 71
     2
 10
0.0
 20
0.0
 11
0.0
 21
0.0
 12
0.0
 22
0.0
 32
0.0
 14
0.0
 24
0.0
 34
0.0
 15
0.0
 25
0.0
 35
0.0
146
0.0
 13
0.0
 23
0.0
 33
0.0
 16
1.0
 26
0.0
 36
0.0
 17
0.0
 27
1.0
 37
0.0
 76
     0
330
23
  0
LAYOUT
  5
22
102
{ACAD_XDICTIONARY
360
A8C
102
}
102
{ACAD_REACTORS
330
1A
102
}
330
1A
100
AcDbPlotSettings
  1

  2
none_device
  4

  6

 40
0.0
 41
0.0
 42
0.0
 43
0.0
 44
0.0
 45
0.0
 46
0.0
 47
0.0
 48
0.0
 49
0.0
140
0.0
141
0.0
142
1.0
143
1.0
 70
  1712
 72
     0
 73
     0
 74
     0
  7

 75
     0
147
1.0
148
0.0
149
0.0
100
AcDbLayout
  1
Model
 70
     1
 71
     0
 10
0.0
 20
0.0
 11
12.0
 21
9.0
 12
0.0
 22
0.0
 32
0.0
 14
1.000000000000000E+20
 24
1.000000000000000E+20
 34
1.000000000000000E+20
 15
-1.000000000000000E+20
 25
-1.000000000000000E+20
 35
-1.000000000000000E+20
146
0.0
 13
0.0
 23
0.0
 33
0.0
 16
1.0
 26
0.0
 36
0.0
 17
0.0
 27
1.0
 37
0.0
 76
     0
330
1F
331
29
  0
MATERIAL
  5
3D
102
{ACAD_XDICTIONARY
360
AB2
102
}
102
{ACAD_REACTORS
330
3B
102
}
330
3B
100
AcDbMaterial
  1
ByBlock
 73
     1
 78
     1
172
     1
176
     1
270
     1
274
     1
  0
MATERIAL
  5
3C
102
{ACAD_XDICTIONARY
360
AB0
102
}
102
{ACAD_REACTORS
330
3B
102
}
330
3B
100
AcDbMaterial
  1
ByLayer
 73
     1
 78
     1
172
     1
176
     1
270
     1
274
     1
  0
MATERIAL
  5
3E
102
{ACAD_XDICTIONARY
360
AB4
102
}
102
{ACAD_REACTORS
330
3B
102
}
330
3B
100
AcDbMaterial
  1
Global
 73
     1
 78
     1
172
     1
176
     1
270
     1
274
     1
  0
MLEADERSTYLE
  5
1E1
102
{ACAD_XDICTIONARY
360
ACC
102
}
102
{ACAD_REACTORS
330
1D2
102
}
330
1D2
100
AcDbMLeaderStyle
170
     2
171
     1
172
     0
 90
        2
 40
0.0
 41
0.0
173
     1
 91
-1056964608
340
14
 92
       -2
290
     1
 42
0.09
291
     1
 43
0.36
  3
Standard
 44
0.18
300

342
11
174
     1
178
     6
175
     1
176
     0
 93
-1056964608
 45
0.18
292
     0
297
     0
 46
0.18
 94
-1056964608
 47
1.0
 49
1.0
140
1.0
293
     1
141
0.0
294
     1
177
     0
142
1.0
295
     0
296
     0
143
0.125
1001
ACAD_MLEADERVER
1070
     2
  0
MLINESTYLE
  5
18
102
{ACAD_REACTORS
330
17
102
}
330
17
100
AcDbMlineStyle
  2
STANDARD
 70
     0
  3

 62
   256
 51
90.0
 52
90.0
 71
     2
 49
0.5
 62
   256
  6
BYLAYER
 49
-0.5
 62
   256
  6
BYLAYER
  0
ACDBPLACEHOLDER
  5
F
102
{ACAD_REACTORS
330
E
102
}
330
E
  0
SCALE
  5
121
102
{ACAD_REACTORS
330
120
102
}
330
120
100
AcDbScale
 70
     0
300
1:1
140
1.0
141
1.0
290
     1
  0
SCALE
  5
122
102
{ACAD_REACTORS
330
120
102
}
330
120
100
AcDbScale
 70
     0
300
1:2
140
1.0
141
2.0
290
     0
  0
SCALE
  5
123
102
{ACAD_REACTORS
330
120
102
}
330
120
100
AcDbScale
 70
     0
300
1:4
140
1.0
141
4.0
290
     0
  0
SCALE
  5
124
102
{ACAD_REACTORS
330
120
102
}
330
120
100
AcDbScale
 70
     0
300
1:5
140
1.0
141
5.0
290
     0
  0
SCALE
  5
125
102
{ACAD_REACTORS
330
120
102
}
330
120
100
AcDbScale
 70
     0
300
1:8
140
1.0
141
8.0
290
     0
  0
SCALE
  5
126
102
{ACAD_REACTORS
330
120
102
}
330
120
100
AcDbScale
 70
     0
300
1:10
140
1.0
141
10.0
290
     0
  0
SCALE
  5
127
102
{ACAD_REACTORS
330
120
102
}
330
120
100
AcDbScale
 70
     0
300
1:16
140
1.0
141
16.0
290
     0
  0
SCALE
  5
128
102
{ACAD_REACTORS
330
120
102
}
330
120
100
AcDbScale
 70
     0
300
1:20
140
1.0
141
20.0
290
     0
  0
SCALE
  5
129
102
{ACAD_REACTORS
330
120
102
}
330
120
100
AcDbScale
 70
     0
300
1:30
140
1.0
141
30.0
290
     0
  0
SCALE
  5
12A
102
{ACAD_REACTORS
330
120
102
}
330
120
100
AcDbScale
 70
     0
300
1:40
140
1.0
141
40.0
290
     0
  0
SCALE
  5
12B
102
{ACAD_REACTORS
330
120
102
}
330
120
100
AcDbScale
 70
     0
300
1:50
140
1.0
141
50.0
290
     0
  0
SCALE
  5
12C
102
{ACAD_REACTORS
330
120
102
}
330
120
100
AcDbScale
 70
     0
300
1:100
140
1.0
141
100.0
290
     0
  0
SCALE
  5
12D
102
{ACAD_REACTORS
330
120
102
}
330
120
100
AcDbScale
 70
     0
300
2:1
140
2.0
141
1.0
290
     0
  0
SCALE
  5
12E
102
{ACAD_REACTORS
330
120
102
}
330
120
100
AcDbScale
 70
     0
300
4:1
140
4.0
141
1.0
290
     0
  0
SCALE
  5
12F
102
{ACAD_REACTORS
330
120
102
}
330
120
100
AcDbScale
 70
     0
300
8:1
140
8.0
141
1.0
290
     0
  0
SCALE
  5
130
102
{ACAD_REACTORS
330
120
102
}
330
120
100
AcDbScale
 70
     0
300
10:1
140
10.0
141
1.0
290
     0
  0
SCALE
  5
131
102
{ACAD_REACTORS
330
120
102
}
330
120
100
AcDbScale
 70
     0
300
100:1
140
100.0
141
1.0
290
     0
  0
SCALE
  5
132
102
{ACAD_REACTORS
330
120
102
}
330
120
100
AcDbScale
 70
     0
300
1/128" = 1'-0"
140
0.0078125
141
12.0
290
     0
  0
SCALE
  5
133
102
{ACAD_REACTORS
330
120
102
}
330
120
100
AcDbScale
 70
     0
300
1/64" = 1'-0"
140
0.015625
141
12.0
290
     0
  0
SCALE
  5
134
102
{ACAD_REACTORS
330
120
102
}
330
120
100
AcDbScale
 70
     0
300
1/32" = 1'-0"
140
0.03125
141
12.0
290
     0
  0
SCALE
  5
135
102
{ACAD_REACTORS
330
120
102
}
330
120
100
AcDbScale
 70
     0
300
1/16" = 1'-0"
140
0.0625
141
12.0
290
     0
  0
SCALE
  5
136
102
{ACAD_REACTORS
330
120
102
}
330
120
100
AcDbScale
 70
     0
300
3/32" = 1'-0"
140
0.09375
141
12.0
290
     0
  0
SCALE
  5
137
102
{ACAD_REACTORS
330
120
102
}
330
120
100
AcDbScale
 70
     0
300
1/8" = 1'-0"
140
0.125
141
12.0
290
     0
  0
SCALE
  5
138
102
{ACAD_REACTORS
330
120
102
}
330
120
100
AcDbScale
 70
     0
300
3/16" = 1'-0"
140
0.1875
141
12.0
290
     0
  0
SCALE
  5
139
102
{ACAD_REACTORS
330
120
102
}
330
120
100
AcDbScale
 70
     0
300
1/4" = 1'-0"
140
0.25
141
12.0
290
     0
  0
SCALE
  5
13A
102
{ACAD_REACTORS
330
120
102
}
330
120
100
AcDbScale
 70
     0
300
3/8" = 1'-0"
140
0.375
141
12.0
290
     0
  0
SCALE
  5
13B
102
{ACAD_REACTORS
330
120
102
}
330
120
100
AcDbScale
 70
     0
300
1/2" = 1'-0"
140
0.5
141
12.0
290
     0
  0
SCALE
  5
13C
102
{ACAD_REACTORS
330
120
102
}
330
120
100
AcDbScale
 70
     0
300
3/4" = 1'-0"
140
0.75
141
12.0
290
     0
  0
SCALE
  5
13D
102
{ACAD_REACTORS
330
120
102
}
330
120
100
AcDbScale
 70
     0
300
1" = 1'-0"
140
1.0
141
12.0
290
     0
  0
SCALE
  5
13E
102
{ACAD_REACTORS
330
120
102
}
330
120
100
AcDbScale
 70
     0
300
1-1/2" = 1'-0"
140
1.5
141
12.0
290
     0
  0
SCALE
  5
13F
102
{ACAD_REACTORS
330
120
102
}
330
120
100
AcDbScale
 70
     0
300
3" = 1'-0"
140
3.0
141
12.0
290
     0
  0
SCALE
  5
140
102
{ACAD_REACTORS
330
120
102
}
330
120
100
AcDbScale
 70
     0
300
6" = 1'-0"
140
6.0
141
12.0
290
     0
  0
SCALE
  5
141
102
{ACAD_REACTORS
330
120
102
}
330
120
100
AcDbScale
 70
     0
300
1'-0" = 1'-0"
140
12.0
141
12.0
290
     0
  0
ACDBSECTIONVIEWSTYLE
  5
1E3
102
{ACAD_XDICTIONARY
360
264
102
}
102
{ACAD_REACTORS
330
1E2
102
}
330
1E2
100
AcDbModelDocViewStyle
 70
     0
  3
Imperial24
290
     0
100
AcDbSectionViewStyle
 70
     0
 71
     0
 90
       78
 71
     1
340
11
 40
0.24
340
0
340
0
 40
0.24
300
I, O, Q, S, X, Z
 40
0.48
 90
        3
 40
0.18
 90
        1
 71
     2
340
16
 90
       25
340
16
 90
       50
 40
0.24
 40
0.0
 40
0.24
 71
     3
340
11
 40
0.24
 90
        1
 40
0.75
 90
        1
300
%<\AcVar ViewType \f "%tc1">% %<\AcVar ViewSectionStartId>%-%<\AcVar ViewSectionEndId>%\PSCALE %<\AcVar ViewScale \f "%sn">%
 71
     4
300
ANSI31
 40
1.0
 90
        0
290
     0
290
     0
 90
        6
 40
0.0
 40
1.570796326794896
 40
0.2617993877991494
 40
1.308996938995747
 40
-0.2617993877991494
 40
1.832595714594046
  0
ACDBSECTIONVIEWSTYLE
  5
8E2
102
{ACAD_XDICTIONARY
360
901
102
}
102
{ACAD_REACTORS
330
1E2
102
}
330
1E2
100
AcDbModelDocViewStyle
 70
     0
  3
Metric50
290
     0
100
AcDbSectionViewStyle
 70
     0
 71
     0
 90
      102
 71
     1
340
11
 40
5.0
340
0
340
0
 40
5.0
300
I, O, Q, S, X, Z
 40
10.0
 90
        0
 40
2.5
 90
        0
 71
     2
340
16
 90
       25
340
16
 90
       50
 40
5.0
 40
2.5
 40
5.0
 71
     3
340
11
 40
5.0
 90
        0
 40
15.0
 90
        1
300
%<\AcVar ViewSectionStartId>%-%<\AcVar ViewSectionEndId>% (%<\AcVar ViewScale \f "%sn">%)
 71
     4
300
ANSI31
 40
1.0
 90
        0
290
     0
290
     0
 90
        6
 40
0.0
 40
1.570796326794896
 40
0.2617993877991494
 40
1.308996938995747
 40
-0.2617993877991494
 40
1.832595714594046
  0
TABLESTYLE
  5
1E0
102
{ACAD_XDICTIONARY
360
A7B
102
}
102
{ACAD_REACTORS
330
1D1
102
}
330
1D1
100
AcDbTableStyle
  3
Standard
 70
     0
 71
     0
 40
0.06
 41
0.06
280
     0
281
     0
  7
Standard
140
0.18
170
     2
 62
     0
 63
     7
283
     0
274
    -2
284
     1
 64
     0
275
    -2
285
     1
 65
     0
276
    -2
286
     1
 66
     0
277
    -2
287
     1
 67
     0
278
    -2
288
     1
 68
     0
279
    -2
289
     1
 69
     0
  7
Standard
140
0.25
170
     5
 62
     0
 63
     7
283
     0
274
    -2
284
     1
 64
     0
275
    -2
285
     1
 65
     0
276
    -2
286
     1
 66
     0
277
    -2
287
     1
 67
     0
278
    -2
288
     1
 68
     0
279
    -2
289
     1
 69
     0
  7
Standard
140
0.18
170
     5
 62
     0
 63
     7
283
     0
274
    -2
284
     1
 64
     0
275
    -2
285
     1
 65
     0
276
    -2
286
     1
 66
     0
277
    -2
287
     1
 67
     0
278
    -2
288
     1
 68
     0
279
    -2
289
     1
 69
     0
  0
VISUALSTYLE
  5
2F
102
{ACAD_XDICTIONARY
360
A98
102
}
102
{ACAD_REACTORS
330
2A
102
}
330
2A
100
AcDbVisualStyle
  2
2dWireframe
 70
     4
 71
     0
 72
     2
 73
     0
 90
        0
 40
-0.6
 41
-30.0
 62
     5
 63
     7
 74
     1
 91
        4
 64
     7
 65
   257
 75
     1
175
     1
 42
1.0
 92
        0
 66
   257
 43
1.0
 76
     1
 77
     6
 78
     2
 67
     7
 79
     5
170
     0
171
     0
290
     0
174
     0
 93
        1
 44
0.0
173
     0
291
     0
 45
0.0
1001
ACAD
1000
AcDbSavedByObjectVersion
1070
     0
  0
VISUALSTYLE
  5
31
102
{ACAD_XDICTIONARY
360
A9C
102
}
102
{ACAD_REACTORS
330
2A
102
}
330
2A
100
AcDbVisualStyle
  2
3D Hidden
 70
     6
 71
     1
 72
     2
 73
     2
 90
        0
 40
-0.6
 41
-30.0
 62
     5
 63
     7
 74
     2
 91
        2
 64
     7
 65
   257
 75
     2
175
     1
 42
40.0
 92
        0
 66
   257
 43
1.0
 76
     1
 77
     6
 78
     2
 67
     7
 79
     3
170
     0
171
     0
290
     0
174
     0
 93
        1
 44
0.0
173
     0
291
     0
 45
0.0
1001
ACAD
1000
AcDbSavedByObjectVersion
1070
     0
  0
VISUALSTYLE
  5
30
102
{ACAD_XDICTIONARY
360
A9A
102
}
102
{ACAD_REACTORS
330
2A
102
}
330
2A
100
AcDbVisualStyle
  2
3dWireframe
 70
     5
 71
     0
 72
     2
 73
     0
 90
        0
 40
-0.6
 41
-30.0
 62
     5
 63
     7
 74
     1
 91
        4
 64
     7
 65
   257
 75
     1
175
     1
 42
1.0
 92
        0
 66
   257
 43
1.0
 76
     1
 77
     6
 78
     2
 67
     7
 79
     5
170
     0
171
     0
290
     0
174
     0
 93
        1
 44
0.0
173
     0
291
     0
 45
0.0
1001
ACAD
1000
AcDbSavedByObjectVersion
1070
     0
  0
VISUALSTYLE
  5
32
102
{ACAD_XDICTIONARY
360
A9E
102
}
102
{ACAD_REACTORS
330
2A
102
}
330
2A
100
AcDbVisualStyle
  2
Basic
 70
     7
 71
     1
 72
     0
 73
     1
 90
        0
 40
-0.6
 41
-30.0
 62
     5
 63
     7
 74
     0
 91
        4
 64
     7
 65
   257
 75
     1
175
     1
 42
1.0
 92
        8
 66
     7
 43
1.0
 76
     1
 77
     6
 78
     2
 67
     7
 79
     5
170
     0
171
     0
290
     0
174
     0
 93
        1
 44
0.0
173
     0
291
     1
 45
0.0
1001
ACAD
1000
AcDbSavedByObjectVersion
1070
     0
  0
VISUALSTYLE
  5
36
102
{ACAD_XDICTIONARY
360
AA6
102
}
102
{ACAD_REACTORS
330
2A
102
}
330
2A
100
AcDbVisualStyle
  2
Brighten
 70
    12
 71
     2
 72
     2
 73
     0
 90
        0
 40
-0.6
 41
-30.0
 62
     5
 63
     7
 74
     1
 91
        4
 64
     7
 65
   257
 75
     1
175
     1
 42
1.0
 92
        8
 66
     7
 43
1.0
 76
     1
 77
     6
 78
     2
 67
     7
 79
     5
170
     0
171
     0
290
     0
174
     0
 93
        1
 44
50.0
173
     0
291
     1
 45
0.0
1001
ACAD
1000
AcDbSavedByObjectVersion
1070
     0
  0
VISUALSTYLE
  5
3A
102
{ACAD_XDICTIONARY
360
AAE
102
}
102
{ACAD_REACTORS
330
2A
102
}
330
2A
100
AcDbVisualStyle
  2
ColorChange
 70
    16
 71
     2
 72
     2
 73
     3
 90
        0
 40
-0.6
 41
-30.0
 62
     5
 63
     8
 74
     1
 91
        4
 64
     7
 65
   257
 75
     1
175
     1
 42
1.0
 92
        8
 66
     8
 43
1.0
 76
     1
 77
     6
 78
     2
 67
     7
 79
     5
170
     0
171
     0
290
     0
174
     0
 93
        1
 44
0.0
173
     0
291
     1
 45
0.0
1001
ACAD
1000
AcDbSavedByObjectVersion
1070
     0
  0
VISUALSTYLE
  5
34
102
{ACAD_XDICTIONARY
360
AA2
102
}
102
{ACAD_REACTORS
330
2A
102
}
330
2A
100
AcDbVisualStyle
  2
Conceptual
 70
     9
 71
     3
 72
     2
 73
     0
 90
        0
 40
-0.6
 41
-30.0
 62
     5
 63
     7
 74
     2
 91
        2
 64
     7
 65
   257
 75
     1
175
     1
 42
40.0
 92
        8
 66
     7
 43
1.0
 76
     1
 77
     6
 78
     2
 67
     7
 79
     3
170
     0
171
     0
290
     0
174
     0
 93
        1
 44
0.0
173
     0
291
     0
 45
0.0
1001
ACAD
1000
AcDbSavedByObjectVersion
1070
     0
  0
VISUALSTYLE
  5
35
102
{ACAD_XDICTIONARY
360
AA4
102
}
102
{ACAD_REACTORS
330
2A
102
}
330
2A
100
AcDbVisualStyle
  2
Dim
 70
    11
 71
     2
 72
     2
 73
     0
 90
        0
 40
-0.6
 41
-30.0
 62
     5
 63
     7
 74
     1
 91
        4
 64
     7
 65
   257
 75
     1
175
     1
 42
1.0
 92
        8
 66
     7
 43
1.0
 76
     1
 77
     6
 78
     2
 67
     7
 79
     5
170
     0
171
     0
290
     0
174
     0
 93
        1
 44
-50.0
173
     0
291
     1
 45
0.0
1001
ACAD
1000
AcDbSavedByObjectVersion
1070
     0
  0
VISUALSTYLE
  5
1DE
102
{ACAD_XDICTIONARY
360
AC8
102
}
102
{ACAD_REACTORS
330
2A
102
}
330
2A
100
AcDbVisualStyle
  2
EdgeColorOff
 70
    22
 71
     2
 72
     2
 73
     0
 90
        0
 40
-0.6
 41
-30.0
 62
     5
 63
     7
 74
     1
 91
        4
 64
     7
 65
   257
 75
     1
175
     1
 42
1.0
 92
        8
 66
     7
 43
1.0
 76
     1
 77
     6
 78
     2
 67
     7
 79
     5
170
     0
171
     0
290
     0
174
     0
 93
        1
 44
0.0
173
     0
291
     1
 45
0.0
1001
ACAD
1000
AcDbSavedByObjectVersion
1070
     0
  0
VISUALSTYLE
  5
39
102
{ACAD_XDICTIONARY
360
AAC
102
}
102
{ACAD_REACTORS
330
2A
102
}
330
2A
100
AcDbVisualStyle
  2
Facepattern
 70
    15
 71
     2
 72
     2
 73
     0
 90
        0
 40
-0.6
 41
-30.0
 62
     5
 63
     7
 74
     1
 91
        4
 64
     7
 65
   257
 75
     1
175
     1
 42
1.0
 92
        8
 66
     7
 43
1.0
 76
     1
 77
     6
 78
     2
 67
     7
 79
     5
170
     0
171
     0
290
     0
174
     0
 93
        1
 44
0.0
173
     0
291
     1
 45
0.0
1001
ACAD
1000
AcDbSavedByObjectVersion
1070
     0
  0
VISUALSTYLE
  5
2B
102
{ACAD_XDICTIONARY
360
A90
102
}
102
{ACAD_REACTORS
330
2A
102
}
330
2A
100
AcDbVisualStyle
  2
Flat
 70
     0
 71
     2
 72
     1
 73
     1
 90
        2
 40
-0.6
 41
30.0
 62
     5
 63
     7
 74
     0
 91
        4
 64
     7
 65
   257
 75
     1
175
     1
 42
1.0
 92
        8
 66
     7
 43
1.0
 76
     1
 77
     6
 78
     2
 67
     7
 79
     5
170
     0
171
     0
290
     0
174
     0
 93
       13
 44
0.0
173
     0
291
     1
 45
0.0
1001
ACAD
1000
AcDbSavedByObjectVersion
1070
     0
  0
VISUALSTYLE
  5
2C
102
{ACAD_XDICTIONARY
360
A92
102
}
102
{ACAD_REACTORS
330
2A
102
}
330
2A
100
AcDbVisualStyle
  2
FlatWithEdges
 70
     1
 71
     2
 72
     1
 73
     1
 90
        2
 40
-0.6
 41
30.0
 62
     5
 63
     7
 74
     1
 91
        4
 64
     7
 65
   257
 75
     1
175
     1
 42
1.0
 92
        0
 66
   257
 43
1.0
 76
     1
 77
     6
 78
     2
 67
     7
 79
     5
170
     0
171
     0
290
     0
174
     0
 93
       13
 44
0.0
173
     0
291
     1
 45
0.0
1001
ACAD
1000
AcDbSavedByObjectVersion
1070
     0
  0
VISUALSTYLE
  5
2D
102
{ACAD_XDICTIONARY
360
A94
102
}
102
{ACAD_REACTORS
330
2A
102
}
330
2A
100
AcDbVisualStyle
  2
Gouraud
 70
     2
 71
     2
 72
     2
 73
     1
 90
        2
 40
-0.6
 41
30.0
 62
     5
 63
     7
 74
     0
 91
        4
 64
     7
 65
   257
 75
     1
175
     1
 42
1.0
 92
        0
 66
     7
 43
1.0
 76
     1
 77
     6
 78
     2
 67
     7
 79
     5
170
     0
171
     0
290
     0
174
     0
 93
       13
 44
0.0
173
     0
291
     1
 45
0.0
1001
ACAD
1000
AcDbSavedByObjectVersion
1070
     0
  0
VISUALSTYLE
  5
2E
102
{ACAD_XDICTIONARY
360
A96
102
}
102
{ACAD_REACTORS
330
2A
102
}
330
2A
100
AcDbVisualStyle
  2
GouraudWithEdges
 70
     3
 71
     2
 72
     2
 73
     1
 90
        2
 40
-0.6
 41
30.0
 62
     5
 63
     7
 74
     1
 91
        4
 64
     7
 65
   257
 75
     1
175
     1
 42
1.0
 92
        0
 66
   257
 43
1.0
 76
     1
 77
     6
 78
     2
 67
     7
 79
     5
170
     0
171
     0
290
     0
174
     0
 93
       13
 44
0.0
173
     0
291
     1
 45
0.0
1001
ACAD
1000
AcDbSavedByObjectVersion
1070
     0
  0
VISUALSTYLE
  5
1D6
102
{ACAD_XDICTIONARY
360
AB8
102
}
102
{ACAD_REACTORS
330
2A
102
}
330
2A
100
AcDbVisualStyle
  2
Hidden
 70
     6
 71
     1
 72
     2
 73
     2
 90
        0
 40
-0.6
 41
-30.0
 62
     5
 63
     7
 74
     2
 91
        2
 64
     7
 65
   257
 75
     2
175
     1
 42
40.0
 92
        0
 66
   257
 43
1.0
 76
     1
 77
     6
 78
     2
 67
     7
 79
     3
170
     0
171
     0
290
     0
174
     0
 93
        1
 44
0.0
173
     0
291
     0
 45
0.0
1001
ACAD
1000
AcDbSavedByObjectVersion
1070
     0
  0
VISUALSTYLE
  5
1DC
102
{ACAD_XDICTIONARY
360
AC4
102
}
102
{ACAD_REACTORS
330
2A
102
}
330
2A
100
AcDbVisualStyle
  2
JitterOff
 70
    20
 71
     2
 72
     2
 73
     0
 90
        0
 40
-0.6
 41
-30.0
 62
     5
 63
     7
 74
     1
 91
        4
 64
     7
 65
   257
 75
     1
175
     1
 42
1.0
 92
       10
 66
     7
 43
1.0
 76
     1
 77
     6
 78
     2
 67
     7
 79
     5
170
     0
171
     0
290
     0
174
     0
 93
        1
 44
0.0
173
     0
291
     1
 45
0.0
1001
ACAD
1000
AcDbSavedByObjectVersion
1070
     0
  0
VISUALSTYLE
  5
38
102
{ACAD_XDICTIONARY
360
AAA
102
}
102
{ACAD_REACTORS
330
2A
102
}
330
2A
100
AcDbVisualStyle
  2
Linepattern
 70
    14
 71
     2
 72
     2
 73
     0
 90
        0
 40
-0.6
 41
-30.0
 62
     5
 63
     7
 74
     1
 91
        4
 64
     7
 65
   257
 75
     7
175
     7
 42
1.0
 92
        8
 66
     7
 43
1.0
 76
     1
 77
     6
 78
     2
 67
     7
 79
     5
170
     0
171
     0
290
     0
174
     0
 93
        1
 44
0.0
173
     0
291
     1
 45
0.0
1001
ACAD
1000
AcDbSavedByObjectVersion
1070
     0
  0
VISUALSTYLE
  5
1DD
102
{ACAD_XDICTIONARY
360
AC6
102
}
102
{ACAD_REACTORS
330
2A
102
}
330
2A
100
AcDbVisualStyle
  2
OverhangOff
 70
    21
 71
     2
 72
     2
 73
     0
 90
        0
 40
-0.6
 41
-30.0
 62
     5
 63
     7
 74
     1
 91
        4
 64
     7
 65
   257
 75
     1
175
     1
 42
1.0
 92
        9
 66
     7
 43
1.0
 76
     1
 77
     6
 78
     2
 67
     7
 79
     5
170
     0
171
     0
290
     0
174
     0
 93
        1
 44
0.0
173
     0
291
     1
 45
0.0
1001
ACAD
1000
AcDbSavedByObjectVersion
1070
     0
  0
VISUALSTYLE
  5
33
102
{ACAD_XDICTIONARY
360
AA0
102
}
102
{ACAD_REACTORS
330
2A
102
}
330
2A
100
AcDbVisualStyle
  2
Realistic
 70
     8
 71
     2
 72
     2
 73
     0
 90
        0
 40
-0.6
 41
-30.0
 62
     5
 63
     7
 74
     1
 91
        0
 64
     7
 65
   257
 75
     1
175
     1
 42
1.0
 92
        8
 66
     8
 43
1.0
 76
     1
 77
     6
 78
     2
 67
     7
 79
     5
170
     0
171
     0
290
     0
174
     0
 93
       13
 44
0.0
173
     0
291
     0
 45
0.0
1001
ACAD
1000
AcDbSavedByObjectVersion
1070
     0
  0
VISUALSTYLE
  5
1DB
102
{ACAD_XDICTIONARY
360
AC2
102
}
102
{ACAD_REACTORS
330
2A
102
}
330
2A
100
AcDbVisualStyle
  2
Shaded
 70
    27
 71
     2
 72
     2
 73
     1
 90
        2
 40
-0.6
 41
30.0
 62
     5
 63
     7
 74
     0
 91
        4
 64
     7
 65
   257
 75
     1
175
     1
 42
1.0
 92
        8
 66
   257
 43
1.0
 76
     1
 77
     6
 78
     2
 67
     8
 79
     3
170
     0
171
     0
290
     0
174
     0
 93
        5
 44
0.0
173
     0
291
     0
 45
0.0
1001
ACAD
1000
AcDbSavedByObjectVersion
1070
     0
  0
VISUALSTYLE
  5
1DA
102
{ACAD_XDICTIONARY
360
AC0
102
}
102
{ACAD_REACTORS
330
2A
102
}
330
2A
100
AcDbVisualStyle
  2
Shaded with edges
 70
    26
 71
     2
 72
     2
 73
     1
 90
        2
 40
-0.6
 41
30.0
 62
     5
 63
     7
 74
     1
 91
       10
 64
     7
 65
   257
 75
     2
175
     1
 42
1.0
 92
        8
 66
   257
 43
1.0
 76
     1
 77
     6
 78
     2
 67
     7
 79
     3
170
     0
171
     0
290
     0
174
     0
 93
        5
 44
0.0
173
     0
291
     0
 45
0.0
1001
ACAD
1000
AcDbSavedByObjectVersion
1070
     0
  0
VISUALSTYLE
  5
1D7
102
{ACAD_XDICTIONARY
360
ABA
102
}
102
{ACAD_REACTORS
330
2A
102
}
330
2A
100
AcDbVisualStyle
  2
Shades of Gray
 70
    23
 71
     2
 72
     2
 73
     3
 90
        0
 40
-0.6
 41
-30.0
 62
     5
 63
     7
 74
     2
 91
        2
 64
     7
 65
     7
 75
     1
175
     1
 42
40.0
 92
        8
 66
     7
 43
1.0
 76
     1
 77
     6
 78
     2
 67
     7
 79
     3
170
     0
171
     0
290
     0
174
     0
 93
        1
 44
0.0
173
     0
291
     0
 45
0.0
1001
ACAD
1000
AcDbSavedByObjectVersion
1070
     0
  0
VISUALSTYLE
  5
1D8
102
{ACAD_XDICTIONARY
360
ABC
102
}
102
{ACAD_REACTORS
330
2A
102
}
330
2A
100
AcDbVisualStyle
  2
Sketchy
 70
    24
 71
     1
 72
     2
 73
     2
 90
        0
 40
-0.6
 41
-30.0
 62
     5
 63
     7
 74
     2
 91
        2
 64
     7
 65
     7
 75
     1
175
     1
 42
40.0
 92
       11
 66
     7
 43
1.0
 76
     1
 77
     6
 78
     2
 67
     7
 79
     6
170
     0
171
     0
290
     0
174
     0
 93
        1
 44
0.0
173
     0
291
     0
 45
0.0
1001
ACAD
1000
AcDbSavedByObjectVersion
1070
     0
  0
VISUALSTYLE
  5
37
102
{ACAD_XDICTIONARY
360
AA8
102
}
102
{ACAD_REACTORS
330
2A
102
}
330
2A
100
AcDbVisualStyle
  2
Thicken
 70
    13
 71
     2
 72
     2
 73
     0
 90
        0
 40
-0.6
 41
-30.0
 62
     5
 63
     7
 74
     1
 91
        4
 64
     7
 65
   257
 75
     1
175
     1
 42
1.0
 92
       12
 66
     7
 43
1.0
 76
     1
 77
     6
 78
     2
 67
     7
 79
     5
170
     0
171
     0
290
     0
174
     0
 93
        1
 44
0.0
173
     0
291
     1
 45
0.0
1001
ACAD
1000
AcDbSavedByObjectVersion
1070
     0
  0
VISUALSTYLE
  5
1D5
102
{ACAD_XDICTIONARY
360
AB6
102
}
102
{ACAD_REACTORS
330
2A
102
}
330
2A
100
AcDbVisualStyle
  2
Wireframe
 70
     5
 71
     0
 72
     2
 73
     0
 90
        0
 40
-0.6
 41
-30.0
 62
     5
 63
     7
 74
     1
 91
        4
 64
     7
 65
   257
 75
     1
175
     1
 42
1.0
 92
        0
 66
   257
 43
1.0
 76
     1
 77
     6
 78
     2
 67
     7
 79
     3
170
     0
171
     0
290
     0
174
     0
 93
        1
 44
0.0
173
     0
291
     0
 45
0.0
1001
ACAD
1000
AcDbSavedByObjectVersion
1070
     0
  0
VISUALSTYLE
  5
1D9
102
{ACAD_XDICTIONARY
360
ABE
102
}
102
{ACAD_REACTORS
330
2A
102
}
330
2A
100
AcDbVisualStyle
  2
X-Ray
 70
    25
 71
     2
 72
     2
 73
     1
 90
        1
 40
0.5
 41
-30.0
 62
     5
 63
     7
 74
     1
 91
        0
 64
     7
 65
   257
 75
     1
175
     1
 42
1.0
 92
        8
 66
     7
 43
1.0
 76
     1
 77
     6
 78
     2
 67
     7
 79
     3
170
     0
171
     0
290
     0
174
     0
 93
       13
 44
0.0
173
     0
291
     0
 45
0.0
1001
ACAD
1000
AcDbSavedByObjectVersion
1070
     0
  0
DICTIONARYVAR
  5
1B0
102
{ACAD_REACTORS
330
1AF
102
}
330
1AF
100
DictionaryVariables
280
     0
  1
1:1
  0
DICTIONARYVAR
  5
26A
102
{ACAD_REACTORS
330
1AF
102
}
330
1AF
100
DictionaryVariables
280
     0
  1
STANDARD
  0
DICTIONARYVAR
  5
269
102
{ACAD_REACTORS
330
1AF
102
}
330
1AF
100
DictionaryVariables
280
     0
  1
STANDARD
  0
DICTIONARYVAR
  5
26B
102
{ACAD_REACTORS
330
1AF
102
}
330
1AF
100
DictionaryVariables
280
     0
  1
Imperial24
  0
DICTIONARYVAR
  5
26C
102
{ACAD_REACTORS
330
1AF
102
}
330
1AF
100
DictionaryVariables
280
     0
  1
Imperial24
  0
DICTIONARYVAR
  5
A7A
102
{ACAD_REACTORS
330
1AF
102
}
330
1AF
100
DictionaryVariables
280
     0
  1
2
  0
DICTIONARYVAR
  5
A78
102
{ACAD_REACTORS
330
1AF
102
}
330
1AF
100
DictionaryVariables
280
     0
  1
2
  0
DICTIONARYVAR
  5
A76
102
{ACAD_REACTORS
330
1AF
102
}
330
1AF
100
DictionaryVariables
280
     0
  1
1
  0
DICTIONARYVAR
  5
237
102
{ACAD_REACTORS
330
1AF
102
}
330
1AF
100
DictionaryVariables
280
     0
  1
RGB:223,223,223
  0
DICTIONARYVAR
  5
A75
102
{ACAD_REACTORS
330
1AF
102
}
330
1AF
100
DictionaryVariables
280
     0
  1
0
  0
DICTIONARYVAR
  5
26D
102
{ACAD_REACTORS
330
1AF
102
}
330
1AF
100
DictionaryVariables
280
     0
  1
1
  0
DICTIONARYVAR
  5
26E
102
{ACAD_REACTORS
330
1AF
102
}
330
1AF
100
DictionaryVariables
280
     0
  1
15
  0
DICTIONARYVAR
  5
A73
102
{ACAD_REACTORS
330
1AF
102
}
330
1AF
100
DictionaryVariables
280
     0
  1
2
  0
DICTIONARYVAR
  5
A72
102
{ACAD_REACTORS
330
1AF
102
}
330
1AF
100
DictionaryVariables
280
     0
  1
1
  0
DICTIONARYVAR
  5
A79
102
{ACAD_REACTORS
330
1AF
102
}
330
1AF
100
DictionaryVariables
280
     0
  1
1
  0
DICTIONARYVAR
  5
A74
102
{ACAD_REACTORS
330
1AF
102
}
330
1AF
100
DictionaryVariables
280
     0
  1
127
  0
DICTIONARYVAR
  5
A77
102
{ACAD_REACTORS
330
1AF
102
}
330
1AF
100
DictionaryVariables
280
     0
  1
0
  0
DICTIONARY
  5
A89
102
{ACAD_REACTORS
330
A87
102
}
330
A87
100
AcDbDictionary
281
     1
  0
DICTIONARY
  5
A88
102
{ACAD_REACTORS
330
A87
102
}
330
A87
100
AcDbDictionary
281
     1
  3
8796087829520
350
A81
  3
8796087829536
350
A82
  3
8796087829552
350
A83
  3
8796087829568
350
A84
  3
8796087829584
350
A85
  3
8796087829600
350
A86
  0
XRECORD
  5
1AE
102
{ACAD_REACTORS
330
1AD
102
}
330
1AD
100
AcDbXrecord
280
     1
1000
This DWG file was created in ArchiCAD(TM)®
  0
ACDBASSOCNETWORK
  5
5EC
102
{ACAD_REACTORS
330
5EB
102
}
330
5EB
100
AcDbAssocAction
 90
        1
 90
        0
330
5EE
360
0
 90
        1
 90
        0
 90
        0
100
AcDbAssocNetwork
 90
        0
 90
        7
 90
        1
360
5EF
 90
        0
  0
ACDBASSOCNETWORK
  5
78C
102
{ACAD_REACTORS
330
78B
102
}
330
78B
100
AcDbAssocAction
 90
        1
 90
        0
330
5EE
360
0
 90
        2
 90
        0
 90
        0
100
AcDbAssocNetwork
 90
        0
 90
        1
 90
        1
360
78D
 90
        0
  0
XRECORD
  5
ADB
102
{ACAD_REACTORS
330
ADA
102
}
330
ADA
100
AcDbXrecord
280
     1
1070
     0
1070
     1
1070
     1
  0
SPATIAL_FILTER
  5
9BE
102
{ACAD_REACTORS
330
9BD
102
}
330
9BD
100
AcDbFilter
100
AcDbSpatialFilter
 70
    13
 10
7054.793805408762
 20
3415.336562017436
 10
6979.153167009112
 20
3415.336562017436
 10
6979.153167009112
 20
3324.232416291263
 10
6979.504638871805
 20
3324.232416291263
 10
6979.504638871805
 20
3319.916456577943
 10
6980.444331492575
 20
3319.574436434588
 10
6979.504638871688
 20
3319.232416291263
 10
6979.504638871688
 20
3306.232416291262
 10
7054.504638871688
 20
3306.232416291262
 10
7054.504638871688
 20
3319.232416291263
 10
7053.564946250801
 20
3319.574436434588
 10
7054.504638871572
 20
3319.916456577943
 10
7054.504638871688
 20
3324.232416291263
210
0.0
220
0.0
230
1.0
 11
0.0
 21
0.0
 31
0.0
 71
     1
 72
     0
 73
     0
 40
1.0
 40
0.0
 40
0.0
 40
-6979.153167009112
 40
0.0
 40
1.0
 40
0.0
 40
-3327.076269904214
 40
0.0
 40
0.0
 40
1.0
 40
0.0
 40
1.0
 40
0.0
 40
0.0
 40
0.0
 40
0.0
 40
1.0
 40
0.0
 40
0.0
 40
0.0
 40
0.0
 40
1.0
 40
0.0
  0
SPATIAL_FILTER
  5
9C1
102
{ACAD_REACTORS
330
9C0
102
}
330
9C0
100
AcDbFilter
100
AcDbSpatialFilter
 70
    13
 10
7054.793805408762
 20
3415.336562017436
 10
6979.153167009112
 20
3415.336562017436
 10
6979.153167009112
 20
3324.232416291263
 10
6979.504638871805
 20
3324.232416291263
 10
6979.504638871805
 20
3319.916456577943
 10
6980.444331492575
 20
3319.574436434588
 10
6979.504638871688
 20
3319.232416291263
 10
6979.504638871688
 20
3306.232416291262
 10
7054.504638871688
 20
3306.232416291262
 10
7054.504638871688
 20
3319.232416291263
 10
7053.564946250801
 20
3319.574436434588
 10
7054.504638871572
 20
3319.916456577943
 10
7054.504638871688
 20
3324.232416291263
210
0.0
220
0.0
230
1.0
 11
0.0
 21
0.0
 31
0.0
 71
     1
 72
     0
 73
     0
 40
1.0
 40
0.0
 40
0.0
 40
-7008.435253445608
 40
0.0
 40
1.0
 40
0.0
 40
-3327.076269904214
 40
0.0
 40
0.0
 40
1.0
 40
0.0
 40
1.0
 40
0.0
 40
0.0
 40
0.0
 40
0.0
 40
1.0
 40
0.0
 40
0.0
 40
0.0
 40
0.0
 40
1.0
 40
0.0
  0
SPATIAL_FILTER
  5
9C4
102
{ACAD_REACTORS
330
9C3
102
}
330
9C3
100
AcDbFilter
100
AcDbSpatialFilter
 70
    13
 10
7054.793805408762
 20
3415.336562017436
 10
6979.153167009112
 20
3415.336562017436
 10
6979.153167009112
 20
3324.232416291263
 10
6979.504638871805
 20
3324.232416291263
 10
6979.504638871805
 20
3319.916456577943
 10
6980.444331492575
 20
3319.574436434588
 10
6979.504638871688
 20
3319.232416291263
 10
6979.504638871688
 20
3306.232416291262
 10
7054.504638871688
 20
3306.232416291262
 10
7054.504638871688
 20
3319.232416291263
 10
7053.564946250801
 20
3319.574436434588
 10
7054.504638871572
 20
3319.916456577943
 10
7054.504638871688
 20
3324.232416291263
210
0.0
220
0.0
230
1.0
 11
0.0
 21
0.0
 31
0.0
 71
     1
 72
     0
 73
     0
 40
1.0
 40
0.0
 40
0.0
 40
-7037.717339882106
 40
0.0
 40
1.0
 40
0.0
 40
-3327.076269904214
 40
0.0
 40
0.0
 40
1.0
 40
0.0
 40
1.0
 40
0.0
 40
0.0
 40
0.0
 40
0.0
 40
1.0
 40
0.0
 40
0.0
 40
0.0
 40
0.0
 40
1.0
 40
0.0
  0
SPATIAL_FILTER
  5
9C7
102
{ACAD_REACTORS
330
9C6
102
}
330
9C6
100
AcDbFilter
100
AcDbSpatialFilter
 70
    13
 10
7054.793805408762
 20
3415.336562017436
 10
6979.153167009112
 20
3415.336562017436
 10
6979.153167009112
 20
3324.232416291263
 10
6979.504638871805
 20
3324.232416291263
 10
6979.504638871805
 20
3319.916456577943
 10
6980.444331492575
 20
3319.574436434588
 10
6979.504638871688
 20
3319.232416291263
 10
6979.504638871688
 20
3306.232416291262
 10
7054.504638871688
 20
3306.232416291262
 10
7054.504638871688
 20
3319.232416291263
 10
7053.564946250801
 20
3319.574436434588
 10
7054.504638871572
 20
3319.916456577943
 10
7054.504638871688
 20
3324.232416291263
210
0.0
220
0.0
230
1.0
 11
0.0
 21
0.0
 31
0.0
 71
     1
 72
     0
 73
     0
 40
1.0
 40
0.0
 40
0.0
 40
-6979.153167009112
 40
0.0
 40
1.0
 40
0.0
 40
-3356.496367275287
 40
0.0
 40
0.0
 40
1.0
 40
0.0
 40
1.0
 40
0.0
 40
0.0
 40
0.0
 40
0.0
 40
1.0
 40
0.0
 40
0.0
 40
0.0
 40
0.0
 40
1.0
 40
0.0
  0
SPATIAL_FILTER
  5
9CA
102
{ACAD_REACTORS
330
9C9
102
}
330
9C9
100
AcDbFilter
100
AcDbSpatialFilter
 70
    13
 10
7054.793805408762
 20
3415.336562017436
 10
6979.153167009112
 20
3415.336562017436
 10
6979.153167009112
 20
3324.232416291263
 10
6979.504638871805
 20
3324.232416291263
 10
6979.504638871805
 20
3319.916456577943
 10
6980.444331492575
 20
3319.574436434588
 10
6979.504638871688
 20
3319.232416291263
 10
6979.504638871688
 20
3306.232416291262
 10
7054.504638871688
 20
3306.232416291262
 10
7054.504638871688
 20
3319.232416291263
 10
7053.564946250801
 20
3319.574436434588
 10
7054.504638871572
 20
3319.916456577943
 10
7054.504638871688
 20
3324.232416291263
210
0.0
220
0.0
230
1.0
 11
0.0
 21
0.0
 31
0.0
 71
     1
 72
     0
 73
     0
 40
1.0
 40
0.0
 40
0.0
 40
-7037.717339882106
 40
0.0
 40
1.0
 40
0.0
 40
-3356.496367275287
 40
0.0
 40
0.0
 40
1.0
 40
0.0
 40
1.0
 40
0.0
 40
0.0
 40
0.0
 40
0.0
 40
1.0
 40
0.0
 40
0.0
 40
0.0
 40
0.0
 40
1.0
 40
0.0
  0
SPATIAL_FILTER
  5
9CD
102
{ACAD_REACTORS
330
9CC
102
}
330
9CC
100
AcDbFilter
100
AcDbSpatialFilter
 70
    13
 10
7054.793805408762
 20
3415.336562017436
 10
6979.153167009112
 20
3415.336562017436
 10
6979.153167009112
 20
3324.232416291263
 10
6979.504638871805
 20
3324.232416291263
 10
6979.504638871805
 20
3319.916456577943
 10
6980.444331492575
 20
3319.574436434588
 10
6979.504638871688
 20
3319.232416291263
 10
6979.504638871688
 20
3306.232416291262
 10
7054.504638871688
 20
3306.232416291262
 10
7054.504638871688
 20
3319.232416291263
 10
7053.564946250801
 20
3319.574436434588
 10
7054.504638871572
 20
3319.916456577943
 10
7054.504638871688
 20
3324.232416291263
210
0.0
220
0.0
230
1.0
 11
0.0
 21
0.0
 31
0.0
 71
     1
 72
     0
 73
     0
 40
1.0
 40
0.0
 40
0.0
 40
-6979.153167009112
 40
0.0
 40
1.0
 40
0.0
 40
-3385.916464646361
 40
0.0
 40
0.0
 40
1.0
 40
0.0
 40
1.0
 40
0.0
 40
0.0
 40
0.0
 40
0.0
 40
1.0
 40
0.0
 40
0.0
 40
0.0
 40
0.0
 40
1.0
 40
0.0
  0
SPATIAL_FILTER
  5
9D0
102
{ACAD_REACTORS
330
9CF
102
}
330
9CF
100
AcDbFilter
100
AcDbSpatialFilter
 70
    13
 10
7054.793805408762
 20
3415.336562017436
 10
6979.153167009112
 20
3415.336562017436
 10
6979.153167009112
 20
3324.232416291263
 10
6979.504638871805
 20
3324.232416291263
 10
6979.504638871805
 20
3319.916456577943
 10
6980.444331492575
 20
3319.574436434588
 10
6979.504638871688
 20
3319.232416291263
 10
6979.504638871688
 20
3306.232416291262
 10
7054.504638871688
 20
3306.232416291262
 10
7054.504638871688
 20
3319.232416291263
 10
7053.564946250801
 20
3319.574436434588
 10
7054.504638871572
 20
3319.916456577943
 10
7054.504638871688
 20
3324.232416291263
210
0.0
220
0.0
230
1.0
 11
0.0
 21
0.0
 31
0.0
 71
     1
 72
     0
 73
     0
 40
1.0
 40
0.0
 40
0.0
 40
-7037.717339882106
 40
0.0
 40
1.0
 40
0.0
 40
-3385.916464646361
 40
0.0
 40
0.0
 40
1.0
 40
0.0
 40
1.0
 40
0.0
 40
0.0
 40
0.0
 40
0.0
 40
1.0
 40
0.0
 40
0.0
 40
0.0
 40
0.0
 40
1.0
 40
0.0
  0
SPATIAL_FILTER
  5
9D3
102
{ACAD_REACTORS
330
9D2
102
}
330
9D2
100
AcDbFilter
100
AcDbSpatialFilter
 70
    13
 10
7054.793805408762
 20
3415.336562017436
 10
6979.153167009112
 20
3415.336562017436
 10
6979.153167009112
 20
3324.232416291263
 10
6979.504638871805
 20
3324.232416291263
 10
6979.504638871805
 20
3319.916456577943
 10
6980.444331492575
 20
3319.574436434588
 10
6979.504638871688
 20
3319.232416291263
 10
6979.504638871688
 20
3306.232416291262
 10
7054.504638871688
 20
3306.232416291262
 10
7054.504638871688
 20
3319.232416291263
 10
7053.564946250801
 20
3319.574436434588
 10
7054.504638871572
 20
3319.916456577943
 10
7054.504638871688
 20
3324.232416291263
210
0.0
220
0.0
230
1.0
 11
0.0
 21
0.0
 31
0.0
 71
     1
 72
     0
 73
     0
 40
1.0
 40
0.0
 40
0.0
 40
-6979.153167009112
 40
0.0
 40
1.0
 40
0.0
 40
-3415.336562017436
 40
0.0
 40
0.0
 40
1.0
 40
0.0
 40
1.0
 40
0.0
 40
0.0
 40
0.0
 40
0.0
 40
1.0
 40
0.0
 40
0.0
 40
0.0
 40
0.0
 40
1.0
 40
0.0
  0
SPATIAL_FILTER
  5
9D6
102
{ACAD_REACTORS
330
9D5
102
}
330
9D5
100
AcDbFilter
100
AcDbSpatialFilter
 70
    13
 10
7054.793805408762
 20
3415.336562017436
 10
6979.153167009112
 20
3415.336562017436
 10
6979.153167009112
 20
3324.232416291263
 10
6979.504638871805
 20
3324.232416291263
 10
6979.504638871805
 20
3319.916456577943
 10
6980.444331492575
 20
3319.574436434588
 10
6979.504638871688
 20
3319.232416291263
 10
6979.504638871688
 20
3306.232416291262
 10
7054.504638871688
 20
3306.232416291262
 10
7054.504638871688
 20
3319.232416291263
 10
7053.564946250801
 20
3319.574436434588
 10
7054.504638871572
 20
3319.916456577943
 10
7054.504638871688
 20
3324.232416291263
210
0.0
220
0.0
230
1.0
 11
0.0
 21
0.0
 31
0.0
 71
     1
 72
     0
 73
     0
 40
1.0
 40
0.0
 40
0.0
 40
-7008.435253445608
 40
0.0
 40
1.0
 40
0.0
 40
-3415.336562017436
 40
0.0
 40
0.0
 40
1.0
 40
0.0
 40
1.0
 40
0.0
 40
0.0
 40
0.0
 40
0.0
 40
1.0
 40
0.0
 40
0.0
 40
0.0
 40
0.0
 40
1.0
 40
0.0
  0
SPATIAL_FILTER
  5
9D9
102
{ACAD_REACTORS
330
9D8
102
}
330
9D8
100
AcDbFilter
100
AcDbSpatialFilter
 70
    13
 10
7054.793805408762
 20
3415.336562017436
 10
6979.153167009112
 20
3415.336562017436
 10
6979.153167009112
 20
3324.232416291263
 10
6979.504638871805
 20
3324.232416291263
 10
6979.504638871805
 20
3319.916456577943
 10
6980.444331492575
 20
3319.574436434588
 10
6979.504638871688
 20
3319.232416291263
 10
6979.504638871688
 20
3306.232416291262
 10
7054.504638871688
 20
3306.232416291262
 10
7054.504638871688
 20
3319.232416291263
 10
7053.564946250801
 20
3319.574436434588
 10
7054.504638871572
 20
3319.916456577943
 10
7054.504638871688
 20
3324.232416291263
210
0.0
220
0.0
230
1.0
 11
0.0
 21
0.0
 31
0.0
 71
     1
 72
     0
 73
     0
 40
1.0
 40
0.0
 40
0.0
 40
-7037.717339882106
 40
0.0
 40
1.0
 40
0.0
 40
-3415.336562017436
 40
0.0
 40
0.0
 40
1.0
 40
0.0
 40
1.0
 40
0.0
 40
0.0
 40
0.0
 40
0.0
 40
1.0
 40
0.0
 40
0.0
 40
0.0
 40
0.0
 40
1.0
 40
0.0
  0
DICTIONARY
  5
266
330
1E5
100
AcDbDictionary
280
     1
281
     1
  3
ACAD_XREC_ROUNDTRIP
360
ACF
  0
DICTIONARY
  5
903
330
8E3
100
AcDbDictionary
280
     1
281
     1
  3
ACAD_XREC_ROUNDTRIP
360
ADD
  0
DICTIONARY
  5
A8A
330
1E
100
AcDbDictionary
280
     1
281
     1
  3
ACAD_XREC_ROUNDTRIP
360
A8B
  0
DICTIONARY
  5
A8E
330
26
100
AcDbDictionary
280
     1
281
     1
  3
ACAD_XREC_ROUNDTRIP
360
A8F
  0
DICTIONARY
  5
A8C
330
22
100
AcDbDictionary
280
     1
281
     1
  3
ACAD_XREC_ROUNDTRIP
360
A8D
  0
DICTIONARY
  5
AB2
330
3D
100
AcDbDictionary
280
     1
281
     1
  3
ACAD_XREC_ROUNDTRIP
360
AB3
  0
DICTIONARY
  5
AB0
330
3C
100
AcDbDictionary
280
     1
281
     1
  3
ACAD_XREC_ROUNDTRIP
360
AB1
  0
DICTIONARY
  5
AB4
330
3E
100
AcDbDictionary
280
     1
281
     1
  3
ACAD_XREC_ROUNDTRIP
360
AB5
  0
DICTIONARY
  5
ACC
330
1E1
100
AcDbDictionary
280
     1
281
     1
  3
ACAD_XREC_ROUNDTRIP
360
ACD
  0
DICTIONARY
  5
264
330
1E3
100
AcDbDictionary
280
     1
281
     1
  3
ACAD_XREC_ROUNDTRIP
360
ACE
  0
DICTIONARY
  5
901
330
8E2
100
AcDbDictionary
280
     1
281
     1
  3
ACAD_XREC_ROUNDTRIP
360
ADC
  0
DICTIONARY
  5
A7B
330
1E0
100
AcDbDictionary
280
     1
281
     1
  3
ACAD_ROUNDTRIP_2008_TABLESTYLE_CELLSTYLEMAP
360
A7C
  3
ACAD_XREC_ROUNDTRIP
360
ACA
  0
DICTIONARY
  5
A98
330
2F
100
AcDbDictionary
280
     1
281
     1
  3
ACAD_XREC_ROUNDTRIP
360
A99
  0
DICTIONARY
  5
A9C
330
31
100
AcDbDictionary
280
     1
281
     1
  3
ACAD_XREC_ROUNDTRIP
360
A9D
  0
DICTIONARY
  5
A9A
330
30
100
AcDbDictionary
280
     1
281
     1
  3
ACAD_XREC_ROUNDTRIP
360
A9B
  0
DICTIONARY
  5
A9E
330
32
100
AcDbDictionary
280
     1
281
     1
  3
ACAD_XREC_ROUNDTRIP
360
A9F
  0
DICTIONARY
  5
AA6
330
36
100
AcDbDictionary
280
     1
281
     1
  3
ACAD_XREC_ROUNDTRIP
360
AA7
  0
DICTIONARY
  5
AAE
330
3A
100
AcDbDictionary
280
     1
281
     1
  3
ACAD_XREC_ROUNDTRIP
360
AAF
  0
DICTIONARY
  5
AA2
330
34
100
AcDbDictionary
280
     1
281
     1
  3
ACAD_XREC_ROUNDTRIP
360
AA3
  0
DICTIONARY
  5
AA4
330
35
100
AcDbDictionary
280
     1
281
     1
  3
ACAD_XREC_ROUNDTRIP
360
AA5
  0
DICTIONARY
  5
AC8
330
1DE
100
AcDbDictionary
280
     1
281
     1
  3
ACAD_XREC_ROUNDTRIP
360
AC9
  0
DICTIONARY
  5
AAC
330
39
100
AcDbDictionary
280
     1
281
     1
  3
ACAD_XREC_ROUNDTRIP
360
AAD
  0
DICTIONARY
  5
A90
330
2B
100
AcDbDictionary
280
     1
281
     1
  3
ACAD_XREC_ROUNDTRIP
360
A91
  0
DICTIONARY
  5
A92
330
2C
100
AcDbDictionary
280
     1
281
     1
  3
ACAD_XREC_ROUNDTRIP
360
A93
  0
DICTIONARY
  5
A94
330
2D
100
AcDbDictionary
280
     1
281
     1
  3
ACAD_XREC_ROUNDTRIP
360
A95
  0
DICTIONARY
  5
A96
330
2E
100
AcDbDictionary
280
     1
281
     1
  3
ACAD_XREC_ROUNDTRIP
360
A97
  0
DICTIONARY
  5
AB8
330
1D6
100
AcDbDictionary
280
     1
281
     1
  3
ACAD_XREC_ROUNDTRIP
360
AB9
  0
DICTIONARY
  5
AC4
330
1DC
100
AcDbDictionary
280
     1
281
     1
  3
ACAD_XREC_ROUNDTRIP
360
AC5
  0
DICTIONARY
  5
AAA
330
38
100
AcDbDictionary
280
     1
281
     1
  3
ACAD_XREC_ROUNDTRIP
360
AAB
  0
DICTIONARY
  5
AC6
330
1DD
100
AcDbDictionary
280
     1
281
     1
  3
ACAD_XREC_ROUNDTRIP
360
AC7
  0
DICTIONARY
  5
AA0
330
33
100
AcDbDictionary
280
     1
281
     1
  3
ACAD_XREC_ROUNDTRIP
360
AA1
  0
DICTIONARY
  5
AC2
330
1DB
100
AcDbDictionary
280
     1
281
     1
  3
ACAD_XREC_ROUNDTRIP
360
AC3
  0
DICTIONARY
  5
AC0
330
1DA
100
AcDbDictionary
280
     1
281
     1
  3
ACAD_XREC_ROUNDTRIP
360
AC1
  0
DICTIONARY
  5
ABA
330
1D7
100
AcDbDictionary
280
     1
281
     1
  3
ACAD_XREC_ROUNDTRIP
360
ABB
  0
DICTIONARY
  5
ABC
330
1D8
100
AcDbDictionary
280
     1
281
     1
  3
ACAD_XREC_ROUNDTRIP
360
ABD
  0
DICTIONARY
  5
AA8
330
37
100
AcDbDictionary
280
     1
281
     1
  3
ACAD_XREC_ROUNDTRIP
360
AA9
  0
DICTIONARY
  5
AB6
330
1D5
100
AcDbDictionary
280
     1
281
     1
  3
ACAD_XREC_ROUNDTRIP
360
AB7
  0
DICTIONARY
  5
ABE
330
1D9
100
AcDbDictionary
280
     1
281
     1
  3
ACAD_XREC_ROUNDTRIP
360
ABF
  0
XRECORD
  5
A81
102
{ACAD_REACTORS
330
A88
102
}
330
A88
100
AcDbXrecord
280
     1
  1
AcDb_Thumbnail_Schema
102
{ATTRRECORD
341
A82
  2
AcDbDs::TreatedAsObjectData
280
     1
291
     1
102
ATTRRECORD}
102
{ATTRRECORD
341
A83
  2
AcDbDs::Legacy
280
     1
291
     1
102
ATTRRECORD}
  2
AcDbDs::ID
280
    10
 91
        8
102
{ATTRRECORD
341
A84
  2
AcDs:Indexable
280
     1
291
     1
102
ATTRRECORD}
102
{ATTRRECORD
341
A85
  2
AcDbDs::HandleAttribute
280
     7
282
     1
102
ATTRRECORD}
  2
Thumbnail_Data
280
    15
 91
        0
  0
XRECORD
  5
A82
102
{ACAD_REACTORS
330
A88
102
}
330
A88
100
AcDbXrecord
280
     1
  1
AcDbDs::TreatedAsObjectDataSchema
  2
AcDbDs::TreatedAsObjectData
280
     1
 91
        0
  0
XRECORD
  5
A83
102
{ACAD_REACTORS
330
A88
102
}
330
A88
100
AcDbXrecord
280
     1
  1
AcDbDs::LegacySchema
  2
AcDbDs::Legacy
280
     1
 91
        0
  0
XRECORD
  5
A84
102
{ACAD_REACTORS
330
A88
102
}
330
A88
100
AcDbXrecord
280
     1
  1
AcDbDs::IndexedPropertySchema
  2
AcDs:Indexable
280
     1
 91
        0
  0
XRECORD
  5
A85
102
{ACAD_REACTORS
330
A88
102
}
330
A88
100
AcDbXrecord
280
     1
  1
AcDbDs::HandleAttributeSchema
  2
AcDbDs::HandleAttribute
280
     7
 91
        1
284
     1
  0
XRECORD
  5
A86
102
{ACAD_REACTORS
330
A88
102
}
330
A88
100
AcDbXrecord
280
     1
  1
AcDb3DSolid_ASM_Data
102
{ATTRRECORD
341
A82
  2
AcDbDs::TreatedAsObjectData
280
     1
291
     1
102
ATTRRECORD}
102
{ATTRRECORD
341
A83
  2
AcDbDs::Legacy
280
     1
291
     1
102
ATTRRECORD}
  2
AcDbDs::ID
280
    10
 91
        8
102
{ATTRRECORD
341
A84
  2
AcDs:Indexable
280
     1
291
     1
102
ATTRRECORD}
102
{ATTRRECORD
341
A85
  2
AcDbDs::HandleAttribute
280
     7
282
     1
102
ATTRRECORD}
  2
ASM_Data
280
    15
 91
        0
  0
ACDBASSOC2DCONSTRAINTGROUP
  5
5EF
330
5EC
100
AcDbAssocAction
 90
        1
 90
        0
330
5EC
360
0
 90
        1
 90
       48
 90
        0
 90
        2
 70
     0
 10
0.0
 20
0.0
 30
0.0
 10
1.0
 20
0.0
 30
0.0
 10
0.0
 20
1.0
 30
0.0
360
0
 90
       22
360
600
360
620
360
664
360
617
360
657
360
663
360
67B
360
67F
360
683
360
6F7
360
867
360
5FD
360
631
360
641
360
655
360
681
360
622
360
65A
360
65E
360
6F6
360
866
360
A55
 90
      325
 90
      146
  1
AcConstrainedBoundedLine
330
5EF
 90
       12
 70
     1
 90
        3
 90
       14
 90
       16
 90
       25
330
5FD
 90
        0
 10
7075.073006951244
 20
3249.532416291263
 30
0.0
 10
-1.0
 20
0.0
 30
0.0
290
     0
 10
7075.073006951244
 20
3249.532416291263
 30
0.0
 11
6925.073006951244
 21
3249.532416291263
 31
0.0
  1
AcConstrainedImplicitPoint
330
5EF
 90
       13
 70
     1
 90
        1
 90
       14
330
0
 90
        0
280
     0
 90
       -1
 90
       12
  1
AcPointCurveConstraint
330
5EF
 90
       14
 70
     0
 90
        2
 90
       13
 90
       12
 90
        0
290
     1
290
     1
  1
AcConstrainedImplicitPoint
330
5EF
 90
       15
 70
     1
 90
        2
 90
       16
 90
       31
330
0
 90
        0
280
     1
 90
       -1
 90
       12
  1
AcPointCurveConstraint
330
5EF
 90
       16
 70
     0
 90
        2
 90
       15
 90
       12
 90
        0
290
     1
290
     1
  1
AcConstrainedDatumLine
330
5EF
 90
       23
 70
     0
 90
        0
330
0
 90
        0
 10
0.0
 20
0.0
 30
0.0
 10
1.0
 20
0.0
 30
0.0
  1
AcHorizontalConstraint
330
5EF
 90
       25
 70
     0
 90
        1
 90
       12
 90
        0
290
     0
290
     1
 90
       23
  1
AcConstrainedBoundedLine
330
5EF
 90
       26
 70
     1
 90
        2
 90
       28
 90
       30
330
600
 90
        0
 10
6925.073006951244
 20
3249.532416291263
 30
0.0
 10
-0.707106781186667
 20
-0.707106781186667
 30
0.0
290
     0
 10
6925.073006951244
 20
3249.532416291263
 30
0.0
 11
6907.39533742158
 21
3231.854746761599
 31
0.0
  1
AcConstrainedImplicitPoint
330
5EF
 90
       27
 70
     1
 90
        2
 90
       28
 90
       31
330
0
 90
        0
280
     0
 90
       -1
 90
       26
  1
AcPointCurveConstraint
330
5EF
 90
       28
 70
     0
 90
        2
 90
       27
 90
       26
 90
        0
290
     1
290
     1
  1
AcConstrainedImplicitPoint
330
5EF
 90
       29
 70
     1
 90
        1
 90
       30
330
0
 90
        0
280
     1
 90
       -1
 90
       26
  1
AcPointCurveConstraint
330
5EF
 90
       30
 70
     0
 90
        2
 90
       29
 90
       26
 90
        0
290
     1
290
     1
  1
AcPointCoincidenceConstraint
330
5EF
 90
       31
 70
     0
 90
        2
 90
       27
 90
       15
 90
        0
290
     0
290
     1
  1
AcConstrainedDatumLine
330
5EF
 90
       76
 70
     0
 90
        0
330
0
 90
        0
 10
0.0
 20
-5.0
 30
0.0
 10
1.0
 20
0.0
 30
0.0
  1
AcConstrainedBoundedLine
330
5EF
 90
       77
 70
     1
 90
        3
 90
       79
 90
       81
 90
       82
330
617
 90
        0
 10
7056.410088006761
 20
3225.73487597634
 30
0.0
 10
-1.0
 20
0.0
 30
0.0
290
     0
 10
7056.410088006761
 20
3225.73487597634
 30
0.0
 11
6892.621858837495
 21
3225.73487597634
 31
0.0
  1
AcConstrainedImplicitPoint
330
5EF
 90
       78
 70
     1
 90
        2
 90
       79
 90
       90
330
0
 90
        0
280
     0
 90
       -1
 90
       77
  1
AcPointCurveConstraint
330
5EF
 90
       79
 70
     0
 90
        2
 90
       78
 90
       77
 90
        0
290
     1
290
     1
  1
AcConstrainedImplicitPoint
330
5EF
 90
       80
 70
     1
 90
        1
 90
       81
330
0
 90
        0
280
     1
 90
       -1
 90
       77
  1
AcPointCurveConstraint
330
5EF
 90
       81
 70
     0
 90
        2
 90
       80
 90
       77
 90
        0
290
     1
290
     1
  1
AcHorizontalConstraint
330
5EF
 90
       82
 70
     0
 90
        1
 90
       77
 90
        0
290
     0
290
     1
 90
       76
  1
AcConstrainedArc
330
5EF
 90
       83
 70
     1
 90
        3
 90
       85
 90
       87
 90
       89
330
620
 90
        0
 10
7057.201987728911
 20
3244.703245787253
 30
0.0
 10
0.0
 20
0.0
 30
1.0
 10
1.0
 20
0.0
 30
0.0
 40
18.98489290076416
 40
0.0
 40
6.283185307179586
 10
7056.410088006761
 20
3225.73487597634
 30
0.0
 11
7076.128264070518
 21
3243.212533778002
 31
0.0
  1
AcConstrainedImplicitPoint
330
5EF
 90
       84
 70
     1
 90
        2
 90
       85
 90
       90
330
0
 90
        0
280
     0
 90
       -1
 90
       83
  1
AcPointCurveConstraint
330
5EF
 90
       85
 70
     0
 90
        2
 90
       84
 90
       83
 90
        0
290
     1
290
     1
  1
AcConstrainedImplicitPoint
330
5EF
 90
       86
 70
     1
 90
        2
 90
       87
 90
      101
330
0
 90
        0
280
     1
 90
       -1
 90
       83
  1
AcPointCurveConstraint
330
5EF
 90
       87
 70
     0
 90
        2
 90
       86
 90
       83
 90
        0
290
     1
290
     1
  1
AcConstrainedImplicitPoint
330
5EF
 90
       88
 70
     1
 90
        1
 90
       89
330
0
 90
        0
280
     3
 90
       -1
 90
       83
  1
AcCenterPointConstraint
330
5EF
 90
       89
 70
     0
 90
        2
 90
       88
 90
       83
 90
        0
290
     1
290
     1
  1
AcPointCoincidenceConstraint
330
5EF
 90
       90
 70
     0
 90
        2
 90
       84
 90
       78
 90
        0
290
     0
290
     1
  1
AcConstrainedBoundedLine
330
5EF
 90
       94
 70
     1
 90
        3
 90
       96
 90
       98
 90
      100
330
622
 90
        0
 10
7076.128264070518
 20
3243.212533778002
 30
0.0
 10
0.0
 20
1.0
 30
0.0
290
     0
 10
7076.128264070518
 20
3243.212533778002
 30
0.0
 11
7076.128264070518
 21
3360.032416291263
 31
0.0
  1
AcConstrainedImplicitPoint
330
5EF
 90
       95
 70
     1
 90
        2
 90
       96
 90
      101
330
0
 90
        0
280
     0
 90
       -1
 90
       94
  1
AcPointCurveConstraint
330
5EF
 90
       96
 70
     0
 90
        2
 90
       95
 90
       94
 90
        0
290
     1
290
     1
  1
AcConstrainedImplicitPoint
330
5EF
 90
       97
 70
     1
 90
        1
 90
       98
330
0
 90
        0
280
     1
 90
       -1
 90
       94
  1
AcPointCurveConstraint
330
5EF
 90
       98
 70
     0
 90
        2
 90
       97
 90
       94
 90
        0
290
     1
290
     1
  1
AcConstrainedDatumLine
330
5EF
 90
       99
 70
     0
 90
        0
330
0
 90
        0
 10
0.0
 20
0.0
 30
0.0
 10
0.0
 20
1.0
 30
0.0
  1
AcVerticalConstraint
330
5EF
 90
      100
 70
     0
 90
        1
 90
       94
 90
        0
290
     0
290
     1
 90
       99
  1
AcPointCoincidenceConstraint
330
5EF
 90
      101
 70
     0
 90
        2
 90
       86
 90
       95
 90
        0
290
     0
290
     1
  1
AcConstrainedDatumLine
330
5EF
 90
      102
 70
     0
 90
        0
330
0
 90
        0
 10
0.0
 20
-6.0
 30
0.0
 10
1.0
 20
0.0
 30
0.0
  1
AcConstrainedBoundedLine
330
5EF
 90
      103
 70
     1
 90
        3
 90
      105
 90
      107
 90
      108
330
631
 90
        0
 10
7056.410088006761
 20
3224.734875976341
 30
0.0
 10
-1.0
 20
0.0
 30
0.0
290
     0
 10
7056.410088006761
 20
3224.734875976341
 30
0.0
 11
6892.621858837495
 21
3224.734875976341
 31
0.0
  1
AcConstrainedImplicitPoint
330
5EF
 90
      104
 70
     1
 90
        1
 90
      105
330
0
 90
        0
280
     0
 90
       -1
 90
      103
  1
AcPointCurveConstraint
330
5EF
 90
      105
 70
     0
 90
        2
 90
      104
 90
      103
 90
        0
290
     1
290
     1
  1
AcConstrainedImplicitPoint
330
5EF
 90
      106
 70
     1
 90
        1
 90
      107
330
0
 90
        0
280
     1
 90
       -1
 90
      103
  1
AcPointCurveConstraint
330
5EF
 90
      107
 70
     0
 90
        2
 90
      106
 90
      103
 90
        0
290
     1
290
     1
  1
AcHorizontalConstraint
330
5EF
 90
      108
 70
     0
 90
        1
 90
      103
 90
        0
290
     0
290
     1
 90
      102
  1
AcConstrainedDatumLine
330
5EF
 90
      110
 70
     0
 90
        0
330
0
 90
        0
 10
0.0
 20
-7.0
 30
0.0
 10
1.0
 20
0.0
 30
0.0
  1
AcConstrainedBoundedLine
330
5EF
 90
      111
 70
     1
 90
        3
 90
      113
 90
      115
 90
      116
330
641
 90
        0
 10
7056.410088006761
 20
3223.734875976341
 30
0.0
 10
-1.0
 20
0.0
 30
0.0
290
     0
 10
7056.410088006761
 20
3223.734875976341
 30
0.0
 11
6892.621858837495
 21
3223.734875976341
 31
0.0
  1
AcConstrainedImplicitPoint
330
5EF
 90
      112
 70
     1
 90
        1
 90
      113
330
0
 90
        0
280
     0
 90
       -1
 90
      111
  1
AcPointCurveConstraint
330
5EF
 90
      113
 70
     0
 90
        2
 90
      112
 90
      111
 90
        0
290
     1
290
     1
  1
AcConstrainedImplicitPoint
330
5EF
 90
      114
 70
     1
 90
        1
 90
      115
330
0
 90
        0
280
     1
 90
       -1
 90
      111
  1
AcPointCurveConstraint
330
5EF
 90
      115
 70
     0
 90
        2
 90
      114
 90
      111
 90
        0
290
     1
290
     1
  1
AcHorizontalConstraint
330
5EF
 90
      116
 70
     0
 90
        1
 90
      111
 90
        0
290
     0
290
     1
 90
      110
  1
AcConstrainedBoundedLine
330
5EF
 90
      141
 70
     1
 90
        3
 90
      143
 90
      145
 90
      170
330
655
 90
        0
 10
7039.476866241324
 20
3221.746277859949
 30
0.0
 10
-1.0
 20
0.0
 30
0.0
290
     0
 10
7039.476866241324
 20
3221.746277859949
 30
0.0
 11
6969.476866241324
 21
3221.746277859949
 31
0.0
  1
AcConstrainedImplicitPoint
330
5EF
 90
      142
 70
     1
 90
        3
 90
      143
 90
      157
 90
      218
330
0
 90
        0
280
     0
 90
       -1
 90
      141
  1
AcPointCurveConstraint
330
5EF
 90
      143
 70
     0
 90
        2
 90
      142
 90
      141
 90
        0
290
     1
290
     1
  1
AcConstrainedImplicitPoint
330
5EF
 90
      144
 70
     1
 90
        2
 90
      145
 90
      169
330
0
 90
        0
280
     1
 90
       -1
 90
      141
  1
AcPointCurveConstraint
330
5EF
 90
      145
 70
     0
 90
        2
 90
      144
 90
      141
 90
        0
290
     1
290
     1
  1
AcConstrainedBoundedLine
330
5EF
 90
      152
 70
     1
 90
        2
 90
      154
 90
      156
330
657
 90
        0
 10
6969.476866241324
 20
3181.746277859949
 30
0.0
 10
0.8682431421248111
 20
0.496138938357035
 30
0.0
290
     0
 10
6969.476866241324
 20
3181.746277859949
 30
0.0
 11
7039.476866241324
 21
3221.746277859949
 31
0.0
  1
AcConstrainedImplicitPoint
330
5EF
 90
      153
 70
     1
 90
        2
 90
      154
 90
      226
330
0
 90
        0
280
     0
 90
       -1
 90
      152
  1
AcPointCurveConstraint
330
5EF
 90
      154
 70
     0
 90
        2
 90
      153
 90
      152
 90
        0
290
     1
290
     1
  1
AcConstrainedImplicitPoint
330
5EF
 90
      155
 70
     1
 90
        2
 90
      156
 90
      157
330
0
 90
        0
280
     1
 90
       -1
 90
      152
  1
AcPointCurveConstraint
330
5EF
 90
      156
 70
     0
 90
        2
 90
      155
 90
      152
 90
        0
290
     1
290
     1
  1
AcPointCoincidenceConstraint
330
5EF
 90
      157
 70
     0
 90
        2
 90
      142
 90
      155
 90
        0
290
     0
290
     1
  1
AcConstrainedBoundedLine
330
5EF
 90
      164
 70
     1
 90
        4
 90
      166
 90
      168
 90
      170
 90
      189
330
65A
 90
        0
 10
6969.476866241324
 20
3221.746277859949
 30
0.0
 10
0.0
 20
-1.0
 30
0.0
290
     0
 10
6969.476866241324
 20
3221.746277859949
 30
0.0
 11
6969.476866241324
 21
3181.746277859949
 31
0.0
  1
AcConstrainedImplicitPoint
330
5EF
 90
      165
 70
     1
 90
        3
 90
      166
 90
      169
 90
      225
330
0
 90
        0
280
     0
 90
       -1
 90
      164
  1
AcPointCurveConstraint
330
5EF
 90
      166
 70
     0
 90
        2
 90
      165
 90
      164
 90
        0
290
     1
290
     1
  1
AcConstrainedImplicitPoint
330
5EF
 90
      167
 70
     1
 90
        2
 90
      168
 90
      188
330
0
 90
        0
280
     1
 90
       -1
 90
      164
  1
AcPointCurveConstraint
330
5EF
 90
      168
 70
     0
 90
        2
 90
      167
 90
      164
 90
        0
290
     1
290
     1
  1
AcPointCoincidenceConstraint
330
5EF
 90
      169
 70
     0
 90
        2
 90
      165
 90
      144
 90
        0
290
     0
290
     1
  1
AcPerpendicularConstraint
330
5EF
 90
      170
 70
     0
 90
        2
 90
      164
 90
      141
 90
        0
290
     0
290
     1
  1
AcConstrainedBoundedLine
330
5EF
 90
      183
 70
     1
 90
        4
 90
      185
 90
      187
 90
      189
 90
      217
330
65E
 90
        0
 10
6969.476866241324
 20
3181.746277859949
 30
0.0
 10
1.0
 20
0.0
 30
0.0
290
     0
 10
6969.476866241324
 20
3181.746277859949
 30
0.0
 11
7039.476866241324
 21
3181.746277859949
 31
0.0
  1
AcConstrainedImplicitPoint
330
5EF
 90
      184
 70
     1
 90
        3
 90
      185
 90
      188
 90
      226
330
0
 90
        0
280
     0
 90
       -1
 90
      183
  1
AcPointCurveConstraint
330
5EF
 90
      185
 70
     0
 90
        2
 90
      184
 90
      183
 90
        0
290
     1
290
     1
  1
AcConstrainedImplicitPoint
330
5EF
 90
      186
 70
     1
 90
        2
 90
      187
 90
      216
330
0
 90
        0
280
     1
 90
       -1
 90
      183
  1
AcPointCurveConstraint
330
5EF
 90
      187
 70
     0
 90
        2
 90
      186
 90
      183
 90
        0
290
     1
290
     1
  1
AcPointCoincidenceConstraint
330
5EF
 90
      188
 70
     0
 90
        2
 90
      184
 90
      167
 90
        0
290
     0
290
     1
  1
AcPerpendicularConstraint
330
5EF
 90
      189
 70
     0
 90
        2
 90
      183
 90
      164
 90
        0
290
     0
290
     1
  1
AcConstrainedBoundedLine
330
5EF
 90
      211
 70
     1
 90
        4
 90
      213
 90
      215
 90
      217
 90
      219
330
663
 90
        0
 10
7039.476866241324
 20
3181.746277859949
 30
0.0
 10
0.0
 20
1.0
 30
0.0
290
     0
 10
7039.476866241324
 20
3181.746277859949
 30
0.0
 11
7039.476866241324
 21
3221.746277859949
 31
0.0
  1
AcConstrainedImplicitPoint
330
5EF
 90
      212
 70
     1
 90
        3
 90
      213
 90
      216
 90
      227
330
0
 90
        0
280
     0
 90
       -1
 90
      211
  1
AcPointCurveConstraint
330
5EF
 90
      213
 70
     0
 90
        2
 90
      212
 90
      211
 90
        0
290
     1
290
     1
  1
AcConstrainedImplicitPoint
330
5EF
 90
      214
 70
     1
 90
        2
 90
      215
 90
      218
330
0
 90
        0
280
     1
 90
       -1
 90
      211
  1
AcPointCurveConstraint
330
5EF
 90
      215
 70
     0
 90
        2
 90
      214
 90
      211
 90
        0
290
     1
290
     1
  1
AcPointCoincidenceConstraint
330
5EF
 90
      216
 70
     0
 90
        2
 90
      212
 90
      186
 90
        0
290
     0
290
     1
  1
AcPerpendicularConstraint
330
5EF
 90
      217
 70
     0
 90
        2
 90
      211
 90
      183
 90
        0
290
     0
290
     1
  1
AcPointCoincidenceConstraint
330
5EF
 90
      218
 70
     0
 90
        2
 90
      214
 90
      142
 90
        0
290
     0
290
     1
  1
AcVerticalConstraint
330
5EF
 90
      219
 70
     0
 90
        1
 90
      211
 90
        0
290
     0
290
     1
 90
       99
  1
AcConstrainedBoundedLine
330
5EF
 90
      220
 70
     1
 90
        2
 90
      222
 90
      224
330
664
 90
        0
 10
7039.476866241324
 20
3181.746277859949
 30
0.0
 10
-0.8682431421248111
 20
0.496138938357035
 30
0.0
290
     0
 10
7039.476866241324
 20
3181.746277859949
 30
0.0
 11
6969.476866241324
 21
3221.746277859949
 31
0.0
  1
AcConstrainedImplicitPoint
330
5EF
 90
      221
 70
     1
 90
        2
 90
      222
 90
      227
330
0
 90
        0
280
     0
 90
       -1
 90
      220
  1
AcPointCurveConstraint
330
5EF
 90
      222
 70
     0
 90
        2
 90
      221
 90
      220
 90
        0
290
     1
290
     1
  1
AcConstrainedImplicitPoint
330
5EF
 90
      223
 70
     1
 90
        2
 90
      224
 90
      225
330
0
 90
        0
280
     1
 90
       -1
 90
      220
  1
AcPointCurveConstraint
330
5EF
 90
      224
 70
     0
 90
        2
 90
      223
 90
      220
 90
        0
290
     1
290
     1
  1
AcPointCoincidenceConstraint
330
5EF
 90
      225
 70
     0
 90
        2
 90
      223
 90
      165
 90
        0
290
     0
290
     1
  1
AcPointCoincidenceConstraint
330
5EF
 90
      226
 70
     0
 90
        2
 90
      153
 90
      184
 90
        0
290
     0
290
     1
  1
AcPointCoincidenceConstraint
330
5EF
 90
      227
 70
     0
 90
        2
 90
      221
 90
      212
 90
        0
290
     0
290
     1
  1
AcConstrainedBoundedLine
330
5EF
 90
      228
 70
     1
 90
        3
 90
      230
 90
      232
 90
      239
330
67B
 90
        0
 10
7077.121370406017
 20
3180.842206007089
 30
0.0
 10
-1.0
 20
0.0
 30
0.0
290
     0
 10
7077.121370406017
 20
3180.842206007089
 30
0.0
 11
6899.312958374186
 21
3180.842206007089
 31
0.0
  1
AcConstrainedImplicitPoint
330
5EF
 90
      229
 70
     1
 90
        1
 90
      230
330
0
 90
        0
280
     0
 90
       -1
 90
      228
  1
AcPointCurveConstraint
330
5EF
 90
      230
 70
     0
 90
        2
 90
      229
 90
      228
 90
        0
290
     1
290
     1
  1
AcConstrainedImplicitPoint
330
5EF
 90
      231
 70
     1
 90
        1
 90
      232
330
0
 90
        0
280
     1
 90
       -1
 90
      228
  1
AcPointCurveConstraint
330
5EF
 90
      232
 70
     0
 90
        2
 90
      231
 90
      228
 90
        0
290
     1
290
     1
  1
AcHorizontalConstraint
330
5EF
 90
      239
 70
     0
 90
        1
 90
      228
 90
        0
290
     0
290
     1
 90
       23
  1
AcConstrainedBoundedLine
330
5EF
 90
      240
 70
     1
 90
        3
 90
      242
 90
      244
 90
      251
330
67F
 90
        0
 10
7077.121370406017
 20
3079.377830789117
 30
0.0
 10
-1.0
 20
0.0
 30
0.0
290
     0
 10
7077.121370406017
 20
3079.377830789117
 30
0.0
 11
6899.312958374186
 21
3079.377830789117
 31
0.0
  1
AcConstrainedImplicitPoint
330
5EF
 90
      241
 70
     1
 90
        1
 90
      242
330
0
 90
        0
280
     0
 90
       -1
 90
      240
  1
AcPointCurveConstraint
330
5EF
 90
      242
 70
     0
 90
        2
 90
      241
 90
      240
 90
        0
290
     1
290
     1
  1
AcConstrainedImplicitPoint
330
5EF
 90
      243
 70
     1
 90
        1
 90
      244
330
0
 90
        0
280
     1
 90
       -1
 90
      240
  1
AcPointCurveConstraint
330
5EF
 90
      244
 70
     0
 90
        2
 90
      243
 90
      240
 90
        0
290
     1
290
     1
  1
AcHorizontalConstraint
330
5EF
 90
      251
 70
     0
 90
        1
 90
      240
 90
        0
290
     0
290
     1
 90
       23
  1
AcConstrainedBoundedLine
330
5EF
 90
      252
 70
     1
 90
        3
 90
      254
 90
      256
 90
      257
330
681
 90
        0
 10
6899.312958374186
 20
3132.093454972253
 30
0.0
 10
0.0
 20
1.0
 30
0.0
290
     0
 10
6899.312958374186
 20
3132.093454972253
 30
0.0
 11
6899.312958374186
 21
3213.464556175245
 31
0.0
  1
AcConstrainedImplicitPoint
330
5EF
 90
      253
 70
     1
 90
        1
 90
      254
330
0
 90
        0
280
     0
 90
       -1
 90
      252
  1
AcPointCurveConstraint
330
5EF
 90
      254
 70
     0
 90
        2
 90
      253
 90
      252
 90
        0
290
     1
290
     1
  1
AcConstrainedImplicitPoint
330
5EF
 90
      255
 70
     1
 90
        1
 90
      256
330
0
 90
        0
280
     1
 90
       -1
 90
      252
  1
AcPointCurveConstraint
330
5EF
 90
      256
 70
     0
 90
        2
 90
      255
 90
      252
 90
        0
290
     1
290
     1
  1
AcVerticalConstraint
330
5EF
 90
      257
 70
     0
 90
        1
 90
      252
 90
        0
290
     0
290
     1
 90
       99
  1
AcConstrainedBoundedLine
330
5EF
 90
      258
 70
     1
 90
        3
 90
      260
 90
      262
 90
      263
330
683
 90
        0
 10
6899.312958374186
 20
3043.210313498147
 30
0.0
 10
0.0
 20
1.0
 30
0.0
290
     0
 10
6899.312958374186
 20
3043.210313498147
 30
0.0
 11
6899.312958374186
 21
3124.093454972254
 31
0.0
  1
AcConstrainedImplicitPoint
330
5EF
 90
      259
 70
     1
 90
        1
 90
      260
330
0
 90
        0
280
     0
 90
       -1
 90
      258
  1
AcPointCurveConstraint
330
5EF
 90
      260
 70
     0
 90
        2
 90
      259
 90
      258
 90
        0
290
     1
290
     1
  1
AcConstrainedImplicitPoint
330
5EF
 90
      261
 70
     1
 90
        1
 90
      262
330
0
 90
        0
280
     1
 90
       -1
 90
      258
  1
AcPointCurveConstraint
330
5EF
 90
      262
 70
     0
 90
        2
 90
      261
 90
      258
 90
        0
290
     1
290
     1
  1
AcVerticalConstraint
330
5EF
 90
      263
 70
     0
 90
        1
 90
      258
 90
        0
290
     0
290
     1
 90
       99
  1
AcConstrainedArc
330
5EF
 90
      292
 70
     1
 90
        3
 90
      294
 90
      296
 90
      298
330
6F6
 90
        0
 10
6975.828952759759
 20
3249.602221826807
 30
0.0
 10
0.0
 20
0.0
 30
1.0
 10
1.0
 20
0.0
 30
0.0
 40
20.10105954943949
 40
0.0
 40
6.283185307179586
 10
6967.767301928333
 20
3231.188575232982
 30
0.0
 11
6983.915477890327
 21
3231.19948544542
 31
0.0
  1
AcConstrainedImplicitPoint
330
5EF
 90
      293
 70
     1
 90
        1
 90
      294
330
0
 90
        0
280
     0
 90
       -1
 90
      292
  1
AcPointCurveConstraint
330
5EF
 90
      294
 70
     0
 90
        2
 90
      293
 90
      292
 90
        0
290
     1
290
     1
  1
AcConstrainedImplicitPoint
330
5EF
 90
      295
 70
     1
 90
        2
 90
      296
 90
      308
330
0
 90
        0
280
     1
 90
       -1
 90
      292
  1
AcPointCurveConstraint
330
5EF
 90
      296
 70
     0
 90
        2
 90
      295
 90
      292
 90
        0
290
     1
290
     1
  1
AcConstrainedImplicitPoint
330
5EF
 90
      297
 70
     1
 90
        1
 90
      298
330
0
 90
        0
280
     3
 90
       -1
 90
      292
  1
AcCenterPointConstraint
330
5EF
 90
      298
 70
     0
 90
        2
 90
      297
 90
      292
 90
        0
290
     1
290
     1
  1
AcConstrainedBoundedLine
330
5EF
 90
      303
 70
     1
 90
        2
 90
      305
 90
      307
330
6F7
 90
        0
 10
7006.527824250278
 20
3244.079460816414
 30
0.0
 10
-0.8689270457098245
 20
-0.4949401875319382
 30
0.0
290
     0
 10
7006.527824250278
 20
3244.079460816414
 30
0.0
 11
6983.915477890327
 21
3231.199485445421
 31
0.0
  1
AcConstrainedImplicitPoint
330
5EF
 90
      304
 70
     1
 90
        1
 90
      305
330
0
 90
        0
280
     0
 90
       -1
 90
      303
  1
AcPointCurveConstraint
330
5EF
 90
      305
 70
     0
 90
        2
 90
      304
 90
      303
 90
        0
290
     1
290
     1
  1
AcConstrainedImplicitPoint
330
5EF
 90
      306
 70
     1
 90
        2
 90
      307
 90
      308
330
0
 90
        0
280
     1
 90
       -1
 90
      303
  1
AcPointCurveConstraint
330
5EF
 90
      307
 70
     0
 90
        2
 90
      306
 90
      303
 90
        0
290
     1
290
     1
  1
AcPointCoincidenceConstraint
330
5EF
 90
      308
 70
     0
 90
        2
 90
      295
 90
      306
 90
        0
290
     0
290
     1
  1
AcConstrainedBoundedLine
330
5EF
 90
      309
 70
     1
 90
        2
 90
      311
 90
      313
330
866
 90
        0
 10
7265.763585923479
 20
3471.919044867497
 30
0.0
 10
-1.0
 20
0.0
 30
0.0
290
     0
 10
7265.763585923479
 20
3471.919044867497
 30
0.0
 11
6892.621858837493
 21
3471.919044867497
 31
0.0
  1
AcConstrainedImplicitPoint
330
5EF
 90
      310
 70
     1
 90
        1
 90
      311
330
0
 90
        0
280
     0
 90
       -1
 90
      309
  1
AcPointCurveConstraint
330
5EF
 90
      311
 70
     0
 90
        2
 90
      310
 90
      309
 90
        0
290
     1
290
     1
  1
AcConstrainedImplicitPoint
330
5EF
 90
      312
 70
     1
 90
        2
 90
      313
 90
      319
330
0
 90
        0
280
     1
 90
       -1
 90
      309
  1
AcPointCurveConstraint
330
5EF
 90
      313
 70
     0
 90
        2
 90
      312
 90
      309
 90
        0
290
     1
290
     1
  1
AcConstrainedBoundedLine
330
5EF
 90
      314
 70
     1
 90
        2
 90
      316
 90
      318
330
867
 90
        0
 10
6892.621858837493
 20
2931.869429228701
 30
0.0
 10
0.0
 20
1.0
 30
0.0
290
     0
 10
6892.621858837493
 20
2931.869429228701
 30
0.0
 11
6892.621858837493
 21
3471.919044867497
 31
0.0
  1
AcConstrainedImplicitPoint
330
5EF
 90
      315
 70
     1
 90
        2
 90
      316
 90
      325
330
0
 90
        0
280
     0
 90
       -1
 90
      314
  1
AcPointCurveConstraint
330
5EF
 90
      316
 70
     0
 90
        2
 90
      315
 90
      314
 90
        0
290
     1
290
     1
  1
AcConstrainedImplicitPoint
330
5EF
 90
      317
 70
     1
 90
        2
 90
      318
 90
      319
330
0
 90
        0
280
     1
 90
       -1
 90
      314
  1
AcPointCurveConstraint
330
5EF
 90
      318
 70
     0
 90
        2
 90
      317
 90
      314
 90
        0
290
     1
290
     1
  1
AcPointCoincidenceConstraint
330
5EF
 90
      319
 70
     0
 90
        2
 90
      312
 90
      317
 90
        0
290
     0
290
     1
  1
AcConstrainedBoundedLine
330
5EF
 90
      320
 70
     1
 90
        2
 90
      322
 90
      324
330
A55
 90
        0
 10
7265.763585923479
 20
2931.869429228701
 30
0.0
 10
-1.0
 20
0.0
 30
0.0
290
     0
 10
7265.763585923479
 20
2931.869429228701
 30
0.0
 11
6892.621858837493
 21
2931.869429228701
 31
0.0
  1
AcConstrainedImplicitPoint
330
5EF
 90
      321
 70
     1
 90
        1
 90
      322
330
0
 90
        0
280
     0
 90
       -1
 90
      320
  1
AcPointCurveConstraint
330
5EF
 90
      322
 70
     0
 90
        2
 90
      321
 90
      320
 90
        0
290
     1
290
     1
  1
AcConstrainedImplicitPoint
330
5EF
 90
      323
 70
     1
 90
        2
 90
      324
 90
      325
330
0
 90
        0
280
     1
 90
       -1
 90
      320
  1
AcPointCurveConstraint
330
5EF
 90
      324
 70
     0
 90
        2
 90
      323
 90
      320
 90
        0
290
     1
290
     1
  1
AcPointCoincidenceConstraint
330
5EF
 90
      325
 70
     0
 90
        2
 90
      315
 90
      323
 90
        0
290
     0
290
     1
  0
ACDBASSOC2DCONSTRAINTGROUP
  5
78D
330
78C
100
AcDbAssocAction
 90
        1
 90
        0
330
78C
360
0
 90
        1
 90
       12
 90
        0
 90
        2
 70
     0
 10
0.0
 20
0.0
 30
0.0
 10
1.0
 20
0.0
 30
0.0
 10
0.0
 20
1.0
 30
0.0
360
0
 90
        5
360
78E
360
78F
360
790
360
791
360
792
 90
       84
 90
       31
  1
AcConstrainedDatumLine
330
78D
 90
       54
 70
     0
 90
        0
330
0
 90
        0
 10
855.2978874735945
 20
53.21674985285563
 30
0.0
 10
1.0
 20
0.0
 30
0.0
  1
AcConstrainedBoundedLine
330
78D
 90
       55
 70
     1
 90
        2
 90
       57
 90
       59
330
790
 90
        0
 10
7721.378786902072
 20
4015.530308442822
 30
0.0
 10
0.7071067811857575
 20
-0.7071067811871217
 30
0.0
290
     0
 10
7721.378786902072
 20
4015.530308442822
 30
0.0
 11
7722.227315039494
 21
4014.681780305398
 31
0.0
  1
AcConstrainedImplicitPoint
330
78D
 90
       56
 70
     1
 90
        1
 90
       57
330
0
 90
        0
280
     0
 90
       -1
 90
       55
  1
AcPointCurveConstraint
330
78D
 90
       57
 70
     0
 90
        2
 90
       56
 90
       55
 90
        0
290
     1
290
     1
  1
AcConstrainedImplicitPoint
330
78D
 90
       58
 70
     1
 90
        2
 90
       59
 90
       65
330
0
 90
        0
280
     1
 90
       -1
 90
       55
  1
AcPointCurveConstraint
330
78D
 90
       59
 70
     0
 90
        2
 90
       58
 90
       55
 90
        0
290
     1
290
     1
  1
AcConstrainedBoundedLine
330
78D
 90
       60
 70
     1
 90
        2
 90
       62
 90
       64
330
792
 90
        0
 10
7722.227315039494
 20
4014.681780305398
 30
0.0
 10
0.0
 20
-1.0
 30
0.0
290
     0
 10
7722.227315039494
 20
4014.681780305398
 30
0.0
 11
7722.227315039494
 21
3997.530308442822
 31
0.0
  1
AcConstrainedImplicitPoint
330
78D
 90
       61
 70
     1
 90
        2
 90
       62
 90
       65
330
0
 90
        0
280
     0
 90
       -1
 90
       60
  1
AcPointCurveConstraint
330
78D
 90
       62
 70
     0
 90
        2
 90
       61
 90
       60
 90
        0
290
     1
290
     1
  1
AcConstrainedImplicitPoint
330
78D
 90
       63
 70
     1
 90
        2
 90
       64
 90
       71
330
0
 90
        0
280
     1
 90
       -1
 90
       60
  1
AcPointCurveConstraint
330
78D
 90
       64
 70
     0
 90
        2
 90
       63
 90
       60
 90
        0
290
     1
290
     1
  1
AcPointCoincidenceConstraint
330
78D
 90
       65
 70
     0
 90
        2
 90
       58
 90
       61
 90
        0
290
     0
290
     1
  1
AcConstrainedBoundedLine
330
78D
 90
       66
 70
     1
 90
        3
 90
       68
 90
       70
 90
       72
330
78E
 90
        0
 10
7722.227315039494
 20
3997.530308442822
 30
0.0
 10
1.0
 20
0.0
 30
0.0
290
     0
 10
7722.227315039494
 20
3997.530308442822
 30
0.0
 11
7797.578786902072
 21
3997.530308442822
 31
0.0
  1
AcConstrainedImplicitPoint
330
78D
 90
       67
 70
     1
 90
        2
 90
       68
 90
       71
330
0
 90
        0
280
     0
 90
       -1
 90
       66
  1
AcPointCurveConstraint
330
78D
 90
       68
 70
     0
 90
        2
 90
       67
 90
       66
 90
        0
290
     1
290
     1
  1
AcConstrainedImplicitPoint
330
78D
 90
       69
 70
     1
 90
        1
 90
       70
330
0
 90
        0
280
     1
 90
       -1
 90
       66
  1
AcPointCurveConstraint
330
78D
 90
       70
 70
     0
 90
        2
 90
       69
 90
       66
 90
        0
290
     1
290
     1
  1
AcPointCoincidenceConstraint
330
78D
 90
       71
 70
     0
 90
        2
 90
       67
 90
       63
 90
        0
290
     0
290
     1
  1
AcHorizontalConstraint
330
78D
 90
       72
 70
     0
 90
        1
 90
       66
 90
        0
290
     0
290
     1
 90
       54
  1
AcConstrainedBoundedLine
330
78D
 90
       73
 70
     1
 90
        3
 90
       75
 90
       77
 90
       84
330
78F
 90
        0
 10
7798.778786902072
 20
3996.330308442824
 30
0.0
 10
-1.0
 20
0.0
 30
0.0
290
     0
 10
7798.778786902072
 20
3996.330308442824
 30
0.0
 11
7727.378786902069
 21
3996.330308442824
 31
0.0
  1
AcConstrainedImplicitPoint
330
78D
 90
       74
 70
     1
 90
        1
 90
       75
330
0
 90
        0
280
     0
 90
       -1
 90
       73
  1
AcPointCurveConstraint
330
78D
 90
       75
 70
     0
 90
        2
 90
       74
 90
       73
 90
        0
290
     1
290
     1
  1
AcConstrainedImplicitPoint
330
78D
 90
       76
 70
     1
 90
        2
 90
       77
 90
       83
330
0
 90
        0
280
     1
 90
       -1
 90
       73
  1
AcPointCurveConstraint
330
78D
 90
       77
 70
     0
 90
        2
 90
       76
 90
       73
 90
        0
290
     1
290
     1
  1
AcConstrainedBoundedLine
330
78D
 90
       78
 70
     1
 90
        2
 90
       80
 90
       82
330
791
 90
        0
 10
7727.378786902069
 20
3996.330308442824
 30
0.0
 10
-0.707106781186667
 20
-0.707106781186667
 30
0.0
290
     0
 10
7727.378786902069
 20
3996.330308442824
 30
0.0
 11
7721.378786902072
 21
3990.330308442825
 31
0.0
  1
AcConstrainedImplicitPoint
330
78D
 90
       79
 70
     1
 90
        2
 90
       80
 90
       83
330
0
 90
        0
280
     0
 90
       -1
 90
       78
  1
AcPointCurveConstraint
330
78D
 90
       80
 70
     0
 90
        2
 90
       79
 90
       78
 90
        0
290
     1
290
     1
  1
AcConstrainedImplicitPoint
330
78D
 90
       81
 70
     1
 90
        1
 90
       82
330
0
 90
        0
280
     1
 90
       -1
 90
       78
  1
AcPointCurveConstraint
330
78D
 90
       82
 70
     0
 90
        2
 90
       81
 90
       78
 90
        0
290
     1
290
     1
  1
AcPointCoincidenceConstraint
330
78D
 90
       83
 70
     0
 90
        2
 90
       76
 90
       79
 90
        0
290
     0
290
     1
  1
AcHorizontalConstraint
330
78D
 90
       84
 70
     0
 90
        1
 90
       73
 90
        0
290
     0
290
     1
 90
       54
  0
XRECORD
  5
ACF
102
{ACAD_REACTORS
330
266
102
}
330
266
100
AcDbXrecord
280
     1
102
DISPLAYNAME
  1
Imperial24
102
FLAGS
 90
        0
  0
XRECORD
  5
ADD
102
{ACAD_REACTORS
330
903
102
}
330
903
100
AcDbXrecord
280
     1
102
DISPLAYNAME
  1
Metric50
102
FLAGS
 90
        0
  0
XRECORD
  5
A8B
102
{ACAD_REACTORS
330
A8A
102
}
330
A8A
100
AcDbXrecord
280
     1
102
SHADEPLOT
 70
     0
102
SHADEPLOTRESLEVEL
 70
     2
102
SHADEPLOTCUSTOMDPI
 70
   300
  0
XRECORD
  5
A8F
102
{ACAD_REACTORS
330
A8E
102
}
330
A8E
100
AcDbXrecord
280
     1
102
SHADEPLOT
 70
     0
102
SHADEPLOTRESLEVEL
 70
     2
102
SHADEPLOTCUSTOMDPI
 70
   300
  0
XRECORD
  5
A8D
102
{ACAD_REACTORS
330
A8C
102
}
330
A8C
100
AcDbXrecord
280
     1
102
SHADEPLOT
 70
     0
102
SHADEPLOTRESLEVEL
 70
     2
102
SHADEPLOTCUSTOMDPI
 70
   300
  0
XRECORD
  5
AB3
102
{ACAD_REACTORS
330
AB2
102
}
330
AB2
100
AcDbXrecord
280
     1
102
MATERIAL
148
0.0
149
0.0
149
0.0
 93
        0
 94
      127
282
     0
 72
     1
 77
     1
171
     1
175
     1
179
     1
273
     0
  0
XRECORD
  5
AB1
102
{ACAD_REACTORS
330
AB0
102
}
330
AB0
100
AcDbXrecord
280
     1
102
MATERIAL
148
0.0
149
0.0
149
0.0
 93
        0
 94
      127
282
     0
 72
     1
 77
     1
171
     1
175
     1
179
     1
273
     0
  0
XRECORD
  5
AB5
102
{ACAD_REACTORS
330
AB4
102
}
330
AB4
100
AcDbXrecord
280
     1
102
MATERIAL
148
0.0
149
0.0
149
0.0
 93
        0
 94
      127
282
     0
 72
     1
 77
     1
171
     1
175
     1
179
     1
273
     0
  0
XRECORD
  5
ACD
102
{ACAD_REACTORS
330
ACC
102
}
330
ACC
100
AcDbXrecord
280
     1
102
ACAD_ROUNDTRIP_2012_MLEADER_STYLE
298
     1
  0
XRECORD
  5
ACE
102
{ACAD_REACTORS
330
264
102
}
330
264
100
AcDbXrecord
280
     1
102
DISPLAYNAME
  1
Imperial24
102
FLAGS
 90
        0
  0
XRECORD
  5
ADC
102
{ACAD_REACTORS
330
901
102
}
330
901
100
AcDbXrecord
280
     1
102
DISPLAYNAME
  1
Metric50
102
FLAGS
 90
        0
  0
CELLSTYLEMAP
  5
A7C
102
{ACAD_REACTORS
330
A7B
102
}
330
A7B
100
AcDbCellStyleMap
 90
        3
300
CELLSTYLE
  1
TABLEFORMAT_BEGIN
 90
        5
170
     1
 91
        0
 92
    32768
 62
   257
 93
        1
300
CONTENTFORMAT
  1
CONTENTFORMAT_BEGIN
 90
        0
 91
        0
 92
      512
 93
        0
300

 40
0.0
140
1.0
 94
        5
 62
     0
340
11
144
0.25
309
CONTENTFORMAT_END
171
     0
 94
        0
309
TABLEFORMAT_END
  1
CELLSTYLE_BEGIN
 90
        1
 91
        1
300
_TITLE
309
CELLSTYLE_END
300
CELLSTYLE
  1
TABLEFORMAT_BEGIN
 90
        5
170
     1
 91
        0
 92
        0
 62
   257
 93
        1
300
CONTENTFORMAT
  1
CONTENTFORMAT_BEGIN
 90
        0
 91
        0
 92
      512
 93
        0
300

 40
0.0
140
1.0
 94
        5
 62
     0
340
11
144
0.18
309
CONTENTFORMAT_END
171
     0
 94
        0
309
TABLEFORMAT_END
  1
CELLSTYLE_BEGIN
 90
        2
 91
        1
300
_HEADER
309
CELLSTYLE_END
300
CELLSTYLE
  1
TABLEFORMAT_BEGIN
 90
        5
170
     1
 91
        0
 92
        0
 62
   257
 93
        1
300
CONTENTFORMAT
  1
CONTENTFORMAT_BEGIN
 90
        0
 91
        0
 92
      512
 93
        0
300

 40
0.0
140
1.0
 94
        2
 62
     0
340
11
144
0.18
309
CONTENTFORMAT_END
171
     0
 94
        0
309
TABLEFORMAT_END
  1
CELLSTYLE_BEGIN
 90
        3
 91
        2
300
_DATA
309
CELLSTYLE_END
  0
XRECORD
  5
ACA
102
{ACAD_REACTORS
330
A7B
102
}
330
A7B
100
AcDbXrecord
280
     1
102
ACAD_ROUNDTRIP_PRE2007_TABLESTYLE
 90
      512
 91
        0
  1

 92
      512
 93
        0
  2

 94
      512
 95
        0
  3

  0
XRECORD
  5
A99
102
{ACAD_REACTORS
330
A98
102
}
330
A98
100
AcDbXrecord
280
     1
102
RTVSPost2010Prop28
280
     1
102
RTVSPost2010PropOp28
 70
     1
102
RTVSPost2010Prop29
280
     1
102
RTVSPost2010PropOp29
 70
     1
102
RTVSPost2010Prop30
280
     0
102
RTVSPost2010PropOp30
 70
     1
102
RTVSPost2010Prop31
280
     0
102
RTVSPost2010PropOp31
 70
     1
102
RTVSPost2010Prop32
280
     0
102
RTVSPost2010PropOp32
 70
     1
102
RTVSPost2010Prop33
280
     0
102
RTVSPost2010PropOp33
 70
     1
102
RTVSPost2010Prop34
280
     0
102
RTVSPost2010PropOp34
 70
     1
102
RTVSPost2010Prop35
280
     0
102
RTVSPost2010PropOp35
 70
     1
102
RTVSPost2010Prop36
280
     0
102
RTVSPost2010PropOp36
 70
     1
102
RTVSPost2010Prop37
 90
       50
102
RTVSPost2010PropOp37
 70
     1
102
RTVSPost2010Prop38
140
0.0
102
RTVSPost2010PropOp38
 70
     1
102
RTVSPost2010Prop39
140
1.0
102
RTVSPost2010PropOp39
 70
     1
102
RTVSPost2010Prop40
 90
        0
102
RTVSPost2010PropOp40
 70
     1
102
RTVSPost2010Prop41ColorIndex
 90
       18
102
RTVSPost2010Prop41ColorRGB
 90
        0
102
RTVSPost2010PropOp41
 70
     1
102
RTVSPost2010Prop42
 90
       50
102
RTVSPost2010PropOp42
 70
     1
102
RTVSPost2010Prop43
 90
        3
102
RTVSPost2010PropOp43
 70
     1
102
RTVSPost2010Prop44ColorIndex
 90
        5
102
RTVSPost2010Prop44ColorRGB
 90
      255
102
RTVSPost2010PropOp44
 70
     1
102
RTVSPost2010Prop45
280
     0
102
RTVSPost2010PropOp45
 70
     1
102
RTVSPost2010Prop46
 90
       50
102
RTVSPost2010PropOp46
 70
     1
102
RTVSPost2010Prop47
 90
       50
102
RTVSPost2010PropOp47
 70
     1
102
RTVSPost2010Prop48
 90
       50
102
RTVSPost2010PropOp48
 70
     1
102
RTVSPost2010Prop49
280
     0
102
RTVSPost2010PropOp49
 70
     1
102
RTVSPost2010Prop50
 90
       50
102
RTVSPost2010PropOp50
 70
     1
102
RTVSPost2010Prop51ColorIndex
 90
      256
102
RTVSPost2010Prop51ColorRGB
 90
-16777216
102
RTVSPost2010PropOp51
 70
     0
102
RTVSPost2010Prop52
140
1.0
102
RTVSPost2010PropOp52
 70
     0
102
RTVSPost2010Prop53
 90
        2
102
RTVSPost2010PropOp53
 70
     1
102
RTVSPost2010Prop54
  1
strokes_ogs.tif
102
RTVSPost2010PropOp54
 70
     1
102
RTVSPost2010Prop55
280
     0
102
RTVSPost2010PropOp55
 70
     1
102
RTVSPost2010Prop56
140
1.0
102
RTVSPost2010PropOp56
 70
     1
102
RTVSPost2010Prop57
140
1.0
102
RTVSPost2010PropOp57
 70
     1
102
RTVSPropertyOp0
 70
     1
102
RTVSPropertyOp1
 70
     1
102
RTVSPropertyOp2
 70
     1
102
RTVSPropertyOp3
 70
     1
102
RTVSPropertyOp4
 70
     1
102
RTVSPropertyOp5
 70
     1
102
RTVSPropertyOp6
 70
     1
102
RTVSPropertyOp7
 70
     1
102
RTVSPropertyOp8
 70
     1
102
RTVSPropertyOp9
 70
     1
102
RTVSPropertyOp10
 70
     1
102
RTVSPropertyOp11
 70
     1
102
RTVSPropertyOp12
 70
     1
102
RTVSPropertyOp13
 70
     1
102
RTVSPropertyOp14
 70
     1
102
RTVSPropertyOp15
 70
     1
102
RTVSPropertyOp16
 70
     1
102
RTVSPropertyOp17
 70
     1
102
RTVSPropertyOp18
 70
     1
102
RTVSPropertyOp19
 70
     1
102
RTVSPropertyOp20
 70
     1
102
RTVSPropertyOp21
 70
     1
102
RTVSPropertyOp22
 70
     1
102
RTVSPropertyOp23
 70
     1
102
RTVSPropertyOp24
 70
     1
102
RTVSPropertyOp25
 70
     1
102
RTVSPropertyOp26
 70
     1
102
RTVSPropertyOp27
 70
     1
102
RTVSPropertyOp28
 70
     1
102
RTVSPropertyOp29
 70
     1
102
RTVSPropertyOp30
 70
     1
102
RTVSPropertyOp31
 70
     1
102
RTVSPropertyOp32
 70
     1
102
RTVSPropertyOp33
 70
     1
102
RTVSPropertyOp34
 70
     1
102
RTVSPropertyOp35
 70
     1
102
RTVSPropertyOp36
 70
     1
102
RTVSPropertyOp37
 70
     1
102
RTVSPropertyOp38
 70
     1
102
RTVSPropertyOp39
 70
     1
102
RTVSPropertyOp40
 70
     1
102
RTVSPropertyOp41
 70
     1
102
RTVSPropertyOp42
 70
     1
102
RTVSPropertyOp43
 70
     1
102
RTVSPropertyOp44
 70
     1
102
RTVSPropertyOp45
 70
     1
102
RTVSPropertyOp46
 70
     1
102
RTVSPropertyOp47
 70
     1
102
RTVSPropertyOp48
 70
     1
102
RTVSPropertyOp49
 70
     1
102
RTVSPropertyOp50
 70
     1
102
RTVSPropertyOp51
 70
     0
102
RTVSPropertyOp52
 70
     0
102
RTVSPropertyOp53
 70
     1
102
RTVSPropertyOp54
 70
     1
102
RTVSPropertyOp55
 70
     1
102
RTVSPropertyOp56
 70
     1
102
RTVSPropertyOp57
 70
     1
102
RTVSPropertyOp58
 70
     1
102
RTVSPropertyOp59
 70
     1
102
RTVSPropertyOp60
 70
     1
102
RTVSPropertyOp61
 70
     1
102
RTVSPropertyOp62
 70
     1
  0
XRECORD
  5
A9D
102
{ACAD_REACTORS
330
A9C
102
}
330
A9C
100
AcDbXrecord
280
     1
102
RTVSPost2010Prop28
280
     0
102
RTVSPost2010PropOp28
 70
     1
102
RTVSPost2010Prop29
280
     1
102
RTVSPost2010PropOp29
 70
     1
102
RTVSPost2010Prop30
280
     1
102
RTVSPost2010PropOp30
 70
     1
102
RTVSPost2010Prop31
280
     0
102
RTVSPost2010PropOp31
 70
     1
102
RTVSPost2010Prop32
280
     0
102
RTVSPost2010PropOp32
 70
     1
102
RTVSPost2010Prop33
280
     0
102
RTVSPost2010PropOp33
 70
     1
102
RTVSPost2010Prop34
280
     0
102
RTVSPost2010PropOp34
 70
     1
102
RTVSPost2010Prop35
280
     0
102
RTVSPost2010PropOp35
 70
     1
102
RTVSPost2010Prop36
280
     0
102
RTVSPost2010PropOp36
 70
     1
102
RTVSPost2010Prop37
 90
       50
102
RTVSPost2010PropOp37
 70
     1
102
RTVSPost2010Prop38
140
0.0
102
RTVSPost2010PropOp38
 70
     1
102
RTVSPost2010Prop39
140
1.0
102
RTVSPost2010PropOp39
 70
     1
102
RTVSPost2010Prop40
 90
        0
102
RTVSPost2010PropOp40
 70
     1
102
RTVSPost2010Prop41ColorIndex
 90
       18
102
RTVSPost2010Prop41ColorRGB
 90
        0
102
RTVSPost2010PropOp41
 70
     1
102
RTVSPost2010Prop42
 90
       50
102
RTVSPost2010PropOp42
 70
     1
102
RTVSPost2010Prop43
 90
        3
102
RTVSPost2010PropOp43
 70
     1
102
RTVSPost2010Prop44ColorIndex
 90
        5
102
RTVSPost2010Prop44ColorRGB
 90
      255
102
RTVSPost2010PropOp44
 70
     1
102
RTVSPost2010Prop45
280
     0
102
RTVSPost2010PropOp45
 70
     1
102
RTVSPost2010Prop46
 90
       50
102
RTVSPost2010PropOp46
 70
     1
102
RTVSPost2010Prop47
 90
       50
102
RTVSPost2010PropOp47
 70
     1
102
RTVSPost2010Prop48
 90
       50
102
RTVSPost2010PropOp48
 70
     1
102
RTVSPost2010Prop49
280
     0
102
RTVSPost2010PropOp49
 70
     1
102
RTVSPost2010Prop50
 90
       50
102
RTVSPost2010PropOp50
 70
     1
102
RTVSPost2010Prop51ColorIndex
 90
      256
102
RTVSPost2010Prop51ColorRGB
 90
-16777216
102
RTVSPost2010PropOp51
 70
     0
102
RTVSPost2010Prop52
140
1.0
102
RTVSPost2010PropOp52
 70
     0
102
RTVSPost2010Prop53
 90
        2
102
RTVSPost2010PropOp53
 70
     1
102
RTVSPost2010Prop54
  1
strokes_ogs.tif
102
RTVSPost2010PropOp54
 70
     1
102
RTVSPost2010Prop55
280
     0
102
RTVSPost2010PropOp55
 70
     1
102
RTVSPost2010Prop56
140
1.0
102
RTVSPost2010PropOp56
 70
     1
102
RTVSPost2010Prop57
140
1.0
102
RTVSPost2010PropOp57
 70
     1
102
RTVSPropertyOp0
 70
     1
102
RTVSPropertyOp1
 70
     1
102
RTVSPropertyOp2
 70
     1
102
RTVSPropertyOp3
 70
     1
102
RTVSPropertyOp4
 70
     1
102
RTVSPropertyOp5
 70
     1
102
RTVSPropertyOp6
 70
     1
102
RTVSPropertyOp7
 70
     1
102
RTVSPropertyOp8
 70
     1
102
RTVSPropertyOp9
 70
     1
102
RTVSPropertyOp10
 70
     1
102
RTVSPropertyOp11
 70
     1
102
RTVSPropertyOp12
 70
     1
102
RTVSPropertyOp13
 70
     1
102
RTVSPropertyOp14
 70
     1
102
RTVSPropertyOp15
 70
     1
102
RTVSPropertyOp16
 70
     1
102
RTVSPropertyOp17
 70
     1
102
RTVSPropertyOp18
 70
     1
102
RTVSPropertyOp19
 70
     1
102
RTVSPropertyOp20
 70
     1
102
RTVSPropertyOp21
 70
     1
102
RTVSPropertyOp22
 70
     1
102
RTVSPropertyOp23
 70
     1
102
RTVSPropertyOp24
 70
     1
102
RTVSPropertyOp25
 70
     1
102
RTVSPropertyOp26
 70
     1
102
RTVSPropertyOp27
 70
     1
102
RTVSPropertyOp28
 70
     1
102
RTVSPropertyOp29
 70
     1
102
RTVSPropertyOp30
 70
     1
102
RTVSPropertyOp31
 70
     1
102
RTVSPropertyOp32
 70
     1
102
RTVSPropertyOp33
 70
     1
102
RTVSPropertyOp34
 70
     1
102
RTVSPropertyOp35
 70
     1
102
RTVSPropertyOp36
 70
     1
102
RTVSPropertyOp37
 70
     1
102
RTVSPropertyOp38
 70
     1
102
RTVSPropertyOp39
 70
     1
102
RTVSPropertyOp40
 70
     1
102
RTVSPropertyOp41
 70
     1
102
RTVSPropertyOp42
 70
     1
102
RTVSPropertyOp43
 70
     1
102
RTVSPropertyOp44
 70
     1
102
RTVSPropertyOp45
 70
     1
102
RTVSPropertyOp46
 70
     1
102
RTVSPropertyOp47
 70
     1
102
RTVSPropertyOp48
 70
     1
102
RTVSPropertyOp49
 70
     1
102
RTVSPropertyOp50
 70
     1
102
RTVSPropertyOp51
 70
     0
102
RTVSPropertyOp52
 70
     0
102
RTVSPropertyOp53
 70
     1
102
RTVSPropertyOp54
 70
     1
102
RTVSPropertyOp55
 70
     1
102
RTVSPropertyOp56
 70
     1
102
RTVSPropertyOp57
 70
     1
102
RTVSPropertyOp58
 70
     1
102
RTVSPropertyOp59
 70
     1
102
RTVSPropertyOp60
 70
     1
102
RTVSPropertyOp61
 70
     1
102
RTVSPropertyOp62
 70
     1
  0
XRECORD
  5
A9B
102
{ACAD_REACTORS
330
A9A
102
}
330
A9A
100
AcDbXrecord
280
     1
102
RTVSPost2010Prop28
280
     0
102
RTVSPost2010PropOp28
 70
     1
102
RTVSPost2010Prop29
280
     1
102
RTVSPost2010PropOp29
 70
     1
102
RTVSPost2010Prop30
280
     1
102
RTVSPost2010PropOp30
 70
     1
102
RTVSPost2010Prop31
280
     0
102
RTVSPost2010PropOp31
 70
     1
102
RTVSPost2010Prop32
280
     0
102
RTVSPost2010PropOp32
 70
     1
102
RTVSPost2010Prop33
280
     0
102
RTVSPost2010PropOp33
 70
     1
102
RTVSPost2010Prop34
280
     0
102
RTVSPost2010PropOp34
 70
     1
102
RTVSPost2010Prop35
280
     0
102
RTVSPost2010PropOp35
 70
     1
102
RTVSPost2010Prop36
280
     0
102
RTVSPost2010PropOp36
 70
     1
102
RTVSPost2010Prop37
 90
       50
102
RTVSPost2010PropOp37
 70
     1
102
RTVSPost2010Prop38
140
0.0
102
RTVSPost2010PropOp38
 70
     1
102
RTVSPost2010Prop39
140
1.0
102
RTVSPost2010PropOp39
 70
     1
102
RTVSPost2010Prop40
 90
        0
102
RTVSPost2010PropOp40
 70
     1
102
RTVSPost2010Prop41ColorIndex
 90
       18
102
RTVSPost2010Prop41ColorRGB
 90
        0
102
RTVSPost2010PropOp41
 70
     1
102
RTVSPost2010Prop42
 90
       50
102
RTVSPost2010PropOp42
 70
     1
102
RTVSPost2010Prop43
 90
        3
102
RTVSPost2010PropOp43
 70
     1
102
RTVSPost2010Prop44ColorIndex
 90
        5
102
RTVSPost2010Prop44ColorRGB
 90
      255
102
RTVSPost2010PropOp44
 70
     1
102
RTVSPost2010Prop45
280
     0
102
RTVSPost2010PropOp45
 70
     1
102
RTVSPost2010Prop46
 90
       50
102
RTVSPost2010PropOp46
 70
     1
102
RTVSPost2010Prop47
 90
       50
102
RTVSPost2010PropOp47
 70
     1
102
RTVSPost2010Prop48
 90
       50
102
RTVSPost2010PropOp48
 70
     1
102
RTVSPost2010Prop49
280
     0
102
RTVSPost2010PropOp49
 70
     1
102
RTVSPost2010Prop50
 90
       50
102
RTVSPost2010PropOp50
 70
     1
102
RTVSPost2010Prop51ColorIndex
 90
      256
102
RTVSPost2010Prop51ColorRGB
 90
-16777216
102
RTVSPost2010PropOp51
 70
     0
102
RTVSPost2010Prop52
140
1.0
102
RTVSPost2010PropOp52
 70
     0
102
RTVSPost2010Prop53
 90
        2
102
RTVSPost2010PropOp53
 70
     1
102
RTVSPost2010Prop54
  1
strokes_ogs.tif
102
RTVSPost2010PropOp54
 70
     1
102
RTVSPost2010Prop55
280
     0
102
RTVSPost2010PropOp55
 70
     1
102
RTVSPost2010Prop56
140
1.0
102
RTVSPost2010PropOp56
 70
     1
102
RTVSPost2010Prop57
140
1.0
102
RTVSPost2010PropOp57
 70
     1
102
RTVSPropertyOp0
 70
     1
102
RTVSPropertyOp1
 70
     1
102
RTVSPropertyOp2
 70
     1
102
RTVSPropertyOp3
 70
     1
102
RTVSPropertyOp4
 70
     1
102
RTVSPropertyOp5
 70
     1
102
RTVSPropertyOp6
 70
     1
102
RTVSPropertyOp7
 70
     1
102
RTVSPropertyOp8
 70
     1
102
RTVSPropertyOp9
 70
     1
102
RTVSPropertyOp10
 70
     1
102
RTVSPropertyOp11
 70
     1
102
RTVSPropertyOp12
 70
     1
102
RTVSPropertyOp13
 70
     1
102
RTVSPropertyOp14
 70
     1
102
RTVSPropertyOp15
 70
     1
102
RTVSPropertyOp16
 70
     1
102
RTVSPropertyOp17
 70
     1
102
RTVSPropertyOp18
 70
     1
102
RTVSPropertyOp19
 70
     1
102
RTVSPropertyOp20
 70
     1
102
RTVSPropertyOp21
 70
     1
102
RTVSPropertyOp22
 70
     1
102
RTVSPropertyOp23
 70
     1
102
RTVSPropertyOp24
 70
     1
102
RTVSPropertyOp25
 70
     1
102
RTVSPropertyOp26
 70
     1
102
RTVSPropertyOp27
 70
     1
102
RTVSPropertyOp28
 70
     1
102
RTVSPropertyOp29
 70
     1
102
RTVSPropertyOp30
 70
     1
102
RTVSPropertyOp31
 70
     1
102
RTVSPropertyOp32
 70
     1
102
RTVSPropertyOp33
 70
     1
102
RTVSPropertyOp34
 70
     1
102
RTVSPropertyOp35
 70
     1
102
RTVSPropertyOp36
 70
     1
102
RTVSPropertyOp37
 70
     1
102
RTVSPropertyOp38
 70
     1
102
RTVSPropertyOp39
 70
     1
102
RTVSPropertyOp40
 70
     1
102
RTVSPropertyOp41
 70
     1
102
RTVSPropertyOp42
 70
     1
102
RTVSPropertyOp43
 70
     1
102
RTVSPropertyOp44
 70
     1
102
RTVSPropertyOp45
 70
     1
102
RTVSPropertyOp46
 70
     1
102
RTVSPropertyOp47
 70
     1
102
RTVSPropertyOp48
 70
     1
102
RTVSPropertyOp49
 70
     1
102
RTVSPropertyOp50
 70
     1
102
RTVSPropertyOp51
 70
     0
102
RTVSPropertyOp52
 70
     0
102
RTVSPropertyOp53
 70
     1
102
RTVSPropertyOp54
 70
     1
102
RTVSPropertyOp55
 70
     1
102
RTVSPropertyOp56
 70
     1
102
RTVSPropertyOp57
 70
     1
102
RTVSPropertyOp58
 70
     1
102
RTVSPropertyOp59
 70
     1
102
RTVSPropertyOp60
 70
     1
102
RTVSPropertyOp61
 70
     1
102
RTVSPropertyOp62
 70
     1
  0
XRECORD
  5
A9F
102
{ACAD_REACTORS
330
A9E
102
}
330
A9E
100
AcDbXrecord
280
     1
102
RTVSPost2010Prop28
280
     0
102
RTVSPost2010PropOp28
 70
     1
102
RTVSPost2010Prop29
280
     1
102
RTVSPost2010PropOp29
 70
     1
102
RTVSPost2010Prop30
280
     1
102
RTVSPost2010PropOp30
 70
     1
102
RTVSPost2010Prop31
280
     0
102
RTVSPost2010PropOp31
 70
     1
102
RTVSPost2010Prop32
280
     0
102
RTVSPost2010PropOp32
 70
     1
102
RTVSPost2010Prop33
280
     0
102
RTVSPost2010PropOp33
 70
     1
102
RTVSPost2010Prop34
280
     0
102
RTVSPost2010PropOp34
 70
     1
102
RTVSPost2010Prop35
280
     0
102
RTVSPost2010PropOp35
 70
     1
102
RTVSPost2010Prop36
280
     0
102
RTVSPost2010PropOp36
 70
     1
102
RTVSPost2010Prop37
 90
       50
102
RTVSPost2010PropOp37
 70
     1
102
RTVSPost2010Prop38
140
0.0
102
RTVSPost2010PropOp38
 70
     1
102
RTVSPost2010Prop39
140
1.0
102
RTVSPost2010PropOp39
 70
     1
102
RTVSPost2010Prop40
 90
        0
102
RTVSPost2010PropOp40
 70
     1
102
RTVSPost2010Prop41ColorIndex
 90
       18
102
RTVSPost2010Prop41ColorRGB
 90
        0
102
RTVSPost2010PropOp41
 70
     1
102
RTVSPost2010Prop42
 90
       50
102
RTVSPost2010PropOp42
 70
     1
102
RTVSPost2010Prop43
 90
        3
102
RTVSPost2010PropOp43
 70
     1
102
RTVSPost2010Prop44ColorIndex
 90
        5
102
RTVSPost2010Prop44ColorRGB
 90
      255
102
RTVSPost2010PropOp44
 70
     1
102
RTVSPost2010Prop45
280
     0
102
RTVSPost2010PropOp45
 70
     1
102
RTVSPost2010Prop46
 90
       50
102
RTVSPost2010PropOp46
 70
     1
102
RTVSPost2010Prop47
 90
       50
102
RTVSPost2010PropOp47
 70
     1
102
RTVSPost2010Prop48
 90
       50
102
RTVSPost2010PropOp48
 70
     1
102
RTVSPost2010Prop49
280
     0
102
RTVSPost2010PropOp49
 70
     1
102
RTVSPost2010Prop50
 90
       50
102
RTVSPost2010PropOp50
 70
     1
102
RTVSPost2010Prop51ColorIndex
 90
      256
102
RTVSPost2010Prop51ColorRGB
 90
-16777216
102
RTVSPost2010PropOp51
 70
     0
102
RTVSPost2010Prop52
140
1.0
102
RTVSPost2010PropOp52
 70
     0
102
RTVSPost2010Prop53
 90
        2
102
RTVSPost2010PropOp53
 70
     1
102
RTVSPost2010Prop54
  1
strokes_ogs.tif
102
RTVSPost2010PropOp54
 70
     1
102
RTVSPost2010Prop55
280
     0
102
RTVSPost2010PropOp55
 70
     1
102
RTVSPost2010Prop56
140
1.0
102
RTVSPost2010PropOp56
 70
     1
102
RTVSPost2010Prop57
140
1.0
102
RTVSPost2010PropOp57
 70
     1
102
RTVSPropertyOp0
 70
     1
102
RTVSPropertyOp1
 70
     1
102
RTVSPropertyOp2
 70
     1
102
RTVSPropertyOp3
 70
     1
102
RTVSPropertyOp4
 70
     1
102
RTVSPropertyOp5
 70
     1
102
RTVSPropertyOp6
 70
     1
102
RTVSPropertyOp7
 70
     1
102
RTVSPropertyOp8
 70
     1
102
RTVSPropertyOp9
 70
     1
102
RTVSPropertyOp10
 70
     1
102
RTVSPropertyOp11
 70
     1
102
RTVSPropertyOp12
 70
     1
102
RTVSPropertyOp13
 70
     1
102
RTVSPropertyOp14
 70
     1
102
RTVSPropertyOp15
 70
     1
102
RTVSPropertyOp16
 70
     1
102
RTVSPropertyOp17
 70
     1
102
RTVSPropertyOp18
 70
     1
102
RTVSPropertyOp19
 70
     1
102
RTVSPropertyOp20
 70
     1
102
RTVSPropertyOp21
 70
     1
102
RTVSPropertyOp22
 70
     1
102
RTVSPropertyOp23
 70
     1
102
RTVSPropertyOp24
 70
     1
102
RTVSPropertyOp25
 70
     1
102
RTVSPropertyOp26
 70
     1
102
RTVSPropertyOp27
 70
     1
102
RTVSPropertyOp28
 70
     1
102
RTVSPropertyOp29
 70
     1
102
RTVSPropertyOp30
 70
     1
102
RTVSPropertyOp31
 70
     1
102
RTVSPropertyOp32
 70
     1
102
RTVSPropertyOp33
 70
     1
102
RTVSPropertyOp34
 70
     1
102
RTVSPropertyOp35
 70
     1
102
RTVSPropertyOp36
 70
     1
102
RTVSPropertyOp37
 70
     1
102
RTVSPropertyOp38
 70
     1
102
RTVSPropertyOp39
 70
     1
102
RTVSPropertyOp40
 70
     1
102
RTVSPropertyOp41
 70
     1
102
RTVSPropertyOp42
 70
     1
102
RTVSPropertyOp43
 70
     1
102
RTVSPropertyOp44
 70
     1
102
RTVSPropertyOp45
 70
     1
102
RTVSPropertyOp46
 70
     1
102
RTVSPropertyOp47
 70
     1
102
RTVSPropertyOp48
 70
     1
102
RTVSPropertyOp49
 70
     1
102
RTVSPropertyOp50
 70
     1
102
RTVSPropertyOp51
 70
     0
102
RTVSPropertyOp52
 70
     0
102
RTVSPropertyOp53
 70
     1
102
RTVSPropertyOp54
 70
     1
102
RTVSPropertyOp55
 70
     1
102
RTVSPropertyOp56
 70
     1
102
RTVSPropertyOp57
 70
     1
102
RTVSPropertyOp58
 70
     1
102
RTVSPropertyOp59
 70
     1
102
RTVSPropertyOp60
 70
     1
102
RTVSPropertyOp61
 70
     1
102
RTVSPropertyOp62
 70
     1
  0
XRECORD
  5
AA7
102
{ACAD_REACTORS
330
AA6
102
}
330
AA6
100
AcDbXrecord
280
     1
102
RTVSPost2010Prop28
280
     0
102
RTVSPost2010PropOp28
 70
     1
102
RTVSPost2010Prop29
280
     1
102
RTVSPost2010PropOp29
 70
     1
102
RTVSPost2010Prop30
280
     1
102
RTVSPost2010PropOp30
 70
     1
102
RTVSPost2010Prop31
280
     0
102
RTVSPost2010PropOp31
 70
     1
102
RTVSPost2010Prop32
280
     0
102
RTVSPost2010PropOp32
 70
     1
102
RTVSPost2010Prop33
280
     0
102
RTVSPost2010PropOp33
 70
     1
102
RTVSPost2010Prop34
280
     0
102
RTVSPost2010PropOp34
 70
     1
102
RTVSPost2010Prop35
280
     0
102
RTVSPost2010PropOp35
 70
     1
102
RTVSPost2010Prop36
280
     0
102
RTVSPost2010PropOp36
 70
     1
102
RTVSPost2010Prop37
 90
       50
102
RTVSPost2010PropOp37
 70
     1
102
RTVSPost2010Prop38
140
0.0
102
RTVSPost2010PropOp38
 70
     1
102
RTVSPost2010Prop39
140
1.0
102
RTVSPost2010PropOp39
 70
     1
102
RTVSPost2010Prop40
 90
        0
102
RTVSPost2010PropOp40
 70
     1
102
RTVSPost2010Prop41ColorIndex
 90
       18
102
RTVSPost2010Prop41ColorRGB
 90
        0
102
RTVSPost2010PropOp41
 70
     1
102
RTVSPost2010Prop42
 90
       50
102
RTVSPost2010PropOp42
 70
     1
102
RTVSPost2010Prop43
 90
        3
102
RTVSPost2010PropOp43
 70
     1
102
RTVSPost2010Prop44ColorIndex
 90
        5
102
RTVSPost2010Prop44ColorRGB
 90
      255
102
RTVSPost2010PropOp44
 70
     1
102
RTVSPost2010Prop45
280
     0
102
RTVSPost2010PropOp45
 70
     1
102
RTVSPost2010Prop46
 90
       50
102
RTVSPost2010PropOp46
 70
     1
102
RTVSPost2010Prop47
 90
       50
102
RTVSPost2010PropOp47
 70
     1
102
RTVSPost2010Prop48
 90
       50
102
RTVSPost2010PropOp48
 70
     1
102
RTVSPost2010Prop49
280
     0
102
RTVSPost2010PropOp49
 70
     1
102
RTVSPost2010Prop50
 90
       50
102
RTVSPost2010PropOp50
 70
     1
102
RTVSPost2010Prop51ColorIndex
 90
      256
102
RTVSPost2010Prop51ColorRGB
 90
-16777216
102
RTVSPost2010PropOp51
 70
     0
102
RTVSPost2010Prop52
140
1.0
102
RTVSPost2010PropOp52
 70
     0
102
RTVSPost2010Prop53
 90
        2
102
RTVSPost2010PropOp53
 70
     1
102
RTVSPost2010Prop54
  1
strokes_ogs.tif
102
RTVSPost2010PropOp54
 70
     1
102
RTVSPost2010Prop55
280
     0
102
RTVSPost2010PropOp55
 70
     1
102
RTVSPost2010Prop56
140
1.0
102
RTVSPost2010PropOp56
 70
     1
102
RTVSPost2010Prop57
140
1.0
102
RTVSPost2010PropOp57
 70
     1
102
RTVSPropertyOp0
 70
     1
102
RTVSPropertyOp1
 70
     1
102
RTVSPropertyOp2
 70
     1
102
RTVSPropertyOp3
 70
     1
102
RTVSPropertyOp4
 70
     1
102
RTVSPropertyOp5
 70
     1
102
RTVSPropertyOp6
 70
     1
102
RTVSPropertyOp7
 70
     1
102
RTVSPropertyOp8
 70
     1
102
RTVSPropertyOp9
 70
     1
102
RTVSPropertyOp10
 70
     1
102
RTVSPropertyOp11
 70
     1
102
RTVSPropertyOp12
 70
     1
102
RTVSPropertyOp13
 70
     1
102
RTVSPropertyOp14
 70
     1
102
RTVSPropertyOp15
 70
     1
102
RTVSPropertyOp16
 70
     1
102
RTVSPropertyOp17
 70
     1
102
RTVSPropertyOp18
 70
     1
102
RTVSPropertyOp19
 70
     1
102
RTVSPropertyOp20
 70
     1
102
RTVSPropertyOp21
 70
     1
102
RTVSPropertyOp22
 70
     1
102
RTVSPropertyOp23
 70
     1
102
RTVSPropertyOp24
 70
     1
102
RTVSPropertyOp25
 70
     1
102
RTVSPropertyOp26
 70
     1
102
RTVSPropertyOp27
 70
     1
102
RTVSPropertyOp28
 70
     1
102
RTVSPropertyOp29
 70
     1
102
RTVSPropertyOp30
 70
     1
102
RTVSPropertyOp31
 70
     1
102
RTVSPropertyOp32
 70
     1
102
RTVSPropertyOp33
 70
     1
102
RTVSPropertyOp34
 70
     1
102
RTVSPropertyOp35
 70
     1
102
RTVSPropertyOp36
 70
     1
102
RTVSPropertyOp37
 70
     1
102
RTVSPropertyOp38
 70
     1
102
RTVSPropertyOp39
 70
     1
102
RTVSPropertyOp40
 70
     1
102
RTVSPropertyOp41
 70
     1
102
RTVSPropertyOp42
 70
     1
102
RTVSPropertyOp43
 70
     1
102
RTVSPropertyOp44
 70
     1
102
RTVSPropertyOp45
 70
     1
102
RTVSPropertyOp46
 70
     1
102
RTVSPropertyOp47
 70
     1
102
RTVSPropertyOp48
 70
     1
102
RTVSPropertyOp49
 70
     1
102
RTVSPropertyOp50
 70
     1
102
RTVSPropertyOp51
 70
     0
102
RTVSPropertyOp52
 70
     0
102
RTVSPropertyOp53
 70
     1
102
RTVSPropertyOp54
 70
     1
102
RTVSPropertyOp55
 70
     1
102
RTVSPropertyOp56
 70
     1
102
RTVSPropertyOp57
 70
     1
102
RTVSPropertyOp58
 70
     1
102
RTVSPropertyOp59
 70
     1
102
RTVSPropertyOp60
 70
     1
102
RTVSPropertyOp61
 70
     1
102
RTVSPropertyOp62
 70
     1
  0
XRECORD
  5
AAF
102
{ACAD_REACTORS
330
AAE
102
}
330
AAE
100
AcDbXrecord
280
     1
102
RTVSPost2010Prop28
280
     0
102
RTVSPost2010PropOp28
 70
     1
102
RTVSPost2010Prop29
280
     1
102
RTVSPost2010PropOp29
 70
     1
102
RTVSPost2010Prop30
280
     1
102
RTVSPost2010PropOp30
 70
     1
102
RTVSPost2010Prop31
280
     0
102
RTVSPost2010PropOp31
 70
     1
102
RTVSPost2010Prop32
280
     0
102
RTVSPost2010PropOp32
 70
     1
102
RTVSPost2010Prop33
280
     0
102
RTVSPost2010PropOp33
 70
     1
102
RTVSPost2010Prop34
280
     0
102
RTVSPost2010PropOp34
 70
     1
102
RTVSPost2010Prop35
280
     0
102
RTVSPost2010PropOp35
 70
     1
102
RTVSPost2010Prop36
280
     0
102
RTVSPost2010PropOp36
 70
     1
102
RTVSPost2010Prop37
 90
       50
102
RTVSPost2010PropOp37
 70
     1
102
RTVSPost2010Prop38
140
0.0
102
RTVSPost2010PropOp38
 70
     1
102
RTVSPost2010Prop39
140
1.0
102
RTVSPost2010PropOp39
 70
     1
102
RTVSPost2010Prop40
 90
        0
102
RTVSPost2010PropOp40
 70
     1
102
RTVSPost2010Prop41ColorIndex
 90
       18
102
RTVSPost2010Prop41ColorRGB
 90
        0
102
RTVSPost2010PropOp41
 70
     1
102
RTVSPost2010Prop42
 90
       50
102
RTVSPost2010PropOp42
 70
     1
102
RTVSPost2010Prop43
 90
        3
102
RTVSPost2010PropOp43
 70
     1
102
RTVSPost2010Prop44ColorIndex
 90
        5
102
RTVSPost2010Prop44ColorRGB
 90
      255
102
RTVSPost2010PropOp44
 70
     1
102
RTVSPost2010Prop45
280
     0
102
RTVSPost2010PropOp45
 70
     1
102
RTVSPost2010Prop46
 90
       50
102
RTVSPost2010PropOp46
 70
     1
102
RTVSPost2010Prop47
 90
       50
102
RTVSPost2010PropOp47
 70
     1
102
RTVSPost2010Prop48
 90
       50
102
RTVSPost2010PropOp48
 70
     1
102
RTVSPost2010Prop49
280
     0
102
RTVSPost2010PropOp49
 70
     1
102
RTVSPost2010Prop50
 90
       50
102
RTVSPost2010PropOp50
 70
     1
102
RTVSPost2010Prop51ColorIndex
 90
      256
102
RTVSPost2010Prop51ColorRGB
 90
-16777216
102
RTVSPost2010PropOp51
 70
     0
102
RTVSPost2010Prop52
140
1.0
102
RTVSPost2010PropOp52
 70
     0
102
RTVSPost2010Prop53
 90
        2
102
RTVSPost2010PropOp53
 70
     1
102
RTVSPost2010Prop54
  1
strokes_ogs.tif
102
RTVSPost2010PropOp54
 70
     1
102
RTVSPost2010Prop55
280
     0
102
RTVSPost2010PropOp55
 70
     1
102
RTVSPost2010Prop56
140
1.0
102
RTVSPost2010PropOp56
 70
     1
102
RTVSPost2010Prop57
140
1.0
102
RTVSPost2010PropOp57
 70
     1
102
RTVSPropertyOp0
 70
     1
102
RTVSPropertyOp1
 70
     1
102
RTVSPropertyOp2
 70
     1
102
RTVSPropertyOp3
 70
     1
102
RTVSPropertyOp4
 70
     1
102
RTVSPropertyOp5
 70
     1
102
RTVSPropertyOp6
 70
     1
102
RTVSPropertyOp7
 70
     1
102
RTVSPropertyOp8
 70
     1
102
RTVSPropertyOp9
 70
     1
102
RTVSPropertyOp10
 70
     1
102
RTVSPropertyOp11
 70
     1
102
RTVSPropertyOp12
 70
     1
102
RTVSPropertyOp13
 70
     1
102
RTVSPropertyOp14
 70
     1
102
RTVSPropertyOp15
 70
     1
102
RTVSPropertyOp16
 70
     1
102
RTVSPropertyOp17
 70
     1
102
RTVSPropertyOp18
 70
     1
102
RTVSPropertyOp19
 70
     1
102
RTVSPropertyOp20
 70
     1
102
RTVSPropertyOp21
 70
     1
102
RTVSPropertyOp22
 70
     1
102
RTVSPropertyOp23
 70
     1
102
RTVSPropertyOp24
 70
     1
102
RTVSPropertyOp25
 70
     1
102
RTVSPropertyOp26
 70
     1
102
RTVSPropertyOp27
 70
     1
102
RTVSPropertyOp28
 70
     1
102
RTVSPropertyOp29
 70
     1
102
RTVSPropertyOp30
 70
     1
102
RTVSPropertyOp31
 70
     1
102
RTVSPropertyOp32
 70
     1
102
RTVSPropertyOp33
 70
     1
102
RTVSPropertyOp34
 70
     1
102
RTVSPropertyOp35
 70
     1
102
RTVSPropertyOp36
 70
     1
102
RTVSPropertyOp37
 70
     1
102
RTVSPropertyOp38
 70
     1
102
RTVSPropertyOp39
 70
     1
102
RTVSPropertyOp40
 70
     1
102
RTVSPropertyOp41
 70
     1
102
RTVSPropertyOp42
 70
     1
102
RTVSPropertyOp43
 70
     1
102
RTVSPropertyOp44
 70
     1
102
RTVSPropertyOp45
 70
     1
102
RTVSPropertyOp46
 70
     1
102
RTVSPropertyOp47
 70
     1
102
RTVSPropertyOp48
 70
     1
102
RTVSPropertyOp49
 70
     1
102
RTVSPropertyOp50
 70
     1
102
RTVSPropertyOp51
 70
     0
102
RTVSPropertyOp52
 70
     0
102
RTVSPropertyOp53
 70
     1
102
RTVSPropertyOp54
 70
     1
102
RTVSPropertyOp55
 70
     1
102
RTVSPropertyOp56
 70
     1
102
RTVSPropertyOp57
 70
     1
102
RTVSPropertyOp58
 70
     1
102
RTVSPropertyOp59
 70
     1
102
RTVSPropertyOp60
 70
     1
102
RTVSPropertyOp61
 70
     1
102
RTVSPropertyOp62
 70
     1
  0
XRECORD
  5
AA3
102
{ACAD_REACTORS
330
AA2
102
}
330
AA2
100
AcDbXrecord
280
     1
102
RTVSPost2010Prop28
280
     0
102
RTVSPost2010PropOp28
 70
     1
102
RTVSPost2010Prop29
280
     1
102
RTVSPost2010PropOp29
 70
     1
102
RTVSPost2010Prop30
280
     1
102
RTVSPost2010PropOp30
 70
     1
102
RTVSPost2010Prop31
280
     0
102
RTVSPost2010PropOp31
 70
     1
102
RTVSPost2010Prop32
280
     0
102
RTVSPost2010PropOp32
 70
     1
102
RTVSPost2010Prop33
280
     0
102
RTVSPost2010PropOp33
 70
     1
102
RTVSPost2010Prop34
280
     0
102
RTVSPost2010PropOp34
 70
     1
102
RTVSPost2010Prop35
280
     0
102
RTVSPost2010PropOp35
 70
     1
102
RTVSPost2010Prop36
280
     0
102
RTVSPost2010PropOp36
 70
     1
102
RTVSPost2010Prop37
 90
       50
102
RTVSPost2010PropOp37
 70
     1
102
RTVSPost2010Prop38
140
0.0
102
RTVSPost2010PropOp38
 70
     1
102
RTVSPost2010Prop39
140
1.0
102
RTVSPost2010PropOp39
 70
     1
102
RTVSPost2010Prop40
 90
        0
102
RTVSPost2010PropOp40
 70
     1
102
RTVSPost2010Prop41ColorIndex
 90
       18
102
RTVSPost2010Prop41ColorRGB
 90
        0
102
RTVSPost2010PropOp41
 70
     1
102
RTVSPost2010Prop42
 90
       50
102
RTVSPost2010PropOp42
 70
     1
102
RTVSPost2010Prop43
 90
        3
102
RTVSPost2010PropOp43
 70
     1
102
RTVSPost2010Prop44ColorIndex
 90
        5
102
RTVSPost2010Prop44ColorRGB
 90
      255
102
RTVSPost2010PropOp44
 70
     1
102
RTVSPost2010Prop45
280
     0
102
RTVSPost2010PropOp45
 70
     1
102
RTVSPost2010Prop46
 90
       50
102
RTVSPost2010PropOp46
 70
     1
102
RTVSPost2010Prop47
 90
       50
102
RTVSPost2010PropOp47
 70
     1
102
RTVSPost2010Prop48
 90
       50
102
RTVSPost2010PropOp48
 70
     1
102
RTVSPost2010Prop49
280
     0
102
RTVSPost2010PropOp49
 70
     1
102
RTVSPost2010Prop50
 90
       50
102
RTVSPost2010PropOp50
 70
     1
102
RTVSPost2010Prop51ColorIndex
 90
      256
102
RTVSPost2010Prop51ColorRGB
 90
-16777216
102
RTVSPost2010PropOp51
 70
     0
102
RTVSPost2010Prop52
140
1.0
102
RTVSPost2010PropOp52
 70
     0
102
RTVSPost2010Prop53
 90
        2
102
RTVSPost2010PropOp53
 70
     1
102
RTVSPost2010Prop54
  1
strokes_ogs.tif
102
RTVSPost2010PropOp54
 70
     1
102
RTVSPost2010Prop55
280
     0
102
RTVSPost2010PropOp55
 70
     1
102
RTVSPost2010Prop56
140
1.0
102
RTVSPost2010PropOp56
 70
     1
102
RTVSPost2010Prop57
140
1.0
102
RTVSPost2010PropOp57
 70
     1
102
RTVSPropertyOp0
 70
     1
102
RTVSPropertyOp1
 70
     1
102
RTVSPropertyOp2
 70
     1
102
RTVSPropertyOp3
 70
     1
102
RTVSPropertyOp4
 70
     1
102
RTVSPropertyOp5
 70
     1
102
RTVSPropertyOp6
 70
     1
102
RTVSPropertyOp7
 70
     1
102
RTVSPropertyOp8
 70
     1
102
RTVSPropertyOp9
 70
     1
102
RTVSPropertyOp10
 70
     1
102
RTVSPropertyOp11
 70
     1
102
RTVSPropertyOp12
 70
     1
102
RTVSPropertyOp13
 70
     1
102
RTVSPropertyOp14
 70
     1
102
RTVSPropertyOp15
 70
     1
102
RTVSPropertyOp16
 70
     1
102
RTVSPropertyOp17
 70
     1
102
RTVSPropertyOp18
 70
     1
102
RTVSPropertyOp19
 70
     1
102
RTVSPropertyOp20
 70
     1
102
RTVSPropertyOp21
 70
     1
102
RTVSPropertyOp22
 70
     1
102
RTVSPropertyOp23
 70
     1
102
RTVSPropertyOp24
 70
     1
102
RTVSPropertyOp25
 70
     1
102
RTVSPropertyOp26
 70
     1
102
RTVSPropertyOp27
 70
     1
102
RTVSPropertyOp28
 70
     1
102
RTVSPropertyOp29
 70
     1
102
RTVSPropertyOp30
 70
     1
102
RTVSPropertyOp31
 70
     1
102
RTVSPropertyOp32
 70
     1
102
RTVSPropertyOp33
 70
     1
102
RTVSPropertyOp34
 70
     1
102
RTVSPropertyOp35
 70
     1
102
RTVSPropertyOp36
 70
     1
102
RTVSPropertyOp37
 70
     1
102
RTVSPropertyOp38
 70
     1
102
RTVSPropertyOp39
 70
     1
102
RTVSPropertyOp40
 70
     1
102
RTVSPropertyOp41
 70
     1
102
RTVSPropertyOp42
 70
     1
102
RTVSPropertyOp43
 70
     1
102
RTVSPropertyOp44
 70
     1
102
RTVSPropertyOp45
 70
     1
102
RTVSPropertyOp46
 70
     1
102
RTVSPropertyOp47
 70
     1
102
RTVSPropertyOp48
 70
     1
102
RTVSPropertyOp49
 70
     1
102
RTVSPropertyOp50
 70
     1
102
RTVSPropertyOp51
 70
     0
102
RTVSPropertyOp52
 70
     0
102
RTVSPropertyOp53
 70
     1
102
RTVSPropertyOp54
 70
     1
102
RTVSPropertyOp55
 70
     1
102
RTVSPropertyOp56
 70
     1
102
RTVSPropertyOp57
 70
     1
102
RTVSPropertyOp58
 70
     1
102
RTVSPropertyOp59
 70
     1
102
RTVSPropertyOp60
 70
     1
102
RTVSPropertyOp61
 70
     1
102
RTVSPropertyOp62
 70
     1
  0
XRECORD
  5
AA5
102
{ACAD_REACTORS
330
AA4
102
}
330
AA4
100
AcDbXrecord
280
     1
102
RTVSPost2010Prop28
280
     0
102
RTVSPost2010PropOp28
 70
     1
102
RTVSPost2010Prop29
280
     1
102
RTVSPost2010PropOp29
 70
     1
102
RTVSPost2010Prop30
280
     1
102
RTVSPost2010PropOp30
 70
     1
102
RTVSPost2010Prop31
280
     0
102
RTVSPost2010PropOp31
 70
     1
102
RTVSPost2010Prop32
280
     0
102
RTVSPost2010PropOp32
 70
     1
102
RTVSPost2010Prop33
280
     0
102
RTVSPost2010PropOp33
 70
     1
102
RTVSPost2010Prop34
280
     0
102
RTVSPost2010PropOp34
 70
     1
102
RTVSPost2010Prop35
280
     0
102
RTVSPost2010PropOp35
 70
     1
102
RTVSPost2010Prop36
280
     0
102
RTVSPost2010PropOp36
 70
     1
102
RTVSPost2010Prop37
 90
       50
102
RTVSPost2010PropOp37
 70
     1
102
RTVSPost2010Prop38
140
0.0
102
RTVSPost2010PropOp38
 70
     1
102
RTVSPost2010Prop39
140
1.0
102
RTVSPost2010PropOp39
 70
     1
102
RTVSPost2010Prop40
 90
        0
102
RTVSPost2010PropOp40
 70
     1
102
RTVSPost2010Prop41ColorIndex
 90
       18
102
RTVSPost2010Prop41ColorRGB
 90
        0
102
RTVSPost2010PropOp41
 70
     1
102
RTVSPost2010Prop42
 90
       50
102
RTVSPost2010PropOp42
 70
     1
102
RTVSPost2010Prop43
 90
        3
102
RTVSPost2010PropOp43
 70
     1
102
RTVSPost2010Prop44ColorIndex
 90
        5
102
RTVSPost2010Prop44ColorRGB
 90
      255
102
RTVSPost2010PropOp44
 70
     1
102
RTVSPost2010Prop45
280
     0
102
RTVSPost2010PropOp45
 70
     1
102
RTVSPost2010Prop46
 90
       50
102
RTVSPost2010PropOp46
 70
     1
102
RTVSPost2010Prop47
 90
       50
102
RTVSPost2010PropOp47
 70
     1
102
RTVSPost2010Prop48
 90
       50
102
RTVSPost2010PropOp48
 70
     1
102
RTVSPost2010Prop49
280
     0
102
RTVSPost2010PropOp49
 70
     1
102
RTVSPost2010Prop50
 90
       50
102
RTVSPost2010PropOp50
 70
     1
102
RTVSPost2010Prop51ColorIndex
 90
      256
102
RTVSPost2010Prop51ColorRGB
 90
-16777216
102
RTVSPost2010PropOp51
 70
     0
102
RTVSPost2010Prop52
140
1.0
102
RTVSPost2010PropOp52
 70
     0
102
RTVSPost2010Prop53
 90
        2
102
RTVSPost2010PropOp53
 70
     1
102
RTVSPost2010Prop54
  1
strokes_ogs.tif
102
RTVSPost2010PropOp54
 70
     1
102
RTVSPost2010Prop55
280
     0
102
RTVSPost2010PropOp55
 70
     1
102
RTVSPost2010Prop56
140
1.0
102
RTVSPost2010PropOp56
 70
     1
102
RTVSPost2010Prop57
140
1.0
102
RTVSPost2010PropOp57
 70
     1
102
RTVSPropertyOp0
 70
     1
102
RTVSPropertyOp1
 70
     1
102
RTVSPropertyOp2
 70
     1
102
RTVSPropertyOp3
 70
     1
102
RTVSPropertyOp4
 70
     1
102
RTVSPropertyOp5
 70
     1
102
RTVSPropertyOp6
 70
     1
102
RTVSPropertyOp7
 70
     1
102
RTVSPropertyOp8
 70
     1
102
RTVSPropertyOp9
 70
     1
102
RTVSPropertyOp10
 70
     1
102
RTVSPropertyOp11
 70
     1
102
RTVSPropertyOp12
 70
     1
102
RTVSPropertyOp13
 70
     1
102
RTVSPropertyOp14
 70
     1
102
RTVSPropertyOp15
 70
     1
102
RTVSPropertyOp16
 70
     1
102
RTVSPropertyOp17
 70
     1
102
RTVSPropertyOp18
 70
     1
102
RTVSPropertyOp19
 70
     1
102
RTVSPropertyOp20
 70
     1
102
RTVSPropertyOp21
 70
     1
102
RTVSPropertyOp22
 70
     1
102
RTVSPropertyOp23
 70
     1
102
RTVSPropertyOp24
 70
     1
102
RTVSPropertyOp25
 70
     1
102
RTVSPropertyOp26
 70
     1
102
RTVSPropertyOp27
 70
     1
102
RTVSPropertyOp28
 70
     1
102
RTVSPropertyOp29
 70
     1
102
RTVSPropertyOp30
 70
     1
102
RTVSPropertyOp31
 70
     1
102
RTVSPropertyOp32
 70
     1
102
RTVSPropertyOp33
 70
     1
102
RTVSPropertyOp34
 70
     1
102
RTVSPropertyOp35
 70
     1
102
RTVSPropertyOp36
 70
     1
102
RTVSPropertyOp37
 70
     1
102
RTVSPropertyOp38
 70
     1
102
RTVSPropertyOp39
 70
     1
102
RTVSPropertyOp40
 70
     1
102
RTVSPropertyOp41
 70
     1
102
RTVSPropertyOp42
 70
     1
102
RTVSPropertyOp43
 70
     1
102
RTVSPropertyOp44
 70
     1
102
RTVSPropertyOp45
 70
     1
102
RTVSPropertyOp46
 70
     1
102
RTVSPropertyOp47
 70
     1
102
RTVSPropertyOp48
 70
     1
102
RTVSPropertyOp49
 70
     1
102
RTVSPropertyOp50
 70
     1
102
RTVSPropertyOp51
 70
     0
102
RTVSPropertyOp52
 70
     0
102
RTVSPropertyOp53
 70
     1
102
RTVSPropertyOp54
 70
     1
102
RTVSPropertyOp55
 70
     1
102
RTVSPropertyOp56
 70
     1
102
RTVSPropertyOp57
 70
     1
102
RTVSPropertyOp58
 70
     1
102
RTVSPropertyOp59
 70
     1
102
RTVSPropertyOp60
 70
     1
102
RTVSPropertyOp61
 70
     1
102
RTVSPropertyOp62
 70
     1
  0
XRECORD
  5
AC9
102
{ACAD_REACTORS
330
AC8
102
}
330
AC8
100
AcDbXrecord
280
     1
102
RTVSPost2010Prop28
280
     0
102
RTVSPost2010PropOp28
 70
     0
102
RTVSPost2010Prop29
280
     1
102
RTVSPost2010PropOp29
 70
     0
102
RTVSPost2010Prop30
280
     1
102
RTVSPost2010PropOp30
 70
     0
102
RTVSPost2010Prop31
280
     0
102
RTVSPost2010PropOp31
 70
     0
102
RTVSPost2010Prop32
280
     0
102
RTVSPost2010PropOp32
 70
     0
102
RTVSPost2010Prop33
280
     0
102
RTVSPost2010PropOp33
 70
     0
102
RTVSPost2010Prop34
280
     0
102
RTVSPost2010PropOp34
 70
     0
102
RTVSPost2010Prop35
280
     0
102
RTVSPost2010PropOp35
 70
     0
102
RTVSPost2010Prop36
280
     0
102
RTVSPost2010PropOp36
 70
     0
102
RTVSPost2010Prop37
 90
       50
102
RTVSPost2010PropOp37
 70
     0
102
RTVSPost2010Prop38
140
0.0
102
RTVSPost2010PropOp38
 70
     0
102
RTVSPost2010Prop39
140
1.0
102
RTVSPost2010PropOp39
 70
     0
102
RTVSPost2010Prop40
 90
        0
102
RTVSPost2010PropOp40
 70
     0
102
RTVSPost2010Prop41ColorIndex
 90
       18
102
RTVSPost2010Prop41ColorRGB
 90
        0
102
RTVSPost2010PropOp41
 70
     0
102
RTVSPost2010Prop42
 90
       50
102
RTVSPost2010PropOp42
 70
     0
102
RTVSPost2010Prop43
 90
        3
102
RTVSPost2010PropOp43
 70
     0
102
RTVSPost2010Prop44ColorIndex
 90
        5
102
RTVSPost2010Prop44ColorRGB
 90
      255
102
RTVSPost2010PropOp44
 70
     0
102
RTVSPost2010Prop45
280
     0
102
RTVSPost2010PropOp45
 70
     0
102
RTVSPost2010Prop46
 90
       50
102
RTVSPost2010PropOp46
 70
     0
102
RTVSPost2010Prop47
 90
       50
102
RTVSPost2010PropOp47
 70
     0
102
RTVSPost2010Prop48
 90
       50
102
RTVSPost2010PropOp48
 70
     0
102
RTVSPost2010Prop49
280
     0
102
RTVSPost2010PropOp49
 70
     0
102
RTVSPost2010Prop50
 90
       50
102
RTVSPost2010PropOp50
 70
     0
102
RTVSPost2010Prop51ColorIndex
 90
      256
102
RTVSPost2010Prop51ColorRGB
 90
-16777216
102
RTVSPost2010PropOp51
 70
     0
102
RTVSPost2010Prop52
140
1.0
102
RTVSPost2010PropOp52
 70
     0
102
RTVSPost2010Prop53
 90
        2
102
RTVSPost2010PropOp53
 70
     0
102
RTVSPost2010Prop54
  1
strokes_ogs.tif
102
RTVSPost2010PropOp54
 70
     0
102
RTVSPost2010Prop55
280
     0
102
RTVSPost2010PropOp55
 70
     0
102
RTVSPost2010Prop56
140
1.0
102
RTVSPost2010PropOp56
 70
     0
102
RTVSPost2010Prop57
140
1.0
102
RTVSPost2010PropOp57
 70
     0
102
RTVSPropertyOp0
 70
     0
102
RTVSPropertyOp1
 70
     0
102
RTVSPropertyOp2
 70
     0
102
RTVSPropertyOp3
 70
     0
102
RTVSPropertyOp4
 70
     0
102
RTVSPropertyOp5
 70
     0
102
RTVSPropertyOp6
 70
     0
102
RTVSPropertyOp7
 70
     0
102
RTVSPropertyOp8
 70
     0
102
RTVSPropertyOp9
 70
     0
102
RTVSPropertyOp10
 70
     0
102
RTVSPropertyOp11
 70
     0
102
RTVSPropertyOp12
 70
     0
102
RTVSPropertyOp13
 70
     0
102
RTVSPropertyOp14
 70
     2
102
RTVSPropertyOp15
 70
     0
102
RTVSPropertyOp16
 70
     0
102
RTVSPropertyOp17
 70
     0
102
RTVSPropertyOp18
 70
     0
102
RTVSPropertyOp19
 70
     0
102
RTVSPropertyOp20
 70
     0
102
RTVSPropertyOp21
 70
     0
102
RTVSPropertyOp22
 70
     0
102
RTVSPropertyOp23
 70
     0
102
RTVSPropertyOp24
 70
     0
102
RTVSPropertyOp25
 70
     0
102
RTVSPropertyOp26
 70
     0
102
RTVSPropertyOp27
 70
     0
102
RTVSPropertyOp28
 70
     0
102
RTVSPropertyOp29
 70
     0
102
RTVSPropertyOp30
 70
     0
102
RTVSPropertyOp31
 70
     0
102
RTVSPropertyOp32
 70
     0
102
RTVSPropertyOp33
 70
     0
102
RTVSPropertyOp34
 70
     0
102
RTVSPropertyOp35
 70
     0
102
RTVSPropertyOp36
 70
     0
102
RTVSPropertyOp37
 70
     0
102
RTVSPropertyOp38
 70
     0
102
RTVSPropertyOp39
 70
     0
102
RTVSPropertyOp40
 70
     0
102
RTVSPropertyOp41
 70
     0
102
RTVSPropertyOp42
 70
     0
102
RTVSPropertyOp43
 70
     0
102
RTVSPropertyOp44
 70
     0
102
RTVSPropertyOp45
 70
     0
102
RTVSPropertyOp46
 70
     0
102
RTVSPropertyOp47
 70
     0
102
RTVSPropertyOp48
 70
     0
102
RTVSPropertyOp49
 70
     0
102
RTVSPropertyOp50
 70
     0
102
RTVSPropertyOp51
 70
     0
102
RTVSPropertyOp52
 70
     0
102
RTVSPropertyOp53
 70
     0
102
RTVSPropertyOp54
 70
     0
102
RTVSPropertyOp55
 70
     0
102
RTVSPropertyOp56
 70
     0
102
RTVSPropertyOp57
 70
     0
102
RTVSPropertyOp58
 70
     1
102
RTVSPropertyOp59
 70
     1
102
RTVSPropertyOp60
 70
     1
102
RTVSPropertyOp61
 70
     1
102
RTVSPropertyOp62
 70
     1
  0
XRECORD
  5
AAD
102
{ACAD_REACTORS
330
AAC
102
}
330
AAC
100
AcDbXrecord
280
     1
102
RTVSPost2010Prop28
280
     0
102
RTVSPost2010PropOp28
 70
     1
102
RTVSPost2010Prop29
280
     1
102
RTVSPost2010PropOp29
 70
     1
102
RTVSPost2010Prop30
280
     1
102
RTVSPost2010PropOp30
 70
     1
102
RTVSPost2010Prop31
280
     0
102
RTVSPost2010PropOp31
 70
     1
102
RTVSPost2010Prop32
280
     0
102
RTVSPost2010PropOp32
 70
     1
102
RTVSPost2010Prop33
280
     0
102
RTVSPost2010PropOp33
 70
     1
102
RTVSPost2010Prop34
280
     0
102
RTVSPost2010PropOp34
 70
     1
102
RTVSPost2010Prop35
280
     0
102
RTVSPost2010PropOp35
 70
     1
102
RTVSPost2010Prop36
280
     0
102
RTVSPost2010PropOp36
 70
     1
102
RTVSPost2010Prop37
 90
       50
102
RTVSPost2010PropOp37
 70
     1
102
RTVSPost2010Prop38
140
0.0
102
RTVSPost2010PropOp38
 70
     1
102
RTVSPost2010Prop39
140
1.0
102
RTVSPost2010PropOp39
 70
     1
102
RTVSPost2010Prop40
 90
        0
102
RTVSPost2010PropOp40
 70
     1
102
RTVSPost2010Prop41ColorIndex
 90
       18
102
RTVSPost2010Prop41ColorRGB
 90
        0
102
RTVSPost2010PropOp41
 70
     1
102
RTVSPost2010Prop42
 90
       50
102
RTVSPost2010PropOp42
 70
     1
102
RTVSPost2010Prop43
 90
        3
102
RTVSPost2010PropOp43
 70
     1
102
RTVSPost2010Prop44ColorIndex
 90
        5
102
RTVSPost2010Prop44ColorRGB
 90
      255
102
RTVSPost2010PropOp44
 70
     1
102
RTVSPost2010Prop45
280
     0
102
RTVSPost2010PropOp45
 70
     1
102
RTVSPost2010Prop46
 90
       50
102
RTVSPost2010PropOp46
 70
     1
102
RTVSPost2010Prop47
 90
       50
102
RTVSPost2010PropOp47
 70
     1
102
RTVSPost2010Prop48
 90
       50
102
RTVSPost2010PropOp48
 70
     1
102
RTVSPost2010Prop49
280
     0
102
RTVSPost2010PropOp49
 70
     1
102
RTVSPost2010Prop50
 90
       50
102
RTVSPost2010PropOp50
 70
     1
102
RTVSPost2010Prop51ColorIndex
 90
      256
102
RTVSPost2010Prop51ColorRGB
 90
-16777216
102
RTVSPost2010PropOp51
 70
     0
102
RTVSPost2010Prop52
140
1.0
102
RTVSPost2010PropOp52
 70
     0
102
RTVSPost2010Prop53
 90
        2
102
RTVSPost2010PropOp53
 70
     1
102
RTVSPost2010Prop54
  1
strokes_ogs.tif
102
RTVSPost2010PropOp54
 70
     1
102
RTVSPost2010Prop55
280
     0
102
RTVSPost2010PropOp55
 70
     1
102
RTVSPost2010Prop56
140
1.0
102
RTVSPost2010PropOp56
 70
     1
102
RTVSPost2010Prop57
140
1.0
102
RTVSPost2010PropOp57
 70
     1
102
RTVSPropertyOp0
 70
     1
102
RTVSPropertyOp1
 70
     1
102
RTVSPropertyOp2
 70
     1
102
RTVSPropertyOp3
 70
     1
102
RTVSPropertyOp4
 70
     1
102
RTVSPropertyOp5
 70
     1
102
RTVSPropertyOp6
 70
     1
102
RTVSPropertyOp7
 70
     1
102
RTVSPropertyOp8
 70
     1
102
RTVSPropertyOp9
 70
     1
102
RTVSPropertyOp10
 70
     1
102
RTVSPropertyOp11
 70
     1
102
RTVSPropertyOp12
 70
     1
102
RTVSPropertyOp13
 70
     1
102
RTVSPropertyOp14
 70
     1
102
RTVSPropertyOp15
 70
     1
102
RTVSPropertyOp16
 70
     1
102
RTVSPropertyOp17
 70
     1
102
RTVSPropertyOp18
 70
     1
102
RTVSPropertyOp19
 70
     1
102
RTVSPropertyOp20
 70
     1
102
RTVSPropertyOp21
 70
     1
102
RTVSPropertyOp22
 70
     1
102
RTVSPropertyOp23
 70
     1
102
RTVSPropertyOp24
 70
     1
102
RTVSPropertyOp25
 70
     1
102
RTVSPropertyOp26
 70
     1
102
RTVSPropertyOp27
 70
     1
102
RTVSPropertyOp28
 70
     1
102
RTVSPropertyOp29
 70
     1
102
RTVSPropertyOp30
 70
     1
102
RTVSPropertyOp31
 70
     1
102
RTVSPropertyOp32
 70
     1
102
RTVSPropertyOp33
 70
     1
102
RTVSPropertyOp34
 70
     1
102
RTVSPropertyOp35
 70
     1
102
RTVSPropertyOp36
 70
     1
102
RTVSPropertyOp37
 70
     1
102
RTVSPropertyOp38
 70
     1
102
RTVSPropertyOp39
 70
     1
102
RTVSPropertyOp40
 70
     1
102
RTVSPropertyOp41
 70
     1
102
RTVSPropertyOp42
 70
     1
102
RTVSPropertyOp43
 70
     1
102
RTVSPropertyOp44
 70
     1
102
RTVSPropertyOp45
 70
     1
102
RTVSPropertyOp46
 70
     1
102
RTVSPropertyOp47
 70
     1
102
RTVSPropertyOp48
 70
     1
102
RTVSPropertyOp49
 70
     1
102
RTVSPropertyOp50
 70
     1
102
RTVSPropertyOp51
 70
     0
102
RTVSPropertyOp52
 70
     0
102
RTVSPropertyOp53
 70
     1
102
RTVSPropertyOp54
 70
     1
102
RTVSPropertyOp55
 70
     1
102
RTVSPropertyOp56
 70
     1
102
RTVSPropertyOp57
 70
     1
102
RTVSPropertyOp58
 70
     1
102
RTVSPropertyOp59
 70
     1
102
RTVSPropertyOp60
 70
     1
102
RTVSPropertyOp61
 70
     1
102
RTVSPropertyOp62
 70
     1
  0
XRECORD
  5
A91
102
{ACAD_REACTORS
330
A90
102
}
330
A90
100
AcDbXrecord
280
     1
102
RTVSPost2010Prop28
280
     0
102
RTVSPost2010PropOp28
 70
     1
102
RTVSPost2010Prop29
280
     1
102
RTVSPost2010PropOp29
 70
     1
102
RTVSPost2010Prop30
280
     1
102
RTVSPost2010PropOp30
 70
     1
102
RTVSPost2010Prop31
280
     0
102
RTVSPost2010PropOp31
 70
     1
102
RTVSPost2010Prop32
280
     0
102
RTVSPost2010PropOp32
 70
     1
102
RTVSPost2010Prop33
280
     0
102
RTVSPost2010PropOp33
 70
     1
102
RTVSPost2010Prop34
280
     0
102
RTVSPost2010PropOp34
 70
     1
102
RTVSPost2010Prop35
280
     0
102
RTVSPost2010PropOp35
 70
     1
102
RTVSPost2010Prop36
280
     0
102
RTVSPost2010PropOp36
 70
     1
102
RTVSPost2010Prop37
 90
       50
102
RTVSPost2010PropOp37
 70
     1
102
RTVSPost2010Prop38
140
0.0
102
RTVSPost2010PropOp38
 70
     1
102
RTVSPost2010Prop39
140
1.0
102
RTVSPost2010PropOp39
 70
     1
102
RTVSPost2010Prop40
 90
        0
102
RTVSPost2010PropOp40
 70
     1
102
RTVSPost2010Prop41ColorIndex
 90
       18
102
RTVSPost2010Prop41ColorRGB
 90
        0
102
RTVSPost2010PropOp41
 70
     1
102
RTVSPost2010Prop42
 90
       50
102
RTVSPost2010PropOp42
 70
     1
102
RTVSPost2010Prop43
 90
        3
102
RTVSPost2010PropOp43
 70
     1
102
RTVSPost2010Prop44ColorIndex
 90
        5
102
RTVSPost2010Prop44ColorRGB
 90
      255
102
RTVSPost2010PropOp44
 70
     1
102
RTVSPost2010Prop45
280
     0
102
RTVSPost2010PropOp45
 70
     1
102
RTVSPost2010Prop46
 90
       50
102
RTVSPost2010PropOp46
 70
     1
102
RTVSPost2010Prop47
 90
       50
102
RTVSPost2010PropOp47
 70
     1
102
RTVSPost2010Prop48
 90
       50
102
RTVSPost2010PropOp48
 70
     1
102
RTVSPost2010Prop49
280
     0
102
RTVSPost2010PropOp49
 70
     1
102
RTVSPost2010Prop50
 90
       50
102
RTVSPost2010PropOp50
 70
     1
102
RTVSPost2010Prop51ColorIndex
 90
      256
102
RTVSPost2010Prop51ColorRGB
 90
-16777216
102
RTVSPost2010PropOp51
 70
     0
102
RTVSPost2010Prop52
140
1.0
102
RTVSPost2010PropOp52
 70
     0
102
RTVSPost2010Prop53
 90
        2
102
RTVSPost2010PropOp53
 70
     1
102
RTVSPost2010Prop54
  1
strokes_ogs.tif
102
RTVSPost2010PropOp54
 70
     1
102
RTVSPost2010Prop55
280
     0
102
RTVSPost2010PropOp55
 70
     1
102
RTVSPost2010Prop56
140
1.0
102
RTVSPost2010PropOp56
 70
     1
102
RTVSPost2010Prop57
140
1.0
102
RTVSPost2010PropOp57
 70
     1
102
RTVSPropertyOp0
 70
     1
102
RTVSPropertyOp1
 70
     1
102
RTVSPropertyOp2
 70
     1
102
RTVSPropertyOp3
 70
     1
102
RTVSPropertyOp4
 70
     1
102
RTVSPropertyOp5
 70
     1
102
RTVSPropertyOp6
 70
     1
102
RTVSPropertyOp7
 70
     1
102
RTVSPropertyOp8
 70
     1
102
RTVSPropertyOp9
 70
     1
102
RTVSPropertyOp10
 70
     1
102
RTVSPropertyOp11
 70
     1
102
RTVSPropertyOp12
 70
     1
102
RTVSPropertyOp13
 70
     1
102
RTVSPropertyOp14
 70
     1
102
RTVSPropertyOp15
 70
     1
102
RTVSPropertyOp16
 70
     1
102
RTVSPropertyOp17
 70
     1
102
RTVSPropertyOp18
 70
     1
102
RTVSPropertyOp19
 70
     1
102
RTVSPropertyOp20
 70
     1
102
RTVSPropertyOp21
 70
     1
102
RTVSPropertyOp22
 70
     1
102
RTVSPropertyOp23
 70
     1
102
RTVSPropertyOp24
 70
     1
102
RTVSPropertyOp25
 70
     1
102
RTVSPropertyOp26
 70
     1
102
RTVSPropertyOp27
 70
     1
102
RTVSPropertyOp28
 70
     1
102
RTVSPropertyOp29
 70
     1
102
RTVSPropertyOp30
 70
     1
102
RTVSPropertyOp31
 70
     1
102
RTVSPropertyOp32
 70
     1
102
RTVSPropertyOp33
 70
     1
102
RTVSPropertyOp34
 70
     1
102
RTVSPropertyOp35
 70
     1
102
RTVSPropertyOp36
 70
     1
102
RTVSPropertyOp37
 70
     1
102
RTVSPropertyOp38
 70
     1
102
RTVSPropertyOp39
 70
     1
102
RTVSPropertyOp40
 70
     1
102
RTVSPropertyOp41
 70
     1
102
RTVSPropertyOp42
 70
     1
102
RTVSPropertyOp43
 70
     1
102
RTVSPropertyOp44
 70
     1
102
RTVSPropertyOp45
 70
     1
102
RTVSPropertyOp46
 70
     1
102
RTVSPropertyOp47
 70
     1
102
RTVSPropertyOp48
 70
     1
102
RTVSPropertyOp49
 70
     1
102
RTVSPropertyOp50
 70
     1
102
RTVSPropertyOp51
 70
     0
102
RTVSPropertyOp52
 70
     0
102
RTVSPropertyOp53
 70
     1
102
RTVSPropertyOp54
 70
     1
102
RTVSPropertyOp55
 70
     1
102
RTVSPropertyOp56
 70
     1
102
RTVSPropertyOp57
 70
     1
102
RTVSPropertyOp58
 70
     1
102
RTVSPropertyOp59
 70
     1
102
RTVSPropertyOp60
 70
     1
102
RTVSPropertyOp61
 70
     1
102
RTVSPropertyOp62
 70
     1
  0
XRECORD
  5
A93
102
{ACAD_REACTORS
330
A92
102
}
330
A92
100
AcDbXrecord
280
     1
102
RTVSPost2010Prop28
280
     0
102
RTVSPost2010PropOp28
 70
     1
102
RTVSPost2010Prop29
280
     1
102
RTVSPost2010PropOp29
 70
     1
102
RTVSPost2010Prop30
280
     1
102
RTVSPost2010PropOp30
 70
     1
102
RTVSPost2010Prop31
280
     0
102
RTVSPost2010PropOp31
 70
     1
102
RTVSPost2010Prop32
280
     0
102
RTVSPost2010PropOp32
 70
     1
102
RTVSPost2010Prop33
280
     0
102
RTVSPost2010PropOp33
 70
     1
102
RTVSPost2010Prop34
280
     0
102
RTVSPost2010PropOp34
 70
     1
102
RTVSPost2010Prop35
280
     0
102
RTVSPost2010PropOp35
 70
     1
102
RTVSPost2010Prop36
280
     0
102
RTVSPost2010PropOp36
 70
     1
102
RTVSPost2010Prop37
 90
       50
102
RTVSPost2010PropOp37
 70
     1
102
RTVSPost2010Prop38
140
0.0
102
RTVSPost2010PropOp38
 70
     1
102
RTVSPost2010Prop39
140
1.0
102
RTVSPost2010PropOp39
 70
     1
102
RTVSPost2010Prop40
 90
        0
102
RTVSPost2010PropOp40
 70
     1
102
RTVSPost2010Prop41ColorIndex
 90
       18
102
RTVSPost2010Prop41ColorRGB
 90
        0
102
RTVSPost2010PropOp41
 70
     1
102
RTVSPost2010Prop42
 90
       50
102
RTVSPost2010PropOp42
 70
     1
102
RTVSPost2010Prop43
 90
        3
102
RTVSPost2010PropOp43
 70
     1
102
RTVSPost2010Prop44ColorIndex
 90
        5
102
RTVSPost2010Prop44ColorRGB
 90
      255
102
RTVSPost2010PropOp44
 70
     1
102
RTVSPost2010Prop45
280
     0
102
RTVSPost2010PropOp45
 70
     1
102
RTVSPost2010Prop46
 90
       50
102
RTVSPost2010PropOp46
 70
     1
102
RTVSPost2010Prop47
 90
       50
102
RTVSPost2010PropOp47
 70
     1
102
RTVSPost2010Prop48
 90
       50
102
RTVSPost2010PropOp48
 70
     1
102
RTVSPost2010Prop49
280
     0
102
RTVSPost2010PropOp49
 70
     1
102
RTVSPost2010Prop50
 90
       50
102
RTVSPost2010PropOp50
 70
     1
102
RTVSPost2010Prop51ColorIndex
 90
      256
102
RTVSPost2010Prop51ColorRGB
 90
-16777216
102
RTVSPost2010PropOp51
 70
     0
102
RTVSPost2010Prop52
140
1.0
102
RTVSPost2010PropOp52
 70
     0
102
RTVSPost2010Prop53
 90
        2
102
RTVSPost2010PropOp53
 70
     1
102
RTVSPost2010Prop54
  1
strokes_ogs.tif
102
RTVSPost2010PropOp54
 70
     1
102
RTVSPost2010Prop55
280
     0
102
RTVSPost2010PropOp55
 70
     1
102
RTVSPost2010Prop56
140
1.0
102
RTVSPost2010PropOp56
 70
     1
102
RTVSPost2010Prop57
140
1.0
102
RTVSPost2010PropOp57
 70
     1
102
RTVSPropertyOp0
 70
     1
102
RTVSPropertyOp1
 70
     1
102
RTVSPropertyOp2
 70
     1
102
RTVSPropertyOp3
 70
     1
102
RTVSPropertyOp4
 70
     1
102
RTVSPropertyOp5
 70
     1
102
RTVSPropertyOp6
 70
     1
102
RTVSPropertyOp7
 70
     1
102
RTVSPropertyOp8
 70
     1
102
RTVSPropertyOp9
 70
     1
102
RTVSPropertyOp10
 70
     1
102
RTVSPropertyOp11
 70
     1
102
RTVSPropertyOp12
 70
     1
102
RTVSPropertyOp13
 70
     1
102
RTVSPropertyOp14
 70
     1
102
RTVSPropertyOp15
 70
     1
102
RTVSPropertyOp16
 70
     1
102
RTVSPropertyOp17
 70
     1
102
RTVSPropertyOp18
 70
     1
102
RTVSPropertyOp19
 70
     1
102
RTVSPropertyOp20
 70
     1
102
RTVSPropertyOp21
 70
     1
102
RTVSPropertyOp22
 70
     1
102
RTVSPropertyOp23
 70
     1
102
RTVSPropertyOp24
 70
     1
102
RTVSPropertyOp25
 70
     1
102
RTVSPropertyOp26
 70
     1
102
RTVSPropertyOp27
 70
     1
102
RTVSPropertyOp28
 70
     1
102
RTVSPropertyOp29
 70
     1
102
RTVSPropertyOp30
 70
     1
102
RTVSPropertyOp31
 70
     1
102
RTVSPropertyOp32
 70
     1
102
RTVSPropertyOp33
 70
     1
102
RTVSPropertyOp34
 70
     1
102
RTVSPropertyOp35
 70
     1
102
RTVSPropertyOp36
 70
     1
102
RTVSPropertyOp37
 70
     1
102
RTVSPropertyOp38
 70
     1
102
RTVSPropertyOp39
 70
     1
102
RTVSPropertyOp40
 70
     1
102
RTVSPropertyOp41
 70
     1
102
RTVSPropertyOp42
 70
     1
102
RTVSPropertyOp43
 70
     1
102
RTVSPropertyOp44
 70
     1
102
RTVSPropertyOp45
 70
     1
102
RTVSPropertyOp46
 70
     1
102
RTVSPropertyOp47
 70
     1
102
RTVSPropertyOp48
 70
     1
102
RTVSPropertyOp49
 70
     1
102
RTVSPropertyOp50
 70
     1
102
RTVSPropertyOp51
 70
     0
102
RTVSPropertyOp52
 70
     0
102
RTVSPropertyOp53
 70
     1
102
RTVSPropertyOp54
 70
     1
102
RTVSPropertyOp55
 70
     1
102
RTVSPropertyOp56
 70
     1
102
RTVSPropertyOp57
 70
     1
102
RTVSPropertyOp58
 70
     1
102
RTVSPropertyOp59
 70
     1
102
RTVSPropertyOp60
 70
     1
102
RTVSPropertyOp61
 70
     1
102
RTVSPropertyOp62
 70
     1
  0
XRECORD
  5
A95
102
{ACAD_REACTORS
330
A94
102
}
330
A94
100
AcDbXrecord
280
     1
102
RTVSPost2010Prop28
280
     0
102
RTVSPost2010PropOp28
 70
     1
102
RTVSPost2010Prop29
280
     1
102
RTVSPost2010PropOp29
 70
     1
102
RTVSPost2010Prop30
280
     1
102
RTVSPost2010PropOp30
 70
     1
102
RTVSPost2010Prop31
280
     0
102
RTVSPost2010PropOp31
 70
     1
102
RTVSPost2010Prop32
280
     0
102
RTVSPost2010PropOp32
 70
     1
102
RTVSPost2010Prop33
280
     0
102
RTVSPost2010PropOp33
 70
     1
102
RTVSPost2010Prop34
280
     0
102
RTVSPost2010PropOp34
 70
     1
102
RTVSPost2010Prop35
280
     0
102
RTVSPost2010PropOp35
 70
     1
102
RTVSPost2010Prop36
280
     0
102
RTVSPost2010PropOp36
 70
     1
102
RTVSPost2010Prop37
 90
       50
102
RTVSPost2010PropOp37
 70
     1
102
RTVSPost2010Prop38
140
0.0
102
RTVSPost2010PropOp38
 70
     1
102
RTVSPost2010Prop39
140
1.0
102
RTVSPost2010PropOp39
 70
     1
102
RTVSPost2010Prop40
 90
        0
102
RTVSPost2010PropOp40
 70
     1
102
RTVSPost2010Prop41ColorIndex
 90
       18
102
RTVSPost2010Prop41ColorRGB
 90
        0
102
RTVSPost2010PropOp41
 70
     1
102
RTVSPost2010Prop42
 90
       50
102
RTVSPost2010PropOp42
 70
     1
102
RTVSPost2010Prop43
 90
        3
102
RTVSPost2010PropOp43
 70
     1
102
RTVSPost2010Prop44ColorIndex
 90
        5
102
RTVSPost2010Prop44ColorRGB
 90
      255
102
RTVSPost2010PropOp44
 70
     1
102
RTVSPost2010Prop45
280
     0
102
RTVSPost2010PropOp45
 70
     1
102
RTVSPost2010Prop46
 90
       50
102
RTVSPost2010PropOp46
 70
     1
102
RTVSPost2010Prop47
 90
       50
102
RTVSPost2010PropOp47
 70
     1
102
RTVSPost2010Prop48
 90
       50
102
RTVSPost2010PropOp48
 70
     1
102
RTVSPost2010Prop49
280
     0
102
RTVSPost2010PropOp49
 70
     1
102
RTVSPost2010Prop50
 90
       50
102
RTVSPost2010PropOp50
 70
     1
102
RTVSPost2010Prop51ColorIndex
 90
      256
102
RTVSPost2010Prop51ColorRGB
 90
-16777216
102
RTVSPost2010PropOp51
 70
     0
102
RTVSPost2010Prop52
140
1.0
102
RTVSPost2010PropOp52
 70
     0
102
RTVSPost2010Prop53
 90
        2
102
RTVSPost2010PropOp53
 70
     1
102
RTVSPost2010Prop54
  1
strokes_ogs.tif
102
RTVSPost2010PropOp54
 70
     1
102
RTVSPost2010Prop55
280
     0
102
RTVSPost2010PropOp55
 70
     1
102
RTVSPost2010Prop56
140
1.0
102
RTVSPost2010PropOp56
 70
     1
102
RTVSPost2010Prop57
140
1.0
102
RTVSPost2010PropOp57
 70
     1
102
RTVSPropertyOp0
 70
     1
102
RTVSPropertyOp1
 70
     1
102
RTVSPropertyOp2
 70
     1
102
RTVSPropertyOp3
 70
     1
102
RTVSPropertyOp4
 70
     1
102
RTVSPropertyOp5
 70
     1
102
RTVSPropertyOp6
 70
     1
102
RTVSPropertyOp7
 70
     1
102
RTVSPropertyOp8
 70
     1
102
RTVSPropertyOp9
 70
     1
102
RTVSPropertyOp10
 70
     1
102
RTVSPropertyOp11
 70
     1
102
RTVSPropertyOp12
 70
     1
102
RTVSPropertyOp13
 70
     1
102
RTVSPropertyOp14
 70
     1
102
RTVSPropertyOp15
 70
     1
102
RTVSPropertyOp16
 70
     1
102
RTVSPropertyOp17
 70
     1
102
RTVSPropertyOp18
 70
     1
102
RTVSPropertyOp19
 70
     1
102
RTVSPropertyOp20
 70
     1
102
RTVSPropertyOp21
 70
     1
102
RTVSPropertyOp22
 70
     1
102
RTVSPropertyOp23
 70
     1
102
RTVSPropertyOp24
 70
     1
102
RTVSPropertyOp25
 70
     1
102
RTVSPropertyOp26
 70
     1
102
RTVSPropertyOp27
 70
     1
102
RTVSPropertyOp28
 70
     1
102
RTVSPropertyOp29
 70
     1
102
RTVSPropertyOp30
 70
     1
102
RTVSPropertyOp31
 70
     1
102
RTVSPropertyOp32
 70
     1
102
RTVSPropertyOp33
 70
     1
102
RTVSPropertyOp34
 70
     1
102
RTVSPropertyOp35
 70
     1
102
RTVSPropertyOp36
 70
     1
102
RTVSPropertyOp37
 70
     1
102
RTVSPropertyOp38
 70
     1
102
RTVSPropertyOp39
 70
     1
102
RTVSPropertyOp40
 70
     1
102
RTVSPropertyOp41
 70
     1
102
RTVSPropertyOp42
 70
     1
102
RTVSPropertyOp43
 70
     1
102
RTVSPropertyOp44
 70
     1
102
RTVSPropertyOp45
 70
     1
102
RTVSPropertyOp46
 70
     1
102
RTVSPropertyOp47
 70
     1
102
RTVSPropertyOp48
 70
     1
102
RTVSPropertyOp49
 70
     1
102
RTVSPropertyOp50
 70
     1
102
RTVSPropertyOp51
 70
     0
102
RTVSPropertyOp52
 70
     0
102
RTVSPropertyOp53
 70
     1
102
RTVSPropertyOp54
 70
     1
102
RTVSPropertyOp55
 70
     1
102
RTVSPropertyOp56
 70
     1
102
RTVSPropertyOp57
 70
     1
102
RTVSPropertyOp58
 70
     1
102
RTVSPropertyOp59
 70
     1
102
RTVSPropertyOp60
 70
     1
102
RTVSPropertyOp61
 70
     1
102
RTVSPropertyOp62
 70
     1
  0
XRECORD
  5
A97
102
{ACAD_REACTORS
330
A96
102
}
330
A96
100
AcDbXrecord
280
     1
102
RTVSPost2010Prop28
280
     0
102
RTVSPost2010PropOp28
 70
     1
102
RTVSPost2010Prop29
280
     1
102
RTVSPost2010PropOp29
 70
     1
102
RTVSPost2010Prop30
280
     1
102
RTVSPost2010PropOp30
 70
     1
102
RTVSPost2010Prop31
280
     0
102
RTVSPost2010PropOp31
 70
     1
102
RTVSPost2010Prop32
280
     0
102
RTVSPost2010PropOp32
 70
     1
102
RTVSPost2010Prop33
280
     0
102
RTVSPost2010PropOp33
 70
     1
102
RTVSPost2010Prop34
280
     0
102
RTVSPost2010PropOp34
 70
     1
102
RTVSPost2010Prop35
280
     0
102
RTVSPost2010PropOp35
 70
     1
102
RTVSPost2010Prop36
280
     0
102
RTVSPost2010PropOp36
 70
     1
102
RTVSPost2010Prop37
 90
       50
102
RTVSPost2010PropOp37
 70
     1
102
RTVSPost2010Prop38
140
0.0
102
RTVSPost2010PropOp38
 70
     1
102
RTVSPost2010Prop39
140
1.0
102
RTVSPost2010PropOp39
 70
     1
102
RTVSPost2010Prop40
 90
        0
102
RTVSPost2010PropOp40
 70
     1
102
RTVSPost2010Prop41ColorIndex
 90
       18
102
RTVSPost2010Prop41ColorRGB
 90
        0
102
RTVSPost2010PropOp41
 70
     1
102
RTVSPost2010Prop42
 90
       50
102
RTVSPost2010PropOp42
 70
     1
102
RTVSPost2010Prop43
 90
        3
102
RTVSPost2010PropOp43
 70
     1
102
RTVSPost2010Prop44ColorIndex
 90
        5
102
RTVSPost2010Prop44ColorRGB
 90
      255
102
RTVSPost2010PropOp44
 70
     1
102
RTVSPost2010Prop45
280
     0
102
RTVSPost2010PropOp45
 70
     1
102
RTVSPost2010Prop46
 90
       50
102
RTVSPost2010PropOp46
 70
     1
102
RTVSPost2010Prop47
 90
       50
102
RTVSPost2010PropOp47
 70
     1
102
RTVSPost2010Prop48
 90
       50
102
RTVSPost2010PropOp48
 70
     1
102
RTVSPost2010Prop49
280
     0
102
RTVSPost2010PropOp49
 70
     1
102
RTVSPost2010Prop50
 90
       50
102
RTVSPost2010PropOp50
 70
     1
102
RTVSPost2010Prop51ColorIndex
 90
      256
102
RTVSPost2010Prop51ColorRGB
 90
-16777216
102
RTVSPost2010PropOp51
 70
     0
102
RTVSPost2010Prop52
140
1.0
102
RTVSPost2010PropOp52
 70
     0
102
RTVSPost2010Prop53
 90
        2
102
RTVSPost2010PropOp53
 70
     1
102
RTVSPost2010Prop54
  1
strokes_ogs.tif
102
RTVSPost2010PropOp54
 70
     1
102
RTVSPost2010Prop55
280
     0
102
RTVSPost2010PropOp55
 70
     1
102
RTVSPost2010Prop56
140
1.0
102
RTVSPost2010PropOp56
 70
     1
102
RTVSPost2010Prop57
140
1.0
102
RTVSPost2010PropOp57
 70
     1
102
RTVSPropertyOp0
 70
     1
102
RTVSPropertyOp1
 70
     1
102
RTVSPropertyOp2
 70
     1
102
RTVSPropertyOp3
 70
     1
102
RTVSPropertyOp4
 70
     1
102
RTVSPropertyOp5
 70
     1
102
RTVSPropertyOp6
 70
     1
102
RTVSPropertyOp7
 70
     1
102
RTVSPropertyOp8
 70
     1
102
RTVSPropertyOp9
 70
     1
102
RTVSPropertyOp10
 70
     1
102
RTVSPropertyOp11
 70
     1
102
RTVSPropertyOp12
 70
     1
102
RTVSPropertyOp13
 70
     1
102
RTVSPropertyOp14
 70
     1
102
RTVSPropertyOp15
 70
     1
102
RTVSPropertyOp16
 70
     1
102
RTVSPropertyOp17
 70
     1
102
RTVSPropertyOp18
 70
     1
102
RTVSPropertyOp19
 70
     1
102
RTVSPropertyOp20
 70
     1
102
RTVSPropertyOp21
 70
     1
102
RTVSPropertyOp22
 70
     1
102
RTVSPropertyOp23
 70
     1
102
RTVSPropertyOp24
 70
     1
102
RTVSPropertyOp25
 70
     1
102
RTVSPropertyOp26
 70
     1
102
RTVSPropertyOp27
 70
     1
102
RTVSPropertyOp28
 70
     1
102
RTVSPropertyOp29
 70
     1
102
RTVSPropertyOp30
 70
     1
102
RTVSPropertyOp31
 70
     1
102
RTVSPropertyOp32
 70
     1
102
RTVSPropertyOp33
 70
     1
102
RTVSPropertyOp34
 70
     1
102
RTVSPropertyOp35
 70
     1
102
RTVSPropertyOp36
 70
     1
102
RTVSPropertyOp37
 70
     1
102
RTVSPropertyOp38
 70
     1
102
RTVSPropertyOp39
 70
     1
102
RTVSPropertyOp40
 70
     1
102
RTVSPropertyOp41
 70
     1
102
RTVSPropertyOp42
 70
     1
102
RTVSPropertyOp43
 70
     1
102
RTVSPropertyOp44
 70
     1
102
RTVSPropertyOp45
 70
     1
102
RTVSPropertyOp46
 70
     1
102
RTVSPropertyOp47
 70
     1
102
RTVSPropertyOp48
 70
     1
102
RTVSPropertyOp49
 70
     1
102
RTVSPropertyOp50
 70
     1
102
RTVSPropertyOp51
 70
     0
102
RTVSPropertyOp52
 70
     0
102
RTVSPropertyOp53
 70
     1
102
RTVSPropertyOp54
 70
     1
102
RTVSPropertyOp55
 70
     1
102
RTVSPropertyOp56
 70
     1
102
RTVSPropertyOp57
 70
     1
102
RTVSPropertyOp58
 70
     1
102
RTVSPropertyOp59
 70
     1
102
RTVSPropertyOp60
 70
     1
102
RTVSPropertyOp61
 70
     1
102
RTVSPropertyOp62
 70
     1
  0
XRECORD
  5
AB9
102
{ACAD_REACTORS
330
AB8
102
}
330
AB8
100
AcDbXrecord
280
     1
102
RTVSPost2010Prop28
280
     0
102
RTVSPost2010PropOp28
 70
     1
102
RTVSPost2010Prop29
280
     1
102
RTVSPost2010PropOp29
 70
     1
102
RTVSPost2010Prop30
280
     1
102
RTVSPost2010PropOp30
 70
     1
102
RTVSPost2010Prop31
280
     0
102
RTVSPost2010PropOp31
 70
     1
102
RTVSPost2010Prop32
280
     0
102
RTVSPost2010PropOp32
 70
     1
102
RTVSPost2010Prop33
280
     0
102
RTVSPost2010PropOp33
 70
     1
102
RTVSPost2010Prop34
280
     0
102
RTVSPost2010PropOp34
 70
     1
102
RTVSPost2010Prop35
280
     0
102
RTVSPost2010PropOp35
 70
     1
102
RTVSPost2010Prop36
280
     0
102
RTVSPost2010PropOp36
 70
     1
102
RTVSPost2010Prop37
 90
       50
102
RTVSPost2010PropOp37
 70
     1
102
RTVSPost2010Prop38
140
0.0
102
RTVSPost2010PropOp38
 70
     1
102
RTVSPost2010Prop39
140
1.0
102
RTVSPost2010PropOp39
 70
     1
102
RTVSPost2010Prop40
 90
        0
102
RTVSPost2010PropOp40
 70
     1
102
RTVSPost2010Prop41ColorIndex
 90
       18
102
RTVSPost2010Prop41ColorRGB
 90
        0
102
RTVSPost2010PropOp41
 70
     1
102
RTVSPost2010Prop42
 90
       50
102
RTVSPost2010PropOp42
 70
     1
102
RTVSPost2010Prop43
 90
        3
102
RTVSPost2010PropOp43
 70
     1
102
RTVSPost2010Prop44ColorIndex
 90
        5
102
RTVSPost2010Prop44ColorRGB
 90
      255
102
RTVSPost2010PropOp44
 70
     1
102
RTVSPost2010Prop45
280
     0
102
RTVSPost2010PropOp45
 70
     1
102
RTVSPost2010Prop46
 90
       50
102
RTVSPost2010PropOp46
 70
     1
102
RTVSPost2010Prop47
 90
       50
102
RTVSPost2010PropOp47
 70
     1
102
RTVSPost2010Prop48
 90
       50
102
RTVSPost2010PropOp48
 70
     1
102
RTVSPost2010Prop49
280
     0
102
RTVSPost2010PropOp49
 70
     1
102
RTVSPost2010Prop50
 90
       50
102
RTVSPost2010PropOp50
 70
     1
102
RTVSPost2010Prop51ColorIndex
 90
      256
102
RTVSPost2010Prop51ColorRGB
 90
-16777216
102
RTVSPost2010PropOp51
 70
     0
102
RTVSPost2010Prop52
140
1.0
102
RTVSPost2010PropOp52
 70
     0
102
RTVSPost2010Prop53
 90
        2
102
RTVSPost2010PropOp53
 70
     1
102
RTVSPost2010Prop54
  1
strokes_ogs.tif
102
RTVSPost2010PropOp54
 70
     1
102
RTVSPost2010Prop55
280
     0
102
RTVSPost2010PropOp55
 70
     1
102
RTVSPost2010Prop56
140
1.0
102
RTVSPost2010PropOp56
 70
     1
102
RTVSPost2010Prop57
140
1.0
102
RTVSPost2010PropOp57
 70
     1
102
RTVSPropertyOp0
 70
     1
102
RTVSPropertyOp1
 70
     1
102
RTVSPropertyOp2
 70
     1
102
RTVSPropertyOp3
 70
     1
102
RTVSPropertyOp4
 70
     1
102
RTVSPropertyOp5
 70
     1
102
RTVSPropertyOp6
 70
     1
102
RTVSPropertyOp7
 70
     1
102
RTVSPropertyOp8
 70
     1
102
RTVSPropertyOp9
 70
     1
102
RTVSPropertyOp10
 70
     1
102
RTVSPropertyOp11
 70
     1
102
RTVSPropertyOp12
 70
     1
102
RTVSPropertyOp13
 70
     1
102
RTVSPropertyOp14
 70
     1
102
RTVSPropertyOp15
 70
     1
102
RTVSPropertyOp16
 70
     1
102
RTVSPropertyOp17
 70
     1
102
RTVSPropertyOp18
 70
     1
102
RTVSPropertyOp19
 70
     1
102
RTVSPropertyOp20
 70
     1
102
RTVSPropertyOp21
 70
     1
102
RTVSPropertyOp22
 70
     1
102
RTVSPropertyOp23
 70
     1
102
RTVSPropertyOp24
 70
     1
102
RTVSPropertyOp25
 70
     1
102
RTVSPropertyOp26
 70
     1
102
RTVSPropertyOp27
 70
     1
102
RTVSPropertyOp28
 70
     1
102
RTVSPropertyOp29
 70
     1
102
RTVSPropertyOp30
 70
     1
102
RTVSPropertyOp31
 70
     1
102
RTVSPropertyOp32
 70
     1
102
RTVSPropertyOp33
 70
     1
102
RTVSPropertyOp34
 70
     1
102
RTVSPropertyOp35
 70
     1
102
RTVSPropertyOp36
 70
     1
102
RTVSPropertyOp37
 70
     1
102
RTVSPropertyOp38
 70
     1
102
RTVSPropertyOp39
 70
     1
102
RTVSPropertyOp40
 70
     1
102
RTVSPropertyOp41
 70
     1
102
RTVSPropertyOp42
 70
     1
102
RTVSPropertyOp43
 70
     1
102
RTVSPropertyOp44
 70
     1
102
RTVSPropertyOp45
 70
     1
102
RTVSPropertyOp46
 70
     1
102
RTVSPropertyOp47
 70
     1
102
RTVSPropertyOp48
 70
     1
102
RTVSPropertyOp49
 70
     1
102
RTVSPropertyOp50
 70
     1
102
RTVSPropertyOp51
 70
     0
102
RTVSPropertyOp52
 70
     0
102
RTVSPropertyOp53
 70
     1
102
RTVSPropertyOp54
 70
     1
102
RTVSPropertyOp55
 70
     1
102
RTVSPropertyOp56
 70
     1
102
RTVSPropertyOp57
 70
     1
102
RTVSPropertyOp58
 70
     1
102
RTVSPropertyOp59
 70
     1
102
RTVSPropertyOp60
 70
     1
102
RTVSPropertyOp61
 70
     1
102
RTVSPropertyOp62
 70
     1
  0
XRECORD
  5
AC5
102
{ACAD_REACTORS
330
AC4
102
}
330
AC4
100
AcDbXrecord
280
     1
102
RTVSPost2010Prop28
280
     0
102
RTVSPost2010PropOp28
 70
     0
102
RTVSPost2010Prop29
280
     1
102
RTVSPost2010PropOp29
 70
     0
102
RTVSPost2010Prop30
280
     1
102
RTVSPost2010PropOp30
 70
     0
102
RTVSPost2010Prop31
280
     0
102
RTVSPost2010PropOp31
 70
     0
102
RTVSPost2010Prop32
280
     0
102
RTVSPost2010PropOp32
 70
     0
102
RTVSPost2010Prop33
280
     0
102
RTVSPost2010PropOp33
 70
     0
102
RTVSPost2010Prop34
280
     0
102
RTVSPost2010PropOp34
 70
     0
102
RTVSPost2010Prop35
280
     0
102
RTVSPost2010PropOp35
 70
     0
102
RTVSPost2010Prop36
280
     0
102
RTVSPost2010PropOp36
 70
     0
102
RTVSPost2010Prop37
 90
       50
102
RTVSPost2010PropOp37
 70
     0
102
RTVSPost2010Prop38
140
0.0
102
RTVSPost2010PropOp38
 70
     0
102
RTVSPost2010Prop39
140
1.0
102
RTVSPost2010PropOp39
 70
     0
102
RTVSPost2010Prop40
 90
        0
102
RTVSPost2010PropOp40
 70
     0
102
RTVSPost2010Prop41ColorIndex
 90
       18
102
RTVSPost2010Prop41ColorRGB
 90
        0
102
RTVSPost2010PropOp41
 70
     0
102
RTVSPost2010Prop42
 90
       50
102
RTVSPost2010PropOp42
 70
     0
102
RTVSPost2010Prop43
 90
        3
102
RTVSPost2010PropOp43
 70
     0
102
RTVSPost2010Prop44ColorIndex
 90
        5
102
RTVSPost2010Prop44ColorRGB
 90
      255
102
RTVSPost2010PropOp44
 70
     0
102
RTVSPost2010Prop45
280
     0
102
RTVSPost2010PropOp45
 70
     0
102
RTVSPost2010Prop46
 90
       50
102
RTVSPost2010PropOp46
 70
     0
102
RTVSPost2010Prop47
 90
       50
102
RTVSPost2010PropOp47
 70
     0
102
RTVSPost2010Prop48
 90
       50
102
RTVSPost2010PropOp48
 70
     0
102
RTVSPost2010Prop49
280
     0
102
RTVSPost2010PropOp49
 70
     0
102
RTVSPost2010Prop50
 90
       50
102
RTVSPost2010PropOp50
 70
     0
102
RTVSPost2010Prop51ColorIndex
 90
      256
102
RTVSPost2010Prop51ColorRGB
 90
-16777216
102
RTVSPost2010PropOp51
 70
     0
102
RTVSPost2010Prop52
140
1.0
102
RTVSPost2010PropOp52
 70
     0
102
RTVSPost2010Prop53
 90
        2
102
RTVSPost2010PropOp53
 70
     0
102
RTVSPost2010Prop54
  1
strokes_ogs.tif
102
RTVSPost2010PropOp54
 70
     0
102
RTVSPost2010Prop55
280
     0
102
RTVSPost2010PropOp55
 70
     0
102
RTVSPost2010Prop56
140
1.0
102
RTVSPost2010PropOp56
 70
     0
102
RTVSPost2010Prop57
140
1.0
102
RTVSPost2010PropOp57
 70
     0
102
RTVSPropertyOp0
 70
     0
102
RTVSPropertyOp1
 70
     0
102
RTVSPropertyOp2
 70
     0
102
RTVSPropertyOp3
 70
     0
102
RTVSPropertyOp4
 70
     0
102
RTVSPropertyOp5
 70
     0
102
RTVSPropertyOp6
 70
     0
102
RTVSPropertyOp7
 70
     0
102
RTVSPropertyOp8
 70
     0
102
RTVSPropertyOp9
 70
     0
102
RTVSPropertyOp10
 70
     0
102
RTVSPropertyOp11
 70
     0
102
RTVSPropertyOp12
 70
     0
102
RTVSPropertyOp13
 70
     0
102
RTVSPropertyOp14
 70
     2
102
RTVSPropertyOp15
 70
     0
102
RTVSPropertyOp16
 70
     0
102
RTVSPropertyOp17
 70
     0
102
RTVSPropertyOp18
 70
     0
102
RTVSPropertyOp19
 70
     0
102
RTVSPropertyOp20
 70
     0
102
RTVSPropertyOp21
 70
     0
102
RTVSPropertyOp22
 70
     0
102
RTVSPropertyOp23
 70
     0
102
RTVSPropertyOp24
 70
     0
102
RTVSPropertyOp25
 70
     0
102
RTVSPropertyOp26
 70
     0
102
RTVSPropertyOp27
 70
     0
102
RTVSPropertyOp28
 70
     0
102
RTVSPropertyOp29
 70
     0
102
RTVSPropertyOp30
 70
     0
102
RTVSPropertyOp31
 70
     0
102
RTVSPropertyOp32
 70
     0
102
RTVSPropertyOp33
 70
     0
102
RTVSPropertyOp34
 70
     0
102
RTVSPropertyOp35
 70
     0
102
RTVSPropertyOp36
 70
     0
102
RTVSPropertyOp37
 70
     0
102
RTVSPropertyOp38
 70
     0
102
RTVSPropertyOp39
 70
     0
102
RTVSPropertyOp40
 70
     0
102
RTVSPropertyOp41
 70
     0
102
RTVSPropertyOp42
 70
     0
102
RTVSPropertyOp43
 70
     0
102
RTVSPropertyOp44
 70
     0
102
RTVSPropertyOp45
 70
     0
102
RTVSPropertyOp46
 70
     0
102
RTVSPropertyOp47
 70
     0
102
RTVSPropertyOp48
 70
     0
102
RTVSPropertyOp49
 70
     0
102
RTVSPropertyOp50
 70
     0
102
RTVSPropertyOp51
 70
     0
102
RTVSPropertyOp52
 70
     0
102
RTVSPropertyOp53
 70
     0
102
RTVSPropertyOp54
 70
     0
102
RTVSPropertyOp55
 70
     0
102
RTVSPropertyOp56
 70
     0
102
RTVSPropertyOp57
 70
     0
102
RTVSPropertyOp58
 70
     1
102
RTVSPropertyOp59
 70
     1
102
RTVSPropertyOp60
 70
     1
102
RTVSPropertyOp61
 70
     1
102
RTVSPropertyOp62
 70
     1
  0
XRECORD
  5
AAB
102
{ACAD_REACTORS
330
AAA
102
}
330
AAA
100
AcDbXrecord
280
     1
102
RTVSPost2010Prop28
280
     0
102
RTVSPost2010PropOp28
 70
     1
102
RTVSPost2010Prop29
280
     1
102
RTVSPost2010PropOp29
 70
     1
102
RTVSPost2010Prop30
280
     1
102
RTVSPost2010PropOp30
 70
     1
102
RTVSPost2010Prop31
280
     0
102
RTVSPost2010PropOp31
 70
     1
102
RTVSPost2010Prop32
280
     0
102
RTVSPost2010PropOp32
 70
     1
102
RTVSPost2010Prop33
280
     0
102
RTVSPost2010PropOp33
 70
     1
102
RTVSPost2010Prop34
280
     0
102
RTVSPost2010PropOp34
 70
     1
102
RTVSPost2010Prop35
280
     0
102
RTVSPost2010PropOp35
 70
     1
102
RTVSPost2010Prop36
280
     0
102
RTVSPost2010PropOp36
 70
     1
102
RTVSPost2010Prop37
 90
       50
102
RTVSPost2010PropOp37
 70
     1
102
RTVSPost2010Prop38
140
0.0
102
RTVSPost2010PropOp38
 70
     1
102
RTVSPost2010Prop39
140
1.0
102
RTVSPost2010PropOp39
 70
     1
102
RTVSPost2010Prop40
 90
        0
102
RTVSPost2010PropOp40
 70
     1
102
RTVSPost2010Prop41ColorIndex
 90
       18
102
RTVSPost2010Prop41ColorRGB
 90
        0
102
RTVSPost2010PropOp41
 70
     1
102
RTVSPost2010Prop42
 90
       50
102
RTVSPost2010PropOp42
 70
     1
102
RTVSPost2010Prop43
 90
        3
102
RTVSPost2010PropOp43
 70
     1
102
RTVSPost2010Prop44ColorIndex
 90
        5
102
RTVSPost2010Prop44ColorRGB
 90
      255
102
RTVSPost2010PropOp44
 70
     1
102
RTVSPost2010Prop45
280
     0
102
RTVSPost2010PropOp45
 70
     1
102
RTVSPost2010Prop46
 90
       50
102
RTVSPost2010PropOp46
 70
     1
102
RTVSPost2010Prop47
 90
       50
102
RTVSPost2010PropOp47
 70
     1
102
RTVSPost2010Prop48
 90
       50
102
RTVSPost2010PropOp48
 70
     1
102
RTVSPost2010Prop49
280
     0
102
RTVSPost2010PropOp49
 70
     1
102
RTVSPost2010Prop50
 90
       50
102
RTVSPost2010PropOp50
 70
     1
102
RTVSPost2010Prop51ColorIndex
 90
      256
102
RTVSPost2010Prop51ColorRGB
 90
-16777216
102
RTVSPost2010PropOp51
 70
     0
102
RTVSPost2010Prop52
140
1.0
102
RTVSPost2010PropOp52
 70
     0
102
RTVSPost2010Prop53
 90
        2
102
RTVSPost2010PropOp53
 70
     1
102
RTVSPost2010Prop54
  1
strokes_ogs.tif
102
RTVSPost2010PropOp54
 70
     1
102
RTVSPost2010Prop55
280
     0
102
RTVSPost2010PropOp55
 70
     1
102
RTVSPost2010Prop56
140
1.0
102
RTVSPost2010PropOp56
 70
     1
102
RTVSPost2010Prop57
140
1.0
102
RTVSPost2010PropOp57
 70
     1
102
RTVSPropertyOp0
 70
     1
102
RTVSPropertyOp1
 70
     1
102
RTVSPropertyOp2
 70
     1
102
RTVSPropertyOp3
 70
     1
102
RTVSPropertyOp4
 70
     1
102
RTVSPropertyOp5
 70
     1
102
RTVSPropertyOp6
 70
     1
102
RTVSPropertyOp7
 70
     1
102
RTVSPropertyOp8
 70
     1
102
RTVSPropertyOp9
 70
     1
102
RTVSPropertyOp10
 70
     1
102
RTVSPropertyOp11
 70
     1
102
RTVSPropertyOp12
 70
     1
102
RTVSPropertyOp13
 70
     1
102
RTVSPropertyOp14
 70
     1
102
RTVSPropertyOp15
 70
     1
102
RTVSPropertyOp16
 70
     1
102
RTVSPropertyOp17
 70
     1
102
RTVSPropertyOp18
 70
     1
102
RTVSPropertyOp19
 70
     1
102
RTVSPropertyOp20
 70
     1
102
RTVSPropertyOp21
 70
     1
102
RTVSPropertyOp22
 70
     1
102
RTVSPropertyOp23
 70
     1
102
RTVSPropertyOp24
 70
     1
102
RTVSPropertyOp25
 70
     1
102
RTVSPropertyOp26
 70
     1
102
RTVSPropertyOp27
 70
     1
102
RTVSPropertyOp28
 70
     1
102
RTVSPropertyOp29
 70
     1
102
RTVSPropertyOp30
 70
     1
102
RTVSPropertyOp31
 70
     1
102
RTVSPropertyOp32
 70
     1
102
RTVSPropertyOp33
 70
     1
102
RTVSPropertyOp34
 70
     1
102
RTVSPropertyOp35
 70
     1
102
RTVSPropertyOp36
 70
     1
102
RTVSPropertyOp37
 70
     1
102
RTVSPropertyOp38
 70
     1
102
RTVSPropertyOp39
 70
     1
102
RTVSPropertyOp40
 70
     1
102
RTVSPropertyOp41
 70
     1
102
RTVSPropertyOp42
 70
     1
102
RTVSPropertyOp43
 70
     1
102
RTVSPropertyOp44
 70
     1
102
RTVSPropertyOp45
 70
     1
102
RTVSPropertyOp46
 70
     1
102
RTVSPropertyOp47
 70
     1
102
RTVSPropertyOp48
 70
     1
102
RTVSPropertyOp49
 70
     1
102
RTVSPropertyOp50
 70
     1
102
RTVSPropertyOp51
 70
     0
102
RTVSPropertyOp52
 70
     0
102
RTVSPropertyOp53
 70
     1
102
RTVSPropertyOp54
 70
     1
102
RTVSPropertyOp55
 70
     1
102
RTVSPropertyOp56
 70
     1
102
RTVSPropertyOp57
 70
     1
102
RTVSPropertyOp58
 70
     1
102
RTVSPropertyOp59
 70
     1
102
RTVSPropertyOp60
 70
     1
102
RTVSPropertyOp61
 70
     1
102
RTVSPropertyOp62
 70
     1
  0
XRECORD
  5
AC7
102
{ACAD_REACTORS
330
AC6
102
}
330
AC6
100
AcDbXrecord
280
     1
102
RTVSPost2010Prop28
280
     0
102
RTVSPost2010PropOp28
 70
     0
102
RTVSPost2010Prop29
280
     1
102
RTVSPost2010PropOp29
 70
     0
102
RTVSPost2010Prop30
280
     1
102
RTVSPost2010PropOp30
 70
     0
102
RTVSPost2010Prop31
280
     0
102
RTVSPost2010PropOp31
 70
     0
102
RTVSPost2010Prop32
280
     0
102
RTVSPost2010PropOp32
 70
     0
102
RTVSPost2010Prop33
280
     0
102
RTVSPost2010PropOp33
 70
     0
102
RTVSPost2010Prop34
280
     0
102
RTVSPost2010PropOp34
 70
     0
102
RTVSPost2010Prop35
280
     0
102
RTVSPost2010PropOp35
 70
     0
102
RTVSPost2010Prop36
280
     0
102
RTVSPost2010PropOp36
 70
     0
102
RTVSPost2010Prop37
 90
       50
102
RTVSPost2010PropOp37
 70
     0
102
RTVSPost2010Prop38
140
0.0
102
RTVSPost2010PropOp38
 70
     0
102
RTVSPost2010Prop39
140
1.0
102
RTVSPost2010PropOp39
 70
     0
102
RTVSPost2010Prop40
 90
        0
102
RTVSPost2010PropOp40
 70
     0
102
RTVSPost2010Prop41ColorIndex
 90
       18
102
RTVSPost2010Prop41ColorRGB
 90
        0
102
RTVSPost2010PropOp41
 70
     0
102
RTVSPost2010Prop42
 90
       50
102
RTVSPost2010PropOp42
 70
     0
102
RTVSPost2010Prop43
 90
        3
102
RTVSPost2010PropOp43
 70
     0
102
RTVSPost2010Prop44ColorIndex
 90
        5
102
RTVSPost2010Prop44ColorRGB
 90
      255
102
RTVSPost2010PropOp44
 70
     0
102
RTVSPost2010Prop45
280
     0
102
RTVSPost2010PropOp45
 70
     0
102
RTVSPost2010Prop46
 90
       50
102
RTVSPost2010PropOp46
 70
     0
102
RTVSPost2010Prop47
 90
       50
102
RTVSPost2010PropOp47
 70
     0
102
RTVSPost2010Prop48
 90
       50
102
RTVSPost2010PropOp48
 70
     0
102
RTVSPost2010Prop49
280
     0
102
RTVSPost2010PropOp49
 70
     0
102
RTVSPost2010Prop50
 90
       50
102
RTVSPost2010PropOp50
 70
     0
102
RTVSPost2010Prop51ColorIndex
 90
      256
102
RTVSPost2010Prop51ColorRGB
 90
-16777216
102
RTVSPost2010PropOp51
 70
     0
102
RTVSPost2010Prop52
140
1.0
102
RTVSPost2010PropOp52
 70
     0
102
RTVSPost2010Prop53
 90
        2
102
RTVSPost2010PropOp53
 70
     0
102
RTVSPost2010Prop54
  1
strokes_ogs.tif
102
RTVSPost2010PropOp54
 70
     0
102
RTVSPost2010Prop55
280
     0
102
RTVSPost2010PropOp55
 70
     0
102
RTVSPost2010Prop56
140
1.0
102
RTVSPost2010PropOp56
 70
     0
102
RTVSPost2010Prop57
140
1.0
102
RTVSPost2010PropOp57
 70
     0
102
RTVSPropertyOp0
 70
     0
102
RTVSPropertyOp1
 70
     0
102
RTVSPropertyOp2
 70
     0
102
RTVSPropertyOp3
 70
     0
102
RTVSPropertyOp4
 70
     0
102
RTVSPropertyOp5
 70
     0
102
RTVSPropertyOp6
 70
     0
102
RTVSPropertyOp7
 70
     0
102
RTVSPropertyOp8
 70
     0
102
RTVSPropertyOp9
 70
     0
102
RTVSPropertyOp10
 70
     0
102
RTVSPropertyOp11
 70
     0
102
RTVSPropertyOp12
 70
     0
102
RTVSPropertyOp13
 70
     0
102
RTVSPropertyOp14
 70
     2
102
RTVSPropertyOp15
 70
     0
102
RTVSPropertyOp16
 70
     0
102
RTVSPropertyOp17
 70
     0
102
RTVSPropertyOp18
 70
     0
102
RTVSPropertyOp19
 70
     0
102
RTVSPropertyOp20
 70
     0
102
RTVSPropertyOp21
 70
     0
102
RTVSPropertyOp22
 70
     0
102
RTVSPropertyOp23
 70
     0
102
RTVSPropertyOp24
 70
     0
102
RTVSPropertyOp25
 70
     0
102
RTVSPropertyOp26
 70
     0
102
RTVSPropertyOp27
 70
     0
102
RTVSPropertyOp28
 70
     0
102
RTVSPropertyOp29
 70
     0
102
RTVSPropertyOp30
 70
     0
102
RTVSPropertyOp31
 70
     0
102
RTVSPropertyOp32
 70
     0
102
RTVSPropertyOp33
 70
     0
102
RTVSPropertyOp34
 70
     0
102
RTVSPropertyOp35
 70
     0
102
RTVSPropertyOp36
 70
     0
102
RTVSPropertyOp37
 70
     0
102
RTVSPropertyOp38
 70
     0
102
RTVSPropertyOp39
 70
     0
102
RTVSPropertyOp40
 70
     0
102
RTVSPropertyOp41
 70
     0
102
RTVSPropertyOp42
 70
     0
102
RTVSPropertyOp43
 70
     0
102
RTVSPropertyOp44
 70
     0
102
RTVSPropertyOp45
 70
     0
102
RTVSPropertyOp46
 70
     0
102
RTVSPropertyOp47
 70
     0
102
RTVSPropertyOp48
 70
     0
102
RTVSPropertyOp49
 70
     0
102
RTVSPropertyOp50
 70
     0
102
RTVSPropertyOp51
 70
     0
102
RTVSPropertyOp52
 70
     0
102
RTVSPropertyOp53
 70
     0
102
RTVSPropertyOp54
 70
     0
102
RTVSPropertyOp55
 70
     0
102
RTVSPropertyOp56
 70
     0
102
RTVSPropertyOp57
 70
     0
102
RTVSPropertyOp58
 70
     1
102
RTVSPropertyOp59
 70
     1
102
RTVSPropertyOp60
 70
     1
102
RTVSPropertyOp61
 70
     1
102
RTVSPropertyOp62
 70
     1
  0
XRECORD
  5
AA1
102
{ACAD_REACTORS
330
AA0
102
}
330
AA0
100
AcDbXrecord
280
     1
102
RTVSPost2010Prop28
280
     0
102
RTVSPost2010PropOp28
 70
     1
102
RTVSPost2010Prop29
280
     1
102
RTVSPost2010PropOp29
 70
     1
102
RTVSPost2010Prop30
280
     1
102
RTVSPost2010PropOp30
 70
     1
102
RTVSPost2010Prop31
280
     0
102
RTVSPost2010PropOp31
 70
     1
102
RTVSPost2010Prop32
280
     0
102
RTVSPost2010PropOp32
 70
     1
102
RTVSPost2010Prop33
280
     0
102
RTVSPost2010PropOp33
 70
     1
102
RTVSPost2010Prop34
280
     0
102
RTVSPost2010PropOp34
 70
     1
102
RTVSPost2010Prop35
280
     0
102
RTVSPost2010PropOp35
 70
     1
102
RTVSPost2010Prop36
280
     0
102
RTVSPost2010PropOp36
 70
     1
102
RTVSPost2010Prop37
 90
       50
102
RTVSPost2010PropOp37
 70
     1
102
RTVSPost2010Prop38
140
0.0
102
RTVSPost2010PropOp38
 70
     1
102
RTVSPost2010Prop39
140
1.0
102
RTVSPost2010PropOp39
 70
     1
102
RTVSPost2010Prop40
 90
        0
102
RTVSPost2010PropOp40
 70
     1
102
RTVSPost2010Prop41ColorIndex
 90
       18
102
RTVSPost2010Prop41ColorRGB
 90
        0
102
RTVSPost2010PropOp41
 70
     1
102
RTVSPost2010Prop42
 90
       50
102
RTVSPost2010PropOp42
 70
     1
102
RTVSPost2010Prop43
 90
        3
102
RTVSPost2010PropOp43
 70
     1
102
RTVSPost2010Prop44ColorIndex
 90
        5
102
RTVSPost2010Prop44ColorRGB
 90
      255
102
RTVSPost2010PropOp44
 70
     1
102
RTVSPost2010Prop45
280
     0
102
RTVSPost2010PropOp45
 70
     1
102
RTVSPost2010Prop46
 90
       50
102
RTVSPost2010PropOp46
 70
     1
102
RTVSPost2010Prop47
 90
       50
102
RTVSPost2010PropOp47
 70
     1
102
RTVSPost2010Prop48
 90
       50
102
RTVSPost2010PropOp48
 70
     1
102
RTVSPost2010Prop49
280
     0
102
RTVSPost2010PropOp49
 70
     1
102
RTVSPost2010Prop50
 90
       50
102
RTVSPost2010PropOp50
 70
     1
102
RTVSPost2010Prop51ColorIndex
 90
      256
102
RTVSPost2010Prop51ColorRGB
 90
-16777216
102
RTVSPost2010PropOp51
 70
     0
102
RTVSPost2010Prop52
140
1.0
102
RTVSPost2010PropOp52
 70
     0
102
RTVSPost2010Prop53
 90
        2
102
RTVSPost2010PropOp53
 70
     1
102
RTVSPost2010Prop54
  1
strokes_ogs.tif
102
RTVSPost2010PropOp54
 70
     1
102
RTVSPost2010Prop55
280
     0
102
RTVSPost2010PropOp55
 70
     1
102
RTVSPost2010Prop56
140
1.0
102
RTVSPost2010PropOp56
 70
     1
102
RTVSPost2010Prop57
140
1.0
102
RTVSPost2010PropOp57
 70
     1
102
RTVSPropertyOp0
 70
     1
102
RTVSPropertyOp1
 70
     1
102
RTVSPropertyOp2
 70
     1
102
RTVSPropertyOp3
 70
     1
102
RTVSPropertyOp4
 70
     1
102
RTVSPropertyOp5
 70
     1
102
RTVSPropertyOp6
 70
     1
102
RTVSPropertyOp7
 70
     1
102
RTVSPropertyOp8
 70
     1
102
RTVSPropertyOp9
 70
     1
102
RTVSPropertyOp10
 70
     1
102
RTVSPropertyOp11
 70
     1
102
RTVSPropertyOp12
 70
     1
102
RTVSPropertyOp13
 70
     1
102
RTVSPropertyOp14
 70
     1
102
RTVSPropertyOp15
 70
     1
102
RTVSPropertyOp16
 70
     1
102
RTVSPropertyOp17
 70
     1
102
RTVSPropertyOp18
 70
     1
102
RTVSPropertyOp19
 70
     1
102
RTVSPropertyOp20
 70
     1
102
RTVSPropertyOp21
 70
     1
102
RTVSPropertyOp22
 70
     1
102
RTVSPropertyOp23
 70
     1
102
RTVSPropertyOp24
 70
     1
102
RTVSPropertyOp25
 70
     1
102
RTVSPropertyOp26
 70
     1
102
RTVSPropertyOp27
 70
     1
102
RTVSPropertyOp28
 70
     1
102
RTVSPropertyOp29
 70
     1
102
RTVSPropertyOp30
 70
     1
102
RTVSPropertyOp31
 70
     1
102
RTVSPropertyOp32
 70
     1
102
RTVSPropertyOp33
 70
     1
102
RTVSPropertyOp34
 70
     1
102
RTVSPropertyOp35
 70
     1
102
RTVSPropertyOp36
 70
     1
102
RTVSPropertyOp37
 70
     1
102
RTVSPropertyOp38
 70
     1
102
RTVSPropertyOp39
 70
     1
102
RTVSPropertyOp40
 70
     1
102
RTVSPropertyOp41
 70
     1
102
RTVSPropertyOp42
 70
     1
102
RTVSPropertyOp43
 70
     1
102
RTVSPropertyOp44
 70
     1
102
RTVSPropertyOp45
 70
     1
102
RTVSPropertyOp46
 70
     1
102
RTVSPropertyOp47
 70
     1
102
RTVSPropertyOp48
 70
     1
102
RTVSPropertyOp49
 70
     1
102
RTVSPropertyOp50
 70
     1
102
RTVSPropertyOp51
 70
     0
102
RTVSPropertyOp52
 70
     0
102
RTVSPropertyOp53
 70
     1
102
RTVSPropertyOp54
 70
     1
102
RTVSPropertyOp55
 70
     1
102
RTVSPropertyOp56
 70
     1
102
RTVSPropertyOp57
 70
     1
102
RTVSPropertyOp58
 70
     1
102
RTVSPropertyOp59
 70
     1
102
RTVSPropertyOp60
 70
     1
102
RTVSPropertyOp61
 70
     1
102
RTVSPropertyOp62
 70
     1
  0
XRECORD
  5
AC3
102
{ACAD_REACTORS
330
AC2
102
}
330
AC2
100
AcDbXrecord
280
     1
102
RTVSPost2010Prop28
280
     0
102
RTVSPost2010PropOp28
 70
     1
102
RTVSPost2010Prop29
280
     1
102
RTVSPost2010PropOp29
 70
     1
102
RTVSPost2010Prop30
280
     1
102
RTVSPost2010PropOp30
 70
     1
102
RTVSPost2010Prop31
280
     0
102
RTVSPost2010PropOp31
 70
     1
102
RTVSPost2010Prop32
280
     0
102
RTVSPost2010PropOp32
 70
     1
102
RTVSPost2010Prop33
280
     0
102
RTVSPost2010PropOp33
 70
     1
102
RTVSPost2010Prop34
280
     0
102
RTVSPost2010PropOp34
 70
     1
102
RTVSPost2010Prop35
280
     0
102
RTVSPost2010PropOp35
 70
     1
102
RTVSPost2010Prop36
280
     0
102
RTVSPost2010PropOp36
 70
     1
102
RTVSPost2010Prop37
 90
       50
102
RTVSPost2010PropOp37
 70
     1
102
RTVSPost2010Prop38
140
0.0
102
RTVSPost2010PropOp38
 70
     1
102
RTVSPost2010Prop39
140
1.0
102
RTVSPost2010PropOp39
 70
     1
102
RTVSPost2010Prop40
 90
        0
102
RTVSPost2010PropOp40
 70
     1
102
RTVSPost2010Prop41ColorIndex
 90
       18
102
RTVSPost2010Prop41ColorRGB
 90
        0
102
RTVSPost2010PropOp41
 70
     1
102
RTVSPost2010Prop42
 90
       50
102
RTVSPost2010PropOp42
 70
     1
102
RTVSPost2010Prop43
 90
        3
102
RTVSPost2010PropOp43
 70
     1
102
RTVSPost2010Prop44ColorIndex
 90
        5
102
RTVSPost2010Prop44ColorRGB
 90
      255
102
RTVSPost2010PropOp44
 70
     1
102
RTVSPost2010Prop45
280
     0
102
RTVSPost2010PropOp45
 70
     1
102
RTVSPost2010Prop46
 90
       50
102
RTVSPost2010PropOp46
 70
     1
102
RTVSPost2010Prop47
 90
       50
102
RTVSPost2010PropOp47
 70
     1
102
RTVSPost2010Prop48
 90
       50
102
RTVSPost2010PropOp48
 70
     1
102
RTVSPost2010Prop49
280
     0
102
RTVSPost2010PropOp49
 70
     1
102
RTVSPost2010Prop50
 90
       50
102
RTVSPost2010PropOp50
 70
     1
102
RTVSPost2010Prop51ColorIndex
 90
      256
102
RTVSPost2010Prop51ColorRGB
 90
-16777216
102
RTVSPost2010PropOp51
 70
     0
102
RTVSPost2010Prop52
140
1.0
102
RTVSPost2010PropOp52
 70
     0
102
RTVSPost2010Prop53
 90
        2
102
RTVSPost2010PropOp53
 70
     1
102
RTVSPost2010Prop54
  1
strokes_ogs.tif
102
RTVSPost2010PropOp54
 70
     1
102
RTVSPost2010Prop55
280
     0
102
RTVSPost2010PropOp55
 70
     1
102
RTVSPost2010Prop56
140
1.0
102
RTVSPost2010PropOp56
 70
     1
102
RTVSPost2010Prop57
140
1.0
102
RTVSPost2010PropOp57
 70
     1
102
RTVSPropertyOp0
 70
     1
102
RTVSPropertyOp1
 70
     1
102
RTVSPropertyOp2
 70
     1
102
RTVSPropertyOp3
 70
     1
102
RTVSPropertyOp4
 70
     1
102
RTVSPropertyOp5
 70
     1
102
RTVSPropertyOp6
 70
     1
102
RTVSPropertyOp7
 70
     1
102
RTVSPropertyOp8
 70
     1
102
RTVSPropertyOp9
 70
     1
102
RTVSPropertyOp10
 70
     1
102
RTVSPropertyOp11
 70
     1
102
RTVSPropertyOp12
 70
     1
102
RTVSPropertyOp13
 70
     1
102
RTVSPropertyOp14
 70
     1
102
RTVSPropertyOp15
 70
     1
102
RTVSPropertyOp16
 70
     1
102
RTVSPropertyOp17
 70
     1
102
RTVSPropertyOp18
 70
     1
102
RTVSPropertyOp19
 70
     1
102
RTVSPropertyOp20
 70
     1
102
RTVSPropertyOp21
 70
     1
102
RTVSPropertyOp22
 70
     1
102
RTVSPropertyOp23
 70
     1
102
RTVSPropertyOp24
 70
     1
102
RTVSPropertyOp25
 70
     1
102
RTVSPropertyOp26
 70
     1
102
RTVSPropertyOp27
 70
     1
102
RTVSPropertyOp28
 70
     1
102
RTVSPropertyOp29
 70
     1
102
RTVSPropertyOp30
 70
     1
102
RTVSPropertyOp31
 70
     1
102
RTVSPropertyOp32
 70
     1
102
RTVSPropertyOp33
 70
     1
102
RTVSPropertyOp34
 70
     1
102
RTVSPropertyOp35
 70
     1
102
RTVSPropertyOp36
 70
     1
102
RTVSPropertyOp37
 70
     1
102
RTVSPropertyOp38
 70
     1
102
RTVSPropertyOp39
 70
     1
102
RTVSPropertyOp40
 70
     1
102
RTVSPropertyOp41
 70
     1
102
RTVSPropertyOp42
 70
     1
102
RTVSPropertyOp43
 70
     1
102
RTVSPropertyOp44
 70
     1
102
RTVSPropertyOp45
 70
     1
102
RTVSPropertyOp46
 70
     1
102
RTVSPropertyOp47
 70
     1
102
RTVSPropertyOp48
 70
     1
102
RTVSPropertyOp49
 70
     1
102
RTVSPropertyOp50
 70
     1
102
RTVSPropertyOp51
 70
     0
102
RTVSPropertyOp52
 70
     0
102
RTVSPropertyOp53
 70
     1
102
RTVSPropertyOp54
 70
     1
102
RTVSPropertyOp55
 70
     1
102
RTVSPropertyOp56
 70
     1
102
RTVSPropertyOp57
 70
     1
102
RTVSPropertyOp58
 70
     1
102
RTVSPropertyOp59
 70
     1
102
RTVSPropertyOp60
 70
     1
102
RTVSPropertyOp61
 70
     1
102
RTVSPropertyOp62
 70
     1
  0
XRECORD
  5
AC1
102
{ACAD_REACTORS
330
AC0
102
}
330
AC0
100
AcDbXrecord
280
     1
102
RTVSPost2010Prop28
280
     0
102
RTVSPost2010PropOp28
 70
     1
102
RTVSPost2010Prop29
280
     1
102
RTVSPost2010PropOp29
 70
     1
102
RTVSPost2010Prop30
280
     1
102
RTVSPost2010PropOp30
 70
     1
102
RTVSPost2010Prop31
280
     0
102
RTVSPost2010PropOp31
 70
     1
102
RTVSPost2010Prop32
280
     0
102
RTVSPost2010PropOp32
 70
     1
102
RTVSPost2010Prop33
280
     0
102
RTVSPost2010PropOp33
 70
     1
102
RTVSPost2010Prop34
280
     0
102
RTVSPost2010PropOp34
 70
     1
102
RTVSPost2010Prop35
280
     0
102
RTVSPost2010PropOp35
 70
     1
102
RTVSPost2010Prop36
280
     0
102
RTVSPost2010PropOp36
 70
     1
102
RTVSPost2010Prop37
 90
       50
102
RTVSPost2010PropOp37
 70
     1
102
RTVSPost2010Prop38
140
0.0
102
RTVSPost2010PropOp38
 70
     1
102
RTVSPost2010Prop39
140
1.0
102
RTVSPost2010PropOp39
 70
     1
102
RTVSPost2010Prop40
 90
        0
102
RTVSPost2010PropOp40
 70
     1
102
RTVSPost2010Prop41ColorIndex
 90
       18
102
RTVSPost2010Prop41ColorRGB
 90
        0
102
RTVSPost2010PropOp41
 70
     1
102
RTVSPost2010Prop42
 90
       50
102
RTVSPost2010PropOp42
 70
     1
102
RTVSPost2010Prop43
 90
        3
102
RTVSPost2010PropOp43
 70
     1
102
RTVSPost2010Prop44ColorIndex
 90
        5
102
RTVSPost2010Prop44ColorRGB
 90
      255
102
RTVSPost2010PropOp44
 70
     1
102
RTVSPost2010Prop45
280
     0
102
RTVSPost2010PropOp45
 70
     1
102
RTVSPost2010Prop46
 90
       50
102
RTVSPost2010PropOp46
 70
     1
102
RTVSPost2010Prop47
 90
       50
102
RTVSPost2010PropOp47
 70
     1
102
RTVSPost2010Prop48
 90
       50
102
RTVSPost2010PropOp48
 70
     1
102
RTVSPost2010Prop49
280
     0
102
RTVSPost2010PropOp49
 70
     1
102
RTVSPost2010Prop50
 90
       50
102
RTVSPost2010PropOp50
 70
     1
102
RTVSPost2010Prop51ColorIndex
 90
      256
102
RTVSPost2010Prop51ColorRGB
 90
-16777216
102
RTVSPost2010PropOp51
 70
     0
102
RTVSPost2010Prop52
140
1.0
102
RTVSPost2010PropOp52
 70
     0
102
RTVSPost2010Prop53
 90
        2
102
RTVSPost2010PropOp53
 70
     1
102
RTVSPost2010Prop54
  1
strokes_ogs.tif
102
RTVSPost2010PropOp54
 70
     1
102
RTVSPost2010Prop55
280
     0
102
RTVSPost2010PropOp55
 70
     1
102
RTVSPost2010Prop56
140
1.0
102
RTVSPost2010PropOp56
 70
     1
102
RTVSPost2010Prop57
140
1.0
102
RTVSPost2010PropOp57
 70
     1
102
RTVSPropertyOp0
 70
     1
102
RTVSPropertyOp1
 70
     1
102
RTVSPropertyOp2
 70
     1
102
RTVSPropertyOp3
 70
     1
102
RTVSPropertyOp4
 70
     1
102
RTVSPropertyOp5
 70
     1
102
RTVSPropertyOp6
 70
     1
102
RTVSPropertyOp7
 70
     1
102
RTVSPropertyOp8
 70
     1
102
RTVSPropertyOp9
 70
     1
102
RTVSPropertyOp10
 70
     1
102
RTVSPropertyOp11
 70
     1
102
RTVSPropertyOp12
 70
     1
102
RTVSPropertyOp13
 70
     1
102
RTVSPropertyOp14
 70
     1
102
RTVSPropertyOp15
 70
     1
102
RTVSPropertyOp16
 70
     1
102
RTVSPropertyOp17
 70
     1
102
RTVSPropertyOp18
 70
     1
102
RTVSPropertyOp19
 70
     1
102
RTVSPropertyOp20
 70
     1
102
RTVSPropertyOp21
 70
     1
102
RTVSPropertyOp22
 70
     1
102
RTVSPropertyOp23
 70
     1
102
RTVSPropertyOp24
 70
     1
102
RTVSPropertyOp25
 70
     1
102
RTVSPropertyOp26
 70
     1
102
RTVSPropertyOp27
 70
     1
102
RTVSPropertyOp28
 70
     1
102
RTVSPropertyOp29
 70
     1
102
RTVSPropertyOp30
 70
     1
102
RTVSPropertyOp31
 70
     1
102
RTVSPropertyOp32
 70
     1
102
RTVSPropertyOp33
 70
     1
102
RTVSPropertyOp34
 70
     1
102
RTVSPropertyOp35
 70
     1
102
RTVSPropertyOp36
 70
     1
102
RTVSPropertyOp37
 70
     1
102
RTVSPropertyOp38
 70
     1
102
RTVSPropertyOp39
 70
     1
102
RTVSPropertyOp40
 70
     1
102
RTVSPropertyOp41
 70
     1
102
RTVSPropertyOp42
 70
     1
102
RTVSPropertyOp43
 70
     1
102
RTVSPropertyOp44
 70
     1
102
RTVSPropertyOp45
 70
     1
102
RTVSPropertyOp46
 70
     1
102
RTVSPropertyOp47
 70
     1
102
RTVSPropertyOp48
 70
     1
102
RTVSPropertyOp49
 70
     1
102
RTVSPropertyOp50
 70
     1
102
RTVSPropertyOp51
 70
     0
102
RTVSPropertyOp52
 70
     0
102
RTVSPropertyOp53
 70
     1
102
RTVSPropertyOp54
 70
     1
102
RTVSPropertyOp55
 70
     1
102
RTVSPropertyOp56
 70
     1
102
RTVSPropertyOp57
 70
     1
102
RTVSPropertyOp58
 70
     1
102
RTVSPropertyOp59
 70
     1
102
RTVSPropertyOp60
 70
     1
102
RTVSPropertyOp61
 70
     1
102
RTVSPropertyOp62
 70
     1
  0
XRECORD
  5
ABB
102
{ACAD_REACTORS
330
ABA
102
}
330
ABA
100
AcDbXrecord
280
     1
102
RTVSPost2010Prop28
280
     0
102
RTVSPost2010PropOp28
 70
     1
102
RTVSPost2010Prop29
280
     1
102
RTVSPost2010PropOp29
 70
     1
102
RTVSPost2010Prop30
280
     1
102
RTVSPost2010PropOp30
 70
     1
102
RTVSPost2010Prop31
280
     0
102
RTVSPost2010PropOp31
 70
     1
102
RTVSPost2010Prop32
280
     0
102
RTVSPost2010PropOp32
 70
     1
102
RTVSPost2010Prop33
280
     0
102
RTVSPost2010PropOp33
 70
     1
102
RTVSPost2010Prop34
280
     0
102
RTVSPost2010PropOp34
 70
     1
102
RTVSPost2010Prop35
280
     0
102
RTVSPost2010PropOp35
 70
     1
102
RTVSPost2010Prop36
280
     0
102
RTVSPost2010PropOp36
 70
     1
102
RTVSPost2010Prop37
 90
       50
102
RTVSPost2010PropOp37
 70
     1
102
RTVSPost2010Prop38
140
0.0
102
RTVSPost2010PropOp38
 70
     1
102
RTVSPost2010Prop39
140
1.0
102
RTVSPost2010PropOp39
 70
     1
102
RTVSPost2010Prop40
 90
        0
102
RTVSPost2010PropOp40
 70
     1
102
RTVSPost2010Prop41ColorIndex
 90
       18
102
RTVSPost2010Prop41ColorRGB
 90
        0
102
RTVSPost2010PropOp41
 70
     1
102
RTVSPost2010Prop42
 90
       50
102
RTVSPost2010PropOp42
 70
     1
102
RTVSPost2010Prop43
 90
        3
102
RTVSPost2010PropOp43
 70
     1
102
RTVSPost2010Prop44ColorIndex
 90
        5
102
RTVSPost2010Prop44ColorRGB
 90
      255
102
RTVSPost2010PropOp44
 70
     1
102
RTVSPost2010Prop45
280
     0
102
RTVSPost2010PropOp45
 70
     1
102
RTVSPost2010Prop46
 90
       50
102
RTVSPost2010PropOp46
 70
     1
102
RTVSPost2010Prop47
 90
       50
102
RTVSPost2010PropOp47
 70
     1
102
RTVSPost2010Prop48
 90
       50
102
RTVSPost2010PropOp48
 70
     1
102
RTVSPost2010Prop49
280
     0
102
RTVSPost2010PropOp49
 70
     1
102
RTVSPost2010Prop50
 90
       50
102
RTVSPost2010PropOp50
 70
     1
102
RTVSPost2010Prop51ColorIndex
 90
      256
102
RTVSPost2010Prop51ColorRGB
 90
-16777216
102
RTVSPost2010PropOp51
 70
     0
102
RTVSPost2010Prop52
140
1.0
102
RTVSPost2010PropOp52
 70
     0
102
RTVSPost2010Prop53
 90
        2
102
RTVSPost2010PropOp53
 70
     1
102
RTVSPost2010Prop54
  1
strokes_ogs.tif
102
RTVSPost2010PropOp54
 70
     1
102
RTVSPost2010Prop55
280
     0
102
RTVSPost2010PropOp55
 70
     1
102
RTVSPost2010Prop56
140
1.0
102
RTVSPost2010PropOp56
 70
     1
102
RTVSPost2010Prop57
140
1.0
102
RTVSPost2010PropOp57
 70
     1
102
RTVSPropertyOp0
 70
     1
102
RTVSPropertyOp1
 70
     1
102
RTVSPropertyOp2
 70
     1
102
RTVSPropertyOp3
 70
     1
102
RTVSPropertyOp4
 70
     1
102
RTVSPropertyOp5
 70
     1
102
RTVSPropertyOp6
 70
     1
102
RTVSPropertyOp7
 70
     1
102
RTVSPropertyOp8
 70
     1
102
RTVSPropertyOp9
 70
     1
102
RTVSPropertyOp10
 70
     1
102
RTVSPropertyOp11
 70
     1
102
RTVSPropertyOp12
 70
     1
102
RTVSPropertyOp13
 70
     1
102
RTVSPropertyOp14
 70
     1
102
RTVSPropertyOp15
 70
     1
102
RTVSPropertyOp16
 70
     1
102
RTVSPropertyOp17
 70
     1
102
RTVSPropertyOp18
 70
     1
102
RTVSPropertyOp19
 70
     1
102
RTVSPropertyOp20
 70
     1
102
RTVSPropertyOp21
 70
     1
102
RTVSPropertyOp22
 70
     1
102
RTVSPropertyOp23
 70
     1
102
RTVSPropertyOp24
 70
     1
102
RTVSPropertyOp25
 70
     1
102
RTVSPropertyOp26
 70
     1
102
RTVSPropertyOp27
 70
     1
102
RTVSPropertyOp28
 70
     1
102
RTVSPropertyOp29
 70
     1
102
RTVSPropertyOp30
 70
     1
102
RTVSPropertyOp31
 70
     1
102
RTVSPropertyOp32
 70
     1
102
RTVSPropertyOp33
 70
     1
102
RTVSPropertyOp34
 70
     1
102
RTVSPropertyOp35
 70
     1
102
RTVSPropertyOp36
 70
     1
102
RTVSPropertyOp37
 70
     1
102
RTVSPropertyOp38
 70
     1
102
RTVSPropertyOp39
 70
     1
102
RTVSPropertyOp40
 70
     1
102
RTVSPropertyOp41
 70
     1
102
RTVSPropertyOp42
 70
     1
102
RTVSPropertyOp43
 70
     1
102
RTVSPropertyOp44
 70
     1
102
RTVSPropertyOp45
 70
     1
102
RTVSPropertyOp46
 70
     1
102
RTVSPropertyOp47
 70
     1
102
RTVSPropertyOp48
 70
     1
102
RTVSPropertyOp49
 70
     1
102
RTVSPropertyOp50
 70
     1
102
RTVSPropertyOp51
 70
     0
102
RTVSPropertyOp52
 70
     0
102
RTVSPropertyOp53
 70
     1
102
RTVSPropertyOp54
 70
     1
102
RTVSPropertyOp55
 70
     1
102
RTVSPropertyOp56
 70
     1
102
RTVSPropertyOp57
 70
     1
102
RTVSPropertyOp58
 70
     1
102
RTVSPropertyOp59
 70
     1
102
RTVSPropertyOp60
 70
     1
102
RTVSPropertyOp61
 70
     1
102
RTVSPropertyOp62
 70
     1
  0
XRECORD
  5
ABD
102
{ACAD_REACTORS
330
ABC
102
}
330
ABC
100
AcDbXrecord
280
     1
102
RTVSPost2010Prop28
280
     0
102
RTVSPost2010PropOp28
 70
     1
102
RTVSPost2010Prop29
280
     1
102
RTVSPost2010PropOp29
 70
     1
102
RTVSPost2010Prop30
280
     1
102
RTVSPost2010PropOp30
 70
     1
102
RTVSPost2010Prop31
280
     0
102
RTVSPost2010PropOp31
 70
     1
102
RTVSPost2010Prop32
280
     0
102
RTVSPost2010PropOp32
 70
     1
102
RTVSPost2010Prop33
280
     0
102
RTVSPost2010PropOp33
 70
     1
102
RTVSPost2010Prop34
280
     0
102
RTVSPost2010PropOp34
 70
     1
102
RTVSPost2010Prop35
280
     0
102
RTVSPost2010PropOp35
 70
     1
102
RTVSPost2010Prop36
280
     0
102
RTVSPost2010PropOp36
 70
     1
102
RTVSPost2010Prop37
 90
       50
102
RTVSPost2010PropOp37
 70
     1
102
RTVSPost2010Prop38
140
0.0
102
RTVSPost2010PropOp38
 70
     1
102
RTVSPost2010Prop39
140
1.0
102
RTVSPost2010PropOp39
 70
     1
102
RTVSPost2010Prop40
 90
        0
102
RTVSPost2010PropOp40
 70
     1
102
RTVSPost2010Prop41ColorIndex
 90
       18
102
RTVSPost2010Prop41ColorRGB
 90
        0
102
RTVSPost2010PropOp41
 70
     1
102
RTVSPost2010Prop42
 90
       50
102
RTVSPost2010PropOp42
 70
     1
102
RTVSPost2010Prop43
 90
        3
102
RTVSPost2010PropOp43
 70
     1
102
RTVSPost2010Prop44ColorIndex
 90
        5
102
RTVSPost2010Prop44ColorRGB
 90
      255
102
RTVSPost2010PropOp44
 70
     1
102
RTVSPost2010Prop45
280
     0
102
RTVSPost2010PropOp45
 70
     1
102
RTVSPost2010Prop46
 90
       50
102
RTVSPost2010PropOp46
 70
     1
102
RTVSPost2010Prop47
 90
       50
102
RTVSPost2010PropOp47
 70
     1
102
RTVSPost2010Prop48
 90
       50
102
RTVSPost2010PropOp48
 70
     1
102
RTVSPost2010Prop49
280
     0
102
RTVSPost2010PropOp49
 70
     1
102
RTVSPost2010Prop50
 90
       50
102
RTVSPost2010PropOp50
 70
     1
102
RTVSPost2010Prop51ColorIndex
 90
      256
102
RTVSPost2010Prop51ColorRGB
 90
-16777216
102
RTVSPost2010PropOp51
 70
     0
102
RTVSPost2010Prop52
140
1.0
102
RTVSPost2010PropOp52
 70
     0
102
RTVSPost2010Prop53
 90
        2
102
RTVSPost2010PropOp53
 70
     1
102
RTVSPost2010Prop54
  1
strokes_ogs.tif
102
RTVSPost2010PropOp54
 70
     1
102
RTVSPost2010Prop55
280
     0
102
RTVSPost2010PropOp55
 70
     1
102
RTVSPost2010Prop56
140
1.0
102
RTVSPost2010PropOp56
 70
     1
102
RTVSPost2010Prop57
140
1.0
102
RTVSPost2010PropOp57
 70
     1
102
RTVSPropertyOp0
 70
     1
102
RTVSPropertyOp1
 70
     1
102
RTVSPropertyOp2
 70
     1
102
RTVSPropertyOp3
 70
     1
102
RTVSPropertyOp4
 70
     1
102
RTVSPropertyOp5
 70
     1
102
RTVSPropertyOp6
 70
     1
102
RTVSPropertyOp7
 70
     1
102
RTVSPropertyOp8
 70
     1
102
RTVSPropertyOp9
 70
     1
102
RTVSPropertyOp10
 70
     1
102
RTVSPropertyOp11
 70
     1
102
RTVSPropertyOp12
 70
     1
102
RTVSPropertyOp13
 70
     1
102
RTVSPropertyOp14
 70
     1
102
RTVSPropertyOp15
 70
     1
102
RTVSPropertyOp16
 70
     1
102
RTVSPropertyOp17
 70
     1
102
RTVSPropertyOp18
 70
     1
102
RTVSPropertyOp19
 70
     1
102
RTVSPropertyOp20
 70
     1
102
RTVSPropertyOp21
 70
     1
102
RTVSPropertyOp22
 70
     1
102
RTVSPropertyOp23
 70
     1
102
RTVSPropertyOp24
 70
     1
102
RTVSPropertyOp25
 70
     1
102
RTVSPropertyOp26
 70
     1
102
RTVSPropertyOp27
 70
     1
102
RTVSPropertyOp28
 70
     1
102
RTVSPropertyOp29
 70
     1
102
RTVSPropertyOp30
 70
     1
102
RTVSPropertyOp31
 70
     1
102
RTVSPropertyOp32
 70
     1
102
RTVSPropertyOp33
 70
     1
102
RTVSPropertyOp34
 70
     1
102
RTVSPropertyOp35
 70
     1
102
RTVSPropertyOp36
 70
     1
102
RTVSPropertyOp37
 70
     1
102
RTVSPropertyOp38
 70
     1
102
RTVSPropertyOp39
 70
     1
102
RTVSPropertyOp40
 70
     1
102
RTVSPropertyOp41
 70
     1
102
RTVSPropertyOp42
 70
     1
102
RTVSPropertyOp43
 70
     1
102
RTVSPropertyOp44
 70
     1
102
RTVSPropertyOp45
 70
     1
102
RTVSPropertyOp46
 70
     1
102
RTVSPropertyOp47
 70
     1
102
RTVSPropertyOp48
 70
     1
102
RTVSPropertyOp49
 70
     1
102
RTVSPropertyOp50
 70
     1
102
RTVSPropertyOp51
 70
     0
102
RTVSPropertyOp52
 70
     0
102
RTVSPropertyOp53
 70
     1
102
RTVSPropertyOp54
 70
     1
102
RTVSPropertyOp55
 70
     1
102
RTVSPropertyOp56
 70
     1
102
RTVSPropertyOp57
 70
     1
102
RTVSPropertyOp58
 70
     1
102
RTVSPropertyOp59
 70
     1
102
RTVSPropertyOp60
 70
     1
102
RTVSPropertyOp61
 70
     1
102
RTVSPropertyOp62
 70
     1
  0
XRECORD
  5
AA9
102
{ACAD_REACTORS
330
AA8
102
}
330
AA8
100
AcDbXrecord
280
     1
102
RTVSPost2010Prop28
280
     0
102
RTVSPost2010PropOp28
 70
     1
102
RTVSPost2010Prop29
280
     1
102
RTVSPost2010PropOp29
 70
     1
102
RTVSPost2010Prop30
280
     1
102
RTVSPost2010PropOp30
 70
     1
102
RTVSPost2010Prop31
280
     0
102
RTVSPost2010PropOp31
 70
     1
102
RTVSPost2010Prop32
280
     0
102
RTVSPost2010PropOp32
 70
     1
102
RTVSPost2010Prop33
280
     0
102
RTVSPost2010PropOp33
 70
     1
102
RTVSPost2010Prop34
280
     0
102
RTVSPost2010PropOp34
 70
     1
102
RTVSPost2010Prop35
280
     0
102
RTVSPost2010PropOp35
 70
     1
102
RTVSPost2010Prop36
280
     0
102
RTVSPost2010PropOp36
 70
     1
102
RTVSPost2010Prop37
 90
       50
102
RTVSPost2010PropOp37
 70
     1
102
RTVSPost2010Prop38
140
0.0
102
RTVSPost2010PropOp38
 70
     1
102
RTVSPost2010Prop39
140
1.0
102
RTVSPost2010PropOp39
 70
     1
102
RTVSPost2010Prop40
 90
        0
102
RTVSPost2010PropOp40
 70
     1
102
RTVSPost2010Prop41ColorIndex
 90
       18
102
RTVSPost2010Prop41ColorRGB
 90
        0
102
RTVSPost2010PropOp41
 70
     1
102
RTVSPost2010Prop42
 90
       50
102
RTVSPost2010PropOp42
 70
     1
102
RTVSPost2010Prop43
 90
        3
102
RTVSPost2010PropOp43
 70
     1
102
RTVSPost2010Prop44ColorIndex
 90
        5
102
RTVSPost2010Prop44ColorRGB
 90
      255
102
RTVSPost2010PropOp44
 70
     1
102
RTVSPost2010Prop45
280
     0
102
RTVSPost2010PropOp45
 70
     1
102
RTVSPost2010Prop46
 90
       50
102
RTVSPost2010PropOp46
 70
     1
102
RTVSPost2010Prop47
 90
       50
102
RTVSPost2010PropOp47
 70
     1
102
RTVSPost2010Prop48
 90
       50
102
RTVSPost2010PropOp48
 70
     1
102
RTVSPost2010Prop49
280
     0
102
RTVSPost2010PropOp49
 70
     1
102
RTVSPost2010Prop50
 90
       50
102
RTVSPost2010PropOp50
 70
     1
102
RTVSPost2010Prop51ColorIndex
 90
      256
102
RTVSPost2010Prop51ColorRGB
 90
-16777216
102
RTVSPost2010PropOp51
 70
     0
102
RTVSPost2010Prop52
140
1.0
102
RTVSPost2010PropOp52
 70
     0
102
RTVSPost2010Prop53
 90
        2
102
RTVSPost2010PropOp53
 70
     1
102
RTVSPost2010Prop54
  1
strokes_ogs.tif
102
RTVSPost2010PropOp54
 70
     1
102
RTVSPost2010Prop55
280
     0
102
RTVSPost2010PropOp55
 70
     1
102
RTVSPost2010Prop56
140
1.0
102
RTVSPost2010PropOp56
 70
     1
102
RTVSPost2010Prop57
140
1.0
102
RTVSPost2010PropOp57
 70
     1
102
RTVSPropertyOp0
 70
     1
102
RTVSPropertyOp1
 70
     1
102
RTVSPropertyOp2
 70
     1
102
RTVSPropertyOp3
 70
     1
102
RTVSPropertyOp4
 70
     1
102
RTVSPropertyOp5
 70
     1
102
RTVSPropertyOp6
 70
     1
102
RTVSPropertyOp7
 70
     1
102
RTVSPropertyOp8
 70
     1
102
RTVSPropertyOp9
 70
     1
102
RTVSPropertyOp10
 70
     1
102
RTVSPropertyOp11
 70
     1
102
RTVSPropertyOp12
 70
     1
102
RTVSPropertyOp13
 70
     1
102
RTVSPropertyOp14
 70
     1
102
RTVSPropertyOp15
 70
     1
102
RTVSPropertyOp16
 70
     1
102
RTVSPropertyOp17
 70
     1
102
RTVSPropertyOp18
 70
     1
102
RTVSPropertyOp19
 70
     1
102
RTVSPropertyOp20
 70
     1
102
RTVSPropertyOp21
 70
     1
102
RTVSPropertyOp22
 70
     1
102
RTVSPropertyOp23
 70
     1
102
RTVSPropertyOp24
 70
     1
102
RTVSPropertyOp25
 70
     1
102
RTVSPropertyOp26
 70
     1
102
RTVSPropertyOp27
 70
     1
102
RTVSPropertyOp28
 70
     1
102
RTVSPropertyOp29
 70
     1
102
RTVSPropertyOp30
 70
     1
102
RTVSPropertyOp31
 70
     1
102
RTVSPropertyOp32
 70
     1
102
RTVSPropertyOp33
 70
     1
102
RTVSPropertyOp34
 70
     1
102
RTVSPropertyOp35
 70
     1
102
RTVSPropertyOp36
 70
     1
102
RTVSPropertyOp37
 70
     1
102
RTVSPropertyOp38
 70
     1
102
RTVSPropertyOp39
 70
     1
102
RTVSPropertyOp40
 70
     1
102
RTVSPropertyOp41
 70
     1
102
RTVSPropertyOp42
 70
     1
102
RTVSPropertyOp43
 70
     1
102
RTVSPropertyOp44
 70
     1
102
RTVSPropertyOp45
 70
     1
102
RTVSPropertyOp46
 70
     1
102
RTVSPropertyOp47
 70
     1
102
RTVSPropertyOp48
 70
     1
102
RTVSPropertyOp49
 70
     1
102
RTVSPropertyOp50
 70
     1
102
RTVSPropertyOp51
 70
     0
102
RTVSPropertyOp52
 70
     0
102
RTVSPropertyOp53
 70
     1
102
RTVSPropertyOp54
 70
     1
102
RTVSPropertyOp55
 70
     1
102
RTVSPropertyOp56
 70
     1
102
RTVSPropertyOp57
 70
     1
102
RTVSPropertyOp58
 70
     1
102
RTVSPropertyOp59
 70
     1
102
RTVSPropertyOp60
 70
     1
102
RTVSPropertyOp61
 70
     1
102
RTVSPropertyOp62
 70
     1
  0
XRECORD
  5
AB7
102
{ACAD_REACTORS
330
AB6
102
}
330
AB6
100
AcDbXrecord
280
     1
102
RTVSPost2010Prop28
280
     0
102
RTVSPost2010PropOp28
 70
     1
102
RTVSPost2010Prop29
280
     1
102
RTVSPost2010PropOp29
 70
     1
102
RTVSPost2010Prop30
280
     1
102
RTVSPost2010PropOp30
 70
     1
102
RTVSPost2010Prop31
280
     0
102
RTVSPost2010PropOp31
 70
     1
102
RTVSPost2010Prop32
280
     0
102
RTVSPost2010PropOp32
 70
     1
102
RTVSPost2010Prop33
280
     0
102
RTVSPost2010PropOp33
 70
     1
102
RTVSPost2010Prop34
280
     0
102
RTVSPost2010PropOp34
 70
     1
102
RTVSPost2010Prop35
280
     0
102
RTVSPost2010PropOp35
 70
     1
102
RTVSPost2010Prop36
280
     0
102
RTVSPost2010PropOp36
 70
     1
102
RTVSPost2010Prop37
 90
       50
102
RTVSPost2010PropOp37
 70
     1
102
RTVSPost2010Prop38
140
0.0
102
RTVSPost2010PropOp38
 70
     1
102
RTVSPost2010Prop39
140
1.0
102
RTVSPost2010PropOp39
 70
     1
102
RTVSPost2010Prop40
 90
        0
102
RTVSPost2010PropOp40
 70
     1
102
RTVSPost2010Prop41ColorIndex
 90
       18
102
RTVSPost2010Prop41ColorRGB
 90
        0
102
RTVSPost2010PropOp41
 70
     1
102
RTVSPost2010Prop42
 90
       50
102
RTVSPost2010PropOp42
 70
     1
102
RTVSPost2010Prop43
 90
        3
102
RTVSPost2010PropOp43
 70
     1
102
RTVSPost2010Prop44ColorIndex
 90
        5
102
RTVSPost2010Prop44ColorRGB
 90
      255
102
RTVSPost2010PropOp44
 70
     1
102
RTVSPost2010Prop45
280
     0
102
RTVSPost2010PropOp45
 70
     1
102
RTVSPost2010Prop46
 90
       50
102
RTVSPost2010PropOp46
 70
     1
102
RTVSPost2010Prop47
 90
       50
102
RTVSPost2010PropOp47
 70
     1
102
RTVSPost2010Prop48
 90
       50
102
RTVSPost2010PropOp48
 70
     1
102
RTVSPost2010Prop49
280
     0
102
RTVSPost2010PropOp49
 70
     1
102
RTVSPost2010Prop50
 90
       50
102
RTVSPost2010PropOp50
 70
     1
102
RTVSPost2010Prop51ColorIndex
 90
      256
102
RTVSPost2010Prop51ColorRGB
 90
-16777216
102
RTVSPost2010PropOp51
 70
     0
102
RTVSPost2010Prop52
140
1.0
102
RTVSPost2010PropOp52
 70
     0
102
RTVSPost2010Prop53
 90
        2
102
RTVSPost2010PropOp53
 70
     1
102
RTVSPost2010Prop54
  1
strokes_ogs.tif
102
RTVSPost2010PropOp54
 70
     1
102
RTVSPost2010Prop55
280
     0
102
RTVSPost2010PropOp55
 70
     1
102
RTVSPost2010Prop56
140
1.0
102
RTVSPost2010PropOp56
 70
     1
102
RTVSPost2010Prop57
140
1.0
102
RTVSPost2010PropOp57
 70
     1
102
RTVSPropertyOp0
 70
     1
102
RTVSPropertyOp1
 70
     1
102
RTVSPropertyOp2
 70
     1
102
RTVSPropertyOp3
 70
     1
102
RTVSPropertyOp4
 70
     1
102
RTVSPropertyOp5
 70
     1
102
RTVSPropertyOp6
 70
     1
102
RTVSPropertyOp7
 70
     1
102
RTVSPropertyOp8
 70
     1
102
RTVSPropertyOp9
 70
     1
102
RTVSPropertyOp10
 70
     1
102
RTVSPropertyOp11
 70
     1
102
RTVSPropertyOp12
 70
     1
102
RTVSPropertyOp13
 70
     1
102
RTVSPropertyOp14
 70
     1
102
RTVSPropertyOp15
 70
     1
102
RTVSPropertyOp16
 70
     1
102
RTVSPropertyOp17
 70
     1
102
RTVSPropertyOp18
 70
     1
102
RTVSPropertyOp19
 70
     1
102
RTVSPropertyOp20
 70
     1
102
RTVSPropertyOp21
 70
     1
102
RTVSPropertyOp22
 70
     1
102
RTVSPropertyOp23
 70
     1
102
RTVSPropertyOp24
 70
     1
102
RTVSPropertyOp25
 70
     1
102
RTVSPropertyOp26
 70
     1
102
RTVSPropertyOp27
 70
     1
102
RTVSPropertyOp28
 70
     1
102
RTVSPropertyOp29
 70
     1
102
RTVSPropertyOp30
 70
     1
102
RTVSPropertyOp31
 70
     1
102
RTVSPropertyOp32
 70
     1
102
RTVSPropertyOp33
 70
     1
102
RTVSPropertyOp34
 70
     1
102
RTVSPropertyOp35
 70
     1
102
RTVSPropertyOp36
 70
     1
102
RTVSPropertyOp37
 70
     1
102
RTVSPropertyOp38
 70
     1
102
RTVSPropertyOp39
 70
     1
102
RTVSPropertyOp40
 70
     1
102
RTVSPropertyOp41
 70
     1
102
RTVSPropertyOp42
 70
     1
102
RTVSPropertyOp43
 70
     1
102
RTVSPropertyOp44
 70
     1
102
RTVSPropertyOp45
 70
     1
102
RTVSPropertyOp46
 70
     1
102
RTVSPropertyOp47
 70
     1
102
RTVSPropertyOp48
 70
     1
102
RTVSPropertyOp49
 70
     1
102
RTVSPropertyOp50
 70
     1
102
RTVSPropertyOp51
 70
     0
102
RTVSPropertyOp52
 70
     0
102
RTVSPropertyOp53
 70
     1
102
RTVSPropertyOp54
 70
     1
102
RTVSPropertyOp55
 70
     1
102
RTVSPropertyOp56
 70
     1
102
RTVSPropertyOp57
 70
     1
102
RTVSPropertyOp58
 70
     1
102
RTVSPropertyOp59
 70
     1
102
RTVSPropertyOp60
 70
     1
102
RTVSPropertyOp61
 70
     1
102
RTVSPropertyOp62
 70
     1
  0
XRECORD
  5
ABF
102
{ACAD_REACTORS
330
ABE
102
}
330
ABE
100
AcDbXrecord
280
     1
102
RTVSPost2010Prop28
280
     0
102
RTVSPost2010PropOp28
 70
     1
102
RTVSPost2010Prop29
280
     1
102
RTVSPost2010PropOp29
 70
     1
102
RTVSPost2010Prop30
280
     1
102
RTVSPost2010PropOp30
 70
     1
102
RTVSPost2010Prop31
280
     0
102
RTVSPost2010PropOp31
 70
     1
102
RTVSPost2010Prop32
280
     0
102
RTVSPost2010PropOp32
 70
     1
102
RTVSPost2010Prop33
280
     0
102
RTVSPost2010PropOp33
 70
     1
102
RTVSPost2010Prop34
280
     0
102
RTVSPost2010PropOp34
 70
     1
102
RTVSPost2010Prop35
280
     0
102
RTVSPost2010PropOp35
 70
     1
102
RTVSPost2010Prop36
280
     0
102
RTVSPost2010PropOp36
 70
     1
102
RTVSPost2010Prop37
 90
       50
102
RTVSPost2010PropOp37
 70
     1
102
RTVSPost2010Prop38
140
0.0
102
RTVSPost2010PropOp38
 70
     1
102
RTVSPost2010Prop39
140
1.0
102
RTVSPost2010PropOp39
 70
     1
102
RTVSPost2010Prop40
 90
        0
102
RTVSPost2010PropOp40
 70
     1
102
RTVSPost2010Prop41ColorIndex
 90
       18
102
RTVSPost2010Prop41ColorRGB
 90
        0
102
RTVSPost2010PropOp41
 70
     1
102
RTVSPost2010Prop42
 90
       50
102
RTVSPost2010PropOp42
 70
     1
102
RTVSPost2010Prop43
 90
        3
102
RTVSPost2010PropOp43
 70
     1
102
RTVSPost2010Prop44ColorIndex
 90
        5
102
RTVSPost2010Prop44ColorRGB
 90
      255
102
RTVSPost2010PropOp44
 70
     1
102
RTVSPost2010Prop45
280
     0
102
RTVSPost2010PropOp45
 70
     1
102
RTVSPost2010Prop46
 90
       50
102
RTVSPost2010PropOp46
 70
     1
102
RTVSPost2010Prop47
 90
       50
102
RTVSPost2010PropOp47
 70
     1
102
RTVSPost2010Prop48
 90
       50
102
RTVSPost2010PropOp48
 70
     1
102
RTVSPost2010Prop49
280
     0
102
RTVSPost2010PropOp49
 70
     1
102
RTVSPost2010Prop50
 90
       50
102
RTVSPost2010PropOp50
 70
     1
102
RTVSPost2010Prop51ColorIndex
 90
      256
102
RTVSPost2010Prop51ColorRGB
 90
-16777216
102
RTVSPost2010PropOp51
 70
     0
102
RTVSPost2010Prop52
140
1.0
102
RTVSPost2010PropOp52
 70
     0
102
RTVSPost2010Prop53
 90
        2
102
RTVSPost2010PropOp53
 70
     1
102
RTVSPost2010Prop54
  1
strokes_ogs.tif
102
RTVSPost2010PropOp54
 70
     1
102
RTVSPost2010Prop55
280
     0
102
RTVSPost2010PropOp55
 70
     1
102
RTVSPost2010Prop56
140
1.0
102
RTVSPost2010PropOp56
 70
     1
102
RTVSPost2010Prop57
140
1.0
102
RTVSPost2010PropOp57
 70
     1
102
RTVSPropertyOp0
 70
     1
102
RTVSPropertyOp1
 70
     1
102
RTVSPropertyOp2
 70
     1
102
RTVSPropertyOp3
 70
     1
102
RTVSPropertyOp4
 70
     1
102
RTVSPropertyOp5
 70
     1
102
RTVSPropertyOp6
 70
     1
102
RTVSPropertyOp7
 70
     1
102
RTVSPropertyOp8
 70
     1
102
RTVSPropertyOp9
 70
     1
102
RTVSPropertyOp10
 70
     1
102
RTVSPropertyOp11
 70
     1
102
RTVSPropertyOp12
 70
     1
102
RTVSPropertyOp13
 70
     1
102
RTVSPropertyOp14
 70
     1
102
RTVSPropertyOp15
 70
     1
102
RTVSPropertyOp16
 70
     1
102
RTVSPropertyOp17
 70
     1
102
RTVSPropertyOp18
 70
     1
102
RTVSPropertyOp19
 70
     1
102
RTVSPropertyOp20
 70
     1
102
RTVSPropertyOp21
 70
     1
102
RTVSPropertyOp22
 70
     1
102
RTVSPropertyOp23
 70
     1
102
RTVSPropertyOp24
 70
     1
102
RTVSPropertyOp25
 70
     1
102
RTVSPropertyOp26
 70
     1
102
RTVSPropertyOp27
 70
     1
102
RTVSPropertyOp28
 70
     1
102
RTVSPropertyOp29
 70
     1
102
RTVSPropertyOp30
 70
     1
102
RTVSPropertyOp31
 70
     1
102
RTVSPropertyOp32
 70
     1
102
RTVSPropertyOp33
 70
     1
102
RTVSPropertyOp34
 70
     1
102
RTVSPropertyOp35
 70
     1
102
RTVSPropertyOp36
 70
     1
102
RTVSPropertyOp37
 70
     1
102
RTVSPropertyOp38
 70
     1
102
RTVSPropertyOp39
 70
     1
102
RTVSPropertyOp40
 70
     1
102
RTVSPropertyOp41
 70
     1
102
RTVSPropertyOp42
 70
     1
102
RTVSPropertyOp43
 70
     1
102
RTVSPropertyOp44
 70
     1
102
RTVSPropertyOp45
 70
     1
102
RTVSPropertyOp46
 70
     1
102
RTVSPropertyOp47
 70
     1
102
RTVSPropertyOp48
 70
     1
102
RTVSPropertyOp49
 70
     1
102
RTVSPropertyOp50
 70
     1
102
RTVSPropertyOp51
 70
     0
102
RTVSPropertyOp52
 70
     0
102
RTVSPropertyOp53
 70
     1
102
RTVSPropertyOp54
 70
     1
102
RTVSPropertyOp55
 70
     1
102
RTVSPropertyOp56
 70
     1
102
RTVSPropertyOp57
 70
     1
102
RTVSPropertyOp58
 70
     1
102
RTVSPropertyOp59
 70
     1
102
RTVSPropertyOp60
 70
     1
102
RTVSPropertyOp61
 70
     1
102
RTVSPropertyOp62
 70
     1
  0
ACDBASSOCGEOMDEPENDENCY
  5
600
330
5EF
100
AcDbAssocDependency
 90
        2
 90
        0
290
     1
290
     1
290
     1
290
     1
 90
   -10000
330
5FF
290
     0
330
0
330
0
360
0
 90
        5
100
AcDbAssocGeomDependency
 90
        0
290
     1
  1
AcDbAssocSingleEdgePersSubentId
290
     0
  0
ACDBASSOCGEOMDEPENDENCY
  5
620
330
5EF
100
AcDbAssocDependency
 90
        2
 90
        0
290
     1
290
     1
290
     1
290
     1
 90
   -10000
330
61E
290
     0
330
0
330
0
360
0
 90
       14
100
AcDbAssocGeomDependency
 90
        0
290
     1
  1
AcDbAssocSingleEdgePersSubentId
290
     0
  0
ACDBASSOCGEOMDEPENDENCY
  5
664
330
5EF
100
AcDbAssocDependency
 90
        2
 90
        0
290
     1
290
     1
290
     1
290
     1
 90
   -10000
330
567
290
     0
330
0
330
0
360
0
 90
       34
100
AcDbAssocGeomDependency
 90
        0
290
     1
  1
AcDbAssocSingleEdgePersSubentId
290
     0
  0
ACDBASSOCGEOMDEPENDENCY
  5
617
330
5EF
100
AcDbAssocDependency
 90
        2
 90
        0
290
     1
290
     1
290
     1
290
     1
 90
   -10000
330
60E
290
     0
330
0
330
0
360
0
 90
       13
100
AcDbAssocGeomDependency
 90
        0
290
     1
  1
AcDbAssocSingleEdgePersSubentId
290
     0
  0
ACDBASSOCGEOMDEPENDENCY
  5
657
330
5EF
100
AcDbAssocDependency
 90
        2
 90
        0
290
     1
290
     1
290
     1
290
     1
 90
   -10000
330
566
290
     0
330
0
330
0
360
0
 90
       24
100
AcDbAssocGeomDependency
 90
        0
290
     1
  1
AcDbAssocSingleEdgePersSubentId
290
     0
  0
ACDBASSOCGEOMDEPENDENCY
  5
663
330
5EF
100
AcDbAssocDependency
 90
        2
 90
        0
290
     1
290
     1
290
     1
290
     1
 90
   -10000
330
662
290
     0
330
0
330
0
360
0
 90
       33
100
AcDbAssocGeomDependency
 90
        0
290
     1
  1
AcDbAssocSingleEdgePersSubentId
290
     0
  0
ACDBASSOCGEOMDEPENDENCY
  5
67B
330
5EF
100
AcDbAssocDependency
 90
        2
 90
        0
290
     1
290
     1
290
     1
290
     1
 90
   -10000
330
679
290
     0
330
0
330
0
360
0
 90
       35
100
AcDbAssocGeomDependency
 90
        0
290
     1
  1
AcDbAssocSingleEdgePersSubentId
290
     0
  0
ACDBASSOCGEOMDEPENDENCY
  5
67F
330
5EF
100
AcDbAssocDependency
 90
        2
 90
        0
290
     1
290
     1
290
     1
290
     1
 90
   -10000
330
67D
290
     0
330
0
330
0
360
0
 90
       37
100
AcDbAssocGeomDependency
 90
        0
290
     1
  1
AcDbAssocSingleEdgePersSubentId
290
     0
  0
ACDBASSOCGEOMDEPENDENCY
  5
683
330
5EF
100
AcDbAssocDependency
 90
        2
 90
        0
290
     1
290
     1
290
     1
290
     1
 90
   -10000
330
577
290
     0
330
681
330
0
360
0
 90
       40
100
AcDbAssocGeomDependency
 90
        0
290
     1
  1
AcDbAssocEdgePersSubentId
 90
        0
 90
       24
 90
       25
290
     0
  0
ACDBASSOCGEOMDEPENDENCY
  5
6F7
330
5EF
100
AcDbAssocDependency
 90
        2
 90
        0
290
     1
290
     1
290
     1
290
     1
 90
   -10000
330
6EC
290
     0
330
0
330
0
360
0
 90
       45
100
AcDbAssocGeomDependency
 90
        0
290
     1
  1
AcDbAssocSingleEdgePersSubentId
290
     0
  0
ACDBASSOCGEOMDEPENDENCY
  5
867
330
5EF
100
AcDbAssocDependency
 90
        2
 90
        0
290
     1
290
     1
290
     1
290
     1
 90
   -10000
330
592
290
     0
330
0
330
0
360
0
 90
       47
100
AcDbAssocGeomDependency
 90
        0
290
     1
  1
AcDbAssocSingleEdgePersSubentId
290
     0
  0
ACDBASSOCGEOMDEPENDENCY
  5
5FD
330
5EF
100
AcDbAssocDependency
 90
        2
 90
        0
290
     1
290
     1
290
     1
290
     1
 90
   -10000
330
5FB
290
     0
330
0
330
0
360
0
 90
        3
100
AcDbAssocGeomDependency
 90
        0
290
     1
  1
AcDbAssocSingleEdgePersSubentId
290
     0
  0
ACDBASSOCGEOMDEPENDENCY
  5
631
330
5EF
100
AcDbAssocDependency
 90
        2
 90
        0
290
     1
290
     1
290
     1
290
     1
 90
   -10000
330
624
290
     0
330
0
330
0
360
0
 90
       16
100
AcDbAssocGeomDependency
 90
        0
290
     1
  1
AcDbAssocSingleEdgePersSubentId
290
     0
  0
ACDBASSOCGEOMDEPENDENCY
  5
641
330
5EF
100
AcDbAssocDependency
 90
        2
 90
        0
290
     1
290
     1
290
     1
290
     1
 90
   -10000
330
635
290
     0
330
0
330
0
360
0
 90
       17
100
AcDbAssocGeomDependency
 90
        0
290
     1
  1
AcDbAssocSingleEdgePersSubentId
290
     0
  0
ACDBASSOCGEOMDEPENDENCY
  5
655
330
5EF
100
AcDbAssocDependency
 90
        2
 90
        0
290
     1
290
     1
290
     1
290
     1
 90
   -10000
330
654
290
     0
330
0
330
0
360
0
 90
       22
100
AcDbAssocGeomDependency
 90
        0
290
     1
  1
AcDbAssocSingleEdgePersSubentId
290
     0
  0
ACDBASSOCGEOMDEPENDENCY
  5
681
330
5EF
100
AcDbAssocDependency
 90
        2
 90
        0
290
     1
290
     1
290
     1
290
     1
 90
   -10000
330
577
290
     0
330
0
330
683
360
0
 90
       39
100
AcDbAssocGeomDependency
 90
        0
290
     1
  1
AcDbAssocEdgePersSubentId
 90
        0
 90
       20
 90
       21
290
     0
  0
ACDBASSOCGEOMDEPENDENCY
  5
622
330
5EF
100
AcDbAssocDependency
 90
        2
 90
        0
290
     1
290
     1
290
     1
290
     1
 90
   -10000
330
61F
290
     0
330
0
330
0
360
0
 90
       15
100
AcDbAssocGeomDependency
 90
        0
290
     1
  1
AcDbAssocSingleEdgePersSubentId
290
     0
  0
ACDBASSOCGEOMDEPENDENCY
  5
65A
330
5EF
100
AcDbAssocDependency
 90
        2
 90
        0
290
     1
290
     1
290
     1
290
     1
 90
   -10000
330
659
290
     0
330
0
330
0
360
0
 90
       26
100
AcDbAssocGeomDependency
 90
        0
290
     1
  1
AcDbAssocSingleEdgePersSubentId
290
     0
  0
ACDBASSOCGEOMDEPENDENCY
  5
65E
330
5EF
100
AcDbAssocDependency
 90
        2
 90
        0
290
     1
290
     1
290
     1
290
     1
 90
   -10000
330
65D
290
     0
330
0
330
0
360
0
 90
       29
100
AcDbAssocGeomDependency
 90
        0
290
     1
  1
AcDbAssocSingleEdgePersSubentId
290
     0
  0
ACDBASSOCGEOMDEPENDENCY
  5
6F6
330
5EF
100
AcDbAssocDependency
 90
        2
 90
        0
290
     1
290
     1
290
     1
290
     1
 90
   -10000
330
6E2
290
     0
330
0
330
0
360
0
 90
       44
100
AcDbAssocGeomDependency
 90
        0
290
     1
  1
AcDbAssocSingleEdgePersSubentId
290
     0
  0
ACDBASSOCGEOMDEPENDENCY
  5
866
330
5EF
100
AcDbAssocDependency
 90
        2
 90
        0
290
     1
290
     1
290
     1
290
     1
 90
   -10000
330
593
290
     0
330
0
330
0
360
0
 90
       46
100
AcDbAssocGeomDependency
 90
        0
290
     1
  1
AcDbAssocSingleEdgePersSubentId
290
     0
  0
ACDBASSOCGEOMDEPENDENCY
  5
A55
330
5EF
100
AcDbAssocDependency
 90
        2
 90
        0
290
     1
290
     1
290
     1
290
     1
 90
   -10000
330
590
290
     0
330
0
330
0
360
0
 90
       48
100
AcDbAssocGeomDependency
 90
        0
290
     1
  1
AcDbAssocSingleEdgePersSubentId
290
     0
  0
ACDBASSOCGEOMDEPENDENCY
  5
78E
330
78D
100
AcDbAssocDependency
 90
        2
 90
        0
290
     1
290
     1
290
     1
290
     1
 90
   -10000
330
7A0
290
     0
330
0
330
0
360
0
 90
        8
100
AcDbAssocGeomDependency
 90
        0
290
     1
  1
AcDbAssocSingleEdgePersSubentId
290
     0
  0
ACDBASSOCGEOMDEPENDENCY
  5
78F
330
78D
100
AcDbAssocDependency
 90
        2
 90
        0
290
     1
290
     1
290
     1
290
     1
 90
   -10000
330
7A8
290
     0
330
0
330
0
360
0
 90
       12
100
AcDbAssocGeomDependency
 90
        0
290
     1
  1
AcDbAssocSingleEdgePersSubentId
290
     0
  0
ACDBASSOCGEOMDEPENDENCY
  5
790
330
78D
100
AcDbAssocDependency
 90
        2
 90
        0
290
     1
290
     1
290
     1
290
     1
 90
   -10000
330
79E
290
     0
330
0
330
0
360
0
 90
        9
100
AcDbAssocGeomDependency
 90
        0
290
     1
  1
AcDbAssocSingleEdgePersSubentId
290
     0
  0
ACDBASSOCGEOMDEPENDENCY
  5
791
330
78D
100
AcDbAssocDependency
 90
        2
 90
        0
290
     1
290
     1
290
     1
290
     1
 90
   -10000
330
797
290
     0
330
0
330
0
360
0
 90
       10
100
AcDbAssocGeomDependency
 90
        0
290
     1
  1
AcDbAssocSingleEdgePersSubentId
290
     0
  0
ACDBASSOCGEOMDEPENDENCY
  5
792
330
78D
100
AcDbAssocDependency
 90
        2
 90
        0
290
     1
290
     1
290
     1
290
     1
 90
   -10000
330
79F
290
     0
330
0
330
0
360
0
 90
       11
100
AcDbAssocGeomDependency
 90
        0
290
     1
  1
AcDbAssocSingleEdgePersSubentId
290
     0
  0
ENDSEC
  0
EOF
