999
DXF file: 101-80-15_plain_bend.dxf
999
Pro/ENGINEER 2006320 by Parametric Technology Corporation
  0
SECTION
  2
HEADER
  9
$EXTMAX
 10
420.0
 20
297.0
 30
0.0
  9
$EXTMIN
 10
0.0
 20
0.0
 30
0.0
  9
$LIMMIN
 10
0.0
 20
0.0
  9
$LIMMAX
 10
420.0
 20
297.0
  9
$VIEWCTR
 10
210.0
 20
148.5
  9
$VIEWSIZE
 40
297.0
  9
$CLAYER
  8
0
  9
$LTSCALE
 40
23.1
  9
$CELTYPE
  6
BYLAYER
  9
$DIMSCALE
 40
1.0
  9
$DIMASZ
 40
3.0
  9
$DIMEXO
 40
2.625
  9
$DIMDLI
 40
15.96
  9
$DIMEXE
 40
7.56
  9
$DIMCEN
 40
3.78
  9
$DIMLFAC
 40
1.0
  9
$DIMBLK
  1
_FILLED
  9
$DIMTXT
 40
3.0
  9
$PDMODE
 70
3
  9
$PDSIZE
 40
0.3125
  0
ENDSEC
  0
SECTION
  2
TABLES
  0
TABLE
  2
LTYPE
 70
6
  0
LTYPE
  2
BYBLOCK
 70
0
  3

 72
65
 73
0
 40
0.0
  0
LTYPE
  2
BYLAYER
 70
0
  3

 72
65
 73
0
 40
0.0
  0
LTYPE
  2
CONTINUOUS
 70
64
  3
Solid line
 72
65
 73
0
 40
0.0
  0
LTYPE
  2
CENTER
 70
64
  3
____ _ ____ _ ____ _ ____ _ ____ _ ____ _ ____
 72
65
 73
4
 40
0.6
 49
0.375
 49
-0.075
 49
0.075
 49
-0.075
  0
LTYPE
  2
HIDDEN
 70
64
  3
- - - - - - - - - - - - - - - - - - - -
 72
65
 73
2
 40
0.2
 49
0.1
 49
-0.1
  0
LTYPE
  2
PHANTOM
 70
64
  3
_____ _ _ _____ _ _ _____ _ _ _____
 72
65
 73
6
 40
0.8
 49
0.45
 49
-0.05
 49
0.1
 49
-0.05
 49
0.1
 49
-0.05
  0
LTYPE
  2
DOT
 70
64
  3
. . . . . . . . . . . . . . . . . . . .
 72
65
 73
2
 40
0.2
 49
0.1
 49
-0.1
  0
LTYPE
  2
DASHED
 70
64
  3
- - - - - - - - - - - - - - - - - - - -
 72
65
 73
2
 40
0.2
 49
0.1
 49
-0.1
  0
ENDTAB
  0
TABLE
  2
LAYER
 70
36
  0
LAYER
  2
0
 70
0
 62
7
  6
CONTINUOUS
  0
LAYER
  2
DEFAULT_1
 70
0
 62
7
  6
CENTER
  0
LAYER
  2
DEFAULT_2
 70
0
 62
8
  6
HIDDEN
  0
LAYER
  2
DEFAULT_3
 70
0
 62
7
  6
PHANTOM
  0
LAYER
  2
_2D_DELETED_OBJS
 70
0
 62
7
  6
CONTINUOUS
  0
LAYER
  2
01___PRT_ALL_DTM_PLN
 70
0
 62
7
  6
CONTINUOUS
  0
LAYER
  2
01___PRT_DEF_DTM_PLN
 70
0
 62
7
  6
CONTINUOUS
  0
LAYER
  2
02___PRT_ALL_AXES
 70
0
 62
7
  6
CONTINUOUS
  0
LAYER
  2
03___PRT_ALL_CURVES
 70
0
 62
7
  6
CONTINUOUS
  0
LAYER
  2
04___PRT_ALL_DTM_PNT
 70
0
 62
7
  6
CONTINUOUS
  0
LAYER
  2
05___PRT_ALL_DTM_CSYS
 70
0
 62
7
  6
CONTINUOUS
  0
LAYER
  2
05___PRT_DEF_DTM_CSYS
 70
0
 62
7
  6
CONTINUOUS
  0
LAYER
  2
06___PRT_ALL_SURFS
 70
0
 62
7
  6
CONTINUOUS
  0
LAYER
  2
CURVES
 70
0
 62
7
  6
CONTINUOUS
  0
ENDTAB
  0
TABLE
  2
STYLE
 70
1
  0
STYLE
  2
STANDARD
 70
0
 40
0.0
 41
0.6
 50
0.0
 71
0
 42
0.2
  3
txt
  4

  0
ENDTAB
  0
ENDSEC
  0
SECTION
  2
BLOCKS
  0
BLOCK
  8
0
 62
7
  6
CONTINUOUS
  2
*D0
 70
65
 10
0.0
 20
0.0
  0
TEXT
  8
0
 62
7
  6
CONTINUOUS
 10
183.2808493982
 20
64.6819049641
  7
STANDARD
 40
3.0
  1
93
 41
0.6
 72
0
  0
LINE
  8
0
 62
7
  6
CONTINUOUS
 10
231.5808493982
 20
81.9727268719
 11
231.5808493982
 21
63.1819049641
  0
LINE
  8
0
 62
7
  6
CONTINUOUS
 10
138.5808493982
 20
81.9727268719
 11
138.5808493982
 21
63.1819049641
  0
LINE
  8
0
 62
7
  6
CONTINUOUS
 10
231.5808493982
 20
66.1819049641
 11
188.3808493982
 21
66.1819049641
  0
LINE
  8
0
 62
7
  6
CONTINUOUS
 10
138.5808493982
 20
66.1819049641
 11
181.7808493982
 21
66.1819049641
  0
INSERT
  8
0
 62
7
  6
CONTINUOUS
  2
_FILLED
 10
231.5808493982
 20
66.1819049641
 41
3.0
 42
3.0
 43
3.0
  0
INSERT
  8
0
 62
7
  6
CONTINUOUS
  2
_FILLED
 10
138.5808493982
 20
66.1819049641
 41
3.0
 42
3.0
 43
3.0
 50
180.0
  0
ENDBLK
  8
0
  6
BYBLOCK
 62
0
  0
BLOCK
  8
0
 62
7
  6
CONTINUOUS
  2
*D1
 70
65
 10
0.0
 20
0.0
  0
TEXT
  8
0
 62
7
  6
CONTINUOUS
 10
94.0340932565
 20
145.910732582
  7
STANDARD
 40
3.0
  1
128
 41
0.6
 72
0
  0
LINE
  8
0
 62
7
  6
CONTINUOUS
 10
137.0808493982
 20
83.4727268719
 11
93.7340932565
 21
83.4727268719
  0
LINE
  8
0
 62
7
  6
CONTINUOUS
 10
153.9160456832
 20
211.3487382921
 11
93.7340932565
 21
211.3487382921
  0
LINE
  8
0
 62
7
  6
CONTINUOUS
 10
96.7340932565
 20
83.4727268719
 11
96.7340932565
 21
144.410732582
  0
LINE
  8
0
 62
7
  6
CONTINUOUS
 10
96.7340932565
 20
211.3487382921
 11
96.7340932565
 21
150.410732582
  0
INSERT
  8
0
 62
7
  6
CONTINUOUS
  2
_FILLED
 10
96.7340932565
 20
83.4727268719
 41
3.0
 42
3.0
 43
3.0
 50
270.0
  0
INSERT
  8
0
 62
7
  6
CONTINUOUS
  2
_FILLED
 10
96.7340932565
 20
211.3487382921
 41
3.0
 42
3.0
 43
3.0
 50
90.0
  0
ENDBLK
  8
0
  6
BYBLOCK
 62
0
  0
BLOCK
  8
0
 62
7
  6
CONTINUOUS
  2
*D2
 70
65
 10
0.0
 20
0.0
  0
TEXT
  8
0
 62
7
  6
CONTINUOUS
 10
189.2139984631
 20
53.8277473674
  7
STANDARD
 40
3.0
  1
107
 41
0.6
 72
0
  0
LINE
  8
0
 62
7
  6
CONTINUOUS
 10
138.5808493982
 20
81.9727268719
 11
138.5808493982
 21
52.3277473674
  0
LINE
  8
0
 62
7
  6
CONTINUOUS
 10
245.247147528
 20
185.7785670975
 11
245.247147528
 21
52.3277473674
  0
LINE
  8
0
 62
7
  6
CONTINUOUS
 10
138.5808493982
 20
55.3277473674
 11
187.7139984631
 21
55.3277473674
  0
LINE
  8
0
 62
7
  6
CONTINUOUS
 10
245.247147528
 20
55.3277473674
 11
196.1139984631
 21
55.3277473674
  0
INSERT
  8
0
 62
7
  6
CONTINUOUS
  2
_FILLED
 10
138.5808493982
 20
55.3277473674
 41
3.0
 42
3.0
 43
3.0
 50
180.0
  0
INSERT
  8
0
 62
7
  6
CONTINUOUS
  2
_FILLED
 10
245.247147528
 20
55.3277473674
 41
3.0
 42
3.0
 43
3.0
  0
ENDBLK
  8
0
  6
BYBLOCK
 62
0
  0
BLOCK
  8
0
 62
7
  6
CONTINUOUS
  2
*D3
 70
65
 10
0.0
 20
0.0
  0
TEXT
  8
0
 62
7
  6
CONTINUOUS
 10
191.9826746161
 20
214.5897680636
  7
STANDARD
 40
3.0
  1
15%%d
 41
0.6222222222
 72
0
  0
LINE
  8
0
 62
7
  6
CONTINUOUS
 10
200.3589420944
 20
199.4157074485
 11
205.0949560501
 21
217.0907521563
  0
LINE
  8
0
 62
7
  6
CONTINUOUS
 10
185.0808493982
 20
201.4593181423
 11
185.0808493982
 21
219.725659284
  0
ARC
  8
0
 62
7
  6
CONTINUOUS
 10
185.0808493982
 20
142.3970892633
 40
74.3285700207
 50
75.0
 51
79.1418918333
  0
ARC
  8
0
 62
7
  6
CONTINUOUS
 10
185.0808493982
 20
142.3970892633
 40
74.3285700207
 50
85.8323578301
 51
90.0
  0
SOLID
  8
0
 62
7
  6
CONTINUOUS
 10
201.2261871505
 20
214.1825846542
 11
204.3184989148
 21
214.1929746775
 12
201.5850991118
 22
215.639012546
 13
201.5850991118
 23
215.639012546
  0
SOLID
  8
0
 62
7
  6
CONTINUOUS
 10
188.0953730017
 20
217.4149686801
 11
185.0808493982
 21
216.725659284
 12
188.0651040583
 22
215.9152741142
 13
188.0651040583
 23
215.9152741142
  0
ENDBLK
  8
0
  6
BYBLOCK
 62
0
  0
BLOCK
  8
0
  2
_FILLED
 70
64
 10
0.0
 20
0.0
  0
SOLID
  8
0
  6
BYBLOCK
 62
0
 10
0.0
 20
0.0
 11
-1.0
 21
0.25
 12
-1.0
 22
-0.25
 13
-1.0
 23
-0.25
  0
ENDBLK
  8
0
  6
BYBLOCK
 62
0
  0
ENDSEC
  0
SECTION
  2
ENTITIES
  0
DIMENSION
  8
0
 62
7
  6
CONTINUOUS
  2
*D0
 10
138.5808493982
 20
66.1819049641
 11
185.0808493982
 21
66.1819049641
 70
128
 13
231.5808493982
 23
81.9727268719
 14
138.5808493982
 24
81.9727268719
 50
180.0
  0
DIMENSION
  8
0
 62
7
  6
CONTINUOUS
  2
*D1
 10
96.7340932565
 20
211.3487382921
 11
96.7340932565
 21
147.410732582
 70
128
 13
137.0808493982
 23
83.4727268719
 14
153.9160456832
 24
211.3487382921
 50
90.0
  0
DIMENSION
  8
0
 62
7
  6
CONTINUOUS
  2
*D2
 10
245.247147528
 20
55.3277473674
 11
191.9139984631
 21
55.3277473674
 70
128
 13
138.5808493982
 23
81.9727268719
 14
245.247147528
 24
185.7785670975
  0
DIMENSION
  8
0
 62
7
  6
CONTINUOUS
  2
*D3
 10
185.0808493982
 20
201.4593181423
 11
194.7826746161
 21
216.0897680636
 70
130
 13
200.3589420944
 23
199.4157074485
 14
205.0949560501
 24
217.0907521563
 15
185.0808493982
 25
219.725659284
 16
194.7826746161
 26
216.0897680636
  0
LINE
  8
0
 62
7
  6
CONTINUOUS
 10
0.0
 20
0.0
 11
0.0
 21
297.0
  0
LINE
  8
0
 62
7
  6
CONTINUOUS
 10
0.0
 20
0.0
 11
420.0
 21
0.0
  0
LINE
  8
0
 62
7
  6
CONTINUOUS
 10
0.0
 20
297.0
 11
420.0
 21
297.0
  0
LINE
  8
0
 62
7
  6
CONTINUOUS
 10
420.0
 20
0.0
 11
420.0
 21
297.0
  0
LINE
  8
0
 62
7
  6
CONTINUOUS
 10
231.5808493982
 20
83.4727268719
 11
138.5808493982
 21
83.4727268719
  0
LINE
  8
0
 62
7
  6
CONTINUOUS
 10
138.2985649557
 20
99.6447917508
 11
138.5808493982
 21
83.4727268719
  0
LINE
  8
0
 62
7
  6
CONTINUOUS
 10
138.0808493982
 20
124.7227268719
 11
138.0808493982
 21
122.2227268719
  0
LINE
  8
02___PRT_ALL_AXES
 62
7
  6
CONTINUOUS
 10
140.0808493982
 20
136.4727268719
 11
140.0808493982
 21
125.7227268719
  0
LINE
  8
02___PRT_ALL_AXES
 62
7
  6
CONTINUOUS
 10
140.0808493982
 20
121.2227268719
 11
140.0808493982
 21
100.6737941535
  0
LINE
  8
0
 62
7
  6
CONTINUOUS
 10
144.9038447723
 20
174.0485220459
 11
144.2567971595
 21
171.6337074802
  0
LINE
  8
02___PRT_ALL_AXES
 62
7
  6
CONTINUOUS
 10
152.412970614
 20
194.3455545974
 11
147.09451547
 21
174.496809782
  0
LINE
  8
02___PRT_ALL_AXES
 62
7
  6
CONTINUOUS
 10
145.929829767
 20
170.1501435637
 11
143.1475250322
 21
159.7664409311
  0
LINE
  8
0
 62
7
  6
CONTINUOUS
 10
155.4160456832
 20
211.3487382921
 11
150.9577414605
 21
195.8007837509
  0
LINE
  8
0
 62
7
  6
CONTINUOUS
 10
231.8631338407
 20
99.6447917508
 11
138.2985649557
 21
99.6447917508
  0
LINE
  8
0
 62
7
  6
CONTINUOUS
 10
230.0808493982
 20
100.6737941535
 11
140.0808493982
 21
100.6737941535
  0
LINE
  8
0
 62
7
  6
CONTINUOUS
 10
138.0808493982
 20
122.2227268719
 11
140.0808493982
 21
121.2227268719
  0
LINE
  8
0
 62
7
  6
CONTINUOUS
 10
230.0808493982
 20
121.2227268719
 11
140.0808493982
 21
121.2227268719
  0
LINE
  8
0
 62
7
  6
CONTINUOUS
 10
232.0808493982
 20
122.2227268719
 11
138.0808493982
 21
122.2227268719
  0
LINE
  8
0
 62
7
  6
CONTINUOUS
 10
232.0808493982
 20
124.7227268719
 11
138.0808493982
 21
124.7227268719
  0
LINE
  8
0
 62
7
  6
CONTINUOUS
 10
230.0808493982
 20
125.7227268719
 11
140.0808493982
 21
125.7227268719
  0
LINE
  8
02___PRT_ALL_AXES
 62
7
  6
CONTINUOUS
 10
143.1475250322
 20
159.7664409311
 11
145.9759521569
 21
156.9380138063
  0
LINE
  8
02___PRT_ALL_AXES
 62
7
  6
CONTINUOUS
 10
143.5449510133
 20
138.4727268719
 11
140.0808493982
 21
136.4727268719
  0
LINE
  8
0
 62
7
  6
CONTINUOUS
 10
230.0808493982
 20
100.6737941535
 11
231.8631338407
 21
99.6447917508
  0
LINE
  8
02___PRT_ALL_AXES
 62
7
  6
CONTINUOUS
 10
230.0808493982
 20
136.4727268719
 11
140.0808493982
 21
136.4727268719
  0
LINE
  8
0
 62
7
  6
CONTINUOUS
 10
144.2567971595
 20
171.6337074802
 11
145.929829767
 21
170.1501435637
  0
LINE
  8
02___PRT_ALL_AXES
 62
7
  6
CENTER
 10
185.0808493982
 20
80.9727268719
 11
185.0808493982
 21
221.1508401035
  0
LINE
  8
02___PRT_ALL_AXES
 62
7
  6
CENTER
 10
207.223280119
 20
225.0337657165
 11
176.200070269
 21
109.2535703422
  0
LINE
  8
0
 62
7
  6
CONTINUOUS
 10
235.0538248307
 20
147.3047172406
 11
232.863154133
 21
146.8564295045
  0
LINE
  8
0
 62
7
  6
CONTINUOUS
 10
204.3348234235
 20
138.4727268719
 11
143.5449510133
 21
138.4727268719
  0
POLYLINE
  8
0
 62
7
  6
CONTINUOUS
 66
1
 70
0
  0
VERTEX
  8
0
 62
7
  6
CONTINUOUS
 10
204.3348234235
 20
138.4727268719
  0
VERTEX
  8
0
 62
7
  6
CONTINUOUS
 10
210.046572708
 20
138.4594148596
  0
VERTEX
  8
0
 62
7
  6
CONTINUOUS
 10
212.682596806
 20
138.4505486868
  0
VERTEX
  8
0
 62
7
  6
CONTINUOUS
 10
215.1400924736
 20
138.4397148368
  0
SEQEND
  0
LINE
  8
0
 62
7
  6
CONTINUOUS
 10
215.1400924736
 20
138.4397148368
 11
230.0808493981
 21
136.4727268719
  0
LINE
  8
0
 62
7
  6
CONTINUOUS
 10
140.0808493982
 20
125.7227268719
 11
138.0808493982
 21
124.7227268719
  0
LINE
  8
0
 62
7
  6
CONTINUOUS
 10
215.1400924736
 20
138.4397148368
 11
213.2532661641
 21
138.9361381823
  0
LINE
  8
0
 62
7
  6
CONTINUOUS
 10
213.2532661641
 20
138.9361381823
 11
209.1528702338
 21
140.0203980407
  0
LINE
  8
0
 62
7
  6
CONTINUOUS
 10
209.1528702338
 20
140.0203980407
 11
204.6944598947
 21
141.2044370772
  0
LINE
  8
0
 62
7
  6
CONTINUOUS
 10
204.6944598947
 20
141.2044370772
 11
145.9759521569
 21
156.9380138063
  0
LINE
  8
02___PRT_ALL_AXES
 62
7
  6
CONTINUOUS
 10
230.0808493982
 20
136.4727268719
 11
143.1475250322
 21
159.7664409311
  0
LINE
  8
0
 62
7
  6
CONTINUOUS
 10
230.0808493982
 20
125.7227268719
 11
232.0808493982
 21
124.7227268719
  0
LINE
  8
0
 62
7
  6
CONTINUOUS
 10
150.9577414605
 20
195.8007837509
 11
152.412970614
 21
194.3455545974
  0
LINE
  8
0
 62
7
  6
CONTINUOUS
 10
241.3341749721
 20
171.5844913767
 11
239.34629498
 21
171.0518405382
  0
LINE
  8
0
 62
7
  6
CONTINUOUS
 10
232.863154133
 20
146.8564295045
 11
145.929829767
 21
170.1501435637
  0
LINE
  8
0
 62
7
  6
CONTINUOUS
 10
235.0538248307
 20
147.3047172406
 11
144.2567971595
 21
171.6337074802
  0
LINE
  8
0
 62
7
  6
CONTINUOUS
 10
140.0808493982
 20
100.6737941535
 11
138.2985649557
 21
99.6447917508
  0
LINE
  8
0
 62
7
  6
CONTINUOUS
 10
235.7008724435
 20
149.7195318063
 11
144.9038447723
 21
174.0485220459
  0
LINE
  8
0
 62
7
  6
CONTINUOUS
 10
234.027839836
 20
151.2030957228
 11
147.09451547
 21
174.496809782
  0
LINE
  8
0
 62
7
  6
CONTINUOUS
 10
234.027839836
 20
151.2030957228
 11
235.7008724435
 21
149.7195318063
  0
LINE
  8
02___PRT_ALL_AXES
 62
7
  6
CONTINUOUS
 10
230.0808493982
 20
136.4727268719
 11
230.0808493982
 21
125.7227268719
  0
LINE
  8
02___PRT_ALL_AXES
 62
7
  6
CONTINUOUS
 10
230.0808493982
 20
121.2227268719
 11
230.0808493982
 21
100.6737941535
  0
LINE
  8
0
 62
7
  6
CONTINUOUS
 10
147.09451547
 20
174.496809782
 11
144.9038447723
 21
174.0485220459
  0
LINE
  8
0
 62
7
  6
CONTINUOUS
 10
239.34629498
 20
171.0518405382
 11
152.412970614
 21
194.3455545974
  0
LINE
  8
0
 62
7
  6
CONTINUOUS
 10
241.3341749721
 20
171.5844913767
 11
150.9577414605
 21
195.8007837509
  0
LINE
  8
0
 62
7
  6
CONTINUOUS
 10
232.0808493982
 20
124.7227268719
 11
232.0808493982
 21
122.2227268719
  0
LINE
  8
0
 62
7
  6
CONTINUOUS
 10
231.8631338407
 20
99.6447917508
 11
231.5808493982
 21
83.4727268719
  0
LINE
  8
0
 62
7
  6
CONTINUOUS
 10
245.247147528
 20
187.2785670975
 11
241.3341749721
 21
171.5844913767
  0
LINE
  8
02___PRT_ALL_AXES
 62
7
  6
CONTINUOUS
 10
239.34629498
 20
171.0518405382
 11
234.027839836
 21
151.2030957228
  0
LINE
  8
02___PRT_ALL_AXES
 62
7
  6
CONTINUOUS
 10
232.863154133
 20
146.8564295045
 11
230.0808493982
 21
136.4727268719
  0
LINE
  8
0
 62
7
  6
CONTINUOUS
 10
235.7008724435
 20
149.7195318063
 11
235.0538248307
 21
147.3047172406
  0
LINE
  8
0
 62
7
  6
CONTINUOUS
 10
232.0808493982
 20
122.2227268719
 11
230.0808493982
 21
121.2227268719
  0
LINE
  8
0
 62
7
  6
CONTINUOUS
 10
245.247147528
 20
187.2785670975
 11
155.4160456832
 21
211.3487382921
  0
ARC
  8
0
 62
7
  6
CONTINUOUS
 10
230.0808493982
 20
136.4727268719
 40
86.5
 50
166.3253516965
 51
178.6751240279
  0
ENDSEC
  0
EOF
