999
DXF file: 170-100-80-50-40_4way_boss.dxf
999
Pro/ENGINEER 2006320 by Parametric Technology Corporation
  0
SECTION
  2
HEADER
  9
$EXTMAX
 10
420.0
 20
297.0
 30
0.0
  9
$EXTMIN
 10
0.0
 20
0.0
 30
0.0
  9
$LIMMIN
 10
0.0
 20
0.0
  9
$LIMMAX
 10
420.0
 20
297.0
  9
$VIEWCTR
 10
210.0
 20
148.5
  9
$VIEWSIZE
 40
297.0
  9
$CLAYER
  8
0
  9
$LTSCALE
 40
23.1
  9
$CELTYPE
  6
BYLAYER
  9
$DIMSCALE
 40
1.0
  9
$DIMASZ
 40
3.0
  9
$DIMEXO
 40
2.625
  9
$DIMDLI
 40
15.96
  9
$DIMEXE
 40
7.56
  9
$DIMCEN
 40
3.78
  9
$DIMLFAC
 40
1.0
  9
$DIMBLK
  1
_FILLED
  9
$DIMTXT
 40
3.0
  9
$PDMODE
 70
3
  9
$PDSIZE
 40
0.3125
  0
ENDSEC
  0
SECTION
  2
TABLES
  0
TABLE
  2
LTYPE
 70
6
  0
LTYPE
  2
BYBLOCK
 70
0
  3

 72
65
 73
0
 40
0.0
  0
LTYPE
  2
BYLAYER
 70
0
  3

 72
65
 73
0
 40
0.0
  0
LTYPE
  2
CONTINUOUS
 70
64
  3
Solid line
 72
65
 73
0
 40
0.0
  0
LTYPE
  2
CENTER
 70
64
  3
____ _ ____ _ ____ _ ____ _ ____ _ ____ _ ____
 72
65
 73
4
 40
0.6
 49
0.375
 49
-0.075
 49
0.075
 49
-0.075
  0
LTYPE
  2
HIDDEN
 70
64
  3
- - - - - - - - - - - - - - - - - - - -
 72
65
 73
2
 40
0.2
 49
0.1
 49
-0.1
  0
LTYPE
  2
PHANTOM
 70
64
  3
_____ _ _ _____ _ _ _____ _ _ _____
 72
65
 73
6
 40
0.8
 49
0.45
 49
-0.05
 49
0.1
 49
-0.05
 49
0.1
 49
-0.05
  0
LTYPE
  2
DOT
 70
64
  3
. . . . . . . . . . . . . . . . . . . .
 72
65
 73
2
 40
0.2
 49
0.1
 49
-0.1
  0
LTYPE
  2
DASHED
 70
64
  3
- - - - - - - - - - - - - - - - - - - -
 72
65
 73
2
 40
0.2
 49
0.1
 49
-0.1
  0
ENDTAB
  0
TABLE
  2
LAYER
 70
36
  0
LAYER
  2
0
 70
0
 62
7
  6
CONTINUOUS
  0
LAYER
  2
DEFAULT_1
 70
0
 62
7
  6
CENTER
  0
LAYER
  2
DEFAULT_2
 70
0
 62
8
  6
HIDDEN
  0
LAYER
  2
DEFAULT_3
 70
0
 62
7
  6
PHANTOM
  0
LAYER
  2
_2D_DELETED_OBJS
 70
0
 62
7
  6
CONTINUOUS
  0
LAYER
  2
01___PRT_ALL_DTM_PLN
 70
0
 62
7
  6
CONTINUOUS
  0
LAYER
  2
01___PRT_DEF_DTM_PLN
 70
0
 62
7
  6
CONTINUOUS
  0
LAYER
  2
02___PRT_ALL_AXES
 70
0
 62
7
  6
CONTINUOUS
  0
LAYER
  2
03___PRT_ALL_CURVES
 70
0
 62
7
  6
CONTINUOUS
  0
LAYER
  2
04___PRT_ALL_DTM_PNT
 70
0
 62
7
  6
CONTINUOUS
  0
LAYER
  2
05___PRT_ALL_DTM_CSYS
 70
0
 62
7
  6
CONTINUOUS
  0
LAYER
  2
05___PRT_DEF_DTM_CSYS
 70
0
 62
7
  6
CONTINUOUS
  0
LAYER
  2
06___PRT_ALL_SURFS
 70
0
 62
7
  6
CONTINUOUS
  0
LAYER
  2
CURVES
 70
0
 62
7
  6
CONTINUOUS
  0
ENDTAB
  0
TABLE
  2
STYLE
 70
1
  0
STYLE
  2
STANDARD
 70
0
 40
0.0
 41
0.6
 50
0.0
 71
0
 42
0.2
  3
txt
  4

  0
ENDTAB
  0
ENDSEC
  0
SECTION
  2
BLOCKS
  0
BLOCK
  8
0
 62
7
  6
CONTINUOUS
  2
*D0
 70
65
 10
0.0
 20
0.0
  0
TEXT
  8
0
 62
7
  6
CONTINUOUS
 10
57.4375298372
 20
145.5476434677
  7
STANDARD
 40
3.0
  1
176
 41
0.6
 72
0
  0
LINE
  8
0
 62
7
  6
CONTINUOUS
 10
129.1639984631
 20
234.7976434677
 11
57.1375298372
 21
234.7976434677
  0
LINE
  8
0
 62
7
  6
CONTINUOUS
 10
149.1639984631
 20
59.2976434677
 11
57.1375298372
 21
59.2976434677
  0
LINE
  8
0
 62
7
  6
CONTINUOUS
 10
60.1375298372
 20
234.7976434677
 11
60.1375298372
 21
150.0476434677
  0
LINE
  8
0
 62
7
  6
CONTINUOUS
 10
60.1375298372
 20
59.2976434677
 11
60.1375298372
 21
144.0476434677
  0
INSERT
  8
0
 62
7
  6
CONTINUOUS
  2
_FILLED
 10
60.1375298372
 20
234.7976434677
 41
3.0
 42
3.0
 43
3.0
 50
90.0
  0
INSERT
  8
0
 62
7
  6
CONTINUOUS
  2
_FILLED
 10
60.1375298372
 20
59.2976434677
 41
3.0
 42
3.0
 43
3.0
 50
270.0
  0
ENDBLK
  8
0
  6
BYBLOCK
 62
0
  0
BLOCK
  8
0
 62
7
  6
CONTINUOUS
  2
*D1
 70
65
 10
0.0
 20
0.0
  0
TEXT
  8
0
 62
7
  6
CONTINUOUS
 10
189.8639984631
 20
40.6156186362
  7
STANDARD
 40
3.0
  1
82
 41
0.6
 72
0
  0
LINE
  8
0
 62
7
  6
CONTINUOUS
 10
150.6639984631
 20
61.797640531
 11
150.6639984631
 21
39.1156186362
  0
LINE
  8
0
 62
7
  6
CONTINUOUS
 10
232.6639984631
 20
61.797640531
 11
232.6639984631
 21
39.1156186362
  0
LINE
  8
0
 62
7
  6
CONTINUOUS
 10
150.6639984631
 20
42.1156186362
 11
188.3639984631
 21
42.1156186362
  0
LINE
  8
0
 62
7
  6
CONTINUOUS
 10
232.6639984631
 20
42.1156186362
 11
194.9639984631
 21
42.1156186362
  0
INSERT
  8
0
 62
7
  6
CONTINUOUS
  2
_FILLED
 10
150.6639984631
 20
42.1156186362
 41
3.0
 42
3.0
 43
3.0
 50
180.0
  0
INSERT
  8
0
 62
7
  6
CONTINUOUS
  2
_FILLED
 10
232.6639984631
 20
42.1156186362
 41
3.0
 42
3.0
 43
3.0
  0
ENDBLK
  8
0
  6
BYBLOCK
 62
0
  0
BLOCK
  8
0
 62
7
  6
CONTINUOUS
  2
*D2
 70
65
 10
0.0
 20
0.0
  0
TEXT
  8
0
 62
7
  6
CONTINUOUS
 10
78.464304685
 20
193.4729517012
  7
STANDARD
 40
3.0
  1
80
 41
0.6
 72
0
  0
LINE
  8
0
 62
7
  6
CONTINUOUS
 10
129.1639984631
 20
234.7976434677
 11
77.264304685
 21
234.7976434677
  0
LINE
  8
0
 62
7
  6
CONTINUOUS
 10
103.0908389395
 20
155.1482599347
 11
77.264304685
 21
155.1482599347
  0
LINE
  8
0
 62
7
  6
CONTINUOUS
 10
80.264304685
 20
234.7976434677
 11
80.264304685
 21
197.9729517012
  0
LINE
  8
0
 62
7
  6
CONTINUOUS
 10
80.264304685
 20
155.1482599347
 11
80.264304685
 21
191.9729517012
  0
INSERT
  8
0
 62
7
  6
CONTINUOUS
  2
_FILLED
 10
80.264304685
 20
234.7976434677
 41
3.0
 42
3.0
 43
3.0
 50
90.0
  0
INSERT
  8
0
 62
7
  6
CONTINUOUS
  2
_FILLED
 10
80.264304685
 20
155.1482599347
 41
3.0
 42
3.0
 43
3.0
 50
270.0
  0
ENDBLK
  8
0
  6
BYBLOCK
 62
0
  0
BLOCK
  8
0
 62
7
  6
CONTINUOUS
  2
*D3
 70
65
 10
0.0
 20
0.0
  0
TEXT
  8
0
 62
7
  6
CONTINUOUS
 10
262.5332259165
 20
226.8943164235
  7
STANDARD
 40
3.0
  1
88%%d
 41
0.6222222222
 72
0
  0
LINE
  8
0
 62
7
  6
CONTINUOUS
 10
275.7385533039
 20
155.0435463517
 11
300.648585679
 21
155.9134238503
  0
LINE
  8
0
 62
7
  6
CONTINUOUS
 10
191.6639984631
 20
230.4876787538
 11
191.6639984631
 21
261.1586163517
  0
ARC
  8
0
 62
7
  6
CONTINUOUS
 10
191.6639984631
 20
152.107598202
 40
106.0510181497
 50
2.0
 51
43.7134042249
  0
ARC
  8
0
 62
7
  6
CONTINUOUS
 10
191.6639984631
 20
152.107598202
 40
106.0510181497
 50
48.3853297791
 51
90.0
  0
SOLID
  8
0
 62
7
  6
CONTINUOUS
 10
296.7542220948
 20
158.7683438334
 11
297.650413198
 21
155.8087253602
 12
298.2524179767
 22
158.8418904145
 13
298.2524179767
 23
158.8418904145
  0
SOLID
  8
0
 62
7
  6
CONTINUOUS
 10
194.6743061314
 20
258.8661103392
 11
191.6639984631
 21
258.1586163517
 12
194.6530906351
 22
257.3662603792
 13
194.6530906351
 23
257.3662603792
  0
ENDBLK
  8
0
  6
BYBLOCK
 62
0
  0
BLOCK
  8
0
 62
7
  6
CONTINUOUS
  2
*D4
 70
65
 10
0.0
 20
0.0
  0
TEXT
  8
0
 62
7
  6
CONTINUOUS
 10
188.9639984631
 20
17.7042505618
  7
STANDARD
 40
3.0
  1
176
 41
0.6
 72
0
  0
LINE
  8
0
 62
7
  6
CONTINUOUS
 10
103.5176794159
 20
122.9169920038
 11
103.5176794159
 21
16.2042505618
  0
LINE
  8
0
 62
7
  6
CONTINUOUS
 10
279.8103175103
 20
122.9169920038
 11
279.8103175103
 21
16.2042505618
  0
LINE
  8
0
 62
7
  6
CONTINUOUS
 10
103.5176794159
 20
19.2042505618
 11
187.4639984631
 21
19.2042505618
  0
LINE
  8
0
 62
7
  6
CONTINUOUS
 10
279.8103175103
 20
19.2042505618
 11
195.8639984631
 21
19.2042505618
  0
INSERT
  8
0
 62
7
  6
CONTINUOUS
  2
_FILLED
 10
103.5176794159
 20
19.2042505618
 41
3.0
 42
3.0
 43
3.0
 50
180.0
  0
INSERT
  8
0
 62
7
  6
CONTINUOUS
  2
_FILLED
 10
279.8103175103
 20
19.2042505618
 41
3.0
 42
3.0
 43
3.0
  0
ENDBLK
  8
0
  6
BYBLOCK
 62
0
  0
BLOCK
  8
0
 62
7
  6
CONTINUOUS
  2
*D5
 70
65
 10
0.0
 20
0.0
  0
TEXT
  8
0
 62
7
  6
CONTINUOUS
 10
91.6432062115
 20
166.4911669509
  7
STANDARD
 40
3.0
  1
61.5
 41
0.6
 72
0
  0
LINE
  8
0
 62
7
  6
CONTINUOUS
 10
104.1649122226
 20
185.9318771106
 11
92.8816404827
 21
186.3258976421
  0
LINE
  8
0
 62
7
  6
CONTINUOUS
 10
102.0185931754
 20
124.4693412489
 11
90.7353214355
 21
124.8633617804
  0
LINE
  8
0
 62
7
  6
CONTINUOUS
 10
95.8798129638
 20
186.221199152
 11
95.34796852
 21
170.9911669509
  0
LINE
  8
0
 62
7
  6
CONTINUOUS
 10
93.7334939166
 20
124.7586632903
 11
95.138443903
 21
164.9911669509
  0
INSERT
  8
0
 62
7
  6
CONTINUOUS
  2
_FILLED
 10
95.8798129638
 20
186.221199152
 41
3.0
 42
3.0
 43
3.0
 50
88.0
  0
INSERT
  8
0
 62
7
  6
CONTINUOUS
  2
_FILLED
 10
93.7334939166
 20
124.7586632903
 41
3.0
 42
3.0
 43
3.0
 50
268.0
  0
ENDBLK
  8
0
  6
BYBLOCK
 62
0
  0
BLOCK
  8
0
 62
7
  6
CONTINUOUS
  2
*D6
 70
65
 10
0.0
 20
0.0
  0
TEXT
  8
0
 62
7
  6
CONTINUOUS
 10
103.9416204432
 20
214.1293123007
  7
STANDARD
 40
3.0
  1
88%%d
 41
0.6222222222
 72
0
  0
LINE
  8
0
 62
7
  6
CONTINUOUS
 10
191.6639984631
 20
153.607598202
 11
191.6639984631
 21
261.1586163517
  0
LINE
  8
0
 62
7
  6
CONTINUOUS
 10
190.1649122226
 20
152.1599474471
 11
82.6794112472
 21
155.9134238503
  0
ARC
  8
0
 62
7
  6
CONTINUOUS
 10
191.6639984631
 20
152.107598202
 40
106.0510181497
 50
90.0
 51
141.1516358732
  0
ARC
  8
0
 62
7
  6
CONTINUOUS
 10
191.6639984631
 20
152.107598202
 40
106.0510181497
 50
145.2020006542
 51
178.0
  0
SOLID
  8
0
 62
7
  6
CONTINUOUS
 10
188.6749062911
 20
257.3662603792
 11
191.6639984631
 21
258.1586163517
 12
188.6536907948
 22
258.8661103392
 13
188.6536907948
 23
258.8661103392
  0
SOLID
  8
0
 62
7
  6
CONTINUOUS
 10
85.0755789495
 20
158.8418904145
 11
85.6775837283
 21
155.8087253602
 12
86.5737748314
 22
158.7683438334
 13
86.5737748314
 23
158.7683438334
  0
ENDBLK
  8
0
  6
BYBLOCK
 62
0
  0
BLOCK
  8
0
  2
_FILLED
 70
64
 10
0.0
 20
0.0
  0
SOLID
  8
0
  6
BYBLOCK
 62
0
 10
0.0
 20
0.0
 11
-1.0
 21
0.25
 12
-1.0
 22
-0.25
 13
-1.0
 23
-0.25
  0
ENDBLK
  8
0
  6
BYBLOCK
 62
0
  0
ENDSEC
  0
SECTION
  2
ENTITIES
  0
DIMENSION
  8
0
 62
7
  6
CONTINUOUS
  2
*D0
 10
60.1375298372
 20
59.2976434677
 11
60.1375298372
 21
147.0476434677
 70
128
 13
129.1639984631
 23
234.7976434677
 14
149.1639984631
 24
59.2976434677
 50
270.0
  0
DIMENSION
  8
0
 62
7
  6
CONTINUOUS
  2
*D1
 10
232.6639984631
 20
42.1156186362
 11
191.6639984631
 21
42.1156186362
 70
128
 13
150.6639984631
 23
61.797640531
 14
232.6639984631
 24
61.797640531
  0
DIMENSION
  8
0
 62
7
  6
CONTINUOUS
  2
*D2
 10
80.264304685
 20
155.1482599347
 11
80.264304685
 21
194.9729517012
 70
128
 13
129.1639984631
 23
234.7976434677
 14
103.0908389395
 24
155.1482599347
 50
270.0
  0
DIMENSION
  8
0
 62
7
  6
CONTINUOUS
  2
*D3
 10
191.6639984631
 20
230.4876787538
 11
265.3332259165
 21
228.3943164235
 70
130
 13
275.7385533039
 23
155.0435463517
 14
300.648585679
 24
155.9134238503
 15
191.6639984631
 25
261.1586163517
 16
265.3332259165
 26
228.3943164235
  0
DIMENSION
  8
0
 62
7
  6
CONTINUOUS
  2
*D4
 10
279.8103175103
 20
19.2042505618
 11
191.6639984631
 21
19.2042505618
 70
128
 13
103.5176794159
 23
122.9169920038
 14
279.8103175103
 24
122.9169920038
  0
DIMENSION
  8
0
 62
7
  6
CONTINUOUS
  2
*D5
 10
93.7334939166
 20
124.7586632903
 11
95.2432062115
 21
167.9911669509
 70
128
 13
104.1649122226
 23
185.9318771106
 14
102.0185931754
 24
124.4693412489
 50
268.0
  0
DIMENSION
  8
0
 62
7
  6
CONTINUOUS
  2
*D6
 10
190.1649122226
 20
152.1599474471
 11
106.7416204432
 21
215.6293123007
 70
130
 13
191.6639984631
 23
153.607598202
 14
191.6639984631
 24
261.1586163517
 15
82.6794112472
 25
155.9134238503
 16
117.9947710097
 26
228.3943164235
  0
LINE
  8
0
 62
7
  6
CONTINUOUS
 10
0.0
 20
0.0
 11
0.0
 21
297.0
  0
LINE
  8
0
 62
7
  6
CONTINUOUS
 10
0.0
 20
0.0
 11
420.0
 21
0.0
  0
LINE
  8
0
 62
7
  6
CONTINUOUS
 10
0.0
 20
297.0
 11
420.0
 21
297.0
  0
LINE
  8
0
 62
7
  6
CONTINUOUS
 10
420.0
 20
0.0
 11
420.0
 21
297.0
  0
LINE
  8
02___PRT_ALL_AXES
 62
7
  6
CONTINUOUS
 10
105.6639984631
 20
185.8795278655
 11
103.5176794159
 21
124.4169920038
  0
LINE
  8
0
 62
7
  6
CONTINUOUS
 10
151.6639984631
 20
59.2976434677
 11
231.6639984631
 21
59.2976434677
  0
LINE
  8
0
 62
7
  6
CONTINUOUS
 10
150.6639984631
 20
63.2976434677
 11
232.6639984631
 21
63.2976434677
  0
LINE
  8
0
 62
7
  6
CONTINUOUS
 10
130.6639984631
 20
233.7976434677
 11
130.6639984631
 21
230.7976434677
  0
LINE
  8
0
 62
7
  6
CONTINUOUS
 10
130.6639984631
 20
224.7976434677
 11
130.6639984631
 21
221.7976434677
  0
LINE
  8
0
 62
7
  6
CONTINUOUS
 10
132.6639984631
 20
229.7976434677
 11
132.6639984631
 21
225.7976434677
  0
LINE
  8
0
 62
7
  6
CONTINUOUS
 10
132.6639984631
 20
220.7976434677
 11
132.6639984631
 21
184.9366670892
  0
LINE
  8
0
 62
7
  6
CONTINUOUS
 10
136.6639984631
 20
117.7976434677
 11
150.6639984631
 21
103.2976434677
  0
LINE
  8
0
 62
7
  6
CONTINUOUS
 10
151.6640000651
 20
59.2976438682
 11
150.6640001052
 21
63.2976438782
  0
LINE
  8
0
 62
7
  6
CONTINUOUS
 10
136.6639984631
 20
125.3541924501
 11
136.6639984631
 21
117.7976434677
  0
LINE
  8
0
 62
7
  6
CONTINUOUS
 10
138.8364488323
 20
191.7976434677
 11
138.8364488323
 21
194.7976434677
  0
LINE
  8
02___PRT_ALL_AXES
 62
7
  6
CONTINUOUS
 10
136.5848095669
 20
183.0707475625
 11
134.4987950535
 21
123.3351076061
  0
LINE
  8
02___PRT_ALL_AXES
 62
7
  6
CONTINUOUS
 10
139.116309
 20
176.7657085587
 11
137.3941486243
 21
127.4494878453
  0
LINE
  8
0
 62
7
  6
CONTINUOUS
 10
150.6639984631
 20
103.2976434677
 11
150.6639984631
 21
63.2976434677
  0
LINE
  8
02___PRT_ALL_AXES
 62
7
  6
CONTINUOUS
 10
137.2323383818
 20
126.9742683953
 11
137.3941486243
 21
127.4494878453
  0
LINE
  8
02___PRT_ALL_AXES
 62
7
  6
CONTINUOUS
 10
136.9622849031
 20
126.1953635578
 11
137.2323383818
 21
126.9742683953
  0
LINE
  8
02___PRT_ALL_AXES
 62
7
  6
CONTINUOUS
 10
136.7129353985
 20
125.4908861469
 11
136.9622849031
 21
126.1953635578
  0
LINE
  8
02___PRT_ALL_AXES
 62
7
  6
CONTINUOUS
 10
136.6639984631
 20
125.3541924501
 11
136.7129353985
 21
125.4908861469
  0
LINE
  8
0
 62
7
  6
CONTINUOUS
 10
232.6639984631
 20
103.2976434677
 11
150.6639984631
 21
103.2976434677
  0
POLYLINE
  8
02___PRT_ALL_AXES
 62
7
  6
CONTINUOUS
 66
1
 70
0
  0
VERTEX
  8
02___PRT_ALL_AXES
 62
7
  6
CONTINUOUS
 10
139.116309
 20
176.7657085587
  0
VERTEX
  8
02___PRT_ALL_AXES
 62
7
  6
CONTINUOUS
 10
138.7130406344
 20
178.2292489658
  0
VERTEX
  8
02___PRT_ALL_AXES
 62
7
  6
CONTINUOUS
 10
138.3375231671
 20
179.528735809
  0
VERTEX
  8
02___PRT_ALL_AXES
 62
7
  6
CONTINUOUS
 10
137.9950649594
 20
180.6684622361
  0
VERTEX
  8
02___PRT_ALL_AXES
 62
7
  6
CONTINUOUS
 10
137.6897711549
 20
181.6525937896
  0
VERTEX
  8
02___PRT_ALL_AXES
 62
7
  6
CONTINUOUS
 10
137.4237304689
 20
182.488242391
  0
SEQEND
  0
POLYLINE
  8
02___PRT_ALL_AXES
 62
7
  6
CONTINUOUS
 66
1
 70
0
  0
VERTEX
  8
02___PRT_ALL_AXES
 62
7
  6
CONTINUOUS
 10
137.3941486243
 20
127.4494878453
  0
VERTEX
  8
02___PRT_ALL_AXES
 62
7
  6
CONTINUOUS
 10
137.7550206947
 20
128.1833776958
  0
VERTEX
  8
02___PRT_ALL_AXES
 62
7
  6
CONTINUOUS
 10
138.1826910298
 20
129.0752990657
  0
VERTEX
  8
02___PRT_ALL_AXES
 62
7
  6
CONTINUOUS
 10
138.6698727187
 20
130.1239903303
  0
VERTEX
  8
02___PRT_ALL_AXES
 62
7
  6
CONTINUOUS
 10
139.207120365
 20
131.3264526851
  0
VERTEX
  8
02___PRT_ALL_AXES
 62
7
  6
CONTINUOUS
 10
139.7834882068
 20
132.6793239561
  0
VERTEX
  8
02___PRT_ALL_AXES
 62
7
  6
CONTINUOUS
 10
140.3835617518
 20
134.1712834983
  0
VERTEX
  8
02___PRT_ALL_AXES
 62
7
  6
CONTINUOUS
 10
140.9897868457
 20
135.7864555562
  0
VERTEX
  8
02___PRT_ALL_AXES
 62
7
  6
CONTINUOUS
 10
141.5839251987
 20
137.5059175904
  0
VERTEX
  8
02___PRT_ALL_AXES
 62
7
  6
CONTINUOUS
 10
142.1486829399
 20
139.3100634465
  0
VERTEX
  8
02___PRT_ALL_AXES
 62
7
  6
CONTINUOUS
 10
142.6669521165
 20
141.1732455743
  0
VERTEX
  8
02___PRT_ALL_AXES
 62
7
  6
CONTINUOUS
 10
143.1270494146
 20
143.0798847538
  0
VERTEX
  8
02___PRT_ALL_AXES
 62
7
  6
CONTINUOUS
 10
143.5187619963
 20
145.0106182931
  0
VERTEX
  8
02___PRT_ALL_AXES
 62
7
  6
CONTINUOUS
 10
143.8367306636
 20
146.9583654151
  0
VERTEX
  8
02___PRT_ALL_AXES
 62
7
  6
CONTINUOUS
 10
144.0767398652
 20
148.9138802984
  0
VERTEX
  8
02___PRT_ALL_AXES
 62
7
  6
CONTINUOUS
 10
144.2368147634
 20
150.8745150104
  0
VERTEX
  8
02___PRT_ALL_AXES
 62
7
  6
CONTINUOUS
 10
144.3158808308
 20
152.8416436942
  0
VERTEX
  8
02___PRT_ALL_AXES
 62
7
  6
CONTINUOUS
 10
144.3131566192
 20
154.8116342205
  0
VERTEX
  8
02___PRT_ALL_AXES
 62
7
  6
CONTINUOUS
 10
144.2282427352
 20
156.7909841992
  0
VERTEX
  8
02___PRT_ALL_AXES
 62
7
  6
CONTINUOUS
 10
144.0612065581
 20
158.7755526686
  0
VERTEX
  8
02___PRT_ALL_AXES
 62
7
  6
CONTINUOUS
 10
143.8124893995
 20
160.7661979287
  0
VERTEX
  8
02___PRT_ALL_AXES
 62
7
  6
CONTINUOUS
 10
143.4838732973
 20
162.7579396988
  0
VERTEX
  8
02___PRT_ALL_AXES
 62
7
  6
CONTINUOUS
 10
143.0796385466
 20
164.7397252387
  0
VERTEX
  8
02___PRT_ALL_AXES
 62
7
  6
CONTINUOUS
 10
142.6059223143
 20
166.7008407744
  0
VERTEX
  8
02___PRT_ALL_AXES
 62
7
  6
CONTINUOUS
 10
142.0741674088
 20
168.6182635239
  0
VERTEX
  8
02___PRT_ALL_AXES
 62
7
  6
CONTINUOUS
 10
141.4976208713
 20
170.4727427016
  0
VERTEX
  8
02___PRT_ALL_AXES
 62
7
  6
CONTINUOUS
 10
140.8952741025
 20
172.2345999215
  0
VERTEX
  8
02___PRT_ALL_AXES
 62
7
  6
CONTINUOUS
 10
140.2852192309
 20
173.8834075262
  0
VERTEX
  8
02___PRT_ALL_AXES
 62
7
  6
CONTINUOUS
 10
139.6863991254
 20
175.39902253
  0
VERTEX
  8
02___PRT_ALL_AXES
 62
7
  6
CONTINUOUS
 10
139.116309
 20
176.7657085587
  0
SEQEND
  0
LINE
  8
02___PRT_ALL_AXES
 62
7
  6
CONTINUOUS
 10
132.7350049221
 20
184.7976434677
 11
132.6639984631
 21
184.9366670892
  0
LINE
  8
0
 62
7
  6
CONTINUOUS
 10
161.1639984631
 20
191.7976434677
 11
161.1639984631
 21
194.7976434677
  0
LINE
  8
0
 62
7
  6
CONTINUOUS
 10
162.1639984631
 20
194.7976434677
 11
162.1639984631
 21
191.7976434677
  0
LINE
  8
02___PRT_ALL_AXES
 62
7
  6
CONTINUOUS
 10
248.8292018727
 20
123.3351076061
 11
279.8103175103
 21
124.4169920038
  0
LINE
  8
0
 62
7
  6
CONTINUOUS
 10
246.6639984631
 20
117.7976434677
 11
136.6639984631
 21
117.7976434677
  0
LINE
  8
02___PRT_ALL_AXES
 62
7
  6
CONTINUOUS
 10
103.5176794159
 20
124.4169920038
 11
134.4987950535
 21
123.3351076061
  0
LINE
  8
02___PRT_ALL_AXES
 62
7
  6
CONTINUOUS
 10
134.4987950535
 20
123.3351076061
 11
136.6639984631
 21
125.3541924501
  0
LINE
  8
02___PRT_ALL_AXES
 62
7
  6
CONTINUOUS
 10
250.5929920041
 20
184.7976434677
 11
249.1102726828
 21
184.1295047322
  0
POLYLINE
  8
02___PRT_ALL_AXES
 62
7
  6
CONTINUOUS
 66
1
 70
0
  0
VERTEX
  8
02___PRT_ALL_AXES
 62
7
  6
CONTINUOUS
 10
249.1102726828
 20
184.1295047322
  0
VERTEX
  8
02___PRT_ALL_AXES
 62
7
  6
CONTINUOUS
 10
247.3950781912
 20
183.3613161567
  0
VERTEX
  8
02___PRT_ALL_AXES
 62
7
  6
CONTINUOUS
 10
246.7431873594
 20
183.0707475625
  0
SEQEND
  0
LINE
  8
DEFAULT_1
 62
7
  6
CENTER
 10
191.6639984631
 20
56.7976434677
 11
191.6639984631
 21
237.2976434677
  0
LINE
  8
02___PRT_ALL_AXES
 62
7
  6
CONTINUOUS
 10
137.4237304689
 20
182.488242391
 11
136.5848095669
 21
183.0707475625
  0
LINE
  8
02___PRT_ALL_AXES
 62
7
  6
CONTINUOUS
 10
246.7431873594
 20
183.0707475625
 11
245.9042664573
 21
182.488242391
  0
LINE
  8
02___PRT_ALL_AXES
 62
7
  6
CENTER
 10
281.2356350543
 20
155.2355086764
 11
191.1013409628
 21
152.0879497692
  0
LINE
  8
02___PRT_ALL_AXES
 62
7
  6
CENTER
 10
102.092361872
 20
155.2355086764
 11
192.8829201823
 21
152.0650325176
  0
LINE
  8
02___PRT_ALL_AXES
 62
7
  6
CONTINUOUS
 10
136.5848095669
 20
183.0707475625
 11
135.3079576571
 21
183.6406136795
  0
LINE
  8
02___PRT_ALL_AXES
 62
7
  6
CONTINUOUS
 10
135.3079576571
 20
183.6406136795
 11
133.7413617491
 21
184.3437625357
  0
LINE
  8
02___PRT_ALL_AXES
 62
7
  6
CONTINUOUS
 10
133.7413617491
 20
184.3437625357
 11
132.7350049221
 21
184.7976434677
  0
LINE
  8
02___PRT_ALL_AXES
 62
7
  6
CONTINUOUS
 10
246.6639984631
 20
125.3541924501
 11
248.8292018727
 21
123.3351076061
  0
LINE
  8
0
 62
7
  6
CONTINUOUS
 10
221.1639984631
 20
194.7976434677
 11
221.1639984631
 21
191.7976434677
  0
LINE
  8
0
 62
7
  6
CONTINUOUS
 10
222.1639984631
 20
191.7976434677
 11
222.1639984631
 21
194.7976434677
  0
LINE
  8
0
 62
7
  6
CONTINUOUS
 10
232.6639984631
 20
103.2976434677
 11
232.6639984631
 21
63.2976434677
  0
POLYLINE
  8
02___PRT_ALL_AXES
 62
7
  6
CONTINUOUS
 66
1
 70
0
  0
VERTEX
  8
02___PRT_ALL_AXES
 62
7
  6
CONTINUOUS
 10
245.9042664573
 20
182.488242391
  0
VERTEX
  8
02___PRT_ALL_AXES
 62
7
  6
CONTINUOUS
 10
245.6317503924
 20
181.6320083492
  0
VERTEX
  8
02___PRT_ALL_AXES
 62
7
  6
CONTINUOUS
 10
245.3167115776
 20
180.6153677567
  0
VERTEX
  8
02___PRT_ALL_AXES
 62
7
  6
CONTINUOUS
 10
244.9679536068
 20
179.4523434526
  0
VERTEX
  8
02___PRT_ALL_AXES
 62
7
  6
CONTINUOUS
 10
244.5956640571
 20
178.1609328314
  0
VERTEX
  8
02___PRT_ALL_AXES
 62
7
  6
CONTINUOUS
 10
244.2116879262
 20
176.7657085587
  0
SEQEND
  0
POLYLINE
  8
02___PRT_ALL_AXES
 62
7
  6
CONTINUOUS
 66
1
 70
0
  0
VERTEX
  8
02___PRT_ALL_AXES
 62
7
  6
CONTINUOUS
 10
244.2116879262
 20
176.7657085587
  0
VERTEX
  8
02___PRT_ALL_AXES
 62
7
  6
CONTINUOUS
 10
243.6416928041
 20
175.3992560564
  0
VERTEX
  8
02___PRT_ALL_AXES
 62
7
  6
CONTINUOUS
 10
243.0428034366
 20
173.8834746943
  0
VERTEX
  8
02___PRT_ALL_AXES
 62
7
  6
CONTINUOUS
 10
242.4328789234
 20
172.235037677
  0
VERTEX
  8
02___PRT_ALL_AXES
 62
7
  6
CONTINUOUS
 10
241.8306446292
 20
170.4735640528
  0
VERTEX
  8
02___PRT_ALL_AXES
 62
7
  6
CONTINUOUS
 10
241.2541053959
 20
168.619199953
  0
VERTEX
  8
02___PRT_ALL_AXES
 62
7
  6
CONTINUOUS
 10
240.7223271574
 20
166.7018126354
  0
VERTEX
  8
02___PRT_ALL_AXES
 62
7
  6
CONTINUOUS
 10
240.2486151907
 20
164.740876502
  0
VERTEX
  8
02___PRT_ALL_AXES
 62
7
  6
CONTINUOUS
 10
239.8443590551
 20
162.759214212
  0
VERTEX
  8
02___PRT_ALL_AXES
 62
7
  6
CONTINUOUS
 10
239.5157159907
 20
160.7676343831
  0
VERTEX
  8
02___PRT_ALL_AXES
 62
7
  6
CONTINUOUS
 10
239.2669556641
 20
158.7771320539
  0
VERTEX
  8
02___PRT_ALL_AXES
 62
7
  6
CONTINUOUS
 10
239.0998623359
 20
156.7926843538
  0
VERTEX
  8
02___PRT_ALL_AXES
 62
7
  6
CONTINUOUS
 10
239.0148817529
 20
154.8135044233
  0
VERTEX
  8
02___PRT_ALL_AXES
 62
7
  6
CONTINUOUS
 10
239.0120772916
 20
152.8436453365
  0
VERTEX
  8
02___PRT_ALL_AXES
 62
7
  6
CONTINUOUS
 10
239.0910519745
 20
150.8766508883
  0
VERTEX
  8
02___PRT_ALL_AXES
 62
7
  6
CONTINUOUS
 10
239.2510128749
 20
148.9162684666
  0
VERTEX
  8
02___PRT_ALL_AXES
 62
7
  6
CONTINUOUS
 10
239.4909303372
 20
146.9607129417
  0
VERTEX
  8
02___PRT_ALL_AXES
 62
7
  6
CONTINUOUS
 10
239.8087596844
 20
145.0132117856
  0
VERTEX
  8
02___PRT_ALL_AXES
 62
7
  6
CONTINUOUS
 10
240.2003778376
 20
143.0824469741
  0
VERTEX
  8
02___PRT_ALL_AXES
 62
7
  6
CONTINUOUS
 10
240.6603122953
 20
141.1760620297
  0
VERTEX
  8
02___PRT_ALL_AXES
 62
7
  6
CONTINUOUS
 10
241.1785330238
 20
139.3127016218
  0
VERTEX
  8
02___PRT_ALL_AXES
 62
7
  6
CONTINUOUS
 10
241.7432049072
 20
137.5085457392
  0
VERTEX
  8
02___PRT_ALL_AXES
 62
7
  6
CONTINUOUS
 10
242.3371570943
 20
135.7893721286
  0
VERTEX
  8
02___PRT_ALL_AXES
 62
7
  6
CONTINUOUS
 10
242.9431472173
 20
134.1745908869
  0
VERTEX
  8
02___PRT_ALL_AXES
 62
7
  6
CONTINUOUS
 10
243.5433466504
 20
132.6821254506
  0
VERTEX
  8
02___PRT_ALL_AXES
 62
7
  6
CONTINUOUS
 10
244.1197421582
 20
131.3290479573
  0
VERTEX
  8
02___PRT_ALL_AXES
 62
7
  6
CONTINUOUS
 10
244.6576264951
 20
130.1250809578
  0
VERTEX
  8
02___PRT_ALL_AXES
 62
7
  6
CONTINUOUS
 10
245.1452408543
 20
129.0754366659
  0
VERTEX
  8
02___PRT_ALL_AXES
 62
7
  6
CONTINUOUS
 10
245.5729527112
 20
128.1834260672
  0
VERTEX
  8
02___PRT_ALL_AXES
 62
7
  6
CONTINUOUS
 10
245.933848302
 20
127.4494878453
  0
SEQEND
  0
LINE
  8
02___PRT_ALL_AXES
 62
7
  6
CONTINUOUS
 10
250.6639984631
 20
184.9366670892
 11
250.5929920041
 21
184.7976434677
  0
LINE
  8
02___PRT_ALL_AXES
 62
7
  6
CONTINUOUS
 10
250.6639984631
 20
184.9366670892
 11
277.6639984631
 21
185.8795278655
  0
LINE
  8
02___PRT_ALL_AXES
 62
7
  6
CONTINUOUS
 10
245.9042664573
 20
182.488242391
 11
137.4237304689
 21
182.488242391
  0
LINE
  8
02___PRT_ALL_AXES
 62
7
  6
CONTINUOUS
 10
250.5929920041
 20
184.7976434677
 11
132.7350049221
 21
184.7976434677
  0
LINE
  8
02___PRT_ALL_AXES
 62
7
  6
CONTINUOUS
 10
105.6639984631
 20
185.8795278655
 11
132.6639984631
 21
184.9366670892
  0
LINE
  8
0
 62
7
  6
CONTINUOUS
 10
162.1639984631
 20
191.7976434677
 11
138.8364488323
 21
191.7976434677
  0
LINE
  8
0
 62
7
  6
CONTINUOUS
 10
221.1639984631
 20
191.7976434677
 11
244.491548094
 21
191.7976434677
  0
LINE
  8
0
 62
7
  6
CONTINUOUS
 10
244.491548094
 20
194.7976434677
 11
221.1639984631
 21
194.7976434677
  0
LINE
  8
0
 62
7
  6
CONTINUOUS
 10
138.8364488323
 20
194.7976434677
 11
162.1639984631
 21
194.7976434677
  0
LINE
  8
02___PRT_ALL_AXES
 62
7
  6
CONTINUOUS
 10
246.4710907452
 20
125.8959825705
 11
246.6639984631
 21
125.3541924501
  0
POLYLINE
  8
02___PRT_ALL_AXES
 62
7
  6
CONTINUOUS
 66
1
 70
0
  0
VERTEX
  8
02___PRT_ALL_AXES
 62
7
  6
CONTINUOUS
 10
245.933848302
 20
127.4494878453
  0
VERTEX
  8
02___PRT_ALL_AXES
 62
7
  6
CONTINUOUS
 10
246.0957368869
 20
126.9740399018
  0
VERTEX
  8
02___PRT_ALL_AXES
 62
7
  6
CONTINUOUS
 10
246.2402611353
 20
126.5550565787
  0
VERTEX
  8
02___PRT_ALL_AXES
 62
7
  6
CONTINUOUS
 10
246.4710907452
 20
125.8959825705
  0
SEQEND
  0
LINE
  8
02___PRT_ALL_AXES
 62
7
  6
CONTINUOUS
 10
244.2116879262
 20
176.7657085587
 11
245.933848302
 21
127.4494878453
  0
LINE
  8
02___PRT_ALL_AXES
 62
7
  6
CONTINUOUS
 10
246.7431873594
 20
183.0707475625
 11
248.8292018727
 21
123.3351076061
  0
LINE
  8
0
 62
7
  6
CONTINUOUS
 10
244.491548094
 20
191.7976434677
 11
244.491548094
 21
194.7976434677
  0
LINE
  8
0
 62
7
  6
CONTINUOUS
 10
246.6639984631
 20
125.3541924501
 11
246.6639984631
 21
117.7976434677
  0
LINE
  8
0
 62
7
  6
CONTINUOUS
 10
250.6639984631
 20
229.7976434677
 11
250.6639984631
 21
225.7976434677
  0
LINE
  8
0
 62
7
  6
CONTINUOUS
 10
250.6639984631
 20
220.7976434677
 11
250.6639984631
 21
184.9366670892
  0
LINE
  8
0
 62
7
  6
CONTINUOUS
 10
252.6639984631
 20
233.7976434677
 11
252.6639984631
 21
230.7976434677
  0
LINE
  8
0
 62
7
  6
CONTINUOUS
 10
252.6639984631
 20
224.7976434677
 11
252.6639984631
 21
221.7976434677
  0
LINE
  8
0
 62
7
  6
CONTINUOUS
 10
231.6639968611
 20
59.2976438682
 11
232.6639968211
 21
63.2976438782
  0
LINE
  8
0
 62
7
  6
CONTINUOUS
 10
246.6639984631
 20
117.7976434677
 11
232.6639984631
 21
103.2976434677
  0
LINE
  8
0
 62
7
  6
CONTINUOUS
 10
251.6639984631
 20
220.7976434677
 11
131.6639984631
 21
220.7976434677
  0
LINE
  8
0
 62
9
  6
CONTINUOUS
 10
130.6639984631
 20
221.7976434677
 11
252.6639984631
 21
221.7976434677
  0
LINE
  8
0
 62
9
  6
CONTINUOUS
 10
130.6639984631
 20
224.7976434677
 11
252.6639984631
 21
224.7976434677
  0
LINE
  8
0
 62
7
  6
CONTINUOUS
 10
131.6639984631
 20
225.7976434677
 11
251.6639984631
 21
225.7976434677
  0
LINE
  8
0
 62
7
  6
CONTINUOUS
 10
251.6639984631
 20
229.7976434677
 11
131.6639984631
 21
229.7976434677
  0
LINE
  8
0
 62
9
  6
CONTINUOUS
 10
130.6639984631
 20
230.7976434677
 11
252.6639984631
 21
230.7976434677
  0
LINE
  8
02___PRT_ALL_AXES
 62
7
  6
CONTINUOUS
 10
277.6639984631
 20
185.8795278655
 11
279.8103175103
 21
124.4169920038
  0
LINE
  8
0
 62
9
  6
CONTINUOUS
 10
130.6639984631
 20
233.7976434677
 11
252.6639984631
 21
233.7976434677
  0
LINE
  8
0
 62
7
  6
CONTINUOUS
 10
131.6639984631
 20
234.7976434677
 11
251.6639984631
 21
234.7976434677
  0
CIRCLE
  8
02___PRT_ALL_AXES
 62
7
  6
CONTINUOUS
 10
191.6639984631
 20
152.7976434677
 40
24.0
  0
CIRCLE
  8
02___PRT_ALL_AXES
 62
7
  6
CONTINUOUS
 10
191.6639984631
 20
152.7976434677
 40
21.5
  0
ARC
  8
0
 62
7
  6
CONTINUOUS
 10
251.6639984631
 20
221.7976434677
 40
1.0
 50
270.0
 51
360.0
  0
ARC
  8
0
 62
7
  6
CONTINUOUS
 10
131.6639984631
 20
221.7976434677
 40
1.0
 50
180.0
 51
270.0
  0
ARC
  8
0
 62
7
  6
CONTINUOUS
 10
251.6639984631
 20
224.7976434677
 40
1.0
 50
0.0
 51
90.0
  0
ARC
  8
0
 62
7
  6
CONTINUOUS
 10
131.6639984631
 20
224.7976434677
 40
1.0
 50
90.0
 51
180.0
  0
ARC
  8
0
 62
7
  6
CONTINUOUS
 10
251.6639984631
 20
230.7976434677
 40
1.0
 50
270.0
 51
360.0
  0
ARC
  8
0
 62
7
  6
CONTINUOUS
 10
131.6639984631
 20
230.7976434677
 40
1.0
 50
180.0
 51
270.0
  0
ARC
  8
0
 62
7
  6
CONTINUOUS
 10
251.6639984631
 20
233.7976434677
 40
1.0
 50
0.0
 51
90.0
  0
ARC
  8
0
 62
7
  6
CONTINUOUS
 10
131.6639984631
 20
233.7976434677
 40
1.0
 50
90.0
 51
180.0
  0
ENDSEC
  0
EOF
