999
DXF file: 105-80-88_rear_access_junction.dxf
999
Pro/ENGINEER 2006320 by Parametric Technology Corporation
  0
SECTION
  2
HEADER
  9
$EXTMAX
 10
420.0
 20
297.0
 30
0.0
  9
$EXTMIN
 10
0.0
 20
0.0
 30
0.0
  9
$LIMMIN
 10
0.0
 20
0.0
  9
$LIMMAX
 10
420.0
 20
297.0
  9
$VIEWCTR
 10
210.0
 20
148.5
  9
$VIEWSIZE
 40
297.0
  9
$CLAYER
  8
0
  9
$LTSCALE
 40
23.1
  9
$CELTYPE
  6
BYLAYER
  9
$DIMSCALE
 40
1.0
  9
$DIMASZ
 40
3.0
  9
$DIMEXO
 40
2.625
  9
$DIMDLI
 40
15.96
  9
$DIMEXE
 40
7.56
  9
$DIMCEN
 40
3.78
  9
$DIMLFAC
 40
1.0
  9
$DIMBLK
  1
_FILLED
  9
$DIMTXT
 40
3.0
  9
$PDMODE
 70
3
  9
$PDSIZE
 40
0.3125
  0
ENDSEC
  0
SECTION
  2
TABLES
  0
TABLE
  2
LTYPE
 70
6
  0
LTYPE
  2
BYBLOCK
 70
0
  3

 72
65
 73
0
 40
0.0
  0
LTYPE
  2
BYLAYER
 70
0
  3

 72
65
 73
0
 40
0.0
  0
LTYPE
  2
CONTINUOUS
 70
64
  3
Solid line
 72
65
 73
0
 40
0.0
  0
LTYPE
  2
CENTER
 70
64
  3
____ _ ____ _ ____ _ ____ _ ____ _ ____ _ ____
 72
65
 73
4
 40
0.6
 49
0.375
 49
-0.075
 49
0.075
 49
-0.075
  0
LTYPE
  2
HIDDEN
 70
64
  3
- - - - - - - - - - - - - - - - - - - -
 72
65
 73
2
 40
0.2
 49
0.1
 49
-0.1
  0
LTYPE
  2
PHANTOM
 70
64
  3
_____ _ _ _____ _ _ _____ _ _ _____
 72
65
 73
6
 40
0.8
 49
0.45
 49
-0.05
 49
0.1
 49
-0.05
 49
0.1
 49
-0.05
  0
LTYPE
  2
DOT
 70
64
  3
. . . . . . . . . . . . . . . . . . . .
 72
65
 73
2
 40
0.2
 49
0.1
 49
-0.1
  0
LTYPE
  2
DASHED
 70
64
  3
- - - - - - - - - - - - - - - - - - - -
 72
65
 73
2
 40
0.2
 49
0.1
 49
-0.1
  0
ENDTAB
  0
TABLE
  2
LAYER
 70
36
  0
LAYER
  2
0
 70
0
 62
7
  6
CONTINUOUS
  0
LAYER
  2
DEFAULT_1
 70
0
 62
7
  6
CENTER
  0
LAYER
  2
DEFAULT_2
 70
0
 62
8
  6
HIDDEN
  0
LAYER
  2
DEFAULT_3
 70
0
 62
7
  6
PHANTOM
  0
LAYER
  2
_BLACK_HOLE
 70
0
 62
7
  6
CONTINUOUS
  0
LAYER
  2
01___PRT_ALL_DTM_PLN
 70
0
 62
7
  6
CONTINUOUS
  0
LAYER
  2
01___PRT_DEF_DTM_PLN
 70
0
 62
7
  6
CONTINUOUS
  0
LAYER
  2
02___PRT_ALL_AXES
 70
0
 62
7
  6
CONTINUOUS
  0
LAYER
  2
03___PRT_ALL_CURVES
 70
0
 62
7
  6
CONTINUOUS
  0
LAYER
  2
04___PRT_ALL_DTM_PNT
 70
0
 62
7
  6
CONTINUOUS
  0
LAYER
  2
05___PRT_ALL_DTM_CSYS
 70
0
 62
7
  6
CONTINUOUS
  0
LAYER
  2
05___PRT_DEF_DTM_CSYS
 70
0
 62
7
  6
CONTINUOUS
  0
LAYER
  2
06___PRT_ALL_SURFS
 70
0
 62
7
  6
CONTINUOUS
  0
LAYER
  2
CURVES
 70
0
 62
7
  6
CONTINUOUS
  0
ENDTAB
  0
TABLE
  2
STYLE
 70
1
  0
STYLE
  2
STANDARD
 70
0
 40
0.0
 41
0.6
 50
0.0
 71
0
 42
0.2
  3
txt
  4

  0
ENDTAB
  0
ENDSEC
  0
SECTION
  2
BLOCKS
  0
BLOCK
  8
0
 62
7
  6
CONTINUOUS
  2
*D0
 70
65
 10
0.0
 20
0.0
  0
TEXT
  8
0
 62
7
  6
CONTINUOUS
 10
67.8502028398
 20
149.9047131148
  7
STANDARD
 40
3.0
  1
185
 41
0.6
 72
0
  0
LINE
  8
0
 62
7
  6
CONTINUOUS
 10
136.782100438
 20
243.9047131148
 11
67.5502028398
 21
243.9047131148
  0
LINE
  8
0
 62
7
  6
CONTINUOUS
 10
138.2580226451
 20
58.9047131148
 11
67.5502028398
 21
58.9047131148
  0
LINE
  8
0
 62
7
  6
CONTINUOUS
 10
70.5502028398
 20
243.9047131148
 11
70.5502028398
 21
154.4047131148
  0
LINE
  8
0
 62
7
  6
CONTINUOUS
 10
70.5502028398
 20
58.9047131148
 11
70.5502028398
 21
148.4047131148
  0
INSERT
  8
0
 62
7
  6
CONTINUOUS
  2
_FILLED
 10
70.5502028398
 20
243.9047131148
 41
3.0
 42
3.0
 43
3.0
 50
90.0
  0
INSERT
  8
0
 62
7
  6
CONTINUOUS
  2
_FILLED
 10
70.5502028398
 20
58.9047131148
 41
3.0
 42
3.0
 43
3.0
 50
270.0
  0
ENDBLK
  8
0
  6
BYBLOCK
 62
0
  0
BLOCK
  8
0
 62
7
  6
CONTINUOUS
  2
*D1
 70
65
 10
0.0
 20
0.0
  0
TEXT
  8
0
 62
7
  6
CONTINUOUS
 10
93.2352413793
 20
149.9047131148
  7
STANDARD
 40
3.0
  1
112
 41
0.6
 72
0
  0
LINE
  8
0
 62
7
  6
CONTINUOUS
 10
114.7580226451
 20
207.4047131148
 11
92.9352413793
 21
207.4047131148
  0
LINE
  8
0
 62
7
  6
CONTINUOUS
 10
114.7580226451
 20
95.4047131148
 11
92.9352413793
 21
95.4047131148
  0
LINE
  8
0
 62
7
  6
CONTINUOUS
 10
95.9352413793
 20
207.4047131148
 11
95.9352413793
 21
154.4047131148
  0
LINE
  8
0
 62
7
  6
CONTINUOUS
 10
95.9352413793
 20
95.4047131148
 11
95.9352413793
 21
148.4047131148
  0
INSERT
  8
0
 62
7
  6
CONTINUOUS
  2
_FILLED
 10
95.9352413793
 20
207.4047131148
 41
3.0
 42
3.0
 43
3.0
 50
90.0
  0
INSERT
  8
0
 62
7
  6
CONTINUOUS
  2
_FILLED
 10
95.9352413793
 20
95.4047131148
 41
3.0
 42
3.0
 43
3.0
 50
270.0
  0
ENDBLK
  8
0
  6
BYBLOCK
 62
0
  0
BLOCK
  8
0
 62
7
  6
CONTINUOUS
  2
*D2
 70
65
 10
0.0
 20
0.0
  0
TEXT
  8
0
 62
7
  6
CONTINUOUS
 10
209.4281378074
 20
36.0856221907
  7
STANDARD
 40
3.0
  1
145
 41
0.6
 72
0
  0
LINE
  8
0
 62
7
  6
CONTINUOUS
 10
139.7580226451
 20
57.4047131148
 11
139.7580226451
 21
34.5856221907
  0
LINE
  8
0
 62
7
  6
CONTINUOUS
 10
284.4982529696
 20
114.0898809996
 11
284.4982529696
 21
34.5856221907
  0
LINE
  8
0
 62
7
  6
CONTINUOUS
 10
139.7580226451
 20
37.5856221907
 11
207.9281378074
 21
37.5856221907
  0
LINE
  8
0
 62
7
  6
CONTINUOUS
 10
284.4982529696
 20
37.5856221907
 11
216.3281378074
 21
37.5856221907
  0
INSERT
  8
0
 62
7
  6
CONTINUOUS
  2
_FILLED
 10
139.7580226451
 20
37.5856221907
 41
3.0
 42
3.0
 43
3.0
 50
180.0
  0
INSERT
  8
0
 62
7
  6
CONTINUOUS
  2
_FILLED
 10
284.4982529696
 20
37.5856221907
 41
3.0
 42
3.0
 43
3.0
  0
ENDBLK
  8
0
  6
BYBLOCK
 62
0
  0
BLOCK
  8
0
 62
7
  6
CONTINUOUS
  2
*D3
 70
65
 10
0.0
 20
0.0
  0
TEXT
  8
0
 62
7
  6
CONTINUOUS
 10
316.7574523327
 20
108.2335906651
  7
STANDARD
 40
3.0
  1
102
 41
0.6
 72
0
  0
LINE
  8
0
 62
7
  6
CONTINUOUS
 10
231.2580226451
 20
58.9047131148
 11
322.4574523327
 21
58.9047131148
  0
LINE
  8
0
 62
7
  6
CONTINUOUS
 10
284.427775618
 20
160.5624682155
 11
322.4574523327
 21
160.5624682155
  0
LINE
  8
0
 62
7
  6
CONTINUOUS
 10
319.4574523327
 20
58.9047131148
 11
319.4574523327
 21
106.7335906651
  0
LINE
  8
0
 62
7
  6
CONTINUOUS
 10
319.4574523327
 20
160.5624682155
 11
319.4574523327
 21
112.7335906651
  0
INSERT
  8
0
 62
7
  6
CONTINUOUS
  2
_FILLED
 10
319.4574523327
 20
58.9047131148
 41
3.0
 42
3.0
 43
3.0
 50
270.0
  0
INSERT
  8
0
 62
7
  6
CONTINUOUS
  2
_FILLED
 10
319.4574523327
 20
160.5624682155
 41
3.0
 42
3.0
 43
3.0
 50
90.0
  0
ENDBLK
  8
0
  6
BYBLOCK
 62
0
  0
BLOCK
  8
0
 62
7
  6
CONTINUOUS
  2
*D4
 70
65
 10
0.0
 20
0.0
  0
TEXT
  8
0
 62
7
  6
CONTINUOUS
 10
253.3858297611
 20
238.7908496105
  7
STANDARD
 40
3.0
  1
88%%d
 41
0.6222222222
 72
0
  0
LINE
  8
0
 62
7
  6
CONTINUOUS
 10
252.5083583223
 20
159.500198756
 11
297.311232543
 21
161.0647495993
  0
LINE
  8
0
 62
7
  6
CONTINUOUS
 10
184.7580226451
 20
227.2298901941
 11
184.7580226451
 21
269.7561209661
  0
ARC
  8
0
 62
7
  6
CONTINUOUS
 10
184.7580226451
 20
157.1343049009
 40
109.6218160652
 50
2.0
 51
46.9879108183
  0
ARC
  8
0
 62
7
  6
CONTINUOUS
 10
184.7580226451
 20
157.1343049009
 40
109.6218160652
 50
51.8080171905
 51
90.0
  0
SOLID
  8
0
 62
7
  6
CONTINUOUS
 10
293.4182326333
 20
163.9200821686
 11
294.3130600619
 21
160.9600511092
 12
294.9164622411
 22
163.992938481
 13
294.9164622411
 23
163.992938481
  0
SOLID
  8
0
 62
7
  6
CONTINUOUS
 10
187.7680040316
 20
267.4650018118
 11
184.7580226451
 21
266.7561209661
 12
187.7474795605
 22
265.9651422363
 13
187.7474795605
 23
265.9651422363
  0
ENDBLK
  8
0
  6
BYBLOCK
 62
0
  0
BLOCK
  8
0
 62
7
  6
CONTINUOUS
  2
*D5
 70
65
 10
0.0
 20
0.0
  0
TEXT
  8
0
 62
7
  6
CONTINUOUS
 10
182.9580226451
 20
45.4655898876
  7
STANDARD
 40
3.0
  1
90
 41
0.6
 72
0
  0
LINE
  8
0
 62
7
  6
CONTINUOUS
 10
229.7580226451
 20
57.4047131148
 11
229.7580226451
 21
43.9655898876
  0
LINE
  8
0
 62
7
  6
CONTINUOUS
 10
139.7580226451
 20
57.4047131148
 11
139.7580226451
 21
43.9655898876
  0
LINE
  8
0
 62
7
  6
CONTINUOUS
 10
229.7580226451
 20
46.9655898876
 11
188.0580226451
 21
46.9655898876
  0
LINE
  8
0
 62
7
  6
CONTINUOUS
 10
139.7580226451
 20
46.9655898876
 11
181.4580226451
 21
46.9655898876
  0
INSERT
  8
0
 62
7
  6
CONTINUOUS
  2
_FILLED
 10
229.7580226451
 20
46.9655898876
 41
3.0
 42
3.0
 43
3.0
  0
INSERT
  8
0
 62
7
  6
CONTINUOUS
  2
_FILLED
 10
139.7580226451
 20
46.9655898876
 41
3.0
 42
3.0
 43
3.0
 50
180.0
  0
ENDBLK
  8
0
  6
BYBLOCK
 62
0
  0
BLOCK
  8
0
  2
_FILLED
 70
64
 10
0.0
 20
0.0
  0
SOLID
  8
0
  6
BYBLOCK
 62
0
 10
0.0
 20
0.0
 11
-1.0
 21
0.25
 12
-1.0
 22
-0.25
 13
-1.0
 23
-0.25
  0
ENDBLK
  8
0
  6
BYBLOCK
 62
0
  0
ENDSEC
  0
SECTION
  2
ENTITIES
  0
DIMENSION
  8
0
 62
7
  6
CONTINUOUS
  2
*D0
 10
70.5502028398
 20
58.9047131148
 11
70.5502028398
 21
151.4047131148
 70
128
 13
136.782100438
 23
243.9047131148
 14
138.2580226451
 24
58.9047131148
 50
270.0
  0
DIMENSION
  8
0
 62
7
  6
CONTINUOUS
  2
*D1
 10
95.9352413793
 20
95.4047131148
 11
95.9352413793
 21
151.4047131148
 70
128
 13
114.7580226451
 23
207.4047131148
 14
114.7580226451
 24
95.4047131148
 50
270.0
  0
DIMENSION
  8
0
 62
7
  6
CONTINUOUS
  2
*D2
 10
284.4982529696
 20
37.5856221907
 11
212.1281378074
 21
37.5856221907
 70
128
 13
139.7580226451
 23
57.4047131148
 14
284.4982529696
 24
114.0898809996
  0
DIMENSION
  8
0
 62
7
  6
CONTINUOUS
  2
*D3
 10
319.4574523327
 20
160.5624682155
 11
319.4574523327
 21
109.7335906651
 70
128
 13
231.2580226451
 23
58.9047131148
 14
284.427775618
 24
160.5624682155
 50
90.0
  0
DIMENSION
  8
0
 62
7
  6
CONTINUOUS
  2
*D4
 10
184.7580226451
 20
227.2298901941
 11
256.1858297611
 21
240.2908496105
 70
130
 13
252.5083583223
 23
159.500198756
 14
297.311232543
 24
161.0647495993
 15
184.7580226451
 25
269.7561209661
 16
260.9077347598
 26
235.989640182
  0
DIMENSION
  8
0
 62
7
  6
CONTINUOUS
  2
*D5
 10
139.7580226451
 20
46.9655898876
 11
184.7580226451
 21
46.9655898876
 70
128
 13
229.7580226451
 23
57.4047131148
 14
139.7580226451
 24
57.4047131148
 50
180.0
  0
LINE
  8
0
 62
7
  6
CONTINUOUS
 10
0.0
 20
0.0
 11
0.0
 21
297.0
  0
LINE
  8
0
 62
7
  6
CONTINUOUS
 10
0.0
 20
0.0
 11
420.0
 21
0.0
  0
LINE
  8
0
 62
7
  6
CONTINUOUS
 10
0.0
 20
297.0
 11
420.0
 21
297.0
  0
LINE
  8
0
 62
7
  6
CONTINUOUS
 10
420.0
 20
0.0
 11
420.0
 21
297.0
  0
LINE
  8
02___PRT_ALL_AXES
 62
7
  6
CONTINUOUS
 10
229.7580226451
 20
58.9047131148
 11
139.7580226451
 21
58.9047131148
  0
LINE
  8
02___PRT_ALL_AXES
 62
7
  6
CONTINUOUS
 10
116.2580226451
 20
95.4047376731
 11
116.2580226451
 21
207.4046885564
  0
LINE
  8
02___PRT_ALL_AXES
 62
7
  6
CONTINUOUS
 10
127.7580226451
 20
207.4046885566
 11
127.7580226451
 21
95.4047376729
  0
LINE
  8
0
 62
9
  6
CONTINUOUS
 10
131.2580226451
 20
105.4047131148
 11
131.2580226451
 21
197.4047131148
  0
LINE
  8
0
 62
7
  6
CONTINUOUS
 10
134.2580226451
 20
108.4047131148
 11
134.2580226451
 21
194.4047131148
  0
LINE
  8
0
 62
7
  6
CONTINUOUS
 10
137.7580226451
 20
233.9047131148
 11
138.282100438
 21
243.9047131148
  0
LINE
  8
02___PRT_ALL_AXES
 62
7
  6
CONTINUOUS
 10
139.7580226451
 20
232.7500125764
 11
139.7580226451
 21
199.9047131148
  0
LINE
  8
02___PRT_ALL_AXES
 62
7
  6
CONTINUOUS
 10
139.7580226451
 20
102.9047131148
 11
139.7580226451
 21
58.9047131148
  0
LINE
  8
0
 62
7
  6
CONTINUOUS
 10
143.7580226451
 20
197.595312038
 11
143.7580226451
 21
191.4047131148
  0
LINE
  8
0
 62
7
  6
CONTINUOUS
 10
143.7580226451
 20
111.4047131148
 11
143.7580226451
 21
105.2141141915
  0
LINE
  8
0
 62
7
  6
CONTINUOUS
 10
144.0548286673
 20
202.9047131148
 11
144.0548286673
 21
205.9047131148
  0
LINE
  8
0
 62
7
  6
CONTINUOUS
 10
229.7580226451
 20
232.7500125764
 11
231.7580226451
 21
233.9047131148
  0
LINE
  8
02___PRT_ALL_AXES
 62
7
  6
CONTINUOUS
 10
127.7580226451
 20
95.4047131148
 11
116.2580226451
 21
95.4047131148
  0
LINE
  8
02___PRT_ALL_AXES
 62
7
  6
CONTINUOUS
 10
127.7580226451
 20
97.4417501518
 11
116.2580226451
 21
97.4417501518
  0
LINE
  8
02___PRT_ALL_AXES
 62
7
  6
CONTINUOUS
 10
127.7580226451
 20
102.6393413104
 11
116.2580226451
 21
102.6393413104
  0
LINE
  8
02___PRT_ALL_AXES
 62
7
  6
CONTINUOUS
 10
229.7580226451
 20
102.9047131148
 11
139.7580226451
 21
102.9047131148
  0
LINE
  8
0
 62
7
  6
CONTINUOUS
 10
225.7580226451
 20
105.2141141915
 11
143.7580226451
 21
105.2141141915
  0
LINE
  8
02___PRT_ALL_AXES
 62
7
  6
CONTINUOUS
 10
131.2580226451
 20
105.4047131148
 11
127.7580226451
 21
105.4047131148
  0
LINE
  8
02___PRT_ALL_AXES
 62
7
  6
CONTINUOUS
 10
127.7580226451
 20
105.6712448429
 11
116.2580226451
 21
105.6712448429
  0
LINE
  8
0
 62
9
  6
CONTINUOUS
 10
225.7580226451
 20
105.9047131148
 11
184.7580226451
 21
105.9047131148
  0
LINE
  8
0
 62
7
  6
CONTINUOUS
 10
161.2580226451
 20
202.9047131148
 11
161.2580226451
 21
205.9047131148
  0
LINE
  8
0
 62
7
  6
CONTINUOUS
 10
162.2580226451
 20
205.9047131148
 11
162.2580226451
 21
202.9047131148
  0
LINE
  8
0
 62
7
  6
CONTINUOUS
 10
224.3772421448
 20
197.595312038
 11
227.3400922874
 21
198.8127118058
  0
LINE
  8
0
 62
7
  6
CONTINUOUS
 10
227.3400922874
 20
198.8127118058
 11
229.1530701887
 21
199.5554436512
  0
LINE
  8
02___PRT_ALL_AXES
 62
7
  6
CONTINUOUS
 10
284.4982529696
 20
115.5898809996
 11
240.5250565808
 21
114.0543031447
  0
LINE
  8
0
 62
7
  6
CONTINUOUS
 10
238.0774643419
 20
117.9712695175
 11
237.3872861129
 21
117.9471679627
  0
LINE
  8
02___PRT_ALL_AXES
 62
7
  6
CONTINUOUS
 10
143.7580226451
 20
111.4047131148
 11
134.2580226451
 21
111.4047131148
  0
LINE
  8
02___PRT_ALL_AXES
 62
7
  6
CONTINUOUS
 10
229.7580226451
 20
199.9047131148
 11
229.1530701887
 21
199.5554436512
  0
LINE
  8
02___PRT_ALL_AXES
 62
7
  6
CONTINUOUS
 10
127.7580226451
 20
122.4047131148
 11
116.2580226451
 21
122.4047131148
  0
LINE
  8
02___PRT_ALL_AXES
 62
7
  6
CONTINUOUS
 10
127.7580226451
 20
126.1549854245
 11
116.2580226451
 21
126.1549854245
  0
LINE
  8
02___PRT_ALL_AXES
 62
7
  6
CONTINUOUS
 10
225.7580226451
 20
105.2141141915
 11
229.7580226451
 21
102.9047131148
  0
LINE
  8
02___PRT_ALL_AXES
 62
7
  6
CENTER
 10
184.7580226451
 20
246.4047131148
 11
184.7580226451
 21
53.1191905005
  0
POLYLINE
  8
0
 62
7
  6
CONTINUOUS
 66
1
 70
0
  0
VERTEX
  8
0
 62
7
  6
CONTINUOUS
 10
224.3772421448
 20
197.595312038
  0
VERTEX
  8
0
 62
7
  6
CONTINUOUS
 10
223.9213015696
 20
197.066194642
  0
VERTEX
  8
0
 62
7
  6
CONTINUOUS
 10
223.4048865179
 20
196.463163097
  0
VERTEX
  8
0
 62
7
  6
CONTINUOUS
 10
222.8301821656
 20
195.7873091515
  0
VERTEX
  8
0
 62
7
  6
CONTINUOUS
 10
222.199599101
 20
195.0398456968
  0
VERTEX
  8
0
 62
7
  6
CONTINUOUS
 10
221.5157563828
 20
194.2221009593
  0
VERTEX
  8
0
 62
7
  6
CONTINUOUS
 10
220.7814634038
 20
193.3355121897
  0
VERTEX
  8
0
 62
7
  6
CONTINUOUS
 10
219.9997007562
 20
192.3816188949
  0
VERTEX
  8
0
 62
7
  6
CONTINUOUS
 10
219.1736003072
 20
191.3620556581
  0
VERTEX
  8
0
 62
7
  6
CONTINUOUS
 10
218.3064246915
 20
190.2785445978
  0
VERTEX
  8
0
 62
7
  6
CONTINUOUS
 10
217.4015464357
 20
189.1328875168
  0
VERTEX
  8
0
 62
7
  6
CONTINUOUS
 10
216.4624269202
 20
187.9269577941
  0
VERTEX
  8
0
 62
7
  6
CONTINUOUS
 10
215.4925953886
 20
186.6626920734
  0
VERTEX
  8
0
 62
7
  6
CONTINUOUS
 10
214.4956281988
 20
185.3420818042
  0
VERTEX
  8
0
 62
7
  6
CONTINUOUS
 10
213.4751285077
 20
183.9671646879
  0
VERTEX
  8
0
 62
7
  6
CONTINUOUS
 10
212.4347065653
 20
182.540016086
  0
VERTEX
  8
0
 62
7
  6
CONTINUOUS
 10
211.3779607826
 20
181.0627404429
  0
VERTEX
  8
0
 62
7
  6
CONTINUOUS
 10
210.308459722
 20
179.537462776
  0
VERTEX
  8
0
 62
7
  6
CONTINUOUS
 10
209.2297251405
 20
177.9663202849
  0
VERTEX
  8
0
 62
7
  6
CONTINUOUS
 10
208.145216203
 20
176.3514541293
  0
VERTEX
  8
0
 62
7
  6
CONTINUOUS
 10
207.0583149577
 20
174.6950014226
  0
VERTEX
  8
0
 62
7
  6
CONTINUOUS
 10
205.9723131548
 20
172.9990874861
  0
VERTEX
  8
0
 62
7
  6
CONTINUOUS
 10
204.8904004624
 20
171.265818407
  0
VERTEX
  8
0
 62
7
  6
CONTINUOUS
 10
203.8156541235
 20
169.4972739382
  0
VERTEX
  8
0
 62
7
  6
CONTINUOUS
 10
202.7510300709
 20
167.6955007778
  0
VERTEX
  8
0
 62
7
  6
CONTINUOUS
 10
201.699355507
 20
165.86250626
  0
VERTEX
  8
0
 62
7
  6
CONTINUOUS
 10
200.6633229328
 20
164.0002524881
  0
VERTEX
  8
0
 62
7
  6
CONTINUOUS
 10
199.6454855983
 20
162.1106509353
  0
VERTEX
  8
0
 62
7
  6
CONTINUOUS
 10
198.6482543308
 20
160.1955575365
  0
VERTEX
  8
0
 62
7
  6
CONTINUOUS
 10
197.6738956836
 20
158.2567682898
  0
VERTEX
  8
0
 62
7
  6
CONTINUOUS
 10
196.7245313379
 20
156.2960153841
  0
VERTEX
  8
0
 62
7
  6
CONTINUOUS
 10
195.8021386792
 20
154.3149638644
  0
VERTEX
  8
0
 62
7
  6
CONTINUOUS
 10
194.90855246
 20
152.315208843
  0
VERTEX
  8
0
 62
7
  6
CONTINUOUS
 10
194.0454674559
 20
150.2982732639
  0
VERTEX
  8
0
 62
7
  6
CONTINUOUS
 10
193.2144420145
 20
148.2656062196
  0
VERTEX
  8
0
 62
7
  6
CONTINUOUS
 10
192.4169023929
 20
146.2185818212
  0
VERTEX
  8
0
 62
7
  6
CONTINUOUS
 10
191.6541477769
 20
144.158498617
  0
VERTEX
  8
0
 62
7
  6
CONTINUOUS
 10
190.9273558748
 20
142.0865795513
  0
VERTEX
  8
0
 62
7
  6
CONTINUOUS
 10
190.2375889746
 20
140.0039724545
  0
VERTEX
  8
0
 62
7
  6
CONTINUOUS
 10
189.5858003609
 20
137.9117510513
  0
VERTEX
  8
0
 62
7
  6
CONTINUOUS
 10
188.9728409818
 20
135.8109164716
  0
VERTEX
  8
0
 62
7
  6
CONTINUOUS
 10
188.3994662667
 20
133.7023992461
  0
VERTEX
  8
0
 62
7
  6
CONTINUOUS
 10
187.8663429935
 20
131.5870617672
  0
VERTEX
  8
0
 62
7
  6
CONTINUOUS
 10
187.374056112
 20
129.4657011931
  0
VERTEX
  8
0
 62
7
  6
CONTINUOUS
 10
186.9231154333
 20
127.3390527709
  0
VERTEX
  8
0
 62
7
  6
CONTINUOUS
 10
186.5139621007
 20
125.2077935531
  0
VERTEX
  8
0
 62
7
  6
CONTINUOUS
 10
186.1469747657
 20
123.0725464803
  0
VERTEX
  8
0
 62
7
  6
CONTINUOUS
 10
185.8224753942
 20
120.9338848018
  0
VERTEX
  8
0
 62
7
  6
CONTINUOUS
 10
185.5407346401
 20
118.7923368027
  0
VERTEX
  8
0
 62
7
  6
CONTINUOUS
 10
185.3019767255
 20
116.6483908079
  0
VERTEX
  8
0
 62
7
  6
CONTINUOUS
 10
185.1063837762
 20
114.5025004297
  0
VERTEX
  8
0
 62
7
  6
CONTINUOUS
 10
184.9540995673
 20
112.3550900259
  0
VERTEX
  8
0
 62
7
  6
CONTINUOUS
 10
184.8452326505
 20
110.2065605909
  0
VERTEX
  8
0
 62
7
  6
CONTINUOUS
 10
184.7798585598
 20
108.057284415
  0
VERTEX
  8
0
 62
7
  6
CONTINUOUS
 10
184.7580226451
 20
105.9047131148
  0
SEQEND
  0
POLYLINE
  8
02___PRT_ALL_AXES
 62
7
  6
CONTINUOUS
 66
1
 70
0
  0
VERTEX
  8
02___PRT_ALL_AXES
 62
7
  6
CONTINUOUS
 10
149.3567306065
 20
117.1665548991
  0
VERTEX
  8
02___PRT_ALL_AXES
 62
7
  6
CONTINUOUS
 10
150.7712129783
 20
118.6311989405
  0
VERTEX
  8
02___PRT_ALL_AXES
 62
7
  6
CONTINUOUS
 10
152.3618189352
 20
120.2837553079
  0
VERTEX
  8
02___PRT_ALL_AXES
 62
7
  6
CONTINUOUS
 10
154.1485721271
 20
122.1482871365
  0
VERTEX
  8
02___PRT_ALL_AXES
 62
7
  6
CONTINUOUS
 10
156.1552750424
 20
124.2548112654
  0
VERTEX
  8
02___PRT_ALL_AXES
 62
7
  6
CONTINUOUS
 10
158.3735969048
 20
126.6027389666
  0
VERTEX
  8
02___PRT_ALL_AXES
 62
7
  6
CONTINUOUS
 10
160.6390884245
 20
129.0278726779
  0
VERTEX
  8
02___PRT_ALL_AXES
 62
7
  6
CONTINUOUS
 10
162.8197129573
 20
131.3974786242
  0
VERTEX
  8
02___PRT_ALL_AXES
 62
7
  6
CONTINUOUS
 10
164.8752899068
 20
133.675554614
  0
VERTEX
  8
02___PRT_ALL_AXES
 62
7
  6
CONTINUOUS
 10
166.7741294138
 20
135.8348571182
  0
VERTEX
  8
02___PRT_ALL_AXES
 62
7
  6
CONTINUOUS
 10
168.4904069419
 20
137.8535020741
  0
VERTEX
  8
02___PRT_ALL_AXES
 62
7
  6
CONTINUOUS
 10
170.0045822014
 20
139.7143750133
  0
VERTEX
  8
02___PRT_ALL_AXES
 62
7
  6
CONTINUOUS
 10
171.3132680646
 20
141.4166489514
  0
VERTEX
  8
02___PRT_ALL_AXES
 62
7
  6
CONTINUOUS
 10
172.4294651089
 20
142.9789590877
  0
VERTEX
  8
02___PRT_ALL_AXES
 62
7
  6
CONTINUOUS
 10
173.3697080193
 20
144.4266252665
  0
VERTEX
  8
02___PRT_ALL_AXES
 62
7
  6
CONTINUOUS
 10
174.1496395378
 20
145.7888612514
  0
VERTEX
  8
02___PRT_ALL_AXES
 62
7
  6
CONTINUOUS
 10
174.7693807599
 20
147.07193494
  0
VERTEX
  8
02___PRT_ALL_AXES
 62
7
  6
CONTINUOUS
 10
175.2250688584
 20
148.2619105596
  0
VERTEX
  8
02___PRT_ALL_AXES
 62
7
  6
CONTINUOUS
 10
175.5298105229
 20
149.3651300759
  0
VERTEX
  8
02___PRT_ALL_AXES
 62
7
  6
CONTINUOUS
 10
175.7023662544
 20
150.4022597905
  0
VERTEX
  8
02___PRT_ALL_AXES
 62
7
  6
CONTINUOUS
 10
175.7580215066
 20
151.4001861443
  0
VERTEX
  8
02___PRT_ALL_AXES
 62
7
  6
CONTINUOUS
 10
175.7034299445
 20
152.3975116712
  0
VERTEX
  8
02___PRT_ALL_AXES
 62
7
  6
CONTINUOUS
 10
175.5321483511
 20
153.4336922889
  0
VERTEX
  8
02___PRT_ALL_AXES
 62
7
  6
CONTINUOUS
 10
175.2287245165
 20
154.5364095918
  0
VERTEX
  8
02___PRT_ALL_AXES
 62
7
  6
CONTINUOUS
 10
174.7740351472
 20
155.7267504074
  0
VERTEX
  8
02___PRT_ALL_AXES
 62
7
  6
CONTINUOUS
 10
174.1544407571
 20
157.0114901618
  0
VERTEX
  8
02___PRT_ALL_AXES
 62
7
  6
CONTINUOUS
 10
173.373856669
 20
158.3760282685
  0
VERTEX
  8
02___PRT_ALL_AXES
 62
7
  6
CONTINUOUS
 10
172.4329084504
 20
159.8254280436
  0
VERTEX
  8
02___PRT_ALL_AXES
 62
7
  6
CONTINUOUS
 10
171.3160153004
 20
161.3890789662
  0
VERTEX
  8
02___PRT_ALL_AXES
 62
7
  6
CONTINUOUS
 10
170.006332784
 20
163.0928418683
  0
VERTEX
  8
02___PRT_ALL_AXES
 62
7
  6
CONTINUOUS
 10
168.490452724
 20
164.955869196
  0
VERTEX
  8
02___PRT_ALL_AXES
 62
7
  6
CONTINUOUS
 10
166.7724067547
 20
166.9765588294
  0
VERTEX
  8
02___PRT_ALL_AXES
 62
7
  6
CONTINUOUS
 10
164.8726351368
 20
169.1368488112
  0
VERTEX
  8
02___PRT_ALL_AXES
 62
7
  6
CONTINUOUS
 10
162.8170400873
 20
171.4148784215
  0
VERTEX
  8
02___PRT_ALL_AXES
 62
7
  6
CONTINUOUS
 10
160.6372056165
 20
173.7835829283
  0
VERTEX
  8
02___PRT_ALL_AXES
 62
7
  6
CONTINUOUS
 10
158.3726268504
 20
176.2077192076
  0
VERTEX
  8
02___PRT_ALL_AXES
 62
7
  6
CONTINUOUS
 10
156.1551785521
 20
178.5547166177
  0
VERTEX
  8
02___PRT_ALL_AXES
 62
7
  6
CONTINUOUS
 10
154.1486853734
 20
180.6610206093
  0
VERTEX
  8
02___PRT_ALL_AXES
 62
7
  6
CONTINUOUS
 10
152.3618460672
 20
182.5256426778
  0
VERTEX
  8
02___PRT_ALL_AXES
 62
7
  6
CONTINUOUS
 10
150.7712254483
 20
184.1782143574
  0
VERTEX
  8
02___PRT_ALL_AXES
 62
7
  6
CONTINUOUS
 10
149.356799368
 20
185.642800233
  0
VERTEX
  8
02___PRT_ALL_AXES
 62
7
  6
CONTINUOUS
 10
148.1190852689
 20
186.921071769
  0
VERTEX
  8
02___PRT_ALL_AXES
 62
7
  6
CONTINUOUS
 10
146.1515881784
 20
188.9474458634
  0
SEQEND
  0
LINE
  8
02___PRT_ALL_AXES
 62
7
  6
CONTINUOUS
 10
147.0537518325
 20
114.7903438383
 11
149.3567306065
 21
117.1665548991
  0
POLYLINE
  8
02___PRT_ALL_AXES
 62
7
  6
CONTINUOUS
 66
1
 70
0
  0
VERTEX
  8
02___PRT_ALL_AXES
 62
7
  6
CONTINUOUS
 10
143.7580226451
 20
111.4047131148
  0
VERTEX
  8
02___PRT_ALL_AXES
 62
7
  6
CONTINUOUS
 10
143.822020434
 20
111.4703134444
  0
VERTEX
  8
02___PRT_ALL_AXES
 62
7
  6
CONTINUOUS
 10
147.0537518325
 20
114.7903438383
  0
SEQEND
  0
LINE
  8
02___PRT_ALL_AXES
 62
7
  6
CONTINUOUS
 10
146.1515881784
 20
188.9474458634
 11
143.7580226451
 21
191.4047131148
  0
LINE
  8
02___PRT_ALL_AXES
 62
7
  6
CONTINUOUS
 10
127.7580226451
 20
149.4047131148
 11
116.2580226451
 21
149.4047131148
  0
LINE
  8
0
 62
7
  6
CONTINUOUS
 10
207.2580226451
 20
205.9047131148
 11
207.2580226451
 21
202.9047131148
  0
LINE
  8
0
 62
7
  6
CONTINUOUS
 10
208.2580226451
 20
202.9047131148
 11
208.2580226451
 21
205.9047131148
  0
LINE
  8
02___PRT_ALL_AXES
 62
7
  6
CONTINUOUS
 10
237.3841018776
 20
203.9994775764
 11
235.2157056123
 21
199.9213173331
  0
LINE
  8
02___PRT_ALL_AXES
 62
7
  6
CENTER
 10
285.4262526856
 20
160.6497169572
 11
173.5925905231
 21
156.7443994195
  0
LINE
  8
02___PRT_ALL_AXES
 62
7
  6
CONTINUOUS
 10
127.7580226451
 20
153.4047131148
 11
116.2580226451
 21
153.4047131148
  0
LINE
  8
02___PRT_ALL_AXES
 62
7
  6
CONTINUOUS
 10
143.7580226451
 20
105.2141141915
 11
139.7580226451
 21
102.9047131148
  0
LINE
  8
02___PRT_ALL_AXES
 62
7
  6
CONTINUOUS
 10
139.7580226451
 20
199.9047131148
 11
143.7580226451
 21
197.595312038
  0
LINE
  8
02___PRT_ALL_AXES
 62
7
  6
CONTINUOUS
 10
240.5250565808
 20
114.0543031447
 11
238.0774643419
 21
117.9712695175
  0
LINE
  8
0
 62
7
  6
CONTINUOUS
 10
225.461216623
 20
202.9047131148
 11
225.461216623
 21
205.9047131148
  0
LINE
  8
0
 62
7
  6
CONTINUOUS
 10
225.7580226451
 20
105.9047131148
 11
225.7580226451
 21
105.2141141915
  0
LINE
  8
02___PRT_ALL_AXES
 62
7
  6
CONTINUOUS
 10
127.7580226451
 20
176.654440805
 11
116.2580226451
 21
176.654440805
  0
LINE
  8
02___PRT_ALL_AXES
 62
7
  6
CONTINUOUS
 10
229.7580226451
 20
232.7500125764
 11
229.7580226451
 21
199.9047131148
  0
LINE
  8
02___PRT_ALL_AXES
 62
7
  6
CONTINUOUS
 10
229.7580226451
 20
102.9047131148
 11
229.7580226451
 21
58.9047131148
  0
LINE
  8
02___PRT_ALL_AXES
 62
7
  6
CONTINUOUS
 10
127.7580226451
 20
180.4047131148
 11
116.2580226451
 21
180.4047131148
  0
LINE
  8
0
 62
7
  6
CONTINUOUS
 10
231.7580226451
 20
233.9047131148
 11
231.2339448523
 21
243.9047131148
  0
LINE
  8
0
 62
9
  6
CONTINUOUS
 10
237.3872861129
 20
117.9471679627
 11
234.5255273833
 21
199.8972157783
  0
LINE
  8
0
 62
7
  6
CONTINUOUS
 10
238.0774643419
 20
117.9712695175
 11
235.2157056123
 21
199.9213173331
  0
LINE
  8
02___PRT_ALL_AXES
 62
7
  6
CONTINUOUS
 10
240.5250565808
 20
114.0543031447
 11
237.3841018776
 21
203.9994775764
  0
LINE
  8
02___PRT_ALL_AXES
 62
7
  6
CONTINUOUS
 10
143.7580226451
 20
191.4047131148
 11
134.2580226451
 21
191.4047131148
  0
LINE
  8
0
 62
7
  6
CONTINUOUS
 10
139.7580226451
 20
232.7500125764
 11
137.7580226451
 21
233.9047131148
  0
LINE
  8
0
 62
7
  6
CONTINUOUS
 10
234.5255273833
 20
199.8972157783
 11
229.1530701887
 21
199.5554436512
  0
LINE
  8
0
 62
7
  6
CONTINUOUS
 10
235.2157056123
 20
199.9213173331
 11
234.5255273833
 21
199.8972157783
  0
LINE
  8
02___PRT_ALL_AXES
 62
7
  6
CONTINUOUS
 10
127.7580226451
 20
197.1381813866
 11
116.2580226451
 21
197.1381813866
  0
LINE
  8
02___PRT_ALL_AXES
 62
7
  6
CONTINUOUS
 10
131.2580226451
 20
197.4047131148
 11
127.7580226451
 21
197.4047131148
  0
LINE
  8
0
 62
7
  6
CONTINUOUS
 10
224.3772421448
 20
197.595312038
 11
143.7580226451
 21
197.595312038
  0
LINE
  8
02___PRT_ALL_AXES
 62
7
  6
CONTINUOUS
 10
229.7580226451
 20
199.9047131148
 11
139.7580226451
 21
199.9047131148
  0
LINE
  8
02___PRT_ALL_AXES
 62
7
  6
CONTINUOUS
 10
127.7580226451
 20
200.1700849191
 11
116.2580226451
 21
200.1700849191
  0
LINE
  8
02___PRT_ALL_AXES
 62
7
  6
CONTINUOUS
 10
281.3572982664
 20
205.5350554314
 11
237.3841018776
 21
203.9994775764
  0
LINE
  8
0
 62
7
  6
CONTINUOUS
 10
162.2580226451
 20
202.9047131148
 11
144.0548286673
 21
202.9047131148
  0
LINE
  8
0
 62
7
  6
CONTINUOUS
 10
207.2580226451
 20
202.9047131148
 11
225.461216623
 21
202.9047131148
  0
LINE
  8
02___PRT_ALL_AXES
 62
7
  6
CONTINUOUS
 10
127.7580226451
 20
205.3676760777
 11
116.2580226451
 21
205.3676760777
  0
LINE
  8
0
 62
7
  6
CONTINUOUS
 10
225.461216623
 20
205.9047131148
 11
207.2580226451
 21
205.9047131148
  0
LINE
  8
0
 62
7
  6
CONTINUOUS
 10
144.0548286673
 20
205.9047131148
 11
162.2580226451
 21
205.9047131148
  0
LINE
  8
02___PRT_ALL_AXES
 62
7
  6
CONTINUOUS
 10
127.7580226451
 20
207.4047131148
 11
116.2580226451
 21
207.4047131148
  0
LINE
  8
02___PRT_ALL_AXES
 62
7
  6
CONTINUOUS
 10
284.4982529696
 20
115.5898809996
 11
281.3572982664
 21
205.5350554314
  0
LINE
  8
0
 62
7
  6
CONTINUOUS
 10
229.7580226451
 20
232.7500125764
 11
139.7580226451
 21
232.7500125764
  0
LINE
  8
0
 62
7
  6
CONTINUOUS
 10
231.7580226451
 20
233.9047131148
 11
137.7580226451
 21
233.9047131148
  0
LINE
  8
0
 62
7
  6
CONTINUOUS
 10
231.2339448523
 20
243.9047131148
 11
138.282100438
 21
243.9047131148
  0
ARC
  8
0
 62
7
  6
CONTINUOUS
 10
237.8078179028
 20
105.9047131148
 40
12.0497952576
 50
92.0
 51
180.0
  0
ARC
  8
0
 62
7
  6
CONTINUOUS
 10
131.2580226451
 20
108.4047131148
 40
3.0
 50
270.0
 51
360.0
  0
ARC
  8
0
 62
7
  6
CONTINUOUS
 10
131.2580226451
 20
194.4047131148
 40
3.0
 50
0.0
 51
90.0
  0
ENDSEC
  0
EOF
