  0
SECTION
  2
HEADER
  9
$ACADVER
  1
AC1021
  9
$ACADMAINTVER
 70
    25
  9
$DWGCODEPAGE
  3
ANSI_1252
  9
$INSBASE
 10
0.0
 20
0.0
 30
0.0
  9
$EXTMIN
 10
0.0
 20
0.0
 30
0.0
  9
$EXTMAX
 10
210.0
 20
297.0
 30
0.0
  9
$LIMMIN
 10
0.0
 20
0.0
  9
$LIMMAX
 10
210.0
 20
297.0
  9
$ORTHOMODE
 70
     0
  9
$REGENMODE
 70
     1
  9
$FILLMODE
 70
     1
  9
$QTEXTMODE
 70
     0
  9
$MIRRTEXT
 70
     1
  9
$LTSCALE
 40
10.0
  9
$ATTMODE
 70
     1
  9
$TEXTSIZE
 40
3.5
  9
$TRACEWID
 40
1.0
  9
$TEXTSTYLE
  7
Standard
  9
$CLAYER
  8
0
  9
$CELTYPE
  6
ByLayer
  9
$CECOLOR
 62
   256
  9
$CELTSCALE
 40
1.0
  9
$DISPSILH
 70
     0
  9
$DIMSCALE
 40
1.0
  9
$DIMASZ
 40
3.302
  9
$DIMEXO
 40
1.0
  9
$DIMDLI
 40
3.75
  9
$DIMRND
 40
0.0
  9
$DIMDLE
 40
0.0
  9
$DIMEXE
 40
1.0
  9
$DIMTP
 40
0.0
  9
$DIMTM
 40
0.0
  9
$DIMTXT
 40
3.5
  9
$DIMCEN
 40
2.5
  9
$DIMTSZ
 40
0.0
  9
$DIMTOL
 70
     0
  9
$DIMLIM
 70
     0
  9
$DIMTIH
 70
     1
  9
$DIMTOH
 70
     1
  9
$DIMSE1
 70
     0
  9
$DIMSE2
 70
     0
  9
$DIMTAD
 70
     1
  9
$DIMZIN
 70
     1
  9
$DIMBLK
  1

  9
$DIMASO
 70
     1
  9
$DIMSHO
 70
     1
  9
$DIMPOST
  1

  9
$DIMAPOST
  1

  9
$DIMALT
 70
     0
  9
$DIMALTD
 70
     3
  9
$DIMALTF
 40
0.0393700787
  9
$DIMLFAC
 40
1.0
  9
$DIMTOFL
 70
     1
  9
$DIMTVP
 40
0.0
  9
$DIMTIX
 70
     0
  9
$DIMSOXD
 70
     0
  9
$DIMSAH
 70
     0
  9
$DIMBLK1
  1

  9
$DIMBLK2
  1

  9
$DIMSTYLE
  2
ISO-25
  9
$DIMCLRD
 70
     0
  9
$DIMCLRE
 70
     0
  9
$DIMCLRT
 70
     0
  9
$DIMTFAC
 40
1.0
  9
$DIMGAP
 40
1.524
  9
$DIMJUST
 70
     0
  9
$DIMSD1
 70
     0
  9
$DIMSD2
 70
     0
  9
$DIMTOLJ
 70
     0
  9
$DIMTZIN
 70
     1
  9
$DIMALTZ
 70
     0
  9
$DIMALTTZ
 70
     0
  9
$DIMUPT
 70
     0
  9
$DIMDEC
 70
     2
  9
$DIMTDEC
 70
     2
  9
$DIMALTU
 70
     2
  9
$DIMALTTD
 70
     3
  9
$DIMTXSTY
  7
Standard
  9
$DIMAUNIT
 70
     0
  9
$DIMADEC
 70
     2
  9
$DIMALTRND
 40
0.0
  9
$DIMAZIN
 70
     0
  9
$DIMDSEP
 70
    44
  9
$DIMATFIT
 70
     3
  9
$DIMFRAC
 70
     0
  9
$DIMLDRBLK
  1

  9
$DIMLUNIT
 70
     2
  9
$DIMLWD
 70
    -2
  9
$DIMLWE
 70
    -2
  9
$DIMTMOVE
 70
     0
  9
$DIMFXL
 40
1.0
  9
$DIMFXLON
 70
     0
  9
$DIMJOGANG
 40
0.7853981634
  9
$DIMTFILL
 70
     0
  9
$DIMTFILLCLR
 70
     0
  9
$DIMARCSYM
 70
     0
  9
$DIMLTYPE
  6

  9
$DIMLTEX1
  6

  9
$DIMLTEX2
  6

  9
$LUNITS
 70
     2
  9
$LUPREC
 70
     2
  9
$SKETCHINC
 40
1.0
  9
$FILLETRAD
 40
10.0
  9
$AUNITS
 70
     0
  9
$AUPREC
 70
     2
  9
$MENU
  1
.
  9
$ELEVATION
 40
0.0
  9
$PELEVATION
 40
0.0
  9
$THICKNESS
 40
0.0
  9
$LIMCHECK
 70
     0
  9
$CHAMFERA
 40
10.0
  9
$CHAMFERB
 40
10.0
  9
$CHAMFERC
 40
20.0
  9
$CHAMFERD
 40
0.0
  9
$SKPOLY
 70
     0
  9
$TDCREATE
 40
2456142.646378576
  9
$TDUCREATE
 40
2456142.146378576
  9
$TDUPDATE
 40
2456142.646378588
  9
$TDUUPDATE
 40
2456142.146378588
  9
$TDINDWG
 40
0.0000000116
  9
$TDUSRTIMER
 40
0.0000000116
  9
$USRTIMER
 70
     1
  9
$ANGBASE
 50
0.0
  9
$ANGDIR
 70
     0
  9
$PDMODE
 70
     0
  9
$PDSIZE
 40
-1.0
  9
$PLINEWID
 40
0.0
  9
$SPLFRAME
 70
     0
  9
$SPLINETYPE
 70
     6
  9
$SPLINESEGS
 70
     8
  9
$HANDSEED
  5
29A
  9
$SURFTAB1
 70
     6
  9
$SURFTAB2
 70
     6
  9
$SURFTYPE
 70
     6
  9
$SURFU
 70
     6
  9
$SURFV
 70
     6
  9
$UCSBASE
  2

  9
$UCSNAME
  2

  9
$UCSORG
 10
0.0
 20
0.0
 30
0.0
  9
$UCSXDIR
 10
1.0
 20
0.0
 30
0.0
  9
$UCSYDIR
 10
0.0
 20
1.0
 30
0.0
  9
$UCSORTHOREF
  2

  9
$UCSORTHOVIEW
 70
     0
  9
$UCSORGTOP
 10
0.0
 20
0.0
 30
0.0
  9
$UCSORGBOTTOM
 10
0.0
 20
0.0
 30
0.0
  9
$UCSORGLEFT
 10
0.0
 20
0.0
 30
0.0
  9
$UCSORGRIGHT
 10
0.0
 20
0.0
 30
0.0
  9
$UCSORGFRONT
 10
0.0
 20
0.0
 30
0.0
  9
$UCSORGBACK
 10
0.0
 20
0.0
 30
0.0
  9
$PUCSBASE
  2

  9
$PUCSNAME
  2

  9
$PUCSORG
 10
0.0
 20
0.0
 30
0.0
  9
$PUCSXDIR
 10
1.0
 20
0.0
 30
0.0
  9
$PUCSYDIR
 10
0.0
 20
1.0
 30
0.0
  9
$PUCSORTHOREF
  2

  9
$PUCSORTHOVIEW
 70
     0
  9
$PUCSORGTOP
 10
0.0
 20
0.0
 30
0.0
  9
$PUCSORGBOTTOM
 10
0.0
 20
0.0
 30
0.0
  9
$PUCSORGLEFT
 10
0.0
 20
0.0
 30
0.0
  9
$PUCSORGRIGHT
 10
0.0
 20
0.0
 30
0.0
  9
$PUCSORGFRONT
 10
0.0
 20
0.0
 30
0.0
  9
$PUCSORGBACK
 10
0.0
 20
0.0
 30
0.0
  9
$USERI1
 70
     0
  9
$USERI2
 70
     0
  9
$USERI3
 70
     0
  9
$USERI4
 70
     0
  9
$USERI5
 70
     0
  9
$USERR1
 40
0.0
  9
$USERR2
 40
0.0
  9
$USERR3
 40
0.0
  9
$USERR4
 40
0.0
  9
$USERR5
 40
0.0
  9
$WORLDVIEW
 70
     1
  9
$SHADEDGE
 70
     3
  9
$SHADEDIF
 70
    70
  9
$TILEMODE
 70
     1
  9
$MAXACTVP
 70
    64
  9
$PINSBASE
 10
0.0
 20
0.0
 30
0.0
  9
$PLIMCHECK
 70
     0
  9
$PEXTMIN
 10
1.0000000000E+20
 20
1.0000000000E+20
 30
1.0000000000E+20
  9
$PEXTMAX
 10
-1.0000000000E+20
 20
-1.0000000000E+20
 30
-1.0000000000E+20
  9
$PLIMMIN
 10
0.0
 20
0.0
  9
$PLIMMAX
 10
420.0
 20
297.0
  9
$UNITMODE
 70
     0
  9
$VISRETAIN
 70
     1
  9
$PLINEGEN
 70
     0
  9
$PSLTSCALE
 70
     1
  9
$TREEDEPTH
 70
  3020
  9
$CMLSTYLE
  2
Standard
  9
$CMLJUST
 70
     0
  9
$CMLSCALE
 40
20.0
  9
$PROXYGRAPHICS
 70
     1
  9
$MEASUREMENT
 70
     1
  9
$CELWEIGHT
370
    -1
  9
$ENDCAPS
280
     0
  9
$JOINSTYLE
280
     0
  9
$LWDISPLAY
290
     1
  9
$INSUNITS
 70
     4
  9
$HYPERLINKBASE
  1

  9
$STYLESHEET
  1

  9
$XEDIT
290
     1
  9
$CEPSNTYPE
380
     0
  9
$PSTYLEMODE
290
     1
  9
$FINGERPRINTGUID
  2
{7893BB9D-4BDE-4519-9742-7D4F3EBFCAB3}
  9
$VERSIONGUID
  2
{FAEB1C32-E019-11D5-929B-00C0DF256EC4}
  9
$EXTNAMES
290
     1
  9
$PSVPSCALE
 40
0.0
  9
$OLESTARTUP
290
     0
  9
$SORTENTS
280
   127
  9
$INDEXCTL
280
     0
  9
$HIDETEXT
280
     1
  9
$XCLIPFRAME
290
     0
  9
$HALOGAP
280
     0
  9
$OBSCOLOR
 70
   257
  9
$OBSLTYPE
280
     0
  9
$INTERSECTIONDISPLAY
280
     0
  9
$INTERSECTIONCOLOR
 70
   257
  9
$DIMASSOC
280
     2
  9
$PROJECTNAME
  1

  9
$CAMERADISPLAY
290
     0
  9
$LENSLENGTH
 40
50.0
  9
$CAMERAHEIGHT
 40
0.0
  9
$STEPSPERSEC
 40
2.0
  9
$STEPSIZE
 40
6.0
  9
$3DDWFPREC
 40
2.0
  9
$PSOLWIDTH
 40
5.0
  9
$PSOLHEIGHT
 40
80.0
  9
$LOFTANG1
 40
1.5707963268
  9
$LOFTANG2
 40
1.5707963268
  9
$LOFTMAG1
 40
0.0
  9
$LOFTMAG2
 40
0.0
  9
$LOFTPARAM
 70
     7
  9
$LOFTNORMALS
280
     1
  9
$LATITUDE
 40
37.795
  9
$LONGITUDE
 40
-122.394
  9
$NORTHDIRECTION
 40
0.0
  9
$TIMEZONE
 70
 -8000
  9
$LIGHTGLYPHDISPLAY
280
     1
  9
$TILEMODELIGHTSYNCH
280
     1
  9
$SOLIDHIST
280
     1
  9
$SHOWHIST
280
     1
  9
$DWFFRAME
280
     2
  9
$DGNFRAME
280
     2
  9
$REALWORLDSCALE
290
     1
  9
$INTERFERECOLOR
 62
   256
  9
$CSHADOW
280
     0
  9
$SHADOWPLANELOCATION
 40
0.0
  0
ENDSEC
  0
SECTION
  2
CLASSES
  0
CLASS
  1
ACDBDICTIONARYWDFLT
  2
AcDbDictionaryWithDefault
  3
ObjectDBX Classes
 90
        0
 91
        4
280
     0
281
     0
  0
CLASS
  1
VISUALSTYLE
  2
AcDbVisualStyle
  3
ObjectDBX Classes
 90
     4095
 91
        4
280
     0
281
     0
  0
CLASS
  1
MATERIAL
  2
AcDbMaterial
  3
ObjectDBX Classes
 90
     1153
 91
        4
280
     0
281
     0
  0
CLASS
  1
SCALE
  2
AcDbScale
  3
ObjectDBX Classes
 90
     1153
 91
        4
280
     0
281
     0
  0
CLASS
  1
IMAGEDEF
  2
AcDbRasterImageDef
  3
ISM
 90
        0
 91
        4
280
     0
281
     0
  0
CLASS
  1
IMAGE
  2
AcDbRasterImage
  3
ISM
 90
      127
 91
        5
280
     0
281
     1
  0
CLASS
  1
IMAGEDEF_REACTOR
  2
AcDbRasterImageDefReactor
  3
ISM
 90
        1
 91
        4
280
     0
281
     0
  0
CLASS
  1
DICTIONARYVAR
  2
AcDbDictionaryVar
  3
ObjectDBX Classes
 90
        0
 91
        4
280
     0
281
     0
  0
ENDSEC
  0
SECTION
  2
TABLES
  0
TABLE
  2
VPORT
  5
8
330
0
100
AcDbSymbolTable
 70
     1
  0
VPORT
  5
29
330
8
100
AcDbSymbolTableRecord
100
AcDbViewportTableRecord
  2
*Active
 70
     0
 10
0.0
 20
0.0
 11
1.0
 21
1.0
 12
105.0
 22
148.5
 13
0.0
 23
0.0
 14
10.0
 24
10.0
 15
10.0
 25
10.0
 16
0.0
 26
0.0
 36
1.0
 17
0.0
 27
0.0
 37
0.0
 40
297.0
 41
0.7070707071
 42
50.0
 43
0.0
 44
0.0
 50
0.0
 51
0.0
 71
     0
 72
  2000
 73
     1
 74
     3
 75
     0
 76
     0
 77
     0
 78
     0
281
     0
 65
     1
110
0.0
120
0.0
130
0.0
111
1.0
121
0.0
131
0.0
112
0.0
122
1.0
132
0.0
 79
     0
146
0.0
 60
     3
 61
     5
292
     1
282
     1
141
0.0
142
0.0
 63
   250
  0
ENDTAB
  0
TABLE
  2
LTYPE
  5
5
330
0
100
AcDbSymbolTable
 70
     6
  0
LTYPE
  5
14
330
5
100
AcDbSymbolTableRecord
100
AcDbLinetypeTableRecord
  2
ByBlock
 70
     0
  3

 72
    65
 73
     0
 40
0.0
  0
LTYPE
  5
15
330
5
100
AcDbSymbolTableRecord
100
AcDbLinetypeTableRecord
  2
ByLayer
 70
     0
  3

 72
    65
 73
     0
 40
0.0
  0
LTYPE
  5
16
330
5
100
AcDbSymbolTableRecord
100
AcDbLinetypeTableRecord
  2
Continuous
 70
     0
  3
Solid line
 72
    65
 73
     0
 40
0.0
  0
LTYPE
  5
3F
330
5
100
AcDbSymbolTableRecord
100
AcDbLinetypeTableRecord
  2
HIDDEN
 70
     0
  3
Hidden __ __ __ __ __ __ __ __ __ __ __ __ __ __
 72
    65
 73
     2
 40
1.905
 49
1.27
 74
     0
 49
-0.635
 74
     0
  0
LTYPE
  5
40
330
5
100
AcDbSymbolTableRecord
100
AcDbLinetypeTableRecord
  2
PHANTOM
 70
     0
  3
Phantom ______  __  __  ______  __  __  ______
 72
    65
 73
     6
 40
12.7
 49
6.35
 74
     0
 49
-1.27
 74
     0
 49
1.27
 74
     0
 49
-1.27
 74
     0
 49
1.27
 74
     0
 49
-1.27
 74
     0
  0
LTYPE
  5
41
330
5
100
AcDbSymbolTableRecord
100
AcDbLinetypeTableRecord
  2
CENTER
 70
     0
  3
Center ____ _ ____ _ ____ _ ____ _ ____ _ ____
 72
    65
 73
     4
 40
10.16
 49
6.35
 74
     0
 49
-1.27
 74
     0
 49
1.27
 74
     0
 49
-1.27
 74
     0
  0
LTYPE
  5
42
330
5
100
AcDbSymbolTableRecord
100
AcDbLinetypeTableRecord
  2
CENTERX2
 70
     0
  3
Center (2x) ________  __  ________  __  _____
 72
    65
 73
     4
 40
20.32
 49
12.7
 74
     0
 49
-2.54
 74
     0
 49
2.54
 74
     0
 49
-2.54
 74
     0
  0
LTYPE
  5
43
330
5
100
AcDbSymbolTableRecord
100
AcDbLinetypeTableRecord
  2
DOT2
 70
     0
  3
Dot (.5x) ........................................
 72
    65
 73
     2
 40
0.635
 49
0.0
 74
     0
 49
-0.635
 74
     0
  0
ENDTAB
  0
TABLE
  2
LAYER
  5
2
330
0
100
AcDbSymbolTable
 70
     3
  0
LAYER
  5
10
330
2
100
AcDbSymbolTableRecord
100
AcDbLayerTableRecord
  2
0
 70
     0
 62
     7
  6
Continuous
370
    -3
390
F
347
3E
  0
LAYER
  5
44
330
2
100
AcDbSymbolTableRecord
100
AcDbLayerTableRecord
  2
SLD-0
 70
     0
 62
   179
  6
Continuous
370
    -3
390
F
347
3E
  0
LAYER
  5
45
330
2
100
AcDbSymbolTableRecord
100
AcDbLayerTableRecord
  2
FORMAT
 70
     0
 62
   179
  6
Continuous
370
    -3
390
F
347
3E
  0
ENDTAB
  0
TABLE
  2
STYLE
  5
3
330
0
100
AcDbSymbolTable
 70
     5
  0
STYLE
  5
11
330
3
100
AcDbSymbolTableRecord
100
AcDbTextStyleTableRecord
  2
Standard
 70
     0
 40
0.0
 41
1.0
 50
0.0
 71
     0
 42
2.5
  3
txt
  4

  0
STYLE
  5
49
330
3
100
AcDbSymbolTableRecord
100
AcDbTextStyleTableRecord
  2
SLDTEXTSTYLE0
 70
     0
 40
0.0
 41
0.4457894737
 50
0.0
 71
     0
 42
0.2
  3
TXT
  4

  0
STYLE
  5
8E
330
3
100
AcDbSymbolTableRecord
100
AcDbTextStyleTableRecord
  2
SLDTEXTSTYLE1
 70
     0
 40
0.0
 41
0.5526315789
 50
0.0
 71
     0
 42
0.2
  3
TXT
  4

  0
STYLE
  5
90
330
3
100
AcDbSymbolTableRecord
100
AcDbTextStyleTableRecord
  2
SLDTEXTSTYLE2
 70
     0
 40
0.0
 41
0.5065789474
 50
0.0
 71
     0
 42
0.2
  3
TXT
  4

  0
STYLE
  5
9B
330
3
100
AcDbSymbolTableRecord
100
AcDbTextStyleTableRecord
  2
SLDTEXTSTYLE3
 70
     0
 40
0.0
 41
0.75
 50
0.0
 71
     0
 42
0.2
  3
TXT
  4

  0
ENDTAB
  0
TABLE
  2
VIEW
  5
6
330
0
100
AcDbSymbolTable
 70
     0
  0
ENDTAB
  0
TABLE
  2
UCS
  5
7
330
0
100
AcDbSymbolTable
 70
     0
  0
ENDTAB
  0
TABLE
  2
APPID
  5
9
330
0
100
AcDbSymbolTable
 70
     1
  0
APPID
  5
12
330
9
100
AcDbSymbolTableRecord
100
AcDbRegAppTableRecord
  2
ACAD
 70
     0
  0
ENDTAB
  0
TABLE
  2
DIMSTYLE
  5
A
330
0
100
AcDbSymbolTable
 70
     4
100
AcDbDimStyleTable
  0
DIMSTYLE
105
27
330
A
100
AcDbSymbolTableRecord
100
AcDbDimStyleTableRecord
  2
ISO-25
 70
     0
 41
2.5
 42
0.625
 43
3.75
 44
1.25
 73
     0
 74
     0
 77
     1
 78
     8
140
2.5
141
2.5
143
0.0393700787
147
0.625
171
     3
172
     1
271
     2
272
     2
274
     3
278
    44
283
     0
284
     8
340
11
  0
DIMSTYLE
105
1C7
102
{ACAD_REACTORS
330
1C6
330
1DC
102
}
330
A
100
AcDbSymbolTableRecord
100
AcDbDimStyleTableRecord
  2
SLDDIMSTYLE0
 70
     0
 41
3.302
 44
0.0
 45
0.000000001
 73
     0
 77
     1
 78
    12
140
3.5
147
0.875
173
     1
271
     1
272
     2
284
    12
340
9B
  0
DIMSTYLE
105
1D2
102
{ACAD_REACTORS
330
1D1
102
}
330
A
100
AcDbSymbolTableRecord
100
AcDbDimStyleTableRecord
  2
SLDDIMSTYLE1
 70
     0
 41
3.302
 44
0.0
 45
0.000000001
 73
     0
 77
     1
 78
    12
140
3.5
147
0.875
173
     1
271
     0
272
     2
284
    12
340
9B
  0
DIMSTYLE
105
26C
102
{ACAD_REACTORS
330
26B
102
}
330
A
100
AcDbSymbolTableRecord
100
AcDbDimStyleTableRecord
  2
SLDDIMSTYLE2
 70
     0
 41
3.302
 44
0.0
 45
0.000000001
 73
     0
 77
     1
 78
     4
140
3.5
147
0.875
173
     1
271
     1
272
     2
284
    12
340
9B
  0
ENDTAB
  0
TABLE
  2
BLOCK_RECORD
  5
1
330
0
100
AcDbSymbolTable
 70
     8
  0
BLOCK_RECORD
  5
1F
330
1
100
AcDbSymbolTableRecord
100
AcDbBlockTableRecord
  2
*Model_Space
340
22
 70
     0
280
     1
281
     0
  0
BLOCK_RECORD
  5
1B
330
1
100
AcDbSymbolTableRecord
100
AcDbBlockTableRecord
  2
*Paper_Space
340
1E
 70
     0
280
     1
281
     0
  0
BLOCK_RECORD
  5
23
330
1
100
AcDbSymbolTableRecord
100
AcDbBlockTableRecord
  2
*Paper_Space0
340
26
 70
     0
280
     1
281
     0
  0
BLOCK_RECORD
  5
46
330
1
100
AcDbSymbolTableRecord
100
AcDbBlockTableRecord
  2
SW_NOTE_0
340
0
102
{BLKREFS
331
8B
102
}
 70
     0
280
     1
281
     0
  0
BLOCK_RECORD
  5
6E
330
1
100
AcDbSymbolTableRecord
100
AcDbBlockTableRecord
  2
SW_NOTE_1
340
0
102
{BLKREFS
331
8C
102
}
 70
     0
280
     1
281
     0
  0
BLOCK_RECORD
  5
98
330
1
100
AcDbSymbolTableRecord
100
AcDbBlockTableRecord
  2
SW_NOTE_0_1
340
0
102
{BLKREFS
331
9F
102
}
 70
     0
280
     1
281
     0
  0
BLOCK_RECORD
  5
1C8
330
1
100
AcDbSymbolTableRecord
100
AcDbBlockTableRecord
  2
*D4
340
0
 70
     0
280
     1
281
     0
  0
BLOCK_RECORD
  5
1D3
330
1
100
AcDbSymbolTableRecord
100
AcDbBlockTableRecord
  2
*D5
340
0
 70
     0
280
     1
281
     0
  0
BLOCK_RECORD
  5
1DD
330
1
100
AcDbSymbolTableRecord
100
AcDbBlockTableRecord
  2
*D6
340
0
 70
     0
280
     1
281
     0
  0
BLOCK_RECORD
  5
26D
330
1
100
AcDbSymbolTableRecord
100
AcDbBlockTableRecord
  2
*D7
340
0
 70
     0
280
     1
281
     0
  0
ENDTAB
  0
ENDSEC
  0
SECTION
  2
BLOCKS
  0
BLOCK
  5
20
330
1F
100
AcDbEntity
  8
0
100
AcDbBlockBegin
  2
*Model_Space
 70
     0
 10
0.0
 20
0.0
 30
0.0
  3
*Model_Space
  1

  0
ENDBLK
  5
21
330
1F
100
AcDbEntity
  8
0
100
AcDbBlockEnd
  0
BLOCK
  5
1C
330
1B
100
AcDbEntity
 67
     1
  8
0
100
AcDbBlockBegin
  2
*Paper_Space
 70
     0
 10
0.0
 20
0.0
 30
0.0
  3
*Paper_Space
  1

  0
ENDBLK
  5
1D
330
1B
100
AcDbEntity
 67
     1
  8
0
100
AcDbBlockEnd
  0
BLOCK
  5
24
330
23
100
AcDbEntity
  8
0
100
AcDbBlockBegin
  2
*Paper_Space0
 70
     0
 10
0.0
 20
0.0
 30
0.0
  3
*Paper_Space0
  1

  0
ENDBLK
  5
25
330
23
100
AcDbEntity
  8
0
100
AcDbBlockEnd
  0
BLOCK
  5
47
330
46
100
AcDbEntity
  8
0
100
AcDbBlockBegin
  2
SW_NOTE_0
 70
     0
 10
0.0
 20
0.0
 30
0.0
  3
SW_NOTE_0
  1

  0
MTEXT
  5
6C
330
46
100
AcDbEntity
  8
SLD-0
 48
10.0
100
AcDbMText
 10
0.0
 20
16.0053660025
 30
0.0
 40
15.0
 41
0.0
 46
0.0
 71
     1
 72
     1
  1
Disclaimer: This information is intended solely as a guide for use fo Marley NZ products. Before using you should ensure that the product is suitable for use in the specific application. 
  7
SLDTEXTSTYLE0
 73
     1
 44
1.0
  0
MTEXT
  5
6D
330
46
100
AcDbEntity
  8
SLD-0
 48
10.0
100
AcDbMText
 10
0.0
 20
-8.9946334395
 30
0.0
 40
15.0
 41
0.0
 46
0.0
 71
     1
 72
     1
  1
Marley NZ makes no warranty regarding the use of this information with non-Marley NZ products. This drawing is the property of Marley NZ Ltd.
  7
SLDTEXTSTYLE0
 73
     1
 44
1.0
  0
ENDBLK
  5
48
330
46
100
AcDbEntity
  8
0
100
AcDbBlockEnd
  0
BLOCK
  5
6F
330
6E
100
AcDbEntity
  8
0
100
AcDbBlockBegin
  2
SW_NOTE_1
 70
     0
 10
0.0
 20
0.0
 30
0.0
  3
SW_NOTE_1
  1

  0
MTEXT
  5
71
330
6E
100
AcDbEntity
  8
SLD-0
 48
10.0
100
AcDbMText
 10
0.0
 20
25.4085168109
 30
0.0
 40
23.8125
 41
0.0
 46
0.0
 71
     1
 72
     1
  1
0800 MARLEY
  7
SLDTEXTSTYLE0
 73
     1
 44
1.0
  0
MTEXT
  5
72
330
6E
100
AcDbEntity
  8
SLD-0
 48
10.0
100
AcDbMText
 10
-20.973738283
 20
-6.3414828051
 30
0.0
 40
23.8125
 41
0.0
 46
0.0
 71
     1
 72
     1
  1
www.marley.co.nz
  7
SLDTEXTSTYLE0
 73
     1
 44
1.0
  0
ENDBLK
  5
70
330
6E
100
AcDbEntity
  8
0
100
AcDbBlockEnd
  0
BLOCK
  5
99
330
98
100
AcDbEntity
  8
0
100
AcDbBlockBegin
  2
SW_NOTE_0_1
 70
     0
 10
0.0
 20
0.0
 30
0.0
  3
SW_NOTE_0_1
  1

  0
MTEXT
  5
9C
330
98
100
AcDbEntity
  8
SLD-0
 62
     0
 48
10.0
100
AcDbMText
 10
0.0
 20
4.0927900738
 30
0.0
 40
3.175
 41
0.0
 46
0.0
 71
     1
 72
     1
  1
NOTE: Fixing recommendations
  7
SLDTEXTSTYLE3
 73
     1
 44
1.0
  0
MTEXT
  5
9D
330
98
100
AcDbEntity
  8
SLD-0
 62
     0
 48
10.0
100
AcDbMText
 10
0.0
 20
-0.1171193985
 30
0.0
 40
2.6458333333
 41
0.0
 46
0.0
 71
     1
 72
     1
  1
Stainless Steel, grade 304 8g screw with neutral coloured 
  7
SLDTEXTSTYLE3
 73
     1
 44
1.0
  0
MTEXT
  5
9E
330
98
100
AcDbEntity
  8
SLD-0
 62
     0
 48
10.0
100
AcDbMText
 10
0.0
 20
-3.6448971337
 30
0.0
 40
2.6458333333
 41
0.0
 46
0.0
 71
     1
 72
     1
  1
washer to go between clip and wall. 
  7
SLDTEXTSTYLE3
 73
     1
 44
1.0
  0
ENDBLK
  5
9A
330
98
100
AcDbEntity
  8
0
100
AcDbBlockEnd
  0
BLOCK
  5
1C9
330
1C8
100
AcDbEntity
  8
0
100
AcDbBlockBegin
  2
*D4
 70
     1
 10
0.0
 20
0.0
 30
0.0
  3
*D4
  1

  0
SOLID
  5
1CB
330
1C8
100
AcDbEntity
  8
SLD-0
 48
10.0
100
AcDbTrace
 10
49.2678468371
 20
74.2825672017
 30
0.0
 11
52.5698468371
 21
73.7745672017
 31
0.0
 12
52.5698468371
 22
74.7905672017
 32
0.0
 13
52.5698468371
 23
74.7905672017
 33
0.0
  0
SOLID
  5
1CC
330
1C8
100
AcDbEntity
  8
SLD-0
 48
10.0
100
AcDbTrace
 10
111.7678468371
 20
74.2825672017
 30
0.0
 11
108.4658468371
 21
74.7905672017
 31
0.0
 12
108.4658468371
 22
73.7745672017
 32
0.0
 13
108.4658468371
 23
73.7745672017
 33
0.0
  0
LINE
  5
1CD
330
1C8
100
AcDbEntity
  8
SLD-0
 48
10.0
100
AcDbLine
 10
49.2678468371
 20
89.2825672017
 30
0.0
 11
49.2678468371
 21
73.2825672017
 31
0.0
  0
LINE
  5
1CE
330
1C8
100
AcDbEntity
  8
SLD-0
 48
10.0
100
AcDbLine
 10
111.7678468371
 20
89.2825672017
 30
0.0
 11
111.7678468371
 21
73.2825672017
 31
0.0
  0
LINE
  5
1CF
330
1C8
100
AcDbEntity
  8
SLD-0
 48
10.0
100
AcDbLine
 10
49.2678468371
 20
74.2825672017
 30
0.0
 11
111.7678468371
 21
74.2825672017
 31
0.0
  0
MTEXT
  5
1D0
330
1C8
100
AcDbEntity
  8
SLD-0
 48
10.0
100
AcDbMText
 10
76.5286501999
 20
78.7943041162
 30
0.0
 40
3.5
 41
0.0
 46
0.0
 71
     1
 72
     1
  1
62.5
  7
SLDTEXTSTYLE3
 73
     1
 44
1.0
  0
ENDBLK
  5
1CA
330
1C8
100
AcDbEntity
  8
0
100
AcDbBlockEnd
  0
BLOCK
  5
1D4
330
1D3
100
AcDbEntity
  8
0
100
AcDbBlockBegin
  2
*D5
 70
     1
 10
0.0
 20
0.0
 30
0.0
  3
*D5
  1

  0
SOLID
  5
1D6
330
1D3
100
AcDbEntity
  8
SLD-0
 48
10.0
100
AcDbTrace
 10
33.2678468371
 20
90.2825672017
 30
0.0
 11
33.7758468371
 21
93.5845672017
 31
0.0
 12
32.7598468371
 22
93.5845672017
 32
0.0
 13
32.7598468371
 23
93.5845672017
 33
0.0
  0
SOLID
  5
1D7
330
1D3
100
AcDbEntity
  8
SLD-0
 48
10.0
100
AcDbTrace
 10
33.2678468371
 20
196.1730666144
 30
0.0
 11
32.7598468371
 21
192.8710666144
 31
0.0
 12
33.7758468371
 22
192.8710666144
 32
0.0
 13
33.7758468371
 23
192.8710666144
 33
0.0
  0
LINE
  5
1D8
330
1D3
100
AcDbEntity
  8
SLD-0
 48
10.0
100
AcDbLine
 10
48.2678468371
 20
90.2825672017
 30
0.0
 11
32.2678468371
 21
90.2825672017
 31
0.0
  0
LINE
  5
1D9
330
1D3
100
AcDbEntity
  8
SLD-0
 48
10.0
100
AcDbLine
 10
79.5178468371
 20
196.1730666144
 30
0.0
 11
32.2678468371
 21
196.1730666144
 31
0.0
  0
LINE
  5
1DA
330
1D3
100
AcDbEntity
  8
SLD-0
 48
10.0
100
AcDbLine
 10
33.2678468371
 20
90.2825672017
 30
0.0
 11
33.2678468371
 21
196.1730666144
 31
0.0
  0
MTEXT
  5
1DB
330
1D3
100
AcDbEntity
  8
SLD-0
 48
10.0
100
AcDbMText
 10
28.7561099225
 20
137.551257181
 30
0.0
 40
3.5
 41
0.0
 46
0.0
 71
     1
 72
     1
  1
106
  7
SLDTEXTSTYLE3
 11
5.053215498074303E-16
 21
1.0
 31
0.0
 73
     1
 44
1.0
  0
ENDBLK
  5
1D5
330
1D3
100
AcDbEntity
  8
0
100
AcDbBlockEnd
  0
BLOCK
  5
1DE
330
1DD
100
AcDbEntity
  8
0
100
AcDbBlockBegin
  2
*D6
 70
     1
 10
0.0
 20
0.0
 30
0.0
  3
*D6
  1

  0
SOLID
  5
1E0
330
1DD
100
AcDbEntity
  8
SLD-0
 48
10.0
100
AcDbTrace
 10
61.7678468371
 20
80.2825672017
 30
0.0
 11
65.0698468371
 21
79.7745672017
 31
0.0
 12
65.0698468371
 22
80.7905672017
 32
0.0
 13
65.0698468371
 23
80.7905672017
 33
0.0
  0
SOLID
  5
1E1
330
1DD
100
AcDbEntity
  8
SLD-0
 48
10.0
100
AcDbTrace
 10
99.2678468371
 20
80.2825672017
 30
0.0
 11
95.9658468371
 21
80.7905672017
 31
0.0
 12
95.9658468371
 22
79.7745672017
 32
0.0
 13
95.9658468371
 23
79.7745672017
 33
0.0
  0
LINE
  5
1E2
330
1DD
100
AcDbEntity
  8
SLD-0
 48
10.0
100
AcDbLine
 10
61.7678468371
 20
92.2825672017
 30
0.0
 11
61.7678468371
 21
79.2825672017
 31
0.0
  0
LINE
  5
1E3
330
1DD
100
AcDbEntity
  8
SLD-0
 48
10.0
100
AcDbLine
 10
99.2678468371
 20
92.2825672017
 30
0.0
 11
99.2678468371
 21
79.2825672017
 31
0.0
  0
LINE
  5
1E4
330
1DD
100
AcDbEntity
  8
SLD-0
 48
10.0
100
AcDbLine
 10
61.7678468371
 20
80.2825672017
 30
0.0
 11
99.2678468371
 21
80.2825672017
 31
0.0
  0
MTEXT
  5
1E5
330
1DD
100
AcDbEntity
  8
SLD-0
 48
10.0
100
AcDbMText
 10
76.5286501999
 20
84.7943041162
 30
0.0
 40
3.5
 41
0.0
 46
0.0
 71
     1
 72
     1
  1
37.5
  7
SLDTEXTSTYLE3
 73
     1
 44
1.0
  0
ENDBLK
  5
1DF
330
1DD
100
AcDbEntity
  8
0
100
AcDbBlockEnd
  0
BLOCK
  5
26E
330
26D
100
AcDbEntity
  8
0
100
AcDbBlockBegin
  2
*D7
 70
     1
 10
0.0
 20
0.0
 30
0.0
  3
*D7
  1

  0
SOLID
  5
270
330
26D
100
AcDbEntity
  8
SLD-0
 48
10.0
100
AcDbTrace
 10
182.4621078459
 20
80.2825672017
 30
0.0
 11
179.1601078459
 21
80.7905672017
 31
0.0
 12
179.1601078459
 22
79.7745672017
 32
0.0
 13
179.1601078459
 23
79.7745672017
 33
0.0
  0
SOLID
  5
271
330
26D
100
AcDbEntity
  8
SLD-0
 48
10.0
100
AcDbTrace
 10
157.4621078459
 20
80.2825672017
 30
0.0
 11
160.7641078459
 21
79.7745672017
 31
0.0
 12
160.7641078459
 22
80.7905672017
 32
0.0
 13
160.7641078459
 23
80.7905672017
 33
0.0
  0
LINE
  5
272
330
26D
100
AcDbEntity
  8
SLD-0
 48
10.0
100
AcDbLine
 10
182.4621078459
 20
92.5577720477
 30
0.0
 11
182.4621078459
 21
79.2825672017
 31
0.0
  0
LINE
  5
273
330
26D
100
AcDbEntity
  8
SLD-0
 48
10.0
100
AcDbLine
 10
157.4621078459
 20
92.5577720477
 30
0.0
 11
157.4621078459
 21
79.2825672017
 31
0.0
  0
LINE
  5
274
330
26D
100
AcDbEntity
  8
SLD-0
 48
10.0
100
AcDbLine
 10
182.4621078459
 20
80.2825672017
 30
0.0
 11
157.4621078459
 21
80.2825672017
 31
0.0
  0
MTEXT
  5
275
330
26D
100
AcDbEntity
  8
SLD-0
 48
10.0
100
AcDbMText
 10
165.3733828827
 20
84.7943041162
 30
0.0
 40
3.5
 41
0.0
 46
0.0
 71
     1
 72
     1
  1
25.0
  7
SLDTEXTSTYLE3
 73
     1
 44
1.0
  0
ENDBLK
  5
26F
330
26D
100
AcDbEntity
  8
0
100
AcDbBlockEnd
  0
ENDSEC
  0
SECTION
  2
ENTITIES
  0
IMAGE
  5
75
330
1F
100
AcDbEntity
  8
0
 92
      140
310
8C000000010000008400000006000000050000007B2AF04D7B252440CA7ECED2C0853A400000000000000000D287FE2793E75340CA7ECED2C0853A400000000000000000D287FE2793E75340FC7BB1D4D9E8424000000000000000007B2AF04D7B252440FC7BB1D4D9E8424000000000000000007B2AF04D7B252440CA7ECE
310
D2C0853A400000000000000000
100
AcDbRasterImage
 90
        0
 10
10.0732063633
 20
26.5224735026
 30
0.0
 11
0.1765105338580665
 21
0.0
 31
0.0
 12
0.0
 22
0.1765105338580665
 32
0.0
 13
394.0
 23
64.0
340
74
 70
     7
280
     0
281
    50
282
    50
283
     0
360
76
 71
     1
 91
        2
 14
-0.5
 24
-0.5
 14
393.5
 24
63.5
  0
LINE
  5
77
330
1F
100
AcDbEntity
  8
SLD-0
  6
Continuous
 62
   250
420
  1644836
 48
10.0
370
    40
100
AcDbLine
 10
10.0788435654
 20
5.2147801566
 30
0.0
 11
205.0788435654
 21
5.2147801566
 31
0.0
  0
LINE
  5
78
330
1F
100
AcDbEntity
  8
SLD-0
  6
Continuous
 62
   250
420
  1644836
 48
10.0
370
    40
100
AcDbLine
 10
0.0788435654
 20
0.2147801566
 30
0.0
 11
210.0788435654
 21
0.2147801566
 31
0.0
  0
LINE
  5
79
330
1F
100
AcDbEntity
  8
SLD-0
  6
Continuous
 62
   250
420
  1644836
 48
10.0
370
    40
100
AcDbLine
 10
0.0788435654
 20
0.2147801566
 30
0.0
 11
0.0788435654
 21
297.2147801566
 31
0.0
  0
LINE
  5
7A
330
1F
100
AcDbEntity
  8
SLD-0
  6
Continuous
 62
   250
420
  1644836
 48
10.0
370
    40
100
AcDbLine
 10
0.0788435654
 20
297.2147801566
 30
0.0
 11
210.0788435654
 21
297.2147801566
 31
0.0
  0
LINE
  5
7B
330
1F
100
AcDbEntity
  8
SLD-0
  6
Continuous
 62
   250
420
  1644836
 48
10.0
370
    40
100
AcDbLine
 10
210.0788435654
 20
0.2147801566
 30
0.0
 11
210.0788435654
 21
297.2147801566
 31
0.0
  0
LINE
  5
7C
330
1F
100
AcDbEntity
  8
SLD-0
  6
Continuous
 62
   250
420
  1644836
 48
10.0
370
    40
100
AcDbLine
 10
205.0788435654
 20
35.066192565
 30
0.0
 11
116.9116953245
 21
35.066192565
 31
0.0
  0
LINE
  5
7D
330
1F
100
AcDbEntity
  8
SLD-0
  6
Continuous
 62
   250
420
  1644836
 48
10.0
370
    40
100
AcDbLine
 10
10.0788435654
 20
292.2147801566
 30
0.0
 11
205.0788435654
 21
292.2147801566
 31
0.0
  0
LINE
  5
7E
330
1F
100
AcDbEntity
  8
SLD-0
  6
Continuous
 62
   250
420
  1644836
 48
10.0
370
    40
100
AcDbLine
 10
205.0788435654
 20
5.2147801566
 30
0.0
 11
180.9883118484
 21
5.2147801566
 31
0.0
  0
LINE
  5
7F
330
1F
100
AcDbEntity
  8
SLD-0
  6
Continuous
 62
   250
420
  1644836
 48
10.0
370
    40
100
AcDbLine
 10
10.0788435654
 20
5.2147801566
 30
0.0
 11
10.0788435654
 21
292.2147801566
 31
0.0
  0
LINE
  5
80
330
1F
100
AcDbEntity
  8
SLD-0
  6
Continuous
 62
   250
420
  1644836
 48
10.0
370
    40
100
AcDbLine
 10
10.0788435654
 20
11.2357498601
 30
0.0
 11
205.0788435654
 21
11.2357498601
 31
0.0
  0
LINE
  5
81
330
1F
100
AcDbEntity
  8
SLD-0
  6
Continuous
 62
   250
420
  1644836
 48
10.0
370
    40
100
AcDbLine
 10
205.0788435654
 20
43.3709272577
 30
0.0
 11
10.1108209117
 21
43.3709272577
 31
0.0
  0
LINE
  5
82
330
1F
100
AcDbEntity
  8
SLD-0
  6
Continuous
 62
   250
420
  1644836
 48
10.0
370
    40
100
AcDbLine
 10
210.0788435654
 20
292.2147801566
 30
0.0
 11
210.0788435654
 21
297.2147801566
 31
0.0
  0
LINE
  5
83
330
1F
100
AcDbEntity
  8
SLD-0
  6
Continuous
 62
   250
420
  1644836
 48
10.0
370
    40
100
AcDbLine
 10
79.7554204619
 20
22.1812450349
 30
0.0
 11
79.7554204619
 21
43.3709272577
 31
0.0
  0
LINE
  5
84
330
1F
100
AcDbEntity
  8
SLD-0
  6
Continuous
 62
   250
420
  1644836
 48
10.0
370
    40
100
AcDbLine
 10
10.1108209117
 20
60.3709272577
 30
0.0
 11
10.1108209117
 21
5.1209272577
 31
0.0
  0
LINE
  5
85
330
1F
100
AcDbEntity
  8
SLD-0
  6
Continuous
 62
   250
420
  1644836
 48
10.0
370
    40
100
AcDbLine
 10
10.0788435654
 20
22.2147801566
 30
0.0
 11
205.0788435654
 21
22.1209272577
 31
0.0
  0
LINE
  5
86
330
1F
100
AcDbEntity
  8
SLD-0
  6
Continuous
 62
   250
420
  1644836
 48
10.0
370
    40
100
AcDbLine
 10
116.9080516189
 20
43.3709272577
 30
0.0
 11
116.9173564476
 21
22.1633591097
 31
0.0
  0
LINE
  5
87
330
1F
100
AcDbEntity
  8
SLD-0
  6
Continuous
 62
   250
420
  1644836
 48
10.0
370
    40
100
AcDbLine
 10
160.8788435654
 20
5.2147801566
 30
0.0
 11
160.8788435654
 21
11.2357498601
 31
0.0
  0
LINE
  5
88
330
1F
100
AcDbEntity
  8
SLD-0
  6
Continuous
 62
   250
420
  1644836
 48
10.0
370
    40
100
AcDbLine
 10
192.0788435654
 20
11.2357498601
 30
0.0
 11
192.0788435654
 21
22.2147801566
 31
0.0
  0
LINE
  5
89
330
1F
100
AcDbEntity
  8
SLD-0
  6
Continuous
 62
   250
420
  1644836
 48
10.0
370
    40
100
AcDbLine
 10
205.0788435654
 20
13.7147801566
 30
0.0
 11
192.0788435654
 21
13.7147801566
 31
0.0
  0
LINE
  5
8A
330
1F
100
AcDbEntity
  8
SLD-0
  6
Continuous
 62
   250
420
  1644836
 48
10.0
370
    40
100
AcDbLine
 10
205.0788435654
 20
5.2147801566
 30
0.0
 11
205.0788435654
 21
292.2147801566
 31
0.0
  0
INSERT
  5
8B
330
1F
100
AcDbEntity
  8
0
  6
Continuous
 62
     7
 48
10.0
100
AcDbBlockReference
  2
SW_NOTE_0
 10
12.3050601837
 20
16.8389604502
 30
0.0
 41
0.1
 42
0.1
 43
0.1
  0
INSERT
  5
8C
330
1F
100
AcDbEntity
  8
0
  6
Continuous
 62
     7
 48
10.0
100
AcDbBlockReference
  2
SW_NOTE_1
 10
87.196611182
 20
32.8969357155
 30
0.0
 41
0.1
 42
0.1
 43
0.1
  0
MTEXT
  5
8D
330
1F
100
AcDbEntity
  8
SLD-0
 62
   250
420
  1644836
 48
10.0
100
AcDbMText
 10
131.9867841055
 20
40.1015259906
 30
0.0
 40
3.175
 41
0.0
 46
0.0
 71
     1
 72
     1
  1
RP65 Adjustable Clip
  7
SLDTEXTSTYLE0
 73
     1
 44
1.0
  0
MTEXT
  5
8F
330
1F
100
AcDbEntity
  8
SLD-0
 62
   250
420
  1644836
 48
10.0
100
AcDbMText
 10
195.9998284117
 20
18.8689860195
 30
0.0
 40
2.9104166667
 41
0.0
 46
0.0
 71
     1
 72
     1
  1
A4
  7
SLDTEXTSTYLE1
 73
     1
 44
1.0
  0
MTEXT
  5
91
330
1F
100
AcDbEntity
  8
SLD-0
 62
   250
420
  1644836
 48
10.0
100
AcDbMText
 10
164.0281072696
 20
8.5413340856
 30
0.0
 40
1.5
 41
0.0
 46
0.0
 71
     1
 72
     1
  1
SHEET 1 OF 1
  7
SLDTEXTSTYLE2
 73
     1
 44
1.0
  0
MTEXT
  5
92
330
1F
100
AcDbEntity
  8
SLD-0
 62
   250
420
  1644836
 48
10.0
100
AcDbMText
 10
14.3797311356
 20
8.5413340856
 30
0.0
 40
1.5
 41
0.0
 46
0.0
 71
     1
 72
     1
  1
SCALE:
  7
SLDTEXTSTYLE1
 73
     1
 44
1.0
  0
MTEXT
  5
93
330
1F
100
AcDbEntity
  8
SLD-0
 62
   250
420
  1644836
 48
10.0
100
AcDbMText
 10
92.7036146979
 20
40.1514661596
 30
0.0
 40
1.5
 41
0.0
 46
0.0
 71
     1
 72
     1
  1
CONTACT:
  7
SLDTEXTSTYLE1
 73
     1
 44
1.0
  0
MTEXT
  5
94
330
1F
100
AcDbEntity
  8
SLD-0
 62
   250
420
  1644836
 48
10.0
100
AcDbMText
 10
23.5366971372
 20
9.0162768564
 30
0.0
 40
2.1166666667
 41
0.0
 46
0.0
 71
     1
 72
     1
  1
1:2
  7
SLDTEXTSTYLE0
 73
     1
 44
1.0
  0
MTEXT
  5
95
330
1F
100
AcDbEntity
  8
SLD-0
 62
   250
420
  1644836
 48
10.0
100
AcDbMText
 10
122.1441575388
 20
38.7971767854
 30
0.0
 40
1.5
 41
0.0
 46
0.0
 71
     1
 72
     1
  1
DWG NO.
  7
SLDTEXTSTYLE1
 73
     1
 44
1.0
  0
MTEXT
  5
96
330
1F
100
AcDbEntity
  8
SLD-0
 62
   250
420
  1644836
 48
10.0
100
AcDbMText
 10
125.3313530968
 20
30.2274151967
 30
0.0
 40
3.175
 41
0.0
 46
0.0
 71
     1
 72
     1
  1
65mm Round Downpipe with Adjustable Clip
  7
SLDTEXTSTYLE0
 73
     1
 44
1.0
  0
MTEXT
  5
97
330
1F
100
AcDbEntity
  8
SLD-0
 62
   250
420
  1644836
 48
10.0
100
AcDbMText
 10
128.9875122993
 20
8.4914975992
 30
0.0
 40
1.5
 41
0.0
 46
0.0
 71
     1
 72
     1
  1
DATE: 30/04/12
  7
SLDTEXTSTYLE1
 73
     1
 44
1.0
  0
INSERT
  5
9F
330
1F
100
AcDbEntity
  8
SLD-0
 48
10.0
100
AcDbBlockReference
  2
SW_NOTE_0_1
 10
15.7447573062
 20
57.145715134
 30
0.0
  0
SPLINE
  5
A0
330
1F
100
AcDbEntity
  8
0
  6
Continuous
 62
     7
 48
10.0
370
    15
100
AcDbSpline
210
0.0
220
0.0
230
1.0
 70
     8
 71
     3
 72
    13
 73
     9
 74
     0
 42
0.00000001
 43
0.00000001
 40
0.0
 40
0.0
 40
0.0
 40
0.0
 40
0.0616885371499863
 40
0.2637879053547414
 40
0.4664394243332922
 40
0.6698367946782159
 40
0.8740705131245267
 40
1.0
 40
1.0
 40
1.0
 40
1.0
 10
124.1716730799087
 20
259.5213108526083
 30
0.0
 10
124.161369422854
 20
259.5882285326709
 30
0.0
 10
124.1173096957554
 20
259.8743769075629
 30
0.0
 10
123.9723804839657
 20
260.3743636737423
 30
0.0
 10
123.7372304371969
 20
261.0185856112855
 30
0.0
 10
123.429785196237
 20
261.6520321139716
 30
0.0
 10
123.1158242989148
 20
262.1959425601925
 30
0.0
 10
122.8790053591924
 20
262.5208085996162
 30
0.0
 10
122.788678856781
 20
262.6447176633412
 30
0.0
  0
SPLINE
  5
A1
330
1F
100
AcDbEntity
  8
0
  6
Continuous
 62
     7
 48
10.0
370
    15
100
AcDbSpline
210
0.0
220
0.0
230
1.0
 70
     8
 71
     3
 72
    13
 73
     9
 74
     0
 42
0.00000001
 43
0.00000001
 40
0.0
 40
0.0
 40
0.0
 40
0.0
 40
0.0327503678435209
 40
0.2332258057784712
 40
0.4330166926998055
 40
0.6320025374218529
 40
0.8301247788182451
 40
1.0
 40
1.0
 40
1.0
 40
1.0
 10
88.53867885678099
 20
262.6497032917726
 30
0.0
 10
88.51330627587545
 20
262.6168793690208
 30
0.0
 10
88.33262004191782
 20
262.3831297553009
 30
0.0
 10
88.0562810248971
 20
261.9317513794989
 30
0.0
 10
87.71538942262453
 20
261.297994797487
 30
0.0
 10
87.44778076630756
 20
260.6517138410915
 30
0.0
 10
87.24828728592995
 20
260.0286682762924
 30
0.0
 10
87.1716846452198
 20
259.6185332510569
 30
0.0
 10
87.13632328581645
 20
259.4292064615781
 30
0.0
  0
LINE
  5
A2
330
1F
100
AcDbEntity
  8
0
  6
Continuous
 62
     7
 48
10.0
370
    15
100
AcDbLine
 10
124.2886788568
 20
253.0167427496
 30
0.0
 11
124.2886788568
 21
258.3242580269
 31
0.0
  0
LINE
  5
A3
330
1F
100
AcDbEntity
  8
0
  6
Continuous
 62
     7
 48
10.0
370
    15
100
AcDbLine
 10
87.0386788568
 20
258.3242580269
 30
0.0
 11
87.0386788568
 21
253.0167427496
 31
0.0
  0
SPLINE
  5
A4
330
1F
100
AcDbEntity
  8
0
  6
Continuous
 62
     7
 48
10.0
370
    15
100
AcDbSpline
210
0.0
220
0.0
230
1.0
 70
     8
 71
     3
 72
    57
 73
    53
 74
     0
 42
0.00000001
 43
0.00000001
 40
0.0
 40
0.0
 40
0.0
 40
0.0
 40
0.0129593110055798
 40
0.033012566670787
 40
0.0531282415379897
 40
0.0733221097928361
 40
0.0935996511596056
 40
0.1139572147983203
 40
0.1343845916829713
 40
0.1548680610610249
 40
0.1753930973003914
 40
0.1959462820448209
 40
0.2165163445298635
 40
0.2370944980545253
 40
0.2576734293124689
 40
0.2782485645220384
 40
0.2988175805023952
 40
0.3193792573838741
 40
0.3399331706145072
 40
0.360479452118906
 40
0.3810186128617092
 40
0.4015514153615535
 40
0.4220787847165282
 40
0.4426017482607671
 40
0.4631213959215364
 40
0.4836388551580774
 40
0.5041552758405005
 40
0.5246718215292868
 40
0.5451893687317477
 40
0.5657090007690823
 40
0.5862318970752448
 40
0.6067592320440457
 40
0.6272921631650819
 40
0.6478318108662401
 40
0.6683792258208381
 40
0.6889353381286368
 40
0.7095008809987657
 40
0.7300762794610702
 40
0.7506614925219255
 40
0.7712557958315216
 40
0.7918574929478126
 40
0.812463549625803
 40
0.8330672334011018
 40
0.8536605927252887
 40
0.8742331234195154
 40
0.8947716743762976
 40
0.9152610774311281
 40
0.9356856550608215
 40
0.956031708657087
 40
0.9762907213377715
 40
0.9964625341708908
 40
1.0
 40
1.0
 40
1.0
 40
1.0
 10
87.15631302849361
 20
251.8191774014236
 30
0.0
 10
87.18210152483927
 20
251.6776764505331
 30
0.0
 10
87.24779517588166
 20
251.3172167337131
 30
0.0
 10
87.42825347718744
 20
250.7449258882691
 30
0.0
 10
87.68796482138428
 20
250.1040532457157
 30
0.0
 10
88.0149691741795
 20
249.4737737473071
 30
0.0
 10
88.40498448101968
 20
248.8559642671324
 30
0.0
 10
88.85775983908475
 20
248.2529810827851
 30
0.0
 10
89.37153243008096
 20
247.6671234632801
 30
0.0
 10
89.94450612775601
 20
247.1006932194325
 30
0.0
 10
90.57448385735077
 20
246.5558975506215
 30
0.0
 10
91.25902391698403
 20
246.034815897158
 30
0.0
 10
91.99546107452693
 20
245.5393765299439
 30
0.0
 10
92.78094453031149
 20
245.0713599973361
 30
0.0
 10
93.61247168525632
 20
244.6323973984537
 30
0.0
 10
94.48691717967914
 20
244.2239750110715
 30
0.0
 10
95.40105956986875
 20
243.8474406403695
 30
0.0
 10
96.35158044246108
 20
243.5040183624736
 30
0.0
 10
97.33505976716283
 20
243.1948174954377
 30
0.0
 10
98.3479820111439
 20
242.9208337371886
 30
0.0
 10
99.3867432463274
 20
242.6829486152911
 30
0.0
 10
100.4476595009192
 20
242.4819278756826
 30
0.0
 10
101.5269763589254
 20
242.318419331764
 30
0.0
 10
102.62087968541
 20
242.1929505746556
 30
0.0
 10
103.7255072987918
 20
242.1059268365179
 30
0.0
 10
104.836961395083
 20
242.0576292116745
 30
0.0
 10
105.9513215290734
 20
242.0482133743992
 30
0.0
 10
107.0646526254156
 20
242.077708742995
 30
0.0
 10
108.1730222906925
 20
242.1460176268249
 30
0.0
 10
109.272516460885
 20
242.2529157081912
 30
0.0
 10
110.3592582861224
 20
242.3980543678287
 30
0.0
 10
111.4294176275517
 20
242.5809629309431
 30
0.0
 10
112.4792220612193
 20
242.8010512159245
 30
0.0
 10
113.5049689117928
 20
243.0576127559017
 30
0.0
 10
114.5030363970965
 20
243.3498284679194
 30
0.0
 10
115.4698936440936
 20
243.6767705762314
 30
0.0
 10
116.4021093291373
 20
244.0374064920483
 30
0.0
 10
117.2963587080725
 20
244.4306022079616
 30
0.0
 10
118.1494288845232
 20
244.855124573637
 30
0.0
 10
118.9582222849316
 20
245.3096415942785
 30
0.0
 10
119.7197588207406
 20
245.7927196383761
 30
0.0
 10
120.4311549248949
 20
246.3028004390846
 30
0.0
 10
121.0896473961212
 20
246.8381927057257
 30
0.0
 10
121.6926018192398
 20
247.397053049024
 30
0.0
 10
122.2375663786302
 20
247.9773802458127
 30
0.0
 10
122.7222255162788
 20
248.5769911101226
 30
0.0
 10
123.1446935105786
 20
249.1934927599848
 30
0.0
 10
123.5026616150843
 20
249.8243580749567
 30
0.0
 10
123.7968546243214
 20
250.4667291524187
 30
0.0
 10
124.018480044678
 20
251.1183742590507
 30
0.0
 10
124.1474015810644
 20
251.5950152957389
 30
0.0
 10
124.1819096785752
 20
251.8547647772695
 30
0.0
 10
124.1870583470569
 20
251.8935198540534
 30
0.0
  0
LINE
  5
A5
330
1F
100
AcDbEntity
  8
0
  6
Continuous
 62
     7
 48
10.0
370
    15
100
AcDbLine
 10
126.3137583786
 20
261.8531094474
 30
0.0
 11
127.2109273825
 21
262.2941659592
 31
0.0
  0
SPLINE
  5
A6
330
1F
100
AcDbEntity
  8
0
  6
Continuous
 62
     7
 48
10.0
370
    15
100
AcDbSpline
210
0.0
220
0.0
230
1.0
 70
     8
 71
     3
 72
    11
 73
     7
 74
     0
 42
0.00000001
 43
0.00000001
 40
0.0
 40
0.0
 40
0.0
 40
0.0
 40
0.1976191123543074
 40
0.477348376412109
 40
0.7483296405563646
 40
0.9999999999999999
 40
0.9999999999999999
 40
0.9999999999999999
 40
0.9999999999999999
 10
127.6581051556938
 20
268.2695711891917
 30
0.0
 10
127.6583916301621
 20
268.3173570361887
 30
0.0
 10
127.6590836083857
 20
268.4327836070692
 30
0.0
 10
127.5873667049491
 20
268.601905583918
 30
0.0
 10
127.47506680174
 20
268.7584220278504
 30
0.0
 10
127.3753915583905
 20
268.834515808874
 30
0.0
 10
127.3273953345403
 20
268.8711569448761
 30
0.0
  0
LINE
  5
A7
330
1F
100
AcDbEntity
  8
0
  6
Continuous
 62
     7
 48
10.0
370
    15
100
AcDbLine
 10
127.6661634803
 20
262.9626326281
 30
0.0
 11
127.6661634803
 21
268.2701479054
 31
0.0
  0
LINE
  5
A8
330
1F
100
AcDbEntity
  8
0
  6
Continuous
 62
     7
 48
10.0
370
    15
100
AcDbLine
 10
127.3273953345
 20
268.8711569449
 30
0.0
 11
127.0032211236
 21
269.0909141441
 31
0.0
  0
SPLINE
  5
A9
330
1F
100
AcDbEntity
  8
0
  6
Continuous
 62
     7
 48
10.0
370
    15
100
AcDbSpline
210
0.0
220
0.0
230
1.0
 70
     8
 71
     3
 72
    12
 73
     8
 74
     0
 42
0.00000001
 43
0.00000001
 40
0.0
 40
0.0
 40
0.0
 40
0.0
 40
0.186136103448178
 40
0.4381866976220729
 40
0.6770344854527692
 40
0.9116387348077225
 40
1.0
 40
1.0
 40
1.0
 40
1.0
 10
127.2109273824681
 20
262.2941659592428
 30
0.0
 10
127.2576145699691
 20
262.319875974253
 30
0.0
 10
127.3675218052306
 20
262.3804004311663
 30
0.0
 10
127.5094926968274
 20
262.5126682847294
 30
0.0
 10
127.6158274654785
 20
262.6884940629582
 30
0.0
 10
127.6683810504366
 20
262.8452129016346
 30
0.0
 10
127.6603042135596
 20
262.9371239839591
 30
0.0
 10
127.6580944434973
 20
262.9622702585722
 30
0.0
  0
SPLINE
  5
AA
330
1F
100
AcDbEntity
  8
0
  6
Continuous
 62
     7
 48
10.0
370
    15
100
AcDbSpline
210
0.0
220
0.0
230
1.0
 70
     8
 71
     3
 72
    16
 73
    12
 74
     0
 42
0.00000001
 43
0.00000001
 40
0.0
 40
0.0
 40
0.0
 40
0.0
 40
0.0715175922680999
 40
0.2065601805280891
 40
0.3416672050246845
 40
0.4761627725106831
 40
0.6093065133762275
 40
0.7403479083356495
 40
0.8688865599192557
 40
0.9951630423446681
 40
1.0
 40
1.0
 40
1.0
 40
1.0
 10
135.6037997654309
 20
260.3169143386693
 30
0.0
 10
135.6877656659385
 20
260.2700955771781
 30
0.0
 10
135.9302795847802
 20
260.1348716201205
 30
0.0
 10
136.3339347140013
 20
259.9550977235966
 30
0.0
 10
136.8103990116923
 20
259.8001176615305
 30
0.0
 10
137.2796545243869
 20
259.7097448553774
 30
0.0
 10
137.7344843019994
 20
259.6857470964794
 30
0.0
 10
138.1694315589111
 20
259.7262719178347
 30
0.0
 10
138.5724561701999
 20
259.8383334462342
 30
0.0
 10
138.8359002133235
 20
259.9397834140976
 30
0.0
 10
138.9526342887092
 20
260.0184547516515
 30
0.0
 10
138.9569407715475
 20
260.0213570470088
 30
0.0
  0
LINE
  5
AB
330
1F
100
AcDbEntity
  8
0
  6
Continuous
 62
     7
 48
10.0
370
    15
100
AcDbLine
 10
138.9785254881
 20
260.0322430483
 30
0.0
 11
139.6856322693
 21
260.4404471042
 31
0.0
  0
LINE
  5
AC
330
1F
100
AcDbEntity
  8
0
  6
Continuous
 62
     7
 48
10.0
370
    15
100
AcDbLine
 10
122.5834883137
 20
271.4787803113
 30
0.0
 11
120.3310712791
 21
270.0256321029
 31
0.0
  0
LINE
  5
AD
330
1F
100
AcDbEntity
  8
0
  6
Continuous
 62
     7
 48
10.0
370
    15
100
AcDbLine
 10
126.4195993712
 20
269.7368899308
 30
0.0
 11
132.3995289195
 21
270.339704502
 31
0.0
  0
SPLINE
  5
AE
330
1F
100
AcDbEntity
  8
0
  6
Continuous
 62
     7
 48
10.0
370
    15
100
AcDbSpline
210
0.0
220
0.0
230
1.0
 70
     8
 71
     3
 72
     9
 73
     5
 74
     0
 42
0.00000001
 43
0.00000001
 40
0.0
 40
0.0
 40
0.0
 40
0.0
 40
0.6881529537041731
 40
1.0
 40
1.0
 40
1.0
 40
1.0
 10
135.8494181340791
 20
263.0860625682855
 30
0.0
 10
135.8203898752354
 20
263.086549087525
 30
0.0
 10
135.7782070164865
 20
263.0872560804064
 30
0.0
 10
135.7231390644309
 20
263.1056359618694
 30
0.0
 10
135.7059662862368
 20
263.111367673615
 30
0.0
  0
SPLINE
  5
AF
330
1F
100
AcDbEntity
  8
0
  6
Continuous
 62
     7
 48
10.0
370
    15
100
AcDbSpline
210
0.0
220
0.0
230
1.0
 70
     8
 71
     3
 72
     9
 73
     5
 74
     0
 42
0.00000001
 43
0.00000001
 40
0.0
 40
0.0
 40
0.0
 40
0.0
 40
0.2305746024533533
 40
1.0
 40
1.0
 40
1.0
 40
1.0
 10
133.689898232016
 20
266.7083507670985
 30
0.0
 10
133.691428796836
 20
266.7134164928178
 30
0.0
 10
133.698066842847
 20
266.7353865002052
 30
0.0
 10
133.7071322832326
 20
266.750607464583
 30
0.0
 10
133.7141074633053
 20
266.7623188611504
 30
0.0
  0
SPLINE
  5
B0
330
1F
100
AcDbEntity
  8
0
  6
Continuous
 62
     7
 48
10.0
370
    15
100
AcDbSpline
210
0.0
220
0.0
230
1.0
 70
     8
 71
     3
 72
    12
 73
     8
 74
     0
 42
0.00000001
 43
0.00000001
 40
0.0
 40
0.0
 40
0.0
 40
0.0
 40
0.0064052770870444
 40
0.2669653369435881
 40
0.5811604260674141
 40
0.9354241632325843
 40
1.0
 40
1.0
 40
1.0
 40
1.0
 10
125.3022939790239
 20
269.4289500307775
 30
0.0
 10
125.3044061550538
 20
269.4301673133254
 30
0.0
 10
125.3924394716235
 20
269.4809023933452
 30
0.0
 10
125.6055479400941
 20
269.5650838839221
 30
0.0
 10
125.9526495041804
 20
269.668001029437
 30
0.0
 10
126.2344193235973
 20
269.7170314660423
 30
0.0
 10
126.3948625584248
 20
269.7342371875055
 30
0.0
 10
126.4195993712464
 20
269.7368899307747
 30
0.0
  0
SPLINE
  5
B1
330
1F
100
AcDbEntity
  8
0
  6
Continuous
 62
     7
 48
10.0
370
    15
100
AcDbSpline
210
0.0
220
0.0
230
1.0
 70
     8
 71
     3
 72
     9
 73
     5
 74
     0
 42
0.00000001
 43
0.00000001
 40
0.0
 40
0.0
 40
0.0
 40
0.0
 40
0.752109527231081
 40
1.0
 40
1.0
 40
1.0
 40
1.0
 10
133.6888967200172
 20
266.6895872397868
 30
0.0
 10
133.6749226118652
 20
266.6581772992707
 30
0.0
 10
133.6563427273588
 20
266.6164148439648
 30
0.0
 10
133.644434893941
 20
266.5712708455751
 30
0.0
 10
133.6414830554854
 20
266.5600800784716
 30
0.0
  0
SPLINE
  5
B2
330
1F
100
AcDbEntity
  8
0
  6
Continuous
 62
     7
 48
10.0
370
    15
100
AcDbSpline
210
0.0
220
0.0
230
1.0
 70
     8
 71
     3
 72
    17
 73
    13
 74
     0
 42
0.00000001
 43
0.00000001
 40
0.0
 40
0.0
 40
0.0
 40
0.0
 40
0.0599124570530974
 40
0.1706375106224698
 40
0.280906572449054
 40
0.391051285975233
 40
0.501475557248931
 40
0.6125376455247614
 40
0.7247312268042306
 40
0.8384268761670561
 40
0.9533998046041081
 40
0.9999999999999999
 40
0.9999999999999999
 40
0.9999999999999999
 40
0.9999999999999999
 10
133.6346975574579
 20
265.5389320221538
 30
0.0
 10
133.6496541926477
 20
265.4724673847367
 30
0.0
 10
133.6922523954524
 20
265.2831685171704
 30
0.0
 10
133.7997808575786
 20
264.969460965168
 30
0.0
 10
133.9675115085954
 20
264.6082518122224
 30
0.0
 10
134.174260998133
 20
264.2652610384736
 30
0.0
 10
134.4141509411928
 20
263.9491548590868
 30
0.0
 10
134.6824379271241
 20
263.6683792324856
 30
0.0
 10
134.9742863810835
 20
263.4295638480528
 30
0.0
 10
135.2853720337061
 20
263.2456119528979
 30
0.0
 10
135.5452286308243
 20
263.135159660891
 30
0.0
 10
135.7006227744159
 20
263.1111818663477
 30
0.0
 10
135.7454408560558
 20
263.1042662984341
 30
0.0
  0
SPLINE
  5
B3
330
1F
100
AcDbEntity
  8
0
  6
Continuous
 62
     7
 48
10.0
370
    15
100
AcDbSpline
210
0.0
220
0.0
230
1.0
 70
     8
 71
     3
 72
    11
 73
     7
 74
     0
 42
0.00000001
 43
0.00000001
 40
0.0
 40
0.0
 40
0.0
 40
0.0
 40
0.2021178477458315
 40
0.5660360789984192
 40
0.9188015829531413
 40
1.0
 40
1.0
 40
1.0
 40
1.0
 10
122.735783834193
 20
271.6318640667087
 30
0.0
 10
122.7346181141716
 20
271.6283938688462
 30
0.0
 10
122.7313534861463
 20
271.6186754930899
 30
0.0
 10
122.7033801306792
 20
271.5738741730055
 30
0.0
 10
122.6408163674934
 20
271.5168521684641
 30
0.0
 10
122.5925241978421
 20
271.4847810886999
 30
0.0
 10
122.5834883136553
 20
271.4787803112533
 30
0.0
  0
SPLINE
  5
B4
330
1F
100
AcDbEntity
  8
0
  6
Continuous
 62
     7
 48
10.0
370
    15
100
AcDbSpline
210
0.0
220
0.0
230
1.0
 70
     8
 71
     3
 72
    10
 73
     6
 74
     0
 42
0.00000001
 43
0.00000001
 40
0.0
 40
0.0
 40
0.0
 40
0.0
 40
0.2820674140839199
 40
0.834600513971555
 40
0.9999999999999999
 40
0.9999999999999999
 40
0.9999999999999999
 40
0.9999999999999999
 10
132.3994690593534
 20
270.3347018222195
 30
0.0
 10
132.4430023872309
 20
270.340164566948
 30
0.0
 10
132.5718117994755
 20
270.356328112719
 30
0.0
 10
132.7266202483077
 20
270.3520991998296
 30
0.0
 10
132.825351115874
 20
270.3322924320368
 30
0.0
 10
132.8480970325115
 20
270.3277292888155
 30
0.0
  0
SPLINE
  5
B5
330
1F
100
AcDbEntity
  8
0
  6
Continuous
 62
     7
 48
10.0
370
    15
100
AcDbSpline
210
0.0
220
0.0
230
1.0
 70
     8
 71
     3
 72
    10
 73
     6
 74
     0
 42
0.00000001
 43
0.00000001
 40
0.0
 40
0.0
 40
0.0
 40
0.0
 40
0.0540360804013142
 40
0.7922517852269214
 40
1.0
 40
1.0
 40
1.0
 40
1.0
 10
132.8501950129056
 20
270.329674206111
 30
0.0
 10
132.8550161219939
 20
270.3290443110212
 30
0.0
 10
132.9257009728136
 20
270.3198090832681
 30
0.0
 10
133.0225629081231
 20
270.2908051235807
 30
0.0
 10
133.1065492227239
 20
270.2433007336625
 30
0.0
 10
133.1249939081523
 20
270.2328680395661
 30
0.0
  0
LINE
  5
B6
330
1F
100
AcDbEntity
  8
0
  6
Continuous
 62
     7
 48
10.0
370
    15
100
AcDbLine
 10
124.1338656808
 20
276.2538598967
 30
0.0
 11
122.7357838342
 21
271.6318640667
 31
0.0
  0
SPLINE
  5
B7
330
1F
100
AcDbEntity
  8
0
  6
Continuous
 62
     7
 48
10.0
370
    15
100
AcDbSpline
210
0.0
220
0.0
230
1.0
 70
     8
 71
     3
 72
    11
 73
     7
 74
     0
 42
0.00000001
 43
0.00000001
 40
0.0
 40
0.0
 40
0.0
 40
0.0
 40
0.2400841807046361
 40
0.5880262196372656
 40
0.937599220763836
 40
1.0
 40
1.0
 40
1.0
 40
1.0
 10
133.6365769350257
 20
266.5143197196277
 30
0.0
 10
133.6195071713192
 20
266.4423952803971
 30
0.0
 10
133.5776990497137
 20
266.2662343356146
 30
0.0
 10
133.5758776453017
 20
265.957908811138
 30
0.0
 10
133.6004170766955
 20
265.7016766775583
 30
0.0
 10
133.6313605816803
 20
265.5601412107413
 30
0.0
 10
133.6360475275865
 20
265.538703139097
 30
0.0
  0
LINE
  5
B8
330
1F
100
AcDbEntity
  8
0
  6
Continuous
 62
     7
 48
10.0
370
    15
100
AcDbLine
 10
133.6454167137
 20
266.5578203469
 30
0.0
 11
133.636576935
 21
266.5143197196
 31
0.0
  0
LINE
  5
B9
330
1F
100
AcDbEntity
  8
0
  6
Continuous
 62
     7
 48
10.0
370
    15
100
AcDbLine
 10
125.1875628805
 20
260.6307439601
 30
0.0
 11
132.9852994167
 21
261.4168049276
 31
0.0
  0
LINE
  5
BA
330
1F
100
AcDbEntity
  8
0
  6
Continuous
 62
     7
 48
10.0
370
    15
100
AcDbLine
 10
134.0038573714
 20
261.2405414228
 30
0.0
 11
135.6037997654
 21
260.3169143387
 31
0.0
  0
SPLINE
  5
BB
330
1F
100
AcDbEntity
  8
0
  6
Continuous
 62
     7
 48
10.0
370
    15
100
AcDbSpline
210
0.0
220
0.0
230
1.0
 70
     8
 71
     3
 72
    12
 73
     8
 74
     0
 42
0.00000001
 43
0.00000001
 40
0.0
 40
0.0
 40
0.0
 40
0.0
 40
0.1162813069530849
 40
0.345037779913318
 40
0.5734594756558141
 40
0.7983713528738017
 40
0.9999999999999999
 40
0.9999999999999999
 40
0.9999999999999999
 40
0.9999999999999999
 10
132.9852994166641
 20
261.4168049276195
 30
0.0
 10
133.0292107228106
 20
261.4203679361653
 30
0.0
 10
133.1595073283692
 20
261.4309403367574
 30
0.0
 10
133.3816169913097
 20
261.4240453295271
 30
0.0
 10
133.6318443437155
 20
261.3850284933304
 30
0.0
 10
133.8488413720303
 20
261.3204786415802
 30
0.0
 10
133.9541006057854
 20
261.266199532115
 30
0.0
 10
134.0038573714108
 20
261.2405414227819
 30
0.0
  0
LINE
  5
BC
330
1F
100
AcDbEntity
  8
0
  6
Continuous
 62
     7
 48
10.0
370
    15
100
AcDbLine
 10
124.13459354
 20
276.2571366673
 30
0.0
 11
124.1338656808
 21
276.2538598967
 31
0.0
  0
SPLINE
  5
BD
330
1F
100
AcDbEntity
  8
0
  6
Continuous
 62
     7
 48
10.0
370
    15
100
AcDbSpline
210
0.0
220
0.0
230
1.0
 70
     8
 71
     3
 72
    24
 73
    20
 74
     0
 42
0.00000001
 43
0.00000001
 40
0.0
 40
0.0
 40
0.0
 40
0.0
 40
0.0557633561460154
 40
0.1136198689951506
 40
0.1717965856311679
 40
0.2307619989480274
 40
0.2907449906136679
 40
0.3517065656908293
 40
0.4134121729622462
 40
0.4755619512386312
 40
0.5378995343572086
 40
0.6002279449722377
 40
0.6624727091770655
 40
0.7246150444101672
 40
0.786662913741459
 40
0.8486380309946515
 40
0.9105687003081447
 40
0.9724862646207397
 40
1.0
 40
1.0
 40
1.0
 40
1.0
 10
119.4923745842677
 20
278.5225716427771
 30
0.0
 10
119.3828018023665
 20
278.4544960755863
 30
0.0
 10
119.1595432687078
 20
278.3157896281886
 30
0.0
 10
118.8690737714588
 20
278.0373037588279
 30
0.0
 10
118.6136586343432
 20
277.709724044636
 30
0.0
 10
118.4019422398145
 20
277.3332773832873
 30
0.0
 10
118.2348030759836
 20
276.9117887089591
 30
0.0
 10
118.1145919411236
 20
276.4480494531877
 30
0.0
 10
118.0430999109495
 20
275.9468512238358
 30
0.0
 10
118.0214379425069
 20
275.414075167045
 30
0.0
 10
118.0497266138767
 20
274.8563747098385
 30
0.0
 10
118.1272046759994
 20
274.2804660869087
 30
0.0
 10
118.252477087364
 20
273.6928784094018
 30
0.0
 10
118.4236743104327
 20
273.09977063121
 30
0.0
 10
118.6387836113104
 20
272.5073535179512
 30
0.0
 10
118.8947196149973
 20
271.9210936888679
 30
0.0
 10
119.1908989427892
 20
271.3488750030759
 30
0.0
 10
119.4557508874563
 20
270.8928694124128
 30
0.0
 10
119.6317874949543
 20
270.6393366514848
 30
0.0
 10
119.6859455431148
 20
270.5613367418537
 30
0.0
  0
LINE
  5
BE
330
1F
100
AcDbEntity
  8
0
  6
Continuous
 62
     7
 48
10.0
370
    15
100
AcDbLine
 10
120.177888043
 20
278.9198839323
 30
0.0
 11
119.4707812619
 21
278.5116798764
 31
0.0
  0
SPLINE
  5
BF
330
1F
100
AcDbEntity
  8
0
  6
Continuous
 62
     7
 48
10.0
370
    15
100
AcDbSpline
210
0.0
220
0.0
230
1.0
 70
     8
 71
     3
 72
    18
 73
    14
 74
     0
 42
0.00000001
 43
0.00000001
 40
0.0
 40
0.0
 40
0.0
 40
0.0
 40
0.0306604720253066
 40
0.1236884151869349
 40
0.2209857960024592
 40
0.3210292233290839
 40
0.4217404409301918
 40
0.5221099296388115
 40
0.6221277728729059
 40
0.7220871992326338
 40
0.8223438428072691
 40
0.9232482654112976
 40
1.0
 40
1.0
 40
1.0
 40
1.0
 10
120.6235704300112
 20
274.2846804762529
 30
0.0
 10
120.6099178860325
 20
274.2550186216504
 30
0.0
 10
120.5548417108648
 20
274.1353587617413
 30
0.0
 10
120.5100791871144
 20
273.8932554246952
 30
0.0
 10
120.4895558512628
 20
273.5622104781493
 30
0.0
 10
120.5243575411891
 20
273.2045412239015
 30
0.0
 10
120.6088749200016
 20
272.8350577170341
 30
0.0
 10
120.7408555705005
 20
272.4654037952393
 30
0.0
 10
120.9152813312191
 20
272.1064553918363
 30
0.0
 10
121.1271738699119
 20
271.7666832163185
 30
0.0
 10
121.3721539348762
 20
271.4567772183912
 30
0.0
 10
121.6201873719902
 20
271.2001583575994
 30
0.0
 10
121.7928481419435
 20
271.0721326321199
 30
0.0
 10
121.8674417490481
 20
271.0168224382163
 30
0.0
  0
LINE
  5
C0
330
1F
100
AcDbEntity
  8
0
  6
Continuous
 62
     7
 48
10.0
370
    15
100
AcDbLine
 10
122.7886788568
 20
244.5092925309
 30
0.0
 11
122.7886788568
 21
248.6918989692
 31
0.0
  0
LINE
  5
C1
330
1F
100
AcDbEntity
  8
0
  6
Continuous
 62
     7
 48
10.0
370
    15
100
AcDbLine
 10
122.7886788568
 20
258.7325284328
 30
0.0
 11
122.7886788568
 21
264.9228128281
 31
0.0
  0
LINE
  5
C2
330
1F
100
AcDbEntity
  8
0
  6
Continuous
 62
     7
 48
10.0
370
    15
100
AcDbLine
 10
88.5386788568
 20
264.9228128281
 30
0.0
 11
88.5386788568
 21
258.7325284328
 31
0.0
  0
LINE
  5
C3
330
1F
100
AcDbEntity
  8
0
  6
Continuous
 62
     7
 48
10.0
370
    15
100
AcDbLine
 10
88.5386788568
 20
248.6943650545
 30
0.0
 11
88.5386788568
 21
244.5092925309
 31
0.0
  0
LINE
  5
C4
330
1F
100
AcDbEntity
  8
0
  6
Continuous
 62
     7
 48
10.0
370
    15
100
AcDbLine
 10
126.4329028811
 20
265.5138728688
 30
0.0
 11
125.7257961
 21
265.9220769247
 31
0.0
  0
ARC
  5
C5
330
1F
100
AcDbEntity
  8
0
  6
Continuous
 62
     7
 48
100.0
370
    15
100
AcDbCircle
 10
118.0375672182
 20
258.3243911422
 30
0.0
 40
6.250932497810648
100
AcDbArc
 50
350.241675423
 51
10.4863930246
  0
ARC
  5
C6
330
1F
100
AcDbEntity
  8
0
  6
Continuous
 62
     7
 48
100.0
370
    15
100
AcDbCircle
 10
93.2864094194
 20
258.3240902907
 30
0.0
 40
6.24760091825801
100
AcDbArc
 50
170.3261868639
 51
190.4838297389
  0
LWPOLYLINE
  5
C7
330
1F
100
AcDbEntity
  8
0
  6
Continuous
 62
     7
 48
10.0
370
    15
100
AcDbPolyline
 90
        3
 70
   128
 43
0.0
 10
87.0386788568
 20
253.0167427496
 10
87.0659648322
 20
252.4349529899
 10
87.143360988
 20
251.8783801184
  0
ARC
  5
C8
330
1F
100
AcDbEntity
  8
0
  6
Continuous
 62
     7
 48
100.0
370
    15
100
AcDbCircle
 10
118.0133771912
 20
253.019987853
 30
0.0
 40
6.275302504655877
100
AcDbArc
 50
350.1791326832
 51
359.9703710325
  0
LWPOLYLINE
  5
C9
330
1F
100
AcDbEntity
  8
0
  6
Continuous
 62
     7
 48
10.0
370
    15
100
AcDbPolyline
 90
       49
 70
   128
 43
0.0
 10
122.7886788568
 20
258.7325284328
 10
122.7765415609
 20
258.3603882165
 10
122.6963352299
 20
257.70725475
 10
122.5414122049
 20
257.0586188239
 10
122.3124520825
 20
256.417325792
 10
122.0104592358
 20
255.786188797
 10
121.6367584088
 20
255.1679764305
 10
121.1929889049
 20
254.5654005881
 10
120.6810973956
 20
253.981104573
 10
120.1033293817
 20
253.4176515007
 10
119.4622193425
 20
252.8775130556
 10
118.7605796181
 20
252.3630586485
 10
118.0014880727
 20
251.8765450225
 10
117.1882745925
 20
251.420106354
 10
116.3245064792
 20
250.9957448901
 10
115.4139728011
 20
250.6053221657
 10
114.4606677716
 20
250.2505508377
 10
113.4687732283
 20
249.932987172
 10
112.4426402882
 20
249.6540242164
 10
111.3867702609
 20
249.4148856902
 10
110.305794903
 20
249.2166206161
 10
109.2044560999
 20
249.0600987179
 10
108.0875850648
 20
248.9460066061
 10
106.9600811457
 20
248.8748447656
 10
105.8268903338
 20
248.8469253599
 10
104.6929835664
 20
248.8623708625
 10
103.5633349219
 20
248.9211135189
 10
102.4428997995
 20
249.0228956443
 10
101.3365931816
 20
249.1672707538
 10
100.2492680736
 20
249.3536055211
 10
99.1856942154
 20
249.5810825564
 10
98.1505371575
 20
249.8487039923
 10
97.1483377956
 20
250.1552958612
 10
96.1834924505
 20
250.4995132447
 10
95.2602335833
 20
250.8798461738
 10
94.3826112286
 20
251.2946262522
 10
93.554475229
 20
251.7420339754
 10
92.779458346
 20
252.2201067119
 10
92.0609603255
 20
252.7267473131
 10
91.4021329833
 20
253.2597333122
 10
90.8058663794
 20
253.816726674
 10
90.2747761406
 20
254.3952840507
 10
89.8111919861
 20
254.9928675003
 10
89.4171475079
 20
255.6068556195
 10
89.0943712503
 20
256.2345550434
 10
88.8442791272
 20
256.8732122597
 10
88.667968211
 20
257.5200256881
 10
88.56621192
 20
258.1721579695
 10
88.5386788568
 20
258.7325284328
  0
LINE
  5
CA
330
1F
100
AcDbEntity
  8
0
  6
Continuous
 62
     7
 48
10.0
370
    15
100
AcDbLine
 10
126.7226611504
 20
269.0853172991
 30
0.0
 11
122.4178400152
 21
266.9690277416
 31
0.0
  0
LINE
  5
CB
330
1F
100
AcDbEntity
  8
0
  6
Continuous
 62
     7
 48
10.0
370
    15
100
AcDbLine
 10
127.0468353613
 20
268.8655600998
 30
0.0
 11
126.7226611504
 21
269.0853172991
 31
0.0
  0
LWPOLYLINE
  5
CC
330
1F
100
AcDbEntity
  8
0
  6
Continuous
 62
     7
 48
10.0
370
    15
100
AcDbPolyline
 90
        9
 70
   128
 43
0.0
 10
126.9903376913
 20
268.4586611121
 10
127.0583741745
 20
268.4993932368
 10
127.1113382208
 20
268.5470051948
 10
127.1471944514
 20
268.5996672851
 10
127.1645649316
 20
268.6553557332
 10
127.1627821235
 20
268.7119304633
 10
127.1419145395
 20
268.7672173401
 10
127.1027641091
 20
268.8190917201
 10
127.0468353613
 20
268.8655600998
  0
ARC
  5
CD
330
1F
100
AcDbEntity
  8
0
  6
Continuous
 62
     7
 48
100.0
370
    15
100
AcDbCircle
 10
126.4869654696
 20
267.8011516566
 30
0.0
 40
0.8280714205918936
100
AcDbArc
 50
2.0403344663
 51
52.5632664112
  0
LINE
  5
CE
330
1F
100
AcDbEntity
  8
0
  6
Continuous
 62
     7
 48
10.0
370
    15
100
AcDbLine
 10
127.3145119022
 20
262.5231182296
 30
0.0
 11
127.3145119022
 21
267.8306335069
 31
0.0
  0
ARC
  5
CF
330
1F
100
AcDbEntity
  8
0
  6
Continuous
 62
     7
 48
100.0
370
    15
100
AcDbCircle
 10
126.867531368
 20
268.858015538
 30
0.0
 40
0.2695430772871783
100
AcDbArc
 50
59.7743661399
 51
122.5112989708
  0
LINE
  5
D0
330
1F
100
AcDbEntity
  8
0
  6
Continuous
 62
     7
 48
10.0
370
    15
100
AcDbLine
 10
124.6124503285
 20
276.5173658908
 30
0.0
 11
123.2143684819
 21
271.8953700608
 31
0.0
  0
ARC
  5
D1
330
1F
100
AcDbEntity
  8
0
  6
Continuous
 62
     7
 48
100.0
370
    15
100
AcDbCircle
 10
123.9405845569
 20
276.6441830221
 30
0.0
 40
0.6837296248349526
100
AcDbArc
 50
349.3109699275
 51
68.1124322541
  0
LINE
  5
D2
330
1F
100
AcDbEntity
  8
0
  6
Continuous
 62
     7
 48
10.0
370
    15
100
AcDbLine
 10
122.5955273013
 20
278.2022545608
 30
0.0
 11
124.1954696954
 21
277.2786274767
 31
0.0
  0
LINE
  5
D3
330
1F
100
AcDbEntity
  8
0
  6
Continuous
 62
     7
 48
10.0
370
    15
100
AcDbLine
 10
123.3026340825
 20
278.6104586167
 30
0.0
 11
122.5955273013
 21
278.2022545608
 31
0.0
  0
LINE
  5
D4
330
1F
100
AcDbEntity
  8
0
  6
Continuous
 62
     7
 48
10.0
370
    15
100
AcDbLine
 10
136.5608862298
 20
270.9566325684
 30
0.0
 11
123.3026340825
 21
278.6104586167
 31
0.0
  0
LINE
  5
D5
330
1F
100
AcDbEntity
  8
0
  6
Continuous
 62
     7
 48
10.0
370
    15
100
AcDbLine
 10
135.8537794486
 20
270.5484285125
 30
0.0
 11
136.5608862298
 21
270.9566325684
 31
0.0
  0
LINE
  5
D6
330
1F
100
AcDbEntity
  8
0
  6
Continuous
 62
     7
 48
10.0
370
    15
100
AcDbLine
 10
134.2538370546
 20
271.4720555966
 30
0.0
 11
135.8537794486
 21
270.5484285125
 31
0.0
  0
ARC
  5
D7
330
1F
100
AcDbEntity
  8
0
  6
Continuous
 62
     7
 48
100.0
370
    15
100
AcDbCircle
 10
133.2059570922
 20
269.4639549784
 30
0.0
 40
2.26506523270357
100
AcDbArc
 50
62.4432572311
 51
96.8665940892
  0
LINE
  5
D8
330
1F
100
AcDbEntity
  8
0
  6
Continuous
 62
     7
 48
10.0
370
    15
100
AcDbLine
 10
124.9287513075
 20
270.9056779218
 30
0.0
 11
132.9351504274
 21
271.7127733923
 31
0.0
  0
ARC
  5
D9
330
1F
100
AcDbEntity
  8
0
  6
Continuous
 62
     7
 48
100.0
370
    15
100
AcDbCircle
 10
125.1112884219
 20
268.8235729336
 30
0.0
 40
2.09009114154615
100
AcDbArc
 50
95.0102826042
 51
116.2599394147
  0
ARC
  5
DA
330
1F
100
AcDbEntity
  8
0
  6
Continuous
 62
     7
 48
100.0
370
    15
100
AcDbCircle
 10
122.4462610982
 20
272.1750911055
 30
0.0
 40
0.8174550849089661
100
AcDbArc
 50
299.9643905957
 51
339.9899347209
  0
LINE
  5
DB
330
1F
100
AcDbEntity
  8
0
  6
Continuous
 62
     7
 48
10.0
370
    15
100
AcDbLine
 10
124.519952304
 20
268.8497752654
 30
0.0
 11
124.519952304
 21
270.0745864833
 31
0.0
  0
ARC
  5
DC
330
1F
100
AcDbEntity
  8
0
  6
Continuous
 62
     7
 48
100.0
370
    15
100
AcDbCircle
 10
123.712227875
 20
270.0434215146
 30
0.0
 40
0.8083254347009423
100
AcDbArc
 50
2.2095851218
 51
54.0709424418
  0
LWPOLYLINE
  5
DD
330
1F
100
AcDbEntity
  8
0
  6
Continuous
 62
     7
 48
10.0
370
    15
100
AcDbPolyline
 90
       28
 70
   128
 43
0.0
 10
135.500226058
 20
260.5458367419
 10
135.9722440572
 20
260.305093203
 10
136.4378788228
 20
260.1310986113
 10
136.8908334432
 20
260.0262059453
 10
137.3249824843
 20
259.9918336982
 10
137.7344548251
 20
260.0284466959
 10
138.1137130546
 20
260.1355498101
 10
138.4576283559
 20
260.3116946552
 10
138.7615498644
 20
260.5544991742
 10
139.0213675632
 20
260.8606798526
 10
139.2335678637
 20
261.2260961218
 10
139.3952811207
 20
261.6458063539
 10
139.5043204398
 20
262.1141346877
 10
139.5592112515
 20
262.6247477861
 10
139.5592112515
 20
263.1707404829
 10
139.5043204398
 20
263.7447291634
 10
139.3952811207
 20
264.3389516155
 10
139.2335678637
 20
264.9453719998
 10
139.0213675632
 20
265.5557895209
 10
138.7615498644
 20
266.1619493291
 10
138.4576283559
 20
266.7556541528
 10
138.1137130546
 20
267.3288751527
 10
137.7344548251
 20
267.8738604981
 10
137.3249824843
 20
268.3832401973
 10
136.8908334432
 20
268.8501257635
 10
136.4378788228
 20
269.2682033705
 10
135.9722440572
 20
269.6318192358
 10
135.500226058
 20
269.9360560786
  0
ARC
  5
DE
330
1F
100
AcDbEntity
  8
0
  6
Continuous
 62
     7
 48
100.0
370
    15
100
AcDbCircle
 10
136.2678341087
 20
269.9011256525
 30
0.0
 40
0.7684024037861453
100
AcDbArc
 50
122.60547834
 51
177.3945215143
  0
LWPOLYLINE
  5
DF
330
1F
100
AcDbEntity
  8
0
  6
Continuous
 62
     7
 48
10.0
370
    15
100
AcDbPolyline
 90
       23
 70
   128
 43
0.0
 10
136.5608862298
 20
270.9566325684
 10
137.0557039817
 20
270.6388913778
 10
137.5442991133
 20
270.2609680015
 10
138.0205272572
 20
269.8276150453
 10
138.4783995684
 20
269.344282174
 10
138.9121580367
 20
268.8170475789
 10
139.3163478979
 20
268.2525415411
 10
139.6858862298
 20
267.6578630513
 10
140.0161258735
 20
267.0404905368
 10
140.302913874
 20
266.408187815
 10
140.5426437056
 20
265.7689064596
 10
140.7323006267
 20
265.1306858045
 10
140.8694995915
 20
264.5015518447
 10
140.9525152433
 20
263.8894163049
 10
140.9803036122
 20
263.3019771447
 10
140.9525152433
 20
262.7466217522
 10
140.8694995915
 20
262.2303340438
 10
140.7323006267
 20
261.759606637
 10
140.5426437056
 20
261.340359202
 10
140.302913874
 20
260.9778640187
 10
140.0161258735
 20
260.6766796741
 10
139.6858862298
 20
260.4405937363
 10
139.6856322693
 20
260.4404471042
  0
LINE
  5
E0
330
1F
100
AcDbEntity
  8
0
  6
Continuous
 62
     7
 48
10.0
370
    15
100
AcDbLine
 10
135.500226058
 20
269.9360560786
 30
0.0
 11
133.900283664
 21
270.8596831627
 31
0.0
  0
LINE
  5
E1
330
1F
100
AcDbEntity
  8
0
  6
Continuous
 62
     7
 48
10.0
370
    15
100
AcDbLine
 10
133.900283664
 20
261.469463826
 30
0.0
 11
135.500226058
 21
260.5458367419
 31
0.0
  0
LINE
  5
E2
330
1F
100
AcDbEntity
  8
0
  6
Continuous
 62
     7
 48
10.0
370
    15
100
AcDbLine
 10
133.900283664
 20
262.6942750438
 30
0.0
 11
133.900283664
 21
261.469463826
 31
0.0
  0
LINE
  5
E3
330
1F
100
AcDbEntity
  8
0
  6
Continuous
 62
     7
 48
10.0
370
    15
100
AcDbLine
 10
133.5329307516
 20
262.9063433662
 30
0.0
 11
133.900283664
 21
262.6942750438
 31
0.0
  0
LINE
  5
E4
330
1F
100
AcDbEntity
  8
0
  6
Continuous
 62
     7
 48
10.0
370
    15
100
AcDbLine
 10
133.5329307516
 20
265.7981543282
 30
0.0
 11
133.5329307516
 21
262.9063433662
 31
0.0
  0
LINE
  5
E5
330
1F
100
AcDbEntity
  8
0
  6
Continuous
 62
     7
 48
10.0
370
    15
100
AcDbLine
 10
133.5329307516
 20
269.8469402672
 30
0.0
 11
133.5329307516
 21
266.9551293052
 31
0.0
  0
LINE
  5
E6
330
1F
100
AcDbEntity
  8
0
  6
Continuous
 62
     7
 48
10.0
370
    15
100
AcDbLine
 10
133.900283664
 20
269.6348719449
 30
0.0
 11
133.5329307516
 21
269.8469402672
 31
0.0
  0
LINE
  5
E7
330
1F
100
AcDbEntity
  8
0
  6
Continuous
 62
     7
 48
10.0
370
    15
100
AcDbLine
 10
133.900283664
 20
270.8596831627
 30
0.0
 11
133.900283664
 21
269.6348719449
 31
0.0
  0
ARC
  5
E8
330
1F
100
AcDbEntity
  8
0
  6
Continuous
 62
     7
 48
100.0
370
    15
100
AcDbCircle
 10
130.1841438117
 20
271.0195060529
 30
0.0
 40
2.837015509948414
100
AcDbArc
 50
0.0132411754
 51
14.1443112409
  0
LINE
  5
E9
330
1F
100
AcDbEntity
  8
0
  6
Continuous
 62
     7
 48
10.0
370
    15
100
AcDbLine
 10
133.0211592459
 20
271.0201616932
 30
0.0
 11
125.0147601259
 21
270.2130662226
 31
0.0
  0
ARC
  5
EA
330
1F
100
AcDbEntity
  8
0
  6
Continuous
 62
     7
 48
100.0
370
    15
100
AcDbCircle
 10
122.1777446917
 20
270.2124105824
 30
0.0
 40
2.837015509947629
100
AcDbArc
 50
0.0132411754
 51
14.1443112409
  0
LINE
  5
EB
330
1F
100
AcDbEntity
  8
0
  6
Continuous
 62
     7
 48
10.0
370
    15
100
AcDbLine
 10
133.0211592459
 20
270.538761791
 30
0.0
 11
133.0211592459
 21
271.0201616932
 31
0.0
  0
LINE
  5
EC
330
1F
100
AcDbEntity
  8
0
  6
Continuous
 62
     7
 48
10.0
370
    15
100
AcDbLine
 10
132.4353887487
 20
270.5528419308
 30
0.0
 11
133.0211592459
 21
270.538761791
 31
0.0
  0
LINE
  5
ED
330
1F
100
AcDbEntity
  8
0
  6
Continuous
 62
     7
 48
10.0
370
    15
100
AcDbLine
 10
126.4554592005
 20
269.9500273596
 30
0.0
 11
132.4353887487
 21
270.5528419308
 31
0.0
  0
ELLIPSE
  5
EE
330
1F
100
AcDbEntity
  8
0
  6
Continuous
 62
     7
 48
100.0
370
    15
100
AcDbEllipse
 10
126.4554592005
 20
269.1334865477
 30
0.0
 11
1.860558054175755
 21
0.2314564286962764
 31
0.0
210
0.0
220
0.0
230
1.0
 40
0.4328064209
 41
1.517006446375051
 42
2.400905226065858
  0
LINE
  5
EF
330
1F
100
AcDbEntity
  8
0
  6
Continuous
 62
     7
 48
10.0
370
    15
100
AcDbLine
 10
125.0147601259
 20
270.2130662226
 30
0.0
 11
125.0147601259
 21
269.5060573125
 31
0.0
  0
ARC
  5
F0
330
1F
100
AcDbEntity
  8
0
  6
Continuous
 62
     7
 48
100.0
370
    15
100
AcDbCircle
 10
133.2023622791
 20
269.8558973905
 30
0.0
 40
0.3306898018321874
100
AcDbArc
 50
358.4478864133
 51
25.7924776262
  0
SPLINE
  5
F1
330
1F
100
AcDbEntity
  8
0
  6
Continuous
 62
     7
 48
10.0
370
    15
100
AcDbSpline
210
0.0
220
0.0
230
1.0
 70
     8
 71
     3
 72
    10
 73
     6
 74
     0
 42
0.00000001
 43
0.00000001
 40
0.0
 40
0.0
 40
0.0
 40
0.0
 40
0.3178668404155666
 40
0.6470418981793139
 40
1.0
 40
1.0
 40
1.0
 40
1.0
 10
133.5329307515876
 20
265.7981543282089
 30
0.0
 10
133.5077692474654
 20
265.9333773894396
 30
0.0
 10
133.45655111044
 20
266.2086341167593
 30
0.0
 10
133.4527364856341
 20
266.6059019261622
 30
0.0
 10
133.5055851281211
 20
266.8360454742012
 30
0.0
 10
133.5329307515876
 20
266.9551293051522
 30
0.0
  0
ARC
  5
F2
330
1F
100
AcDbEntity
  8
0
  6
Continuous
 62
     7
 48
100.0
370
    15
100
AcDbCircle
 10
134.6678917147
 20
270.8247527366
 30
0.0
 40
0.7684024037860355
100
AcDbArc
 50
122.60547834
 51
177.3945215143
  0
ARC
  5
F3
330
1F
100
AcDbEntity
  8
0
  6
Continuous
 62
     7
 48
100.0
370
    15
100
AcDbCircle
 10
125.1364515355
 20
268.8249962305
 30
0.0
 40
1.393394094365461
100
AcDbArc
 50
95.0102826042
 51
116.2599394147
  0
SPLINE
  5
F4
330
1F
100
AcDbEntity
  8
0
  6
Continuous
 62
     7
 48
10.0
370
    15
100
AcDbSpline
210
0.0
220
0.0
230
1.0
 70
     8
 71
     3
 72
    10
 73
     6
 74
     0
 42
0.00000001
 43
0.00000001
 40
0.0
 40
0.0
 40
0.0
 40
0.0
 40
0.0053346308203202
 40
0.325377327131532
 40
1.0
 40
1.0
 40
1.0
 40
1.0
 10
124.5199523039741
 20
268.8497752654261
 30
0.0
 10
124.520659135247
 20
268.8510872370731
 30
0.0
 10
124.5637711851841
 20
268.9311088622173
 30
0.0
 10
124.7044154101679
 20
269.1732489821194
 30
0.0
 10
124.8893380439462
 20
269.3715568310043
 30
0.0
 10
125.0147601259238
 20
269.5060573124836
 30
0.0
  0
LINE
  5
F5
330
1F
100
AcDbEntity
  8
0
  6
Continuous
 62
     7
 48
10.0
370
    15
100
AcDbLine
 10
133.6871555783
 20
266.7034378535
 30
0.0
 11
133.7147488775
 21
266.7727086412
 31
0.0
  0
LINE
  5
F6
330
1F
100
AcDbEntity
  8
0
  6
Continuous
 62
     7
 48
10.0
370
    15
100
AcDbLine
 10
135.8641812958
 20
263.0798657454
 30
0.0
 11
135.7587736816
 21
263.094935895
 31
0.0
  0
ARC
  5
F7
330
1F
100
AcDbEntity
  8
0
  6
Continuous
 62
     7
 48
100.0
370
    15
100
AcDbCircle
 10
125.3136261656
 20
269.6953171386
 30
0.0
 40
0.3537515957200595
100
AcDbArc
 50
212.3444333256
 51
248.9477373677
  0
SPLINE
  5
F8
330
1F
100
AcDbEntity
  8
0
  6
Continuous
 62
     7
 48
10.0
370
    15
100
AcDbSpline
210
0.0
220
0.0
230
1.0
 70
     8
 71
     3
 72
    10
 73
     6
 74
     0
 42
0.00000001
 43
0.00000001
 40
0.0
 40
0.0
 40
0.0
 40
0.0
 40
0.6745481013520636
 40
0.9935965807413218
 40
1.0
 40
1.0
 40
1.0
 40
1.0
 10
125.1865517401419
 20
269.3651773472079
 30
0.0
 10
125.0265254041859
 20
269.2585414196145
 30
0.0
 10
124.790809641417
 20
269.101468717418
 30
0.0
 10
124.5858779196191
 20
268.9132590081574
 30
0.0
 10
124.5212243925442
 20
268.8510002360651
 30
0.0
 10
124.5199523039741
 20
268.8497752654261
 30
0.0
  0
LWPOLYLINE
  5
F9
330
1F
100
AcDbEntity
  8
0
  6
Continuous
 62
     7
 48
10.0
370
    15
100
AcDbPolyline
 90
       30
 70
   128
 43
0.0
 10
133.7710796001
 20
265.4346461814
 10
133.8641472009
 20
265.0953171262
 10
134.0042026043
 20
264.7556950316
 10
134.1857348051
 20
264.4291436023
 10
134.4016007383
 20
264.1285122287
 10
134.6433063494
 20
263.8656303795
 10
134.9013408247
 20
263.6508421267
 10
135.1655508303
 20
263.4925991196
 10
135.4255400328
 20
263.3971280226
 10
135.6710781823
 20
263.368185504
 10
135.8925036594
 20
263.4069104157
 10
136.0811036487
 20
263.5117789809
 10
136.2294569762
 20
263.6786647526
 10
136.3317261241
 20
263.9010009844
 10
136.3838869293
 20
264.1700390236
 10
136.3838869293
 20
264.4751925597
 10
136.3317261241
 20
264.8044541827
 10
136.2294569762
 20
265.1448678593
 10
136.0811036487
 20
265.4830387371
 10
135.8925036594
 20
265.8056602149
 10
135.6710781823
 20
266.1000375408
 10
135.4255400328
 20
266.3545873352
 10
135.1655508303
 20
266.559293382
 10
134.9013408247
 20
266.7061007542
 10
134.6433063494
 20
266.7892327652
 10
134.4016007383
 20
266.8054182745
 10
134.1857348051
 20
266.7540204023
 10
134.0042026043
 20
266.6370615907
 10
133.8641472009
 20
266.4591440228
 10
133.7710796001
 20
266.2272685323
  0
ARC
  5
FA
330
1F
100
AcDbEntity
  8
0
  6
Continuous
 62
     7
 48
100.0
370
    15
100
AcDbCircle
 10
133.2016970224
 20
269.5209494172
 30
0.0
 40
1.510043488468633
100
AcDbArc
 50
62.4432572311
 51
96.8665940892
  0
LWPOLYLINE
  5
FB
330
1F
100
AcDbEntity
  8
0
  6
Continuous
 62
     7
 48
10.0
370
    15
100
AcDbPolyline
 90
       26
 70
   128
 43
0.0
 10
135.9421677962
 20
264.5776148194
 10
135.9143989715
 20
264.8474772237
 10
135.8328373146
 20
265.1324443832
 10
135.7026076444
 20
265.4146107634
 10
135.5318927701
 20
265.6762468128
 10
135.331419335
 20
265.9009129762
 10
135.1137838224
 20
266.0744926522
 10
134.892661072
 20
266.1860791916
 10
134.6819450393
 20
266.2286612015
 10
134.4948757877
 20
266.1995630977
 10
134.3432075662
 20
266.1006132212
 10
134.2364702471
 20
265.9380289565
 10
134.1813705285
 20
265.7220260709
 10
134.1813705285
 20
265.4661768202
 10
134.2364702471
 20
265.1865571537
 10
134.3432075662
 20
264.9007366034
 10
134.4948757877
 20
264.6266743257
 10
134.6819450393
 20
264.3815906614
 10
134.892661072
 20
264.1808851185
 10
135.1137838224
 20
264.0371687645
 10
135.331419335
 20
263.9594718263
 10
135.5318927701
 20
263.9526762883
 10
135.7026076444
 20
264.0172091393
 10
135.8328373146
 20
264.1490155428
 10
135.9143989715
 20
264.3398136177
 10
135.9421677962
 20
264.5776148194
  0
SPLINE
  5
FC
330
1F
100
AcDbEntity
  8
0
  6
Continuous
 62
     7
 48
10.0
370
    15
100
AcDbSpline
210
0.0
220
0.0
230
1.0
 70
     8
 71
     3
 72
     9
 73
     5
 74
     0
 42
0.00000001
 43
0.00000001
 40
0.0
 40
0.0
 40
0.0
 40
0.0
 40
0.3536783255396995
 40
1.0
 40
1.0
 40
1.0
 40
1.0
 10
133.7710796001332
 20
266.2272685323146
 30
0.0
 10
133.753512438955
 20
266.144749374672
 30
0.0
 10
133.7038425555901
 20
265.9114323979624
 30
0.0
 10
133.7446833254026
 20
265.6218254372082
 30
0.0
 10
133.771079600134
 20
265.4346461813983
 30
0.0
  0
SPLINE
  5
FD
330
1F
100
AcDbEntity
  8
0
  6
Continuous
 62
     7
 48
10.0
370
    15
100
AcDbSpline
210
0.0
220
0.0
230
1.0
 70
     8
 71
     3
 72
     9
 73
     5
 74
     0
 42
0.00000001
 43
0.00000001
 40
0.0
 40
0.0
 40
0.0
 40
0.0
 40
0.9918053993266785
 40
1.0
 40
1.0
 40
1.0
 40
1.0
 10
133.6116172653439
 20
270.0945722070752
 30
0.0
 10
133.714278360661
 20
269.9474074401212
 30
0.0
 10
133.8177876734624
 20
269.799026752686
 30
0.0
 10
133.8996131369782
 20
269.6362061943312
 30
0.0
 10
133.9002836639766
 20
269.634871944874
 30
0.0
  0
SPLINE
  5
FE
330
1F
100
AcDbEntity
  8
0
  6
Continuous
 62
     7
 48
10.0
370
    15
100
AcDbSpline
210
0.0
220
0.0
230
1.0
 70
     8
 71
     3
 72
     9
 73
     5
 74
     0
 42
0.00000001
 43
0.00000001
 40
0.0
 40
0.0
 40
0.0
 40
0.0
 40
0.4772804620488993
 40
1.0
 40
1.0
 40
1.0
 40
1.0
 10
133.0211592458867
 20
270.5387617909681
 30
0.0
 10
133.1283981599358
 20
270.4906174433943
 30
0.0
 10
133.3530855766148
 20
270.3897452070426
 30
0.0
 10
133.5228684435747
 20
270.1958992671891
 30
0.0
 10
133.6116172653439
 20
270.0945722070752
 30
0.0
  0
ARC
  5
FF
330
1F
100
AcDbEntity
  8
0
  6
Continuous
 62
     7
 48
100.0
370
    15
100
AcDbCircle
 10
132.9016166837
 20
270.8168464408
 30
0.0
 40
1.012808419545703
100
AcDbArc
 50
306.2224598182
 51
314.5090249134
  0
SPLINE
  5
100
330
1F
100
AcDbEntity
  8
0
  6
Continuous
 62
     7
 48
10.0
370
    15
100
AcDbSpline
210
0.0
220
0.0
230
1.0
 70
     8
 71
     3
 72
     9
 73
     5
 74
     0
 42
0.00000001
 43
0.00000001
 40
0.0
 40
0.0
 40
0.0
 40
0.0
 40
0.0098291279346122
 40
1.0
 40
1.0
 40
1.0
 40
1.0
 10
133.9002836639766
 20
269.634871944874
 30
0.0
 10
133.89907678133
 20
269.6361368326336
 30
0.0
 10
133.7762904411171
 20
269.7648245217146
 30
0.0
 10
133.6375169135843
 20
269.8828848693393
 30
0.0
 10
133.5001074088076
 20
269.9997847867031
 30
0.0
  0
LINE
  5
101
330
1F
100
AcDbEntity
  8
0
  6
Continuous
 62
     7
 48
10.0
370
    15
100
AcDbLine
 10
132.4353887487
 20
261.979163406
 30
0.0
 11
126.4554592005
 21
261.3763488348
 31
0.0
  0
LINE
  5
102
330
1F
100
AcDbEntity
  8
0
  6
Continuous
 62
     7
 48
10.0
370
    15
100
AcDbLine
 10
133.0211592459
 20
262.1113422587
 30
0.0
 11
132.4353887487
 21
261.979163406
 31
0.0
  0
LINE
  5
103
330
1F
100
AcDbEntity
  8
0
  6
Continuous
 62
     7
 48
10.0
370
    15
100
AcDbLine
 10
133.0211592459
 20
261.6299423565
 30
0.0
 11
133.0211592459
 21
262.1113422587
 31
0.0
  0
ARC
  5
104
330
1F
100
AcDbEntity
  8
0
  6
Continuous
 62
     7
 48
100.0
370
    15
100
AcDbCircle
 10
132.9102595274
 20
262.9152994472
 30
0.0
 40
0.6227356299147635
100
AcDbArc
 50
341.2960667144
 51
359.1759531474
  0
SPLINE
  5
105
330
1F
100
AcDbEntity
  8
0
  6
Continuous
 62
     7
 48
10.0
370
    15
100
AcDbSpline
210
0.0
220
0.0
230
1.0
 70
     8
 71
     3
 72
     9
 73
     5
 74
     0
 42
0.00000001
 43
0.00000001
 40
0.0
 40
0.0
 40
0.0
 40
0.0
 40
0.3904182649862919
 40
1.0
 40
1.0
 40
1.0
 40
1.0
 10
132.8114970628531
 20
262.6716835886292
 30
0.0
 10
132.9092014856752
 20
262.6808414767342
 30
0.0
 10
133.1594572538718
 20
262.7042980844964
 30
0.0
 10
133.37109618312
 20
262.7113208637705
 30
0.0
 10
133.5001074088076
 20
262.7156018217451
 30
0.0
  0
LINE
  5
106
330
1F
100
AcDbEntity
  8
0
  6
Continuous
 62
     7
 48
10.0
370
    15
100
AcDbLine
 10
132.3493799303
 20
262.6717751052
 30
0.0
 11
132.8114970629
 21
262.6716835886
 31
0.0
  0
ARC
  5
107
330
1F
100
AcDbEntity
  8
0
  6
Continuous
 62
     7
 48
100.0
370
    15
100
AcDbCircle
 10
129.5983733145
 20
261.9785077658
 30
0.0
 40
2.837015509949803
100
AcDbArc
 50
0.0132411754
 51
14.1443112409
  0
ARC
  5
108
330
1F
100
AcDbEntity
  8
0
  6
Continuous
 62
     7
 48
100.0
370
    15
100
AcDbCircle
 10
133.2016970224
 20
260.1307300805
 30
0.0
 40
1.510043488469177
100
AcDbArc
 50
62.4432572312
 51
96.8665940892
  0
SPLINE
  5
109
330
1F
100
AcDbEntity
  8
0
  6
Continuous
 62
     7
 48
10.0
370
    15
100
AcDbSpline
210
0.0
220
0.0
230
1.0
 70
     8
 71
     3
 72
     9
 73
     5
 74
     0
 42
0.00000001
 43
0.00000001
 40
0.0
 40
0.0
 40
0.0
 40
0.0
 40
0.6185185311718515
 40
1.0
 40
1.0
 40
1.0
 40
1.0
 10
133.6116172653439
 20
262.4668031781881
 30
0.0
 10
133.5050843293724
 20
262.3945180479491
 30
0.0
 10
133.3328454543791
 20
262.2776498757021
 30
0.0
 10
133.107228089597
 20
262.1572663448393
 30
0.0
 10
133.0211592458867
 20
262.1113422586631
 30
0.0
  0
SPLINE
  5
10A
330
1F
100
AcDbEntity
  8
0
  6
Continuous
 62
     7
 48
10.0
370
    15
100
AcDbSpline
210
0.0
220
0.0
230
1.0
 70
     8
 71
     3
 72
     9
 73
     5
 74
     0
 42
0.00000001
 43
0.00000001
 40
0.0
 40
0.0
 40
0.0
 40
0.0
 40
0.0081946006733183
 40
1.0
 40
1.0
 40
1.0
 40
1.0
 10
133.9002836639766
 20
262.6942750438452
 30
0.0
 10
133.8996131369782
 20
262.69371390037
 30
0.0
 10
133.8177876734629
 20
262.625236680131
 30
0.0
 10
133.7142783606612
 20
262.5456940189873
 30
0.0
 10
133.6116172653439
 20
262.4668031781881
 30
0.0
  0
ARC
  5
10B
330
1F
100
AcDbEntity
  8
0
  6
Continuous
 62
     7
 48
100.0
370
    15
100
AcDbCircle
 10
134.2696783332
 20
262.911129965
 30
0.0
 40
0.7940218274772717
100
AcDbArc
 50
194.2557368418
 51
214.0274580324
  0
SPLINE
  5
10C
330
1F
100
AcDbEntity
  8
0
  6
Continuous
 62
     7
 48
10.0
370
    15
100
AcDbSpline
210
0.0
220
0.0
230
1.0
 70
     8
 71
     3
 72
     9
 73
     5
 74
     0
 42
0.00000001
 43
0.00000001
 40
0.0
 40
0.0
 40
0.0
 40
0.0
 40
0.9901708720653869
 40
0.9999999999999999
 40
0.9999999999999999
 40
0.9999999999999999
 40
0.9999999999999999
 10
133.5001074088076
 20
262.7156018217451
 30
0.0
 10
133.6375169135842
 20
262.7115028939767
 30
0.0
 10
133.7762904411168
 20
262.7073632773872
 30
0.0
 10
133.89907678133
 20
262.6944024375975
 30
0.0
 10
133.9002836639766
 20
262.6942750438452
 30
0.0
  0
ARC
  5
10D
330
1F
100
AcDbEntity
  8
0
  6
Continuous
 62
     7
 48
100.0
370
    15
100
AcDbCircle
 10
141.5983857136
 20
265.6400670526
 30
0.0
 40
9.274735174154353
100
AcDbArc
 50
198.665977856
 51
202.3625734729
  0
ARC
  5
10E
330
1F
100
AcDbEntity
  8
0
  6
Continuous
 62
     7
 48
100.0
370
    15
100
AcDbCircle
 10
124.6095243555
 20
276.6313246167
 30
0.0
 40
0.7684024037862002
100
AcDbArc
 50
122.60547834
 51
177.3945215143
  0
LINE
  5
10F
330
1F
100
AcDbEntity
  8
0
  6
Continuous
 62
     7
 48
10.0
370
    15
100
AcDbLine
 10
123.8419163048
 20
275.441443825
 30
0.0
 11
123.8419163048
 21
276.6662550428
 31
0.0
  0
LINE
  5
110
330
1F
100
AcDbEntity
  8
0
  6
Continuous
 62
     7
 48
10.0
370
    15
100
AcDbLine
 10
123.8419163048
 20
276.6662550428
 30
0.0
 11
122.2419739107
 21
277.5898821269
 31
0.0
  0
ARC
  5
111
330
1F
100
AcDbEntity
  8
0
  6
Continuous
 62
     7
 48
100.0
370
    15
100
AcDbCircle
 10
123.0095819614
 20
277.5549517008
 30
0.0
 40
0.7684024037859698
100
AcDbArc
 50
122.60547834
 51
177.3945215143
  0
ARC
  5
112
330
1F
100
AcDbEntity
  8
0
  6
Continuous
 62
     7
 48
100.0
370
    15
100
AcDbCircle
 10
121.4618853941
 20
275.9539815487
 30
0.0
 40
3.231907509034321
100
AcDbArc
 50
55.2808080963
 51
113.4087334747
  0
LWPOLYLINE
  5
113
330
1F
100
AcDbEntity
  8
0
  6
Continuous
 62
     7
 48
10.0
370
    15
100
AcDbPolyline
 90
       26
 70
   128
 43
0.0
 10
122.8562983802
 20
272.0302797465
 10
122.8606923443
 20
272.1293898538
 10
122.8329235195
 20
272.399252258
 10
122.7513618626
 20
272.6842194176
 10
122.6211321925
 20
272.9663857978
 10
122.4504173181
 20
273.2280218472
 10
122.2499438831
 20
273.4526880105
 10
122.0323083705
 20
273.6262676866
 10
121.81118562
 20
273.7378542259
 10
121.6004695874
 20
273.7804362359
 10
121.4134003358
 20
273.7513381321
 10
121.2617321143
 20
273.6523882555
 10
121.1549947951
 20
273.4898039908
 10
121.0998950765
 20
273.2738011053
 10
121.0998950765
 20
273.0179518545
 10
121.1549947951
 20
272.738332188
 10
121.2617321143
 20
272.4525116377
 10
121.4134003358
 20
272.17844936
 10
121.6004695874
 20
271.9333656958
 10
121.81118562
 20
271.7326601529
 10
122.0323083705
 20
271.5889437988
 10
122.2499438831
 20
271.5112468606
 10
122.4504173181
 20
271.5044513227
 10
122.6211321925
 20
271.5689841736
 10
122.7513618626
 20
271.7007905771
 10
122.7614883558
 20
271.7168420613
  0
LWPOLYLINE
  5
114
330
1F
100
AcDbEntity
  8
0
  6
Continuous
 62
     7
 48
10.0
370
    15
100
AcDbPolyline
 90
       37
 70
   128
 43
0.0
 10
93.554475229
 20
237.5187980735
 10
94.3812548057
 20
237.0720760369
 10
95.2573695521
 20
236.6578750557
 10
96.1789884413
 20
236.2780063254
 10
97.1420814684
 20
235.9341309154
 10
98.1424372728
 20
235.6277525052
 10
99.1756815529
 20
235.3602108098
 10
100.2372961944
 20
235.1326757209
 10
101.3226390266
 20
234.9461421916
 10
102.4269641214
 20
234.8014258854
 10
103.5454425463
 20
234.6991596101
 10
104.6731834796
 20
234.6397905499
 10
105.8052555971
 20
234.6235783107
 10
106.9367086356
 20
234.6505937846
 10
108.0625950388
 20
234.7207188396
 10
109.1779915919
 20
234.8336468368
 10
110.2780209495
 20
234.9888839707
 10
111.3578729633
 20
235.185751429
 10
112.412825715
 20
235.4233883602
 10
113.4382661648
 20
235.7007556386
 10
114.4297103224
 20
236.0166404076
 10
115.3828228549
 20
236.3696613834
 10
116.2934360435
 20
236.7582748953
 10
117.1575680086
 20
237.1807816351
 10
117.9714401209
 20
237.6353340884
 10
118.7314935247
 20
238.119944613
 10
119.4344046999
 20
238.6324941303
 10
120.0770999949
 20
239.1707413918
 10
120.6567690664
 20
239.7323327791
 10
121.1708771694
 20
240.3148125959
 10
121.6171762397
 20
240.9156338063
 10
121.9937147251
 20
241.5321691719
 10
122.2988461186
 20
242.1617227404
 10
122.5312361583
 20
242.8015416344
 10
122.6898686617
 20
243.4488280885
 10
122.7740499692
 20
244.1007516838
 10
122.7886788568
 20
244.5092925309
  0
LWPOLYLINE
  5
115
330
1F
100
AcDbEntity
  8
0
  6
Continuous
 62
     7
 48
10.0
370
    15
100
AcDbPolyline
 90
       13
 70
   128
 43
0.0
 10
88.5386788568
 20
244.5092925309
 10
88.5673475571
 20
243.9374917208
 10
88.6701889288
 20
243.2864607376
 10
88.8473385081
 20
242.6407768867
 10
89.0980216651
 20
242.0032635793
 10
89.421142226
 20
241.3767084989
 10
89.815287267
 20
240.7638514113
 10
90.2787332919
 20
240.1673721849
 10
90.8094537692
 20
239.5898790713
 10
91.4051279934
 20
239.0338973011
 10
92.0631512327
 20
238.5018580412
 10
92.7806461187
 20
237.9960877637
 10
93.554475229
 20
237.5187980735
  0
LWPOLYLINE
  5
116
330
1F
100
AcDbEntity
  8
0
  6
Continuous
 62
     7
 48
10.0
370
    15
100
AcDbPolyline
 90
       96
 70
   128
 43
0.0
 10
93.554475229
 20
257.9323183706
 10
94.3812548057
 20
257.485596334
 10
95.2573695521
 20
257.0713953528
 10
96.1789884413
 20
256.6915266225
 10
97.1420814684
 20
256.3476512125
 10
98.1424372728
 20
256.0412728024
 10
99.1756815529
 20
255.773731107
 10
100.2372961944
 20
255.5461960181
 10
101.3226390266
 20
255.3596624887
 10
102.4269641214
 20
255.2149461826
 10
103.5454425463
 20
255.1126799072
 10
104.6731834796
 20
255.0533108471
 10
105.8052555971
 20
255.0370986079
 10
106.9367086356
 20
255.0641140817
 10
108.0625950388
 20
255.1342391367
 10
109.1779915919
 20
255.2471671339
 10
110.2780209495
 20
255.4024042679
 10
111.3578729633
 20
255.5992717261
 10
112.412825715
 20
255.8369086574
 10
113.4382661648
 20
256.1142759357
 10
114.4297103224
 20
256.4301607047
 10
115.3828228549
 20
256.7831816806
 10
116.2934360435
 20
257.1717951924
 10
117.1575680086
 20
257.5943019322
 10
117.9714401209
 20
258.0488543856
 10
118.7314935247
 20
258.5334649101
 10
119.4344046999
 20
259.0460144275
 10
120.0770999949
 20
259.584261689
 10
120.6567690664
 20
260.1458530762
 10
121.1708771694
 20
260.7283328931
 10
121.6171762397
 20
261.3291541034
 10
121.9937147251
 20
261.945689469
 10
122.2988461186
 20
262.5752430376
 10
122.5312361583
 20
263.2150619315
 10
122.6898686617
 20
263.8623483856
 10
122.7740499692
 20
264.5142719809
 10
122.7834119773
 20
265.1679820214
 10
122.7179137483
 20
265.8206199993
 10
122.5778416895
 20
266.4693320949
 10
122.3638083001
 20
267.1112816553
 10
122.0767494939
 20
267.7436615983
 10
121.7179205058
 20
268.3637066874
 10
121.2888904039
 20
268.9687056231
 10
120.7915352274
 20
269.5560128991
 10
120.2280297842
 20
270.12306037
 10
119.60083814
 20
270.6673684815
 10
118.9127028445
 20
271.1865571128
 10
118.1666329381
 20
271.6783559841
 10
117.3658907947
 20
272.140614584
 10
116.513977856
 20
272.5713115733
 10
115.6146193205
 20
272.9685636237
 10
114.6717478543
 20
273.330633653
 10
113.6894863943
 20
273.6559384211
 10
112.67213012
 20
273.943055453
 10
111.6241276716
 20
274.1907292589
 10
110.550061697
 20
274.3978768245
 10
109.4546288136
 20
274.563592346
 10
108.3426190706
 20
274.6871511916
 10
107.2188950036
 20
274.76801307
 10
106.0883703722
 20
274.8058243927
 10
104.9559886728
 20
274.8004198205
 10
103.8267015225
 20
274.7518229861
 10
102.7054470067
 20
274.6602463912
 10
101.5971280861
 20
274.5260904768
 10
100.5065911573
 20
274.3499418728
 10
99.4386048609
 20
274.132570832
 10
98.3978392291
 20
273.8749278628
 10
97.3888452654
 20
273.5781395723
 10
96.4160350435
 20
273.2435037402
 10
95.4836624151
 20
272.8724836438
 10
94.5958044084
 20
272.4667016597
 10
93.7563434006
 20
272.0279321691
 10
92.968950141
 20
271.5580937995
 10
92.2370677002
 20
271.0592410344
 10
91.5638964136
 20
270.5335552302
 10
90.9523798882
 20
269.983335077
 10
90.4051921301
 20
269.4109865476
 10
89.924725852
 20
268.8190123764
 10
89.5130820109
 20
268.210001116
 10
89.1720606205
 20
267.5866158176
 10
88.9031528806
 20
266.9515823865
 10
88.7075346562
 20
266.3076776623
 10
88.5860613361
 20
265.6577172765
 10
88.5392640923
 20
265.0045433406
 10
88.5673475571
 20
264.351012018
 10
88.6701889288
 20
263.6999810348
 10
88.8473385081
 20
263.0542971838
 10
89.0980216651
 20
262.4167838764
 10
89.421142226
 20
261.790228796
 10
89.815287267
 20
261.1773717085
 10
90.2787332919
 20
260.580892482
 10
90.8094537692
 20
260.0033993685
 10
91.4051279934
 20
259.4474175983
 10
92.0631512327
 20
258.9153783383
 10
92.7806461187
 20
258.4096080608
 10
93.554475229
 20
257.9323183706
  0
LWPOLYLINE
  5
117
330
1F
100
AcDbEntity
  8
0
  6
Continuous
 62
     7
 48
10.0
370
    15
100
AcDbPolyline
 90
       94
 70
   128
 43
0.0
 10
117.1612351189
 20
258.285414879
 10
117.9112018755
 20
258.7486463966
 10
118.6052859938
 20
259.2400492195
 10
119.2403205269
 20
259.7573811893
 10
119.8134079581
 20
260.298281839
 10
120.3219334207
 20
260.8602831629
 10
120.7635766298
 20
261.4408208779
 10
121.1363224687
 20
262.0372461235
 10
121.4384701836
 20
262.6468375481
 10
121.6686411437
 20
263.266813726
 10
121.8257851319
 20
263.8943458479
 10
121.909185136
 20
264.5265706288
 10
121.9184606211
 20
265.1606033719
 10
121.8535692652
 20
265.7935511313
 10
121.7148071526
 20
266.4225259116
 10
121.5028074232
 20
267.044657845
 10
121.2185373829
 20
267.6571082863
 10
120.8632940909
 20
268.2570827646
 10
120.4386984407
 20
268.8418437338
 10
119.946687765
 20
269.408723064
 10
119.3895069956
 20
269.9551342146
 10
118.7696984205
 20
270.4785840369
 10
118.0900900842
 20
270.9766841495
 10
117.3537828836
 20
271.4471618358
 10
116.5641364195
 20
271.8878704139
 10
115.7247536677
 20
272.2967990318
 10
114.8394645392
 20
272.672081842
 10
113.9123084051
 20
273.012006515
 10
112.9475156663
 20
273.3150220526
 10
111.9494884508
 20
273.5797458643
 10
110.9227805278
 20
273.8049700761
 10
109.8720765301
 20
273.9896670416
 10
108.8021705791
 20
274.1329940309
 10
107.7179444102
 20
274.2342970759
 10
106.6243450988
 20
274.2931139539
 10
105.5263624876
 20
274.309176297
 10
104.4290064195
 20
274.2824108165
 10
103.3372838785
 20
274.212939637
 10
102.2561761443
 20
274.1010797398
 10
101.1906160634
 20
273.9473415157
 10
100.1454655421
 20
273.7524264371
 10
99.1254933624
 20
273.5172238568
 10
98.1353534236
 20
273.2428069502
 10
97.1795635071
 20
272.9304278186
 10
96.2624846629
 20
272.5815117765
 10
95.3883013116
 20
272.1976508477
 10
94.5610021513
 20
271.7805965015
 10
93.7843619583
 20
271.3322516614
 10
93.0619243637
 20
270.8546620219
 10
92.3969856844
 20
270.3500067151
 10
91.7925798833
 20
269.8205883674
 10
91.2514647253
 20
269.2688225932
 10
90.7761091948
 20
268.6972269733
 10
90.36868223
 20
268.1084095673
 10
90.0310428268
 20
267.5050570141
 10
89.7647315563
 20
266.8899222729
 10
89.5709635357
 20
266.2658120625
 10
89.4506228841
 20
265.6355740546
 10
89.4042586883
 20
265.0020838807
 10
89.4320824975
 20
264.3682320112
 10
89.5339673579
 20
263.7369105667
 10
89.7094483925
 20
263.1110001223
 10
89.9577249213
 20
262.4933565637
 10
90.2776641157
 20
261.8867980568
 10
90.6678061664
 20
261.2940921889
 10
91.1263709447
 20
260.7179433411
 10
91.6512661247
 20
260.1609803483
 10
92.2400967301
 20
259.6257445049
 10
92.890176062
 20
259.1146779694
 10
93.5985379573
 20
258.630112621
 10
94.3619503234
 20
258.1742594204
 10
95.1769298845
 20
257.7491983212
 10
96.039758076
 20
257.3568687796
 10
96.9464980107
 20
256.9990609054
 10
97.8930124422
 20
256.6774072938
 10
98.8749826422
 20
256.3933755764
 10
99.8879281061
 20
256.148261725
 10
100.9272269958
 20
255.9431841377
 10
101.9881372291
 20
255.7790785366
 10
103.0658181158
 20
255.6566936978
 10
104.1553524452
 20
255.5765880353
 10
105.251768922
 20
255.5391270529
 10
106.3500648495
 20
255.5444816765
 10
107.445228955
 20
255.5926274741
 10
108.5322642561
 20
255.6833447674
 10
109.60621086
 20
255.8162196344
 10
110.6621685946
 20
255.9906457975
 10
111.6953193669
 20
256.20582739
 10
112.7009491471
 20
256.4607825877
 10
113.6744694769
 20
256.7543480886
 10
114.6114384065
 20
257.0851844205
 10
115.5075807616
 20
257.4517820533
 10
116.3588076501
 20
257.8524682859
 10
117.1612351189
 20
258.285414879
  0
LWPOLYLINE
  5
118
330
1F
100
AcDbEntity
  8
0
  6
Continuous
 62
     7
 48
10.0
370
    15
100
AcDbPolyline
 90
       18
 70
   128
 43
0.0
 10
126.976993825
 20
264.7511491739
 10
126.8630341069
 20
265.0465240402
 10
126.7015511538
 20
265.289431594
 10
126.496521212
 20
265.4738906451
 10
126.2529927992
 20
265.5953591995
 10
125.9769623931
 20
265.6508462983
 10
125.6752267783
 20
265.6389856649
 10
125.3552156872
 20
265.5600693476
 10
125.0248088549
 20
265.4160405279
 10
124.692141994
 20
265.2104456733
 10
124.3654064669
 20
264.9483472116
 10
124.0526475865
 20
264.6361988768
 10
123.7615665144
 20
264.2816867967
 10
123.4993306328
 20
263.8935402354
 10
123.2723970593
 20
263.4813166493
 10
123.0863536516
 20
263.0551663514
 10
122.9457814159
 20
262.6255825761
 10
122.9031561473
 20
262.4554083138
  0
LWPOLYLINE
  5
119
330
1F
100
AcDbEntity
  8
0
  6
Continuous
 62
     7
 48
10.0
370
    15
100
AcDbPolyline
 90
       16
 70
   128
 43
0.0
 10
123.9986286694
 20
260.1771301716
 10
124.190822786
 20
260.1924668983
 10
124.5108338771
 20
260.2713832157
 10
124.8412407095
 20
260.4154120354
 10
125.1739075703
 20
260.6210068899
 10
125.5006430975
 20
260.8831053516
 10
125.8134019779
 20
261.1952536864
 10
126.1044830499
 20
261.5497657665
 10
126.3667189316
 20
261.9379123278
 10
126.5936525051
 20
262.3501359139
 10
126.7796959128
 20
262.7762862119
 10
126.9202681485
 20
263.2058699871
 10
127.0119078572
 20
263.6283094614
 10
127.0523585652
 20
264.0332027729
 10
127.0406242419
 20
264.4105801045
 10
126.976993825
 20
264.7511491739
  0
LWPOLYLINE
  5
11A
330
1F
100
AcDbEntity
  8
0
  6
Continuous
 62
     7
 48
10.0
370
    15
100
AcDbPolyline
 90
       12
 70
   128
 43
0.0
 10
125.7257961
 20
265.9220769247
 10
125.545886018
 20
266.0035632554
 10
125.2698556119
 20
266.0590503542
 10
124.9681199971
 20
266.0471897208
 10
124.648108906
 20
265.9682734035
 10
124.3177020737
 20
265.8242445838
 10
123.9850352129
 20
265.6186497292
 10
123.6582996857
 20
265.3565512676
 10
123.3455408053
 20
265.0444029327
 10
123.0544597333
 20
264.6898908526
 10
122.7922238516
 20
264.3017442913
 10
122.7886788568
 20
264.2959354744
  0
LWPOLYLINE
  5
11B
330
1F
100
AcDbEntity
  8
0
  6
Continuous
 62
     8
 48
10.0
370
    15
100
AcDbPolyline
 90
       61
 70
   128
 43
0.0
 10
88.5386788568
 20
262.1599843208
 10
88.3880268731
 20
261.8980172389
 10
88.0714799973
 20
261.2508639013
 10
87.8275957056
 20
260.5933088643
 10
87.6573813346
 20
259.9280680846
 10
87.5615399354
 20
259.2578892639
 10
87.54046737
 20
258.5855404997
 10
87.5942506763
 20
257.9137988526
 10
87.7226677084
 20
257.2454388752
 10
87.9251880543
 20
256.5832211528
 10
88.2009752266
 20
255.9298809006
 10
88.5488901178
 20
255.2881166664
 10
88.9674957048
 20
254.6605791848
 10
89.4550629845
 20
254.0498604282
 10
90.0095781157
 20
253.4584829013
 10
90.6287507363
 20
252.8888892218
 10
91.3100234241
 20
252.3434320321
 10
92.0505822594
 20
251.8243642811
 10
92.8473684478
 20
251.3338299194
 10
93.6970909542
 20
250.8738550437
 10
94.5962400961
 20
250.4463395281
 10
95.5411020399
 20
250.0530491768
 10
96.5277741404
 20
249.6956084313
 10
97.5521810601
 20
249.3754936599
 10
98.6100916025
 20
249.0940270604
 10
99.6971361878
 20
248.8523711989
 10
100.8088249016
 20
248.6515242074
 10
101.9405660396
 20
248.4923156616
 10
103.0876850733
 20
248.3754031545
 10
104.2454439575
 20
248.3012695798
 10
105.4090607002
 20
248.270221138
 10
106.5737291143
 20
248.2823860711
 10
107.734638669
 20
248.3377141331
 10
108.8869943588
 20
248.4359767979
 10
110.0260365091
 20
248.5767682027
 10
111.1470604354
 20
248.7595068244
 10
112.2454358754
 20
248.9834378819
 10
113.3166261137
 20
249.2476364533
 10
114.3562067205
 20
249.5510112964
 10
115.3598838258
 20
249.8923093558
 10
116.3235118551
 20
250.2701209384
 10
117.2431106519
 20
250.6828855365
 10
118.1148819177
 20
251.1288982724
 10
118.9352248999
 20
251.6063169413
 10
119.7007512649
 20
252.1131696193
 10
120.4082990927
 20
252.6473628089
 10
121.0549459373
 20
253.2066900857
 10
121.638020897
 20
253.7888412116
 10
122.1551156468
 20
254.3914116775
 10
122.6040943854
 20
255.0119126344
 10
122.9831026571
 20
255.6477811732
 10
123.290575011
 20
256.2963909111
 10
123.5252414676
 20
256.955062839
 10
123.6861327635
 20
257.6210763871
 10
123.7725843555
 20
258.291680662
 10
123.7842391651
 20
258.9641058087
 10
123.7210490534
 20
259.6355744512
 10
123.5832750201
 20
260.3033131645
 10
123.3714861251
 20
260.9645639294
 10
123.0865571385
 20
261.6165955246
 10
122.7886788568
 20
262.1599843208
  0
LWPOLYLINE
  5
11C
330
1F
100
AcDbEntity
  8
0
  6
Continuous
 62
     8
 48
10.0
370
    15
100
AcDbPolyline
 90
       49
 70
   128
 43
0.0
 10
124.1980577469
 20
257.2649037484
 10
124.1978101939
 20
257.2634613302
 10
124.0435845376
 20
256.5857024165
 10
123.8150660434
 20
255.9149708638
 10
123.5131783987
 20
255.2539778148
 10
123.1391418541
 20
254.6053950487
 10
122.6944682908
 20
253.9718441816
 10
122.1809551099
 20
253.3558860694
 10
121.6006779669
 20
252.760010457
 10
120.9559823817
 20
252.1866259145
 10
120.249474258
 20
251.6380501015
 10
119.4840093501
 20
251.1165003989
 10
118.6626817195
 20
250.6240849465
 10
117.7888112289
 20
250.1627941211
 10
116.8659301226
 20
249.734492492
 10
115.8977687492
 20
249.3409112836
 10
114.8882404834
 20
248.9836413782
 10
113.8414259075
 20
248.6641268851
 10
112.7615563178
 20
248.3836593039
 10
111.6529966212
 20
248.1433723038
 10
110.5202276919
 20
247.9442371412
 10
109.3678282595
 20
247.7870587341
 10
108.2004564014
 20
247.6724724084
 10
107.0228307147
 20
247.6009413299
 10
105.8397112431
 20
247.5727546321
 10
104.6558802365
 20
247.5880262476
 10
103.476122821
 20
247.6466944474
 10
102.3052076569
 20
247.7485220907
 10
101.1478676634
 20
247.8930975832
 10
100.0087808881
 20
248.0798365408
 10
98.8925515978
 20
248.3079841518
 10
97.8036916678
 20
248.576618228
 10
96.7466023444
 20
248.8846529321
 10
95.7255564552
 20
249.2308431666
 10
94.7446811375
 20
249.6137896069
 10
93.8079411567
 20
250.0319443574
 10
92.9191228798
 20
250.4836172077
 10
92.0818189713
 20
250.9669824654
 10
91.2994138708
 20
251.4800863349
 10
90.5750701135
 20
252.0208548153
 10
89.9117155464
 20
252.5871020832
 10
89.3120314941
 20
253.1765393286
 10
88.7784419207
 20
253.7867840055
 10
88.3131036316
 20
254.4153694633
 10
87.9178975563
 20
255.0597549165
 10
87.5944211447
 20
255.7173357149
 10
87.3439819106
 20
256.3854538718
 10
87.1675921466
 20
257.061408808
 10
87.1431040785
 20
257.1872891991
  0
LWPOLYLINE
  5
11D
330
1F
100
AcDbEntity
  8
0
  6
Continuous
 62
     8
 48
10.0
370
    15
100
AcDbPolyline
 90
       48
 70
   128
 43
0.0
 10
87.143360988
 20
251.8783801184
 10
87.1675921466
 20
251.7538935307
 10
87.3439819106
 20
251.0779385945
 10
87.5944211447
 20
250.4098204376
 10
87.9178975563
 20
249.7522396392
 10
88.3131036316
 20
249.1078541861
 10
88.7784419207
 20
248.4792687283
 10
89.3120314941
 20
247.8690240513
 10
89.9117155464
 20
247.279586806
 10
90.5750701135
 20
246.713339538
 10
91.2994138708
 20
246.1725710577
 10
92.0818189713
 20
245.6594671881
 10
92.9191228798
 20
245.1761019305
 10
93.8079411567
 20
244.7244290801
 10
94.7446811375
 20
244.3062743297
 10
95.7255564552
 20
243.9233278893
 10
96.7466023444
 20
243.5771376548
 10
97.8036916678
 20
243.2691029508
 10
98.8925515978
 20
243.0004688745
 10
100.0087808881
 20
242.7723212635
 10
101.1478676634
 20
242.5855823059
 10
102.3052076569
 20
242.4410068135
 10
103.476122821
 20
242.3391791702
 10
104.6558802365
 20
242.2805109703
 10
105.8397112431
 20
242.2652393549
 10
107.0228307147
 20
242.2934260527
 10
108.2004564014
 20
242.3649571312
 10
109.3678282595
 20
242.4795434568
 10
110.5202276919
 20
242.6367218639
 10
111.6529966212
 20
242.8358570265
 10
112.7615563178
 20
243.0761440267
 10
113.8414259075
 20
243.3566116079
 10
114.8882404834
 20
243.6761261009
 10
115.8977687492
 20
244.0333960063
 10
116.8659301226
 20
244.4269772147
 10
117.7888112289
 20
244.8552788439
 10
118.6626817195
 20
245.3165696692
 10
119.4840093501
 20
245.8089851217
 10
120.249474258
 20
246.3305348242
 10
120.9559823817
 20
246.8791106373
 10
121.6006779669
 20
247.4524951798
 10
122.1809551099
 20
248.0483707922
 10
122.6944682908
 20
248.6643289043
 10
123.1391418541
 20
249.2978797715
 10
123.5131783987
 20
249.9464625375
 10
123.8150660434
 20
250.6074555865
 10
124.0435845376
 20
251.2781871393
 10
124.196720423
 20
251.9496196911
  0
LINE
  5
11E
330
1F
100
AcDbEntity
  8
0
  6
Continuous
 62
     8
 48
10.0
370
    15
100
AcDbLine
 10
122.6192981142
 20
266.3098179612
 30
0.0
 11
126.9903376913
 21
268.4586611121
 31
0.0
  0
LINE
  5
11F
330
1F
100
AcDbEntity
  8
0
  6
Continuous
 62
     8
 48
10.0
370
    15
100
AcDbLine
 10
127.3145119022
 20
267.8306335069
 30
0.0
 11
122.7500226667
 21
265.5866887294
 31
0.0
  0
LINE
  5
120
330
1F
100
AcDbEntity
  8
0
  6
Continuous
 62
     8
 48
10.0
370
    15
100
AcDbLine
 10
126.4648373879
 20
262.1054104445
 30
0.0
 11
127.3145119022
 21
262.5231182296
 31
0.0
  0
ARC
  5
121
330
1F
100
AcDbEntity
  8
0
  6
Continuous
 62
     8
 48
100.0
370
    15
100
AcDbCircle
 10
127.0886474444
 20
262.4873973083
 30
0.0
 40
0.2286716805808384
100
AcDbArc
 50
302.3262934932
 51
8.9870089893
  0
ARC
  5
122
330
1F
100
AcDbEntity
  8
0
  6
Continuous
 62
     8
 48
100.0
370
    15
100
AcDbCircle
 10
127.191710434
 20
268.6382373046
 30
0.0
 40
0.269563424653735
100
AcDbArc
 50
59.7918725487
 51
122.5097662879
  0
ARC
  5
123
330
1F
100
AcDbEntity
  8
0
  6
Continuous
 62
     8
 48
100.0
370
    15
100
AcDbCircle
 10
127.136710462
 20
268.3333289133
 30
0.0
 40
0.5332129253609206
100
AcDbArc
 50
289.4784920315
 51
353.1918133954
  0
ARC
  5
124
330
1F
100
AcDbEntity
  8
0
  6
Continuous
 62
     8
 48
100.0
370
    15
100
AcDbCircle
 10
127.1510038066
 20
263.014373465
 30
0.0
 40
0.5177514882924151
100
AcDbArc
 50
288.4093695479
 51
354.2646456844
  0
LINE
  5
125
330
1F
100
AcDbEntity
  8
0
  6
Continuous
 62
     8
 48
10.0
370
    15
100
AcDbLine
 10
121.1577682225
 20
269.1334062916
 30
0.0
 11
124.1865395745
 21
270.6979583127
 31
0.0
  0
LINE
  5
126
330
1F
100
AcDbEntity
  8
0
  6
Continuous
 62
     8
 48
10.0
370
    15
100
AcDbLine
 10
122.854548578
 20
271.4669003476
 30
0.0
 11
120.4465277255
 21
269.9133642422
 31
0.0
  0
LINE
  5
127
330
1F
100
AcDbEntity
  8
0
  6
Continuous
 62
     8
 48
10.0
370
    15
100
AcDbLine
 10
124.519952304
 20
270.0745864833
 30
0.0
 11
121.5876426125
 21
268.5598630126
 31
0.0
  0
LINE
  5
128
330
1F
100
AcDbEntity
  8
0
  6
Continuous
 62
     8
 48
10.0
370
    15
100
AcDbLine
 10
126.1571498608
 20
269.6954913822
 30
0.0
 11
124.519952304
 21
268.8497752654
 31
0.0
  0
LINE
  5
129
330
1F
100
AcDbEntity
  8
0
  6
Continuous
 62
     8
 48
10.0
370
    15
100
AcDbLine
 10
126.6632695514
 20
269.76145342
 30
0.0
 11
126.6632695514
 21
269.0561198442
 31
0.0
  0
LWPOLYLINE
  5
12A
330
1F
100
AcDbEntity
  8
0
  6
Continuous
 62
     8
 48
10.0
370
    15
100
AcDbPolyline
 90
       23
 70
   128
 43
0.0
 10
135.8537794486
 20
270.5484285125
 10
136.3485972005
 20
270.2306873219
 10
136.8371923321
 20
269.8527639456
 10
137.313420476
 20
269.4194109893
 10
137.7712927872
 20
268.9360781181
 10
138.2050512555
 20
268.408843523
 10
138.6092411167
 20
267.8443374852
 10
138.9787794486
 20
267.2496589954
 10
139.3090190923
 20
266.6322864809
 10
139.5958070928
 20
265.9999837591
 10
139.8355369244
 20
265.3607024037
 10
140.0251938455
 20
264.7224817486
 10
140.1623928103
 20
264.0933477888
 10
140.2454084621
 20
263.481212249
 10
140.273196831
 20
262.8937730888
 10
140.2454084621
 20
262.3384176963
 10
140.1623928103
 20
261.8221299879
 10
140.0251938455
 20
261.3514025811
 10
139.8355369244
 20
260.9321551461
 10
139.5958070928
 20
260.5696599628
 10
139.3090190923
 20
260.2684756182
 10
138.9787794486
 20
260.0323896804
 10
138.9602732106
 20
260.0218285957
  0
ARC
  5
12B
330
1F
100
AcDbEntity
  8
0
  6
Continuous
 62
     8
 48
100.0
370
    15
100
AcDbCircle
 10
135.7505682717
 20
260.5212040402
 30
0.0
 40
0.2515511756108956
100
AcDbArc
 50
174.3804071175
 51
234.2929401715
  0
LWPOLYLINE
  5
12C
330
1F
100
AcDbEntity
  8
0
  6
Continuous
 62
     8
 48
10.0
370
    15
100
AcDbPolyline
 90
       32
 70
   128
 43
0.0
 10
133.5329307516
 20
266.9551293052
 10
133.6404362927
 20
267.2408319372
 10
133.7958440886
 20
267.4738334772
 10
133.9949516003
 20
267.6478330951
 10
134.2323745602
 20
267.7581254914
 10
134.5016925744
 20
267.8017281382
 10
134.7956227425
 20
267.7774619322
 10
135.106216602
 20
267.6859830803
 10
135.4250750704
 20
267.5297653547
 10
135.7435755741
 20
267.3130331966
 10
136.0531052191
 20
267.0416474792
 10
136.3452937018
 20
266.7229470177
 10
136.6122396582
 20
266.3655501133
 10
136.8467243331
 20
265.9791214966
 10
137.0424067897
 20
265.5741109741
 10
137.1939953809
 20
265.1614708444
 10
137.2973908466
 20
264.752359726
 10
137.3497971655
 20
264.3578408059
 10
137.3497971655
 20
263.9885826686
 10
137.2973908466
 20
263.6545707964
 10
137.1939953809
 20
263.3648375417
 10
137.0424067897
 20
263.127217874
 10
136.8467243331
 20
262.9481375068
 10
136.6122396582
 20
262.8324391331
 10
136.3452937018
 20
262.7832514695
 10
136.0531052191
 20
262.8019046494
 10
135.7435755741
 20
262.8878942532
 10
135.4250750704
 20
263.0388949491
 10
135.106216602
 20
263.250823375
 10
134.7956227425
 20
263.5179485601
 10
134.5016925744
 20
263.8330469026
 10
134.4180144815
 20
263.9356271683
  0
LWPOLYLINE
  5
12D
330
1F
100
AcDbEntity
  8
0
  6
Continuous
 62
     8
 48
10.0
370
    15
100
AcDbPolyline
 90
        3
 70
   128
 43
0.0
 10
133.7434123126
 20
265.1017529871
 10
133.6404362927
 20
265.3883284404
 10
133.5329307516
 20
265.7981543282
  0
ARC
  5
12E
330
1F
100
AcDbEntity
  8
0
  6
Continuous
 62
     8
 48
100.0
370
    15
100
AcDbCircle
 10
122.7092870416
 20
271.2508028653
 30
0.0
 40
0.2603824798723749
100
AcDbArc
 50
56.0908580317
 51
118.8900628779
  0
ARC
  5
12F
330
1F
100
AcDbEntity
  8
0
  6
Continuous
 62
     8
 48
100.0
370
    15
100
AcDbCircle
 10
126.1335481103
 20
269.8946027033
 30
0.0
 40
0.326647581534511
100
AcDbArc
 50
331.1300991172
 51
9.7690529764
  0
ARC
  5
130
330
1F
100
AcDbEntity
  8
0
  6
Continuous
 62
     8
 48
100.0
370
    15
100
AcDbCircle
 10
132.1134776585
 20
270.4974172745
 30
0.0
 40
0.3266475815341048
100
AcDbArc
 50
331.1300991171
 51
9.7690529764
  0
ARC
  5
131
330
1F
100
AcDbEntity
  8
0
  6
Continuous
 62
     8
 48
100.0
370
    15
100
AcDbCircle
 10
130.6610953269
 20
264.7658233451
 30
0.0
 40
5.836539032898695
100
AcDbArc
 50
60.5249675454
 51
72.7274709099
  0
SPLINE
  5
132
330
1F
100
AcDbEntity
  8
0
  6
Continuous
 62
     8
 48
10.0
370
    15
100
AcDbSpline
210
0.0
220
0.0
230
1.0
 70
     8
 71
     3
 72
     9
 73
     5
 74
     0
 42
0.00000001
 43
0.00000001
 40
0.0
 40
0.0
 40
0.0
 40
0.0
 40
0.8895930637293329
 40
1.0
 40
1.0
 40
1.0
 40
1.0
 10
133.5001074088076
 20
269.9997847867031
 30
0.0
 10
133.3951489876351
 20
270.0823930003654
 30
0.0
 10
133.2771642309504
 20
270.1752536768145
 30
0.0
 10
133.1362244660507
 20
270.2286822514939
 30
0.0
 10
133.1206637384094
 20
270.2345811367336
 30
0.0
  0
ARC
  5
133
330
1F
100
AcDbEntity
  8
0
  6
Continuous
 62
     8
 48
100.0
370
    15
100
AcDbCircle
 10
129.971448127
 20
255.972252573
 30
0.0
 40
7.795240446089375
100
AcDbArc
 50
62.8140943132
 51
107.2013025913
  0
LWPOLYLINE
  5
134
330
1F
100
AcDbEntity
  8
0
  6
Continuous
 62
     8
 48
10.0
370
    15
100
AcDbPolyline
 90
        3
 70
   128
 43
0.0
 10
133.6035594775
 20
265.7706729298
 10
133.5744963389
 20
265.7843954684
 10
133.5329307516
 20
265.7981543282
  0
LWPOLYLINE
  5
135
330
1F
100
AcDbEntity
  8
0
  6
Continuous
 62
     8
 48
10.0
370
    15
100
AcDbPolyline
 90
       24
 70
   128
 43
0.0
 10
133.7147488775
 20
266.7727086412
 10
133.7531909086
 20
266.852297256
 10
133.9022939705
 20
267.0596414656
 10
134.0944930074
 20
267.2065269243
 10
134.3235731262
 20
267.2882039858
 10
134.5821268575
 20
267.3020315638
 10
134.8617936815
 20
267.2475625339
 10
135.1535303715
 20
267.126558191
 10
135.4479034132
 20
266.942931297
 10
135.7353940438
 20
266.7026195588
 10
136.0067060482
 20
266.4133936283
 10
136.2530663589
 20
266.0846058326
 10
136.4665087391
 20
265.7268877602
 10
136.6401313769
 20
265.3518064806
 10
136.7683200601
 20
264.9714905152
 10
136.8469297161
 20
264.5982376525
 10
136.8734184455
 20
264.2441172907
 10
136.8469297161
 20
263.9205801648
 10
136.7683200601
 20
263.638088079
 10
136.6401313769
 20
263.4057756169
 10
136.4665087391
 20
263.2311547679
 10
136.2530663589
 20
263.1198720222
 10
136.0067060482
 20
263.0755257868
 10
135.8641812958
 20
263.0798657454
  0
ARC
  5
136
330
1F
100
AcDbEntity
  8
0
  6
Continuous
 62
     8
 48
100.0
370
    15
100
AcDbCircle
 10
133.3068952532
 20
266.6700374759
 30
0.0
 40
0.3638260541340753
100
AcDbArc
 50
0.7427508861
 51
51.5908055653
  0
ELLIPSE
  5
137
330
1F
100
AcDbEntity
  8
0
  6
Continuous
 62
     8
 48
100.0
370
    15
100
AcDbEllipse
 10
126.369450382
 20
269.4178278409
 30
0.0
 11
1.526098031412062
 21
0.4304822415914486
 31
0.0
210
0.0
220
0.0
230
1.0
 40
0.2484154327
 41
2.280208379501461
 42
2.384736353615673
  0
ARC
  5
138
330
1F
100
AcDbEntity
  8
0
  6
Continuous
 62
     8
 48
100.0
370
    15
100
AcDbCircle
 10
133.9708138024
 20
266.4967720108
 30
0.0
 40
0.3354487688266433
100
AcDbArc
 50
169.3344077589
 51
233.4571456561
  0
ARC
  5
139
330
1F
100
AcDbEntity
  8
0
  6
Continuous
 62
     8
 48
100.0
370
    15
100
AcDbCircle
 10
133.7872290256
 20
265.5971082895
 30
0.0
 40
0.1632627958331275
100
AcDbArc
 50
200.9059225455
 51
264.323204356
  0
ARC
  5
13A
330
1F
100
AcDbEntity
  8
0
  6
Continuous
 62
     8
 48
100.0
370
    15
100
AcDbCircle
 10
123.1311638062
 20
271.480105879
 30
0.0
 40
0.4235178375764215
100
AcDbArc
 50
78.6699247749
 51
158.9765617691
  0
LWPOLYLINE
  5
13B
330
1F
100
AcDbEntity
  8
0
  6
Continuous
 62
     8
 48
10.0
370
    15
100
AcDbPolyline
 90
        8
 70
   128
 43
0.0
 10
132.8489662485
 20
270.3305961351
 10
132.85762634
 20
270.3296946491
 10
132.8839869013
 20
270.3355968487
 10
132.9116600525
 20
270.3540059225
 10
132.9399358446
 20
270.3844495893
 10
132.9680888678
 20
270.4261468232
 10
132.9953968619
 20
270.4780278898
 10
133.0211592459
 20
270.538761791
  0
ARC
  5
13C
330
1F
100
AcDbEntity
  8
0
  6
Continuous
 62
     8
 48
100.0
370
    15
100
AcDbCircle
 10
124.5376515253
 20
276.086856602
 30
0.0
 40
0.4369589325307007
100
AcDbArc
 50
80.1435431302
 51
157.5303194039
  0
LINE
  5
13D
330
1F
100
AcDbEntity
  8
0
  6
Continuous
 62
     8
 48
10.0
370
    15
100
AcDbLine
 10
125.4864178468
 20
260.8703929556
 30
0.0
 11
133.0211592459
 21
261.6299423565
 31
0.0
  0
ELLIPSE
  5
13E
330
1F
100
AcDbEntity
  8
0
  6
Continuous
 62
     8
 48
100.0
370
    15
100
AcDbEllipse
 10
126.4554592005
 20
262.1928896467
 30
0.0
 11
1.860558054175755
 21
0.2314564286962195
 31
0.0
210
0.0
220
0.0
230
1.0
 40
0.4328064209
 41
4.385224302203712
 42
4.658599099964864
  0
ARC
  5
13F
330
1F
100
AcDbEntity
  8
0
  6
Continuous
 62
     8
 48
100.0
370
    15
100
AcDbCircle
 10
132.7419616052
 20
261.5673312711
 30
0.0
 40
0.2861319111022213
100
AcDbArc
 50
328.2594781629
 51
12.6396739306
  0
ARC
  5
140
330
1F
100
AcDbEntity
  8
0
  6
Continuous
 62
     8
 48
100.0
370
    15
100
AcDbCircle
 10
129.9999370663
 20
255.7325794231
 30
0.0
 40
7.326139398418555
100
AcDbArc
 50
71.2951499895
 51
109.5855021289
  0
LINE
  5
141
330
1F
100
AcDbEntity
  8
0
  6
Continuous
 62
     8
 48
10.0
370
    15
100
AcDbLine
 10
126.8517200886
 20
262.1175763586
 30
0.0
 11
132.3493799303
 21
262.6717751052
 31
0.0
  0
ARC
  5
142
330
1F
100
AcDbEntity
  8
0
  6
Continuous
 62
     8
 48
100.0
370
    15
100
AcDbCircle
 10
123.2611487242
 20
261.3489328062
 30
0.0
 40
3.194428126850334
100
AcDbArc
 50
0.4917443603
 51
9.9217355902
  0
ARC
  5
143
330
1F
100
AcDbEntity
  8
0
  6
Continuous
 62
     8
 48
100.0
370
    15
100
AcDbCircle
 10
134.1452846152
 20
261.4424204574
 30
0.0
 40
0.2464889650234292
100
AcDbArc
 50
173.7011524846
 51
234.986667122
  0
ARC
  5
144
330
1F
100
AcDbEntity
  8
0
  6
Continuous
 62
     8
 48
100.0
370
    15
100
AcDbCircle
 10
123.6261883952
 20
276.2025116881
 30
0.0
 40
0.5114649841458477
100
AcDbArc
 50
6.0491346904
 51
65.0527096956
  0
SPLINE
  5
145
330
1F
100
AcDbEntity
  8
0
  6
Continuous
 62
     8
 48
10.0
370
    15
100
AcDbSpline
210
0.0
220
0.0
230
1.0
 70
     8
 71
     3
 72
     9
 73
     5
 74
     0
 42
0.00000001
 43
0.00000001
 40
0.0
 40
0.0
 40
0.0
 40
0.0
 40
0.0262935816030249
 40
1.0
 40
1.0
 40
1.0
 40
1.0
 10
123.841916304769
 20
275.4414438249869
 30
0.0
 10
123.8425869988586
 20
275.4420051367243
 30
0.0
 10
123.8680949003588
 20
275.4633529981862
 30
0.0
 10
123.8867180803786
 20
275.4802737492965
 30
0.0
 10
123.9048515902949
 20
275.4967495932569
 30
0.0
  0
LWPOLYLINE
  5
146
330
1F
100
AcDbEntity
  8
0
  6
Continuous
 62
     8
 48
10.0
370
    15
100
AcDbPolyline
 90
       23
 70
   128
 43
0.0
 10
122.2419739107
 20
277.5898821269
 10
121.7699559115
 20
277.8306256658
 10
121.304321146
 20
278.0046202575
 10
120.8513665255
 20
278.1095129235
 10
120.4172174844
 20
278.1438851706
 10
120.0077451436
 20
278.107272173
 10
119.6284869141
 20
278.0001690587
 10
119.2845716129
 20
277.8240242136
 10
118.9806501043
 20
277.5812196946
 10
118.7208324055
 20
277.2750390163
 10
118.5086321051
 20
276.909622747
 10
118.3469188481
 20
276.489912515
 10
118.2378795289
 20
276.0215841811
 10
118.1829887173
 20
275.5109710827
 10
118.1829887173
 20
274.9649783859
 10
118.2378795289
 20
274.3909897054
 10
118.3469188481
 20
273.7967672533
 10
118.5086321051
 20
273.1903468691
 10
118.7208324055
 20
272.5799293479
 10
118.9806501043
 20
271.9737695397
 10
119.2845716129
 20
271.3800647161
 10
119.6284869141
 20
270.8068437162
 10
119.8837398731
 20
270.4314653753
  0
LINE
  5
147
330
1F
100
AcDbEntity
  8
0
  6
Continuous
 62
     8
 48
10.0
370
    15
100
AcDbLine
 10
123.8812533917
 20
275.4187350081
 30
0.0
 11
123.8419163048
 21
275.441443825
 31
0.0
  0
LWPOLYLINE
  5
148
330
1F
100
AcDbEntity
  8
0
  6
Continuous
 62
     8
 48
10.0
370
    15
100
AcDbPolyline
 90
        3
 70
   128
 43
0.0
 10
121.8105107455
 20
270.9800933669
 10
121.6890947496
 20
271.0940713897
 10
121.4149327904
 20
271.3911165435
  0
LWPOLYLINE
  5
149
330
1F
100
AcDbEntity
  8
0
  6
Continuous
 62
     8
 48
10.0
370
    15
100
AcDbPolyline
 90
       19
 70
   128
 43
0.0
 10
120.7392015075
 20
272.4715203266
 10
120.6997931791
 20
272.5616078948
 10
120.5482045879
 20
272.9742480245
 10
120.4448091222
 20
273.3833591428
 10
120.3924028032
 20
273.777878063
 10
120.3924028032
 20
274.1471362002
 10
120.4448091222
 20
274.4811480724
 10
120.5482045879
 20
274.7708813271
 10
120.6997931791
 20
275.0085009948
 10
120.8954756356
 20
275.1875813621
 10
121.1299603106
 20
275.3032797357
 10
121.396906267
 20
275.3524673993
 10
121.6890947496
 20
275.3338142195
 10
121.9986243947
 20
275.2478246157
 10
122.3171248983
 20
275.0968239197
 10
122.6359833668
 20
274.8848954938
 10
122.9465772262
 20
274.6177703087
 10
123.2405073943
 20
274.3026719662
 10
123.4585675377
 20
274.0213545473
  0
SPLINE
  5
14A
330
1F
100
AcDbEntity
  8
0
  6
Continuous
 62
     8
 48
10.0
370
    15
100
AcDbSpline
210
0.0
220
0.0
230
1.0
 70
     8
 71
     3
 72
     9
 73
     5
 74
     0
 42
0.00000001
 43
0.00000001
 40
0.0
 40
0.0
 40
0.0
 40
0.0
 40
0.9246427917683941
 40
1.0
 40
1.0
 40
1.0
 40
1.0
 10
123.8858382189838
 20
275.4338922411425
 30
0.0
 10
123.8730290756987
 20
275.4366577753794
 30
0.0
 10
123.8591760035728
 20
275.4396486971295
 30
0.0
 10
123.8431258030704
 20
275.4413180288117
 30
0.0
 10
123.841916304769
 20
275.4414438249869
 30
0.0
  0
ARC
  5
14B
330
1F
100
AcDbEntity
  8
0
  6
Continuous
 62
     8
 48
100.0
370
    15
100
AcDbCircle
 10
120.7514380156
 20
275.5373221096
 30
0.0
 40
3.240760753764614
100
AcDbArc
 50
55.3174049599
 51
112.9258517133
  0
LWPOLYLINE
  5
14C
330
1F
100
AcDbEntity
  8
0
  6
Continuous
 62
     8
 48
10.0
370
    15
100
AcDbPolyline
 90
       13
 70
   128
 43
0.0
 10
120.6175580037
 20
274.2865742884
 10
120.620326518
 20
274.2935287619
 10
120.7485152012
 20
274.525841224
 10
120.922137839
 20
274.7004620729
 10
121.1355802192
 20
274.8117448187
 10
121.3819405299
 20
274.8560910541
 10
121.6532525344
 20
274.832066812
 10
121.940743165
 20
274.7404489335
 10
122.2351162066
 20
274.584199948
 10
122.5268528967
 20
274.3683722783
 10
122.8065197206
 20
274.0999448663
 10
123.0650734519
 20
273.7875975043
 10
123.2868721705
 20
273.4537373703
  0
LWPOLYLINE
  5
14D
330
1F
100
AcDbEntity
  8
0
  6
Continuous
 62
     8
 48
10.0
370
    15
100
AcDbPolyline
 90
       23
 70
   128
 43
0.0
 10
123.096918413
 20
272.8257587742
 10
123.0308905833
 20
272.9718197813
 10
122.8493583825
 20
273.2983712107
 10
122.6334924492
 20
273.5990025842
 10
122.3917868382
 20
273.8618844334
 10
122.1337523629
 20
274.0766726862
 10
121.8695423573
 20
274.2349156933
 10
121.6095531547
 20
274.3303867903
 10
121.3640150053
 20
274.3593293089
 10
121.1425895281
 20
274.3206043972
 10
120.9539895389
 20
274.215735832
 10
120.8056362113
 20
274.0488500603
 10
120.7033670634
 20
273.8265138285
 10
120.6512062582
 20
273.5574757893
 10
120.6512062582
 20
273.2523222532
 10
120.7033670634
 20
272.9230606302
 10
120.8056362113
 20
272.5826469536
 10
120.9539895389
 20
272.2444760758
 10
121.1425895281
 20
271.9218545981
 10
121.3640150053
 20
271.6274772721
 10
121.6095531547
 20
271.3729274777
 10
121.8695423573
 20
271.1682214309
 10
121.9882440065
 20
271.0947580875
  0
ARC
  5
14E
330
1F
100
AcDbEntity
  8
0
  6
Continuous
 62
     7
 48
100.0
370
    15
100
AcDbCircle
 10
50.2678468371
 20
92.2825672017
 30
0.0
 40
1.0
100
AcDbArc
 50
90.0
 51
180.0
  0
ARC
  5
14F
330
1F
100
AcDbEntity
  8
0
  6
Continuous
 62
     7
 48
100.0
370
    15
100
AcDbCircle
 10
110.7678468371
 20
92.2825672017
 30
0.0
 40
1.0
100
AcDbArc
 50
0.0
 51
90.0
  0
LINE
  5
150
330
1F
100
AcDbEntity
  8
0
  6
Continuous
 62
     7
 48
10.0
370
    15
100
AcDbLine
 10
49.2678468371
 20
92.2825672017
 30
0.0
 11
49.2678468371
 21
90.2825672017
 31
0.0
  0
LINE
  5
151
330
1F
100
AcDbEntity
  8
0
  6
Continuous
 62
     7
 48
10.0
370
    15
100
AcDbLine
 10
111.7678468371
 20
90.2825672017
 30
0.0
 11
111.7678468371
 21
92.2825672017
 31
0.0
  0
ARC
  5
152
330
1F
100
AcDbEntity
  8
0
  6
Continuous
 62
     7
 48
100.0
370
    15
100
AcDbCircle
 10
104.5178468371
 20
94.2825672017
 30
0.0
 40
1.00000000000001
100
AcDbArc
 50
210.0
 51
270.0
  0
ARC
  5
153
330
1F
100
AcDbEntity
  8
0
  6
Continuous
 62
     7
 48
100.0
370
    15
100
AcDbCircle
 10
56.5178468371
 20
94.2825672017
 30
0.0
 40
1.0
100
AcDbArc
 50
270.0
 51
330.0
  0
ARC
  5
154
330
1F
100
AcDbEntity
  8
0
  6
Continuous
 62
     7
 48
100.0
370
    15
100
AcDbCircle
 10
102.7857960295
 20
93.2825672017
 30
0.0
 40
1.0
100
AcDbArc
 50
30.0
 51
90.0
  0
ARC
  5
155
330
1F
100
AcDbEntity
  8
0
  6
Continuous
 62
     7
 48
100.0
370
    15
100
AcDbCircle
 10
58.2498976446
 20
93.2825672017
 30
0.0
 40
1.000000000000002
100
AcDbArc
 50
90.0
 51
150.0
  0
SPLINE
  5
156
330
1F
100
AcDbEntity
  8
0
  6
Continuous
 62
     7
 48
10.0
370
    15
100
AcDbSpline
210
0.0
220
0.0
230
1.0
 70
     8
 71
     3
 72
    10
 73
     6
 74
     0
 42
0.00000001
 43
0.00000001
 40
0.0
 40
0.0
 40
0.0
 40
0.0
 40
0.3950400665188715
 40
0.8101955323572302
 40
1.0
 40
1.0
 40
1.0
 40
1.0
 10
94.38553054315418
 20
93.79324392519197
 30
0.0
 10
94.35198945424607
 20
93.7390419909229
 30
0.0
 10
94.28319936765257
 20
93.62787816549908
 30
0.0
 10
94.16589431826411
 20
93.51349179582633
 30
0.0
 10
94.08279140534765
 20
93.46247309740276
 30
0.0
 10
94.05671810152586
 20
93.44646612510893
 30
0.0
  0
SPLINE
  5
157
330
1F
100
AcDbEntity
  8
0
  6
Continuous
 62
     7
 48
10.0
370
    15
100
AcDbSpline
210
0.0
220
0.0
230
1.0
 70
     8
 71
     3
 72
    10
 73
     6
 74
     0
 42
0.00000001
 43
0.00000001
 40
0.0
 40
0.0
 40
0.0
 40
0.0
 40
0.3315750325464489
 40
0.8043439009444003
 40
1.0
 40
1.0
 40
1.0
 40
1.0
 10
67.02001744804694
 20
93.42231639213897
 30
0.0
 10
66.97015915618904
 20
93.45282574213698
 30
0.0
 10
66.84921153036986
 20
93.52683616868879
 30
0.0
 10
66.72324970298436
 20
93.65744130034118
 30
0.0
 10
66.67047108783005
 20
93.76300399047146
 30
0.0
 10
66.65502214672603
 20
93.7939034708356
 30
0.0
  0
ARC
  5
158
330
1F
100
AcDbEntity
  8
0
  6
Continuous
 62
     7
 48
100.0
370
    15
100
AcDbCircle
 10
95.2487962368
 20
93.282568345
 30
0.0
 40
0.999998856712352
100
AcDbArc
 50
89.9996012689
 51
149.3992474438
  0
ARC
  5
159
330
1F
100
AcDbEntity
  8
0
  6
Continuous
 62
     7
 48
100.0
370
    15
100
AcDbCircle
 10
65.786897437
 20
93.2825683441
 30
0.0
 40
0.9999988575460401
100
AcDbArc
 50
30.5627103218
 51
90.0003987138
  0
ARC
  5
15A
330
1F
100
AcDbEntity
  8
0
  6
Continuous
 62
     7
 48
100.0
370
    15
100
AcDbCircle
 10
72.5197875286
 20
113.9230666144
 30
0.0
 40
18.50000000000007
100
AcDbArc
 50
341.0753555839
 51
18.9246444161
  0
LINE
  5
15B
330
1F
100
AcDbEntity
  8
0
  6
Continuous
 62
     7
 48
10.0
370
    15
100
AcDbLine
 10
90.0197875286
 20
119.9230666144
 30
0.0
 11
88.0197875286
 21
119.9230666144
 31
0.0
  0
LINE
  5
15C
330
1F
100
AcDbEntity
  8
0
  6
Continuous
 62
     7
 48
10.0
370
    15
100
AcDbLine
 10
88.0197875286
 20
107.9230666144
 30
0.0
 11
90.0197875286
 21
107.9230666144
 31
0.0
  0
LINE
  5
15D
330
1F
100
AcDbEntity
  8
0
  6
Continuous
 62
     7
 48
10.0
370
    15
100
AcDbLine
 10
88.0197875286
 20
117.1230666144
 30
0.0
 11
86.8779912773
 21
117.1230666144
 31
0.0
  0
LINE
  5
15E
330
1F
100
AcDbEntity
  8
0
  6
Continuous
 62
     7
 48
10.0
370
    15
100
AcDbLine
 10
83.8683692223
 20
117.1230666144
 30
0.0
 11
82.9197514743
 21
117.1230666144
 31
0.0
  0
LINE
  5
15F
330
1F
100
AcDbEntity
  8
0
  6
Continuous
 62
     7
 48
10.0
370
    15
100
AcDbLine
 10
78.1159421999
 20
117.1230666144
 30
0.0
 11
77.1673244519
 21
117.1230666144
 31
0.0
  0
LINE
  5
160
330
1F
100
AcDbEntity
  8
0
  6
Continuous
 62
     7
 48
10.0
370
    15
100
AcDbLine
 10
74.1577023969
 20
117.1230666144
 30
0.0
 11
72.9428785998
 21
117.1230666144
 31
0.0
  0
LINE
  5
161
330
1F
100
AcDbEntity
  8
0
  6
Continuous
 62
     7
 48
10.0
370
    15
100
AcDbLine
 10
71.4428785998
 20
117.1230666144
 30
0.0
 11
63.0197875286
 21
117.1230666144
 31
0.0
  0
LINE
  5
162
330
1F
100
AcDbEntity
  8
0
  6
Continuous
 62
     7
 48
10.0
370
    15
100
AcDbLine
 10
63.0197875286
 20
110.7230666144
 30
0.0
 11
71.4428785998
 21
110.7230666144
 31
0.0
  0
LINE
  5
163
330
1F
100
AcDbEntity
  8
0
  6
Continuous
 62
     7
 48
10.0
370
    15
100
AcDbLine
 10
72.9428785998
 20
110.7230666144
 30
0.0
 11
73.6447037542
 21
110.7230666144
 31
0.0
  0
LINE
  5
164
330
1F
100
AcDbEntity
  8
0
  6
Continuous
 62
     7
 48
10.0
370
    15
100
AcDbLine
 10
76.6543258091
 20
110.7230666144
 30
0.0
 11
77.7606502417
 21
110.7230666144
 31
0.0
  0
LINE
  5
165
330
1F
100
AcDbEntity
  8
0
  6
Continuous
 62
     7
 48
10.0
370
    15
100
AcDbLine
 10
83.2750434325
 20
110.7230666144
 30
0.0
 11
84.381367865
 21
110.7230666144
 31
0.0
  0
LINE
  5
166
330
1F
100
AcDbEntity
  8
0
  6
Continuous
 62
     7
 48
10.0
370
    15
100
AcDbLine
 10
87.39098992
 20
110.7230666144
 30
0.0
 11
88.0197875286
 21
110.7230666144
 31
0.0
  0
ARC
  5
167
330
1F
100
AcDbEntity
  8
0
  6
Continuous
 62
     7
 48
100.0
370
    15
100
AcDbCircle
 10
80.5178468371
 20
158.9230666144
 30
0.0
 40
37.25000000000001
100
AcDbArc
 50
280.5854950757
 51
259.4145049243
  0
LINE
  5
168
330
1F
100
AcDbEntity
  8
0
  6
Continuous
 62
     7
 48
10.0
370
    15
100
AcDbLine
 10
87.3607651892
 20
122.306991341
 30
0.0
 11
87.1770626831
 21
123.2899732275
 31
0.0
  0
ARC
  5
169
330
1F
100
AcDbEntity
  8
0
  6
Continuous
 62
     7
 48
100.0
370
    15
100
AcDbCircle
 10
80.5178468371
 20
158.9230666144
 30
0.0
 40
36.25
100
AcDbArc
 50
280.5854950757
 51
259.4145049243
  0
LINE
  5
16A
330
1F
100
AcDbEntity
  8
0
  6
Continuous
 62
     7
 48
10.0
370
    15
100
AcDbLine
 10
73.6749284849
 20
122.306991341
 30
0.0
 11
73.858630991
 21
123.2899732275
 31
0.0
  0
ARC
  5
16B
330
1F
100
AcDbEntity
  8
0
  6
Continuous
 62
     7
 48
100.0
370
    15
100
AcDbCircle
 10
87.5444676953
 20
121.3240094544
 30
0.0
 40
1.000000000000004
100
AcDbArc
 50
100.5854950757
 51
184.58280461
  0
LINE
  5
16C
330
1F
100
AcDbEntity
  8
0
  6
Continuous
 62
     7
 48
10.0
370
    15
100
AcDbLine
 10
86.5476647928
 20
121.2441096832
 30
0.0
 11
85.5508618902
 21
121.1642099119
 31
0.0
  0
ARC
  5
16D
330
1F
100
AcDbEntity
  8
0
  6
Continuous
 62
     7
 48
100.0
370
    15
100
AcDbCircle
 10
87.5444676953
 20
121.3240094544
 30
0.0
 40
2.000000000000007
100
AcDbArc
 50
100.5854950757
 51
184.58280461
  0
ARC
  5
16E
330
1F
100
AcDbEntity
  8
0
  6
Continuous
 62
     7
 48
100.0
370
    15
100
AcDbCircle
 10
73.4912259788
 20
121.3240094544
 30
0.0
 40
1.000000000000018
100
AcDbArc
 50
355.41719539
 51
79.4145049243
  0
ARC
  5
16F
330
1F
100
AcDbEntity
  8
0
  6
Continuous
 62
     7
 48
100.0
370
    15
100
AcDbCircle
 10
73.4912259788
 20
121.3240094544
 30
0.0
 40
2.000000000000007
100
AcDbArc
 50
355.41719539
 51
79.4145049243
  0
LINE
  5
170
330
1F
100
AcDbEntity
  8
0
  6
Continuous
 62
     7
 48
10.0
370
    15
100
AcDbLine
 10
74.4880288814
 20
121.2441096832
 30
0.0
 11
75.484831784
 21
121.1642099119
 31
0.0
  0
LINE
  5
171
330
1F
100
AcDbEntity
  8
0
  6
Continuous
 62
     7
 48
10.0
370
    15
100
AcDbLine
 10
86.5476647928
 20
121.2441096832
 30
0.0
 11
87.8484560022
 21
105.0158723206
 31
0.0
  0
LINE
  5
172
330
1F
100
AcDbEntity
  8
0
  6
Continuous
 62
     7
 48
10.0
370
    15
100
AcDbLine
 10
87.8484560022
 20
105.0158723206
 30
0.0
 11
86.8516530997
 21
104.9359725493
 31
0.0
  0
LINE
  5
173
330
1F
100
AcDbEntity
  8
0
  6
Continuous
 62
     7
 48
10.0
370
    15
100
AcDbLine
 10
86.8516530997
 20
104.9359725493
 30
0.0
 11
85.5508618902
 21
121.1642099119
 31
0.0
  0
ARC
  5
174
330
1F
100
AcDbEntity
  8
0
  6
Continuous
 62
     7
 48
100.0
370
    15
100
AcDbCircle
 10
86.4748540002
 20
122.1524728517
 30
0.0
 40
2.999999999999996
100
AcDbArc
 50
99.2022327651
 51
184.58280461
  0
ARC
  5
175
330
1F
100
AcDbEntity
  8
0
  6
Continuous
 62
     7
 48
100.0
370
    15
100
AcDbCircle
 10
80.5178468371
 20
158.9230666144
 30
0.0
 40
34.25000000000001
100
AcDbArc
 50
279.2022327651
 51
260.7977672349
  0
LINE
  5
176
330
1F
100
AcDbEntity
  8
0
  6
Continuous
 62
     7
 48
10.0
370
    15
100
AcDbLine
 10
77.5512483817
 20
121.9127735379
 30
0.0
 11
76.2766823245
 21
106.0117124302
 31
0.0
  0
LINE
  5
177
330
1F
100
AcDbEntity
  8
0
  6
Continuous
 62
     7
 48
10.0
370
    15
100
AcDbLine
 10
75.484831784
 20
121.1642099119
 30
0.0
 11
74.1840405745
 21
104.9359725493
 31
0.0
  0
LINE
  5
178
330
1F
100
AcDbEntity
  8
0
  6
Continuous
 62
     7
 48
10.0
370
    15
100
AcDbLine
 10
84.7590113497
 20
106.0117124302
 30
0.0
 11
83.4844452925
 21
121.9127735379
 31
0.0
  0
ARC
  5
179
330
1F
100
AcDbEntity
  8
0
  6
Continuous
 62
     7
 48
100.0
370
    15
100
AcDbCircle
 10
74.560839674
 20
122.1524728517
 30
0.0
 40
2.999999999999996
100
AcDbArc
 50
355.41719539
 51
80.7977672349
  0
ARC
  5
17A
330
1F
100
AcDbEntity
  8
0
  6
Continuous
 62
     7
 48
100.0
370
    15
100
AcDbCircle
 10
85.8548501971
 20
104.856072778
 30
0.0
 40
1.999999999999994
100
AcDbArc
 50
298.4276891043
 51
4.58280461
  0
LINE
  5
17B
330
1F
100
AcDbEntity
  8
0
  6
Continuous
 62
     7
 48
10.0
370
    15
100
AcDbLine
 10
73.1872376719
 20
105.0158723206
 30
0.0
 11
74.4880288814
 21
121.2441096832
 31
0.0
  0
LINE
  5
17C
330
1F
100
AcDbEntity
  8
0
  6
Continuous
 62
     7
 48
10.0
370
    15
100
AcDbLine
 10
73.1872376719
 20
105.0158723206
 30
0.0
 11
74.1840405745
 21
104.9359725493
 31
0.0
  0
ARC
  5
17D
330
1F
100
AcDbEntity
  8
0
  6
Continuous
 62
     7
 48
100.0
370
    15
100
AcDbCircle
 10
75.180843477
 20
104.856072778
 30
0.0
 40
1.999999999999994
100
AcDbArc
 50
175.41719539
 51
241.5723108957
  0
LINE
  5
17E
330
1F
100
AcDbEntity
  8
0
  6
Continuous
 62
     7
 48
10.0
370
    15
100
AcDbLine
 10
50.2678468371
 20
93.2825672017
 30
0.0
 11
61.7678468371
 21
93.2825672017
 31
0.0
  0
LINE
  5
17F
330
1F
100
AcDbEntity
  8
0
  6
Continuous
 62
     7
 48
10.0
370
    15
100
AcDbLine
 10
61.7678468371
 20
93.2825672017
 30
0.0
 11
61.7678468371
 21
92.2825672017
 31
0.0
  0
LINE
  5
180
330
1F
100
AcDbEntity
  8
0
  6
Continuous
 62
     7
 48
10.0
370
    15
100
AcDbLine
 10
61.7678468371
 20
93.2825672017
 30
0.0
 11
66.2931673024
 21
93.2825672017
 31
0.0
  0
LINE
  5
181
330
1F
100
AcDbEntity
  8
0
  6
Continuous
 62
     7
 48
10.0
370
    15
100
AcDbLine
 10
66.2931673024
 20
93.2825672017
 30
0.0
 11
66.2931673024
 21
92.2825672017
 31
0.0
  0
LINE
  5
182
330
1F
100
AcDbEntity
  8
0
  6
Continuous
 62
     7
 48
10.0
370
    15
100
AcDbLine
 10
66.2931673024
 20
92.2825672017
 30
0.0
 11
61.7678468371
 21
92.2825672017
 31
0.0
  0
LINE
  5
183
330
1F
100
AcDbEntity
  8
0
  6
Continuous
 62
     7
 48
10.0
370
    15
100
AcDbLine
 10
79.4871799064
 20
124.7825672017
 30
0.0
 11
79.431665538
 21
122.7825672017
 31
0.0
  0
LINE
  5
184
330
1F
100
AcDbEntity
  8
0
  6
Continuous
 62
     7
 48
10.0
370
    15
100
AcDbLine
 10
79.431665538
 20
122.7825672017
 30
0.0
 11
78.433202908
 21
122.837996224
 31
0.0
  0
LINE
  5
185
330
1F
100
AcDbEntity
  8
0
  6
Continuous
 62
     7
 48
10.0
370
    15
100
AcDbLine
 10
78.433202908
 20
122.837996224
 30
0.0
 11
78.4887172764
 21
123.837996224
 31
0.0
  0
ARC
  5
186
330
1F
100
AcDbEntity
  8
0
  6
Continuous
 62
     7
 48
100.0
370
    15
100
AcDbCircle
 10
79.4871799064
 20
123.7825672017
 30
0.0
 40
1.0
100
AcDbArc
 50
90.0
 51
176.8225224708
  0
ARC
  5
187
330
1F
100
AcDbEntity
  8
0
  6
Continuous
 62
     7
 48
100.0
370
    15
100
AcDbCircle
 10
66.2931673024
 20
95.2825672017
 30
0.0
 40
2.0
100
AcDbArc
 50
270.0
 51
324.9051494941
  0
LINE
  5
188
330
1F
100
AcDbEntity
  8
0
  6
Continuous
 62
     7
 48
10.0
370
    15
100
AcDbLine
 10
67.9295700885
 20
94.1327037657
 30
0.0
 11
68.7477714816
 21
93.5577720477
 31
0.0
  0
ARC
  5
189
330
1F
100
AcDbEntity
  8
0
  6
Continuous
 62
     7
 48
100.0
370
    15
100
AcDbCircle
 10
66.2931673024
 20
95.2825672017
 30
0.0
 40
3.0
100
AcDbArc
 50
270.0
 51
324.9051494941
  0
LINE
  5
18A
330
1F
100
AcDbEntity
  8
0
  6
Continuous
 62
     7
 48
10.0
370
    15
100
AcDbLine
 10
79.431665538
 20
122.7825672017
 30
0.0
 11
78.6341271048
 21
108.4162246646
 31
0.0
  0
LINE
  5
18B
330
1F
100
AcDbEntity
  8
0
  6
Continuous
 62
     7
 48
10.0
370
    15
100
AcDbLine
 10
78.6341271048
 20
108.4162246646
 30
0.0
 11
77.6356644748
 21
108.4716536869
 31
0.0
  0
LINE
  5
18C
330
1F
100
AcDbEntity
  8
0
  6
Continuous
 62
     7
 48
10.0
370
    15
100
AcDbLine
 10
77.6356644748
 20
108.4716536869
 30
0.0
 11
78.433202908
 21
122.837996224
 31
0.0
  0
LINE
  5
18D
330
1F
100
AcDbEntity
  8
0
  6
Continuous
 62
     7
 48
10.0
370
    15
100
AcDbLine
 10
67.9295700885
 20
94.1327037657
 30
0.0
 11
77.275142001
 21
107.4326482956
 31
0.0
  0
LINE
  5
18E
330
1F
100
AcDbEntity
  8
0
  6
Continuous
 62
     7
 48
10.0
370
    15
100
AcDbLine
 10
77.275142001
 20
107.4326482956
 30
0.0
 11
78.0933433941
 21
106.8577165776
 31
0.0
  0
LINE
  5
18F
330
1F
100
AcDbEntity
  8
0
  6
Continuous
 62
     7
 48
10.0
370
    15
100
AcDbLine
 10
78.0933433941
 20
106.8577165776
 30
0.0
 11
68.7477714816
 21
93.5577720477
 31
0.0
  0
ARC
  5
190
330
1F
100
AcDbEntity
  8
0
  6
Continuous
 62
     7
 48
100.0
370
    15
100
AcDbCircle
 10
75.6387392149
 20
108.5825117316
 30
0.0
 40
3.000000000000002
100
AcDbArc
 50
324.9051494941
 51
356.8225224708
  0
ARC
  5
191
330
1F
100
AcDbEntity
  8
0
  6
Continuous
 62
     7
 48
100.0
370
    15
100
AcDbCircle
 10
75.6387392149
 20
108.5825117316
 30
0.0
 40
2.000000000000007
100
AcDbArc
 50
324.9051494941
 51
356.8225224708
  0
LINE
  5
192
330
1F
100
AcDbEntity
  8
0
  6
Continuous
 62
     7
 48
10.0
370
    15
100
AcDbLine
 10
99.2678468371
 20
92.2825672017
 30
0.0
 11
99.2678468371
 21
93.2825672017
 31
0.0
  0
LINE
  5
193
330
1F
100
AcDbEntity
  8
0
  6
Continuous
 62
     7
 48
10.0
370
    15
100
AcDbLine
 10
99.2678468371
 20
93.2825672017
 30
0.0
 11
110.7678468371
 21
93.2825672017
 31
0.0
  0
ARC
  5
194
330
1F
100
AcDbEntity
  8
0
  6
Continuous
 62
     7
 48
100.0
370
    15
100
AcDbCircle
 10
85.3969544593
 20
108.5825117316
 30
0.0
 40
2.0
100
AcDbArc
 50
183.1774775293
 51
215.0948505059
  0
LINE
  5
195
330
1F
100
AcDbEntity
  8
0
  6
Continuous
 62
     7
 48
10.0
370
    15
100
AcDbLine
 10
83.7605516731
 20
107.4326482956
 30
0.0
 11
82.9423502801
 21
106.8577165776
 31
0.0
  0
ARC
  5
196
330
1F
100
AcDbEntity
  8
0
  6
Continuous
 62
     7
 48
100.0
370
    15
100
AcDbCircle
 10
85.3969544593
 20
108.5825117316
 30
0.0
 40
3.000000000000006
100
AcDbArc
 50
183.1774775293
 51
215.0948505059
  0
LINE
  5
197
330
1F
100
AcDbEntity
  8
0
  6
Continuous
 62
     7
 48
10.0
370
    15
100
AcDbLine
 10
83.4000291993
 20
108.4716536869
 30
0.0
 11
82.4015665693
 21
108.4162246646
 31
0.0
  0
LINE
  5
198
330
1F
100
AcDbEntity
  8
0
  6
Continuous
 62
     7
 48
10.0
370
    15
100
AcDbLine
 10
82.4015665693
 20
108.4162246646
 30
0.0
 11
81.6040281362
 21
122.7825672017
 31
0.0
  0
LINE
  5
199
330
1F
100
AcDbEntity
  8
0
  6
Continuous
 62
     7
 48
10.0
370
    15
100
AcDbLine
 10
92.2879221926
 20
93.5577720477
 30
0.0
 11
82.9423502801
 21
106.8577165776
 31
0.0
  0
ARC
  5
19A
330
1F
100
AcDbEntity
  8
0
  6
Continuous
 62
     7
 48
100.0
370
    15
100
AcDbCircle
 10
94.7425263718
 20
95.2825672017
 30
0.0
 40
3.0
100
AcDbArc
 50
215.0948505059
 51
270.0
  0
LINE
  5
19B
330
1F
100
AcDbEntity
  8
0
  6
Continuous
 62
     7
 48
10.0
370
    15
100
AcDbLine
 10
99.2678468371
 20
92.2825672017
 30
0.0
 11
94.7425263718
 21
92.2825672017
 31
0.0
  0
LINE
  5
19C
330
1F
100
AcDbEntity
  8
0
  6
Continuous
 62
     7
 48
10.0
370
    15
100
AcDbLine
 10
99.2678468371
 20
90.2825672017
 30
0.0
 11
99.2678468371
 21
92.2825672017
 31
0.0
  0
LINE
  5
19D
330
1F
100
AcDbEntity
  8
0
  6
Continuous
 62
     7
 48
10.0
370
    15
100
AcDbLine
 10
99.2678468371
 20
90.2825672017
 30
0.0
 11
61.7678468371
 21
90.2825672017
 31
0.0
  0
LINE
  5
19E
330
1F
100
AcDbEntity
  8
0
  6
Continuous
 62
     7
 48
10.0
370
    15
100
AcDbLine
 10
61.7678468371
 20
92.2825672017
 30
0.0
 11
61.7678468371
 21
90.2825672017
 31
0.0
  0
LINE
  5
19F
330
1F
100
AcDbEntity
  8
0
  6
Continuous
 62
     7
 48
10.0
370
    15
100
AcDbLine
 10
81.6040281362
 20
122.7825672017
 30
0.0
 11
79.431665538
 21
122.7825672017
 31
0.0
  0
LINE
  5
1A0
330
1F
100
AcDbEntity
  8
0
  6
Continuous
 62
     7
 48
10.0
370
    15
100
AcDbLine
 10
83.7605516731
 20
107.4326482956
 30
0.0
 11
93.1061235856
 21
94.1327037657
 31
0.0
  0
LINE
  5
1A1
330
1F
100
AcDbEntity
  8
0
  6
Continuous
 62
     7
 48
10.0
370
    15
100
AcDbLine
 10
93.1061235856
 20
94.1327037657
 30
0.0
 11
92.2879221926
 21
93.5577720477
 31
0.0
  0
ARC
  5
1A2
330
1F
100
AcDbEntity
  8
0
  6
Continuous
 62
     7
 48
100.0
370
    15
100
AcDbCircle
 10
94.7425263718
 20
95.2825672017
 30
0.0
 40
2.0
100
AcDbArc
 50
215.0948505059
 51
270.0
  0
LINE
  5
1A3
330
1F
100
AcDbEntity
  8
0
  6
Continuous
 62
     7
 48
10.0
370
    15
100
AcDbLine
 10
94.7425263718
 20
92.2825672017
 30
0.0
 11
94.7425263718
 21
93.2825672017
 31
0.0
  0
LINE
  5
1A4
330
1F
100
AcDbEntity
  8
0
  6
Continuous
 62
     7
 48
10.0
370
    15
100
AcDbLine
 10
81.6040281362
 20
122.7825672017
 30
0.0
 11
81.5485137677
 21
124.7825672017
 31
0.0
  0
LINE
  5
1A5
330
1F
100
AcDbEntity
  8
0
  6
Continuous
 62
     7
 48
10.0
370
    15
100
AcDbLine
 10
79.4871799064
 20
124.7825672017
 30
0.0
 11
81.5485137677
 21
124.7825672017
 31
0.0
  0
LINE
  5
1A6
330
1F
100
AcDbEntity
  8
0
  6
Continuous
 62
     7
 48
10.0
370
    15
100
AcDbLine
 10
82.5469763977
 20
123.837996224
 30
0.0
 11
82.6024907662
 21
122.837996224
 31
0.0
  0
LINE
  5
1A7
330
1F
100
AcDbEntity
  8
0
  6
Continuous
 62
     7
 48
10.0
370
    15
100
AcDbLine
 10
82.6024907662
 20
122.837996224
 30
0.0
 11
81.6040281362
 21
122.7825672017
 31
0.0
  0
ARC
  5
1A8
330
1F
100
AcDbEntity
  8
0
  6
Continuous
 62
     7
 48
100.0
370
    15
100
AcDbCircle
 10
81.5485137677
 20
123.7825672017
 30
0.0
 40
1.00000000000001
100
AcDbArc
 50
3.1774775292
 51
90.0
  0
LINE
  5
1A9
330
1F
100
AcDbEntity
  8
0
  6
Continuous
 62
     7
 48
10.0
370
    15
100
AcDbLine
 10
94.7425263718
 20
93.2825672017
 30
0.0
 11
99.2678468371
 21
93.2825672017
 31
0.0
  0
LINE
  5
1AA
330
1F
100
AcDbEntity
  8
0
  6
Continuous
 62
     7
 48
10.0
370
    15
100
AcDbLine
 10
82.6024907662
 20
122.837996224
 30
0.0
 11
83.4000291993
 21
108.4716536869
 31
0.0
  0
LINE
  5
1AB
330
1F
100
AcDbEntity
  8
0
  6
Continuous
 62
     7
 48
10.0
370
    15
100
AcDbLine
 10
61.7678468371
 20
90.2825672017
 30
0.0
 11
49.2678468371
 21
90.2825672017
 31
0.0
  0
LINE
  5
1AC
330
1F
100
AcDbEntity
  8
0
  6
Continuous
 62
     7
 48
10.0
370
    15
100
AcDbLine
 10
111.7678468371
 20
90.2825672017
 30
0.0
 11
99.2678468371
 21
90.2825672017
 31
0.0
  0
LINE
  5
1AD
330
1F
100
AcDbEntity
  8
0
  6
Continuous
 62
     7
 48
10.0
370
    15
100
AcDbLine
 10
95.377082093
 20
94.2825672017
 30
0.0
 11
102.7857960295
 21
94.2825672017
 31
0.0
  0
ARC
  5
1AE
330
1F
100
AcDbEntity
  8
0
  6
Continuous
 62
     7
 48
100.0
370
    15
100
AcDbCircle
 10
95.3835624966
 20
93.321498605
 30
0.0
 40
0.9610904447920204
100
AcDbArc
 50
90.3863347006
 51
151.3319128111
  0
LINE
  5
1AF
330
1F
100
AcDbEntity
  8
0
  6
Continuous
 62
     7
 48
10.0
370
    15
100
AcDbLine
 10
58.2498976446
 20
94.2825672017
 30
0.0
 11
65.6586115812
 21
94.2825672017
 31
0.0
  0
ARC
  5
1B0
330
1F
100
AcDbEntity
  8
0
  6
Continuous
 62
     7
 48
100.0
370
    15
100
AcDbCircle
 10
65.6521311776
 20
93.321498605
 30
0.0
 40
0.9610904447920553
100
AcDbArc
 50
28.6680871889
 51
89.6136652994
  0
SPLINE
  5
1B1
330
1F
100
AcDbEntity
  8
0
  6
Continuous
 62
     7
 48
10.0
370
    15
100
AcDbSpline
210
0.0
220
0.0
230
1.0
 70
     8
 71
     3
 72
     9
 73
     5
 74
     0
 42
0.00000001
 43
0.00000001
 40
0.0
 40
0.0
 40
0.0
 40
0.0
 40
0.3004865518365707
 40
1.0
 40
1.0
 40
1.0
 40
1.0
 10
66.63537141166853
 20
93.78332876407339
 30
0.0
 10
66.63962905173386
 20
93.78335868927398
 30
0.0
 10
66.6537982051928
 20
93.7834582784251
 30
0.0
 10
66.56059900589987
 20
93.78293396556556
 30
0.0
 10
66.49540491263642
 20
93.78256720166928
 30
0.0
  0
SPLINE
  5
1B2
330
1F
100
AcDbEntity
  8
0
  6
Continuous
 62
     7
 48
10.0
370
    15
100
AcDbSpline
210
0.0
220
0.0
230
1.0
 70
    24
 71
     3
 72
     9
 73
     5
 74
     0
 42
0.00000001
 43
0.00000001
 40
0.0
 40
0.0
 40
0.0
 40
0.0
 40
0.3470583965146387
 40
1.0
 40
1.0
 40
1.0
 40
1.0
 10
95.2618888563836
 20
94.28256720166885
 30
0.0
 10
95.2592885991402
 20
94.28256720166885
 30
0.0
 10
95.25179632328833
 20
94.28256720166883
 30
0.0
 10
95.32759196510014
 20
94.28256720166885
 30
0.0
 10
95.37708209300196
 20
94.28256720166885
 30
0.0
  0
LINE
  5
1B3
330
1F
100
AcDbEntity
  8
0
  6
Continuous
 62
     7
 48
10.0
370
    15
100
AcDbLine
 10
72.9428785998
 20
118.9324836978
 30
0.0
 11
71.4428785998
 21
118.9324836978
 31
0.0
  0
LINE
  5
1B4
330
1F
100
AcDbEntity
  8
0
  6
Continuous
 62
     7
 48
10.0
370
    15
100
AcDbLine
 10
72.9428785998
 20
118.4014942582
 30
0.0
 11
71.4428785998
 21
118.4014942582
 31
0.0
  0
LINE
  5
1B5
330
1F
100
AcDbEntity
  8
0
  6
Continuous
 62
     7
 48
10.0
370
    15
100
AcDbLine
 10
71.4428785998
 20
118.9324836978
 30
0.0
 11
71.4428785998
 21
118.4014942582
 31
0.0
  0
LINE
  5
1B6
330
1F
100
AcDbEntity
  8
0
  6
Continuous
 62
     7
 48
10.0
370
    15
100
AcDbLine
 10
72.9428785998
 20
118.9324836978
 30
0.0
 11
72.9428785998
 21
118.4014942582
 31
0.0
  0
LINE
  5
1B7
330
1F
100
AcDbEntity
  8
0
  6
Continuous
 62
     7
 48
10.0
370
    15
100
AcDbLine
 10
72.9428785998
 20
108.9136495309
 30
0.0
 11
71.4428785998
 21
108.9136495309
 31
0.0
  0
LINE
  5
1B8
330
1F
100
AcDbEntity
  8
0
  6
Continuous
 62
     7
 48
10.0
370
    15
100
AcDbLine
 10
71.4428785998
 20
118.4014942582
 30
0.0
 11
71.4428785998
 21
108.9136495309
 31
0.0
  0
LINE
  5
1B9
330
1F
100
AcDbEntity
  8
0
  6
Continuous
 62
     7
 48
10.0
370
    15
100
AcDbLine
 10
72.9428785998
 20
118.4014942582
 30
0.0
 11
72.9428785998
 21
108.9136495309
 31
0.0
  0
LINE
  5
1BA
330
1F
100
AcDbEntity
  8
0
  6
Continuous
 62
     7
 48
10.0
370
    15
100
AcDbLine
 10
90.0197875286
 20
119.9230666144
 30
0.0
 11
90.0197875286
 21
107.9230666144
 31
0.0
  0
LINE
  5
1BB
330
1F
100
AcDbEntity
  8
0
  6
Continuous
 62
     7
 48
10.0
370
    15
100
AcDbLine
 10
88.0197875286
 20
119.9230666144
 30
0.0
 11
88.0197875286
 21
107.9230666144
 31
0.0
  0
LINE
  5
1BC
330
1F
100
AcDbEntity
  8
0
  6
Continuous
 62
     7
 48
10.0
370
    15
100
AcDbLine
 10
63.0197875286
 20
117.1230666144
 30
0.0
 11
63.0197875286
 21
110.7230666144
 31
0.0
  0
ARC
  5
1BD
330
1F
100
AcDbEntity
  8
0
  6
Continuous
 62
     8
 48
100.0
370
    15
100
AcDbCircle
 10
75.180843477
 20
104.856072778
 30
0.0
 40
1.000000000000004
100
AcDbArc
 50
175.41719539
 51
248.331954716
  0
ARC
  5
1BE
330
1F
100
AcDbEntity
  8
0
  6
Continuous
 62
     8
 48
100.0
370
    15
100
AcDbCircle
 10
85.8548501971
 20
104.856072778
 30
0.0
 40
0.9999999999999902
100
AcDbArc
 50
291.668045284
 51
4.58280461
  0
LINE
  5
1BF
330
1F
100
AcDbEntity
  8
0
  6
Continuous
 62
     8
 48
10.0
370
    15
100
AcDbLine
 10
61.7678468371
 20
92.2825672017
 30
0.0
 11
49.2678468371
 21
92.2825672017
 31
0.0
  0
LINE
  5
1C0
330
1F
100
AcDbEntity
  8
0
  6
Continuous
 62
     8
 48
10.0
370
    15
100
AcDbLine
 10
111.7678468371
 20
92.2825672017
 30
0.0
 11
99.2678468371
 21
92.2825672017
 31
0.0
  0
ARC
  5
1C1
330
1F
100
AcDbEntity
  8
0
  6
Continuous
 62
     8
 48
100.0
370
    15
100
AcDbCircle
 10
93.6840661402
 20
94.2563142895
 30
0.0
 40
0.9785466163572839
100
AcDbArc
 50
296.5882459397
 51
331.0442901185
  0
LINE
  5
1C2
330
1F
100
AcDbEntity
  8
0
  6
Continuous
 62
     8
 48
10.0
370
    15
100
AcDbLine
 10
103.6518214333
 20
93.7825672017
 30
0.0
 11
94.5402887615
 21
93.7825672017
 31
0.0
  0
LINE
  5
1C3
330
1F
100
AcDbEntity
  8
0
  6
Continuous
 62
     8
 48
10.0
370
    15
100
AcDbLine
 10
66.4954049126
 20
93.7825672017
 30
0.0
 11
57.3838722409
 21
93.7825672017
 31
0.0
  0
ARC
  5
1C4
330
1F
100
AcDbEntity
  8
0
  6
Continuous
 62
     8
 48
100.0
370
    15
100
AcDbCircle
 10
67.3516275339
 20
94.2563142895
 30
0.0
 40
0.9785466163566797
100
AcDbArc
 50
208.9557098815
 51
243.4117540603
  0
SPLINE
  5
1C5
330
1F
100
AcDbEntity
  8
0
  6
Continuous
 62
     8
 48
10.0
370
    15
100
AcDbSpline
210
0.0
220
0.0
230
1.0
 70
     8
 71
     3
 72
     9
 73
     5
 74
     0
 42
0.00000001
 43
0.00000001
 40
0.0
 40
0.0
 40
0.0
 40
0.0
 40
0.6354275680815995
 40
1.0
 40
1.0
 40
1.0
 40
1.0
 10
94.54028876152407
 20
93.78256720166888
 30
0.0
 10
94.48109086091634
 20
93.78287693247411
 30
0.0
 10
94.38792855008609
 20
93.78336436931323
 30
0.0
 10
94.39692796926505
 20
93.7833391791294
 30
0.0
 10
94.40020890940099
 20
93.78332999548277
 30
0.0
  0
DIMENSION
  5
1C6
330
1F
100
AcDbEntity
  8
SLD-0
 48
10.0
100
AcDbDimension
  2
*D4
 10
111.7678468371
 20
74.2825672017
 30
0.0
 11
81.0538971632
 21
74.2825672017
 31
0.0
 70
   160
 71
     2
 42
-1.0
 73
     0
 74
     0
 75
     0
  3
SLDDIMSTYLE0
100
AcDbAlignedDimension
 13
49.2678468371
 23
90.2825672017
 33
0.0
 14
111.7678468371
 24
90.2825672017
 34
0.0
 50
0.0
100
AcDbRotatedDimension
  0
DIMENSION
  5
1D1
330
1F
100
AcDbEntity
  8
SLD-0
 48
10.0
100
AcDbDimension
  2
*D5
 10
33.2678468371
 20
196.1730666144
 30
0.0
 11
33.2678468371
 21
141.4300402925
 31
0.0
 70
   160
 71
     2
 42
-1.0
 73
     0
 74
     0
 75
     0
  3
SLDDIMSTYLE1
100
AcDbAlignedDimension
 13
49.2678468371
 23
90.2825672017
 33
0.0
 14
80.5178468371
 24
196.1730666144
 34
0.0
 50
90.0
100
AcDbRotatedDimension
  0
DIMENSION
  5
1DC
330
1F
100
AcDbEntity
  8
SLD-0
 48
10.0
100
AcDbDimension
  2
*D6
 10
99.2678468371
 20
80.2825672017
 30
0.0
 11
81.0538971632
 21
80.2825672017
 31
0.0
 70
   160
 71
     2
 42
-1.0
 73
     0
 74
     0
 75
     0
  3
SLDDIMSTYLE0
100
AcDbAlignedDimension
 13
61.7678468371
 23
93.2825672017
 33
0.0
 14
99.2678468371
 24
93.2825672017
 34
0.0
100
AcDbRotatedDimension
  0
ARC
  5
1E6
330
1F
100
AcDbEntity
  8
0
  6
Continuous
 62
     7
 48
100.0
370
    15
100
AcDbCircle
 10
176.4621078459
 20
195.1730666144
 30
0.0
 40
1.0
100
AcDbArc
 50
0.0
 51
90.0
  0
LINE
  5
1E7
330
1F
100
AcDbEntity
  8
0
  6
Continuous
 62
     7
 48
10.0
370
    15
100
AcDbLine
 10
176.4621078459
 20
196.1730666144
 30
0.0
 11
163.4621078459
 21
196.1730666144
 31
0.0
  0
ARC
  5
1E8
330
1F
100
AcDbEntity
  8
0
  6
Continuous
 62
     7
 48
100.0
370
    15
100
AcDbCircle
 10
163.4621078459
 20
195.1730666144
 30
0.0
 40
1.0
100
AcDbArc
 50
90.0
 51
180.0
  0
ARC
  5
1E9
330
1F
100
AcDbEntity
  8
0
  6
Continuous
 62
     7
 48
100.0
370
    15
100
AcDbCircle
 10
175.4621078459
 20
94.2825672017
 30
0.0
 40
1.000000000000008
100
AcDbArc
 50
210.0
 51
270.0
  0
ARC
  5
1EA
330
1F
100
AcDbEntity
  8
0
  6
Continuous
 62
     7
 48
100.0
370
    15
100
AcDbCircle
 10
164.4621078459
 20
94.2825672017
 30
0.0
 40
1.000000000000008
100
AcDbArc
 50
270.0
 51
330.0
  0
ARC
  5
1EB
330
1F
100
AcDbEntity
  8
0
  6
Continuous
 62
     7
 48
100.0
370
    15
100
AcDbCircle
 10
173.7300570383
 20
93.2825672017
 30
0.0
 40
1.0
100
AcDbArc
 50
30.0
 51
90.0
  0
ARC
  5
1EC
330
1F
100
AcDbEntity
  8
0
  6
Continuous
 62
     7
 48
100.0
370
    15
100
AcDbCircle
 10
166.1941586534
 20
93.2825672017
 30
0.0
 40
1.0
100
AcDbArc
 50
90.0
 51
150.0
  0
LINE
  5
1ED
330
1F
100
AcDbEntity
  8
0
  6
Continuous
 62
     7
 48
10.0
370
    15
100
AcDbLine
 10
177.4621078459
 20
195.1730666144
 30
0.0
 11
177.4621078459
 21
123.2899732275
 31
0.0
  0
ARC
  5
1EE
330
1F
100
AcDbEntity
  8
0
  6
Continuous
 62
     7
 48
100.0
370
    15
100
AcDbCircle
 10
176.4705444985
 20
123.2985559418
 30
0.0
 40
0.9916004914883302
100
AcDbArc
 50
269.5125149409
 51
359.504075028
  0
LINE
  5
1EF
330
1F
100
AcDbEntity
  8
0
  6
Continuous
 62
     7
 48
10.0
370
    15
100
AcDbLine
 10
163.4621078459
 20
122.306991341
 30
0.0
 11
176.4621078459
 21
122.306991341
 31
0.0
  0
ARC
  5
1F0
330
1F
100
AcDbEntity
  8
0
  6
Continuous
 62
     7
 48
100.0
370
    15
100
AcDbCircle
 10
163.4536711932
 20
123.2985559418
 30
0.0
 40
0.9916004914883303
100
AcDbArc
 50
180.495924972
 51
270.4874850591
  0
LINE
  5
1F1
330
1F
100
AcDbEntity
  8
0
  6
Continuous
 62
     7
 48
10.0
370
    15
100
AcDbLine
 10
162.4621078459
 20
123.2899732275
 30
0.0
 11
162.4621078459
 21
195.1730666144
 31
0.0
  0
ARC
  5
1F2
330
1F
100
AcDbEntity
  8
0
  6
Continuous
 62
     7
 48
100.0
370
    15
100
AcDbCircle
 10
176.4637038392
 20
103.8608709878
 30
0.0
 40
0.9984052904665539
100
AcDbArc
 50
269.9084102182
 51
359.9081164573
  0
LINE
  5
1F3
330
1F
100
AcDbEntity
  8
0
  6
Continuous
 62
     7
 48
10.0
370
    15
100
AcDbLine
 10
176.4621078459
 20
102.8624669729
 30
0.0
 11
176.4621078459
 21
105.0158723206
 31
0.0
  0
ARC
  5
1F4
330
1F
100
AcDbEntity
  8
0
  6
Continuous
 62
     7
 48
100.0
370
    15
100
AcDbCircle
 10
176.7105118525
 20
101.8270273957
 30
0.0
 40
3.198505354952693
100
AcDbArc
 50
76.4093496527
 51
94.454220247
  0
LINE
  5
1F5
330
1F
100
AcDbEntity
  8
0
  6
Continuous
 62
     7
 48
10.0
370
    15
100
AcDbLine
 10
177.4621078459
 20
104.9359725493
 30
0.0
 11
177.4621078459
 21
103.8592698755
 31
0.0
  0
LINE
  5
1F6
330
1F
100
AcDbEntity
  8
0
  6
Continuous
 62
     7
 48
10.0
370
    15
100
AcDbLine
 10
163.4621078459
 20
105.0158723206
 30
0.0
 11
163.4621078459
 21
102.8624669729
 31
0.0
  0
LINE
  5
1F7
330
1F
100
AcDbEntity
  8
0
  6
Continuous
 62
     7
 48
10.0
370
    15
100
AcDbLine
 10
163.4621078459
 20
105.0158723206
 30
0.0
 11
176.4621078459
 21
105.0158723206
 31
0.0
  0
LINE
  5
1F8
330
1F
100
AcDbEntity
  8
0
  6
Continuous
 62
     7
 48
10.0
370
    15
100
AcDbLine
 10
176.4621078459
 20
102.8624669729
 30
0.0
 11
163.4621078459
 21
102.8624669729
 31
0.0
  0
ARC
  5
1F9
330
1F
100
AcDbEntity
  8
0
  6
Continuous
 62
     7
 48
100.0
370
    15
100
AcDbCircle
 10
163.4605118525
 20
103.8608709878
 30
0.0
 40
0.9984052904666109
100
AcDbArc
 50
180.0918835427
 51
270.0915897818
  0
ARC
  5
1FA
330
1F
100
AcDbEntity
  8
0
  6
Continuous
 62
     7
 48
100.0
370
    15
100
AcDbCircle
 10
163.2137038392
 20
101.8270273957
 30
0.0
 40
3.198505354953213
100
AcDbArc
 50
85.545779753
 51
103.5906503473
  0
LINE
  5
1FB
330
1F
100
AcDbEntity
  8
0
  6
Continuous
 62
     7
 48
10.0
370
    15
100
AcDbLine
 10
162.4621078459
 20
103.8592698755
 30
0.0
 11
162.4621078459
 21
104.9359725493
 31
0.0
  0
LINE
  5
1FC
330
1F
100
AcDbEntity
  8
0
  6
Continuous
 62
     7
 48
10.0
370
    15
100
AcDbLine
 10
176.4621078459
 20
105.0158723206
 30
0.0
 11
176.4621078459
 21
121.2441096832
 31
0.0
  0
ARC
  5
1FD
330
1F
100
AcDbEntity
  8
0
  6
Continuous
 62
     7
 48
100.0
370
    15
100
AcDbCircle
 10
176.7105118525
 20
118.0552647583
 30
0.0
 40
3.198505354952641
100
AcDbArc
 50
76.4093496527
 51
94.454220247
  0
LINE
  5
1FE
330
1F
100
AcDbEntity
  8
0
  6
Continuous
 62
     7
 48
10.0
370
    15
100
AcDbLine
 10
177.4621078459
 20
121.1642099119
 30
0.0
 11
177.4621078459
 21
104.9359725493
 31
0.0
  0
LINE
  5
1FF
330
1F
100
AcDbEntity
  8
0
  6
Continuous
 62
     7
 48
10.0
370
    15
100
AcDbLine
 10
163.4621078459
 20
121.2441096832
 30
0.0
 11
163.4621078459
 21
105.0158723206
 31
0.0
  0
LINE
  5
200
330
1F
100
AcDbEntity
  8
0
  6
Continuous
 62
     7
 48
10.0
370
    15
100
AcDbLine
 10
176.4621078459
 20
121.2441096832
 30
0.0
 11
163.4621078459
 21
121.2441096832
 31
0.0
  0
ARC
  5
201
330
1F
100
AcDbEntity
  8
0
  6
Continuous
 62
     7
 48
100.0
370
    15
100
AcDbCircle
 10
163.2137038392
 20
118.0552647583
 30
0.0
 40
3.198505354952013
100
AcDbArc
 50
85.5457797529
 51
103.5906503473
  0
LINE
  5
202
330
1F
100
AcDbEntity
  8
0
  6
Continuous
 62
     7
 48
10.0
370
    15
100
AcDbLine
 10
162.4621078459
 20
104.9359725493
 30
0.0
 11
162.4621078459
 21
121.1642099119
 31
0.0
  0
LINE
  5
203
330
1F
100
AcDbEntity
  8
0
  6
Continuous
 62
     7
 48
10.0
370
    15
100
AcDbLine
 10
176.4621078459
 20
121.2441096832
 30
0.0
 11
176.4621078459
 21
122.306991341
 31
0.0
  0
LINE
  5
204
330
1F
100
AcDbEntity
  8
0
  6
Continuous
 62
     7
 48
10.0
370
    15
100
AcDbLine
 10
177.4621078459
 20
123.2899732275
 30
0.0
 11
177.4621078459
 21
121.1642099119
 31
0.0
  0
LINE
  5
205
330
1F
100
AcDbEntity
  8
0
  6
Continuous
 62
     7
 48
10.0
370
    15
100
AcDbLine
 10
163.4621078459
 20
122.306991341
 30
0.0
 11
163.4621078459
 21
121.2441096832
 31
0.0
  0
LINE
  5
206
330
1F
100
AcDbEntity
  8
0
  6
Continuous
 62
     7
 48
10.0
370
    15
100
AcDbLine
 10
162.4621078459
 20
121.1642099119
 30
0.0
 11
162.4621078459
 21
123.2899732275
 31
0.0
  0
LINE
  5
207
330
1F
100
AcDbEntity
  8
0
  6
Continuous
 62
     7
 48
10.0
370
    15
100
AcDbLine
 10
176.4621078459
 20
102.7825672017
 30
0.0
 11
176.4621078459
 21
102.8624669729
 31
0.0
  0
ARC
  5
208
330
1F
100
AcDbEntity
  8
0
  6
Continuous
 62
     7
 48
100.0
370
    15
100
AcDbCircle
 10
176.4637038392
 20
103.7809712165
 30
0.0
 40
0.9984052904665539
100
AcDbArc
 50
269.9084102182
 51
359.9081164573
  0
LINE
  5
209
330
1F
100
AcDbEntity
  8
0
  6
Continuous
 62
     7
 48
10.0
370
    15
100
AcDbLine
 10
177.4621078459
 20
103.8592698755
 30
0.0
 11
177.4621078459
 21
103.7793701042
 31
0.0
  0
LINE
  5
20A
330
1F
100
AcDbEntity
  8
0
  6
Continuous
 62
     7
 48
10.0
370
    15
100
AcDbLine
 10
163.4621078459
 20
102.8624669729
 30
0.0
 11
163.4621078459
 21
102.7825672017
 31
0.0
  0
LINE
  5
20B
330
1F
100
AcDbEntity
  8
0
  6
Continuous
 62
     7
 48
10.0
370
    15
100
AcDbLine
 10
176.4621078459
 20
102.7825672017
 30
0.0
 11
163.4621078459
 21
102.7825672017
 31
0.0
  0
ARC
  5
20C
330
1F
100
AcDbEntity
  8
0
  6
Continuous
 62
     7
 48
100.0
370
    15
100
AcDbCircle
 10
163.4605118525
 20
103.7809712165
 30
0.0
 40
0.9984052904666109
100
AcDbArc
 50
180.0918835427
 51
270.0915897818
  0
LINE
  5
20D
330
1F
100
AcDbEntity
  8
0
  6
Continuous
 62
     7
 48
10.0
370
    15
100
AcDbLine
 10
162.4621078459
 20
103.7793701042
 30
0.0
 11
162.4621078459
 21
103.8592698755
 31
0.0
  0
LINE
  5
20E
330
1F
100
AcDbEntity
  8
0
  6
Continuous
 62
     7
 48
10.0
370
    15
100
AcDbLine
 10
182.4621078459
 20
92.2825672017
 30
0.0
 11
157.4621078459
 21
92.2825672017
 31
0.0
  0
ARC
  5
20F
330
1F
100
AcDbEntity
  8
0
  6
Continuous
 62
     7
 48
100.0
370
    15
100
AcDbCircle
 10
158.4621078459
 20
92.2825672017
 30
0.0
 40
1.0
100
AcDbArc
 50
90.0
 51
180.0
  0
LINE
  5
210
330
1F
100
AcDbEntity
  8
0
  6
Continuous
 62
     7
 48
10.0
370
    15
100
AcDbLine
 10
158.4621078459
 20
93.2825672017
 30
0.0
 11
181.4621078459
 21
93.2825672017
 31
0.0
  0
ARC
  5
211
330
1F
100
AcDbEntity
  8
0
  6
Continuous
 62
     7
 48
100.0
370
    15
100
AcDbCircle
 10
181.4621078459
 20
92.2825672017
 30
0.0
 40
1.0
100
AcDbArc
 50
0.0
 51
90.0
  0
LINE
  5
212
330
1F
100
AcDbEntity
  8
0
  6
Continuous
 62
     7
 48
10.0
370
    15
100
AcDbLine
 10
157.4621078459
 20
90.2825672017
 30
0.0
 11
157.4621078459
 21
92.2825672017
 31
0.0
  0
LINE
  5
213
330
1F
100
AcDbEntity
  8
0
  6
Continuous
 62
     7
 48
10.0
370
    15
100
AcDbLine
 10
182.4621078459
 20
92.2825672017
 30
0.0
 11
182.4621078459
 21
90.2825672017
 31
0.0
  0
LINE
  5
214
330
1F
100
AcDbEntity
  8
0
  6
Continuous
 62
     7
 48
10.0
370
    15
100
AcDbLine
 10
182.4621078459
 20
90.2825672017
 30
0.0
 11
157.4621078459
 21
90.2825672017
 31
0.0
  0
LINE
  5
215
330
1F
100
AcDbEntity
  8
0
  6
Continuous
 62
     7
 48
10.0
370
    15
100
AcDbLine
 10
166.1941586534
 20
94.2825672017
 30
0.0
 11
173.7300570383
 21
94.2825672017
 31
0.0
  0
LINE
  5
216
330
1F
100
AcDbEntity
  8
0
  6
Continuous
 62
     7
 48
10.0
370
    15
100
AcDbLine
 10
181.4621078459
 20
93.2825672017
 30
0.0
 11
181.4621078459
 21
94.1327037657
 31
0.0
  0
LWPOLYLINE
  5
217
330
1F
100
AcDbEntity
  8
0
  6
Continuous
 62
     7
 48
10.0
370
    15
100
AcDbPolyline
 90
        9
 70
   128
 43
0.0
 10
182.4621078459
 20
93.5577720477
 10
182.4428931263
 20
93.6699356617
 10
182.3859873784
 20
93.7777888909
 10
182.2935774582
 20
93.8771869962
 10
182.169214627
 20
93.9643101642
 10
182.0176780789
 20
94.0358103003
 10
181.8447912782
 20
94.0889396945
 10
181.6571981679
 20
94.1216566139
 10
181.4621078459
 20
94.1327037657
  0
LINE
  5
218
330
1F
100
AcDbEntity
  8
0
  6
Continuous
 62
     7
 48
10.0
370
    15
100
AcDbLine
 10
182.4621078459
 20
93.5577720477
 30
0.0
 11
182.4621078459
 21
92.2825672017
 31
0.0
  0
LINE
  5
219
330
1F
100
AcDbEntity
  8
0
  6
Continuous
 62
     7
 48
10.0
370
    15
100
AcDbLine
 10
180.2829875981
 20
94.1327037657
 30
0.0
 11
181.4621078459
 21
94.1327037657
 31
0.0
  0
SPLINE
  5
21A
330
1F
100
AcDbEntity
  8
0
  6
Continuous
 62
     7
 48
10.0
370
    15
100
AcDbSpline
210
0.0
220
0.0
230
1.0
 70
     8
 71
     3
 72
     9
 73
     5
 74
     0
 42
0.00000001
 43
0.00000001
 40
0.0
 40
0.0
 40
0.0
 40
0.0
 40
0.9918053993266785
 40
1.0
 40
1.0
 40
1.0
 40
1.0
 10
179.303672796258
 20
93.40635177906061
 30
0.0
 10
179.0268273471846
 20
93.34479426782451
 30
0.0
 10
178.747694516025
 20
93.28272814953365
 30
0.0
 10
178.4644290928801
 20
93.28256850985231
 30
0.0
 10
178.4621078458529
 20
93.28256720166888
 30
0.0
  0
SPLINE
  5
21B
330
1F
100
AcDbEntity
  8
0
  6
Continuous
 62
     7
 48
10.0
370
    15
100
AcDbSpline
210
0.0
220
0.0
230
1.0
 70
     8
 71
     3
 72
     9
 73
     5
 74
     0
 42
0.00000001
 43
0.00000001
 40
0.0
 40
0.0
 40
0.0
 40
0.0
 40
0.4772804620488993
 40
1.0
 40
1.0
 40
1.0
 40
1.0
 10
180.2829875981368
 20
94.13270376566463
 30
0.0
 10
180.153430553317
 20
93.9694088006094
 30
0.0
 10
179.8819820966514
 20
93.62727251379346
 30
0.0
 10
179.5021949553032
 20
93.4821895032805
 30
0.0
 10
179.3036727962579
 20
93.40635177906061
 30
0.0
  0
ARC
  5
21C
330
1F
100
AcDbEntity
  8
0
  6
Continuous
 62
     7
 48
100.0
370
    15
100
AcDbCircle
 10
179.1361876619
 20
92.8074736745
 30
0.0
 40
0.6218571011913664
100
AcDbArc
 50
74.3755635919
 51
114.0368450686
  0
SPLINE
  5
21D
330
1F
100
AcDbEntity
  8
0
  6
Continuous
 62
     7
 48
10.0
370
    15
100
AcDbSpline
210
0.0
220
0.0
230
1.0
 70
     8
 71
     3
 72
     9
 73
     5
 74
     0
 42
0.00000001
 43
0.00000001
 40
0.0
 40
0.0
 40
0.0
 40
0.0
 40
0.0098291279346122
 40
1.0
 40
1.0
 40
1.0
 40
1.0
 10
178.4621078458529
 20
93.28256720166888
 30
0.0
 10
178.4635009103398
 20
93.28256861705361
 30
0.0
 10
178.6052290978435
 20
93.28271261606758
 30
0.0
 10
178.7447453710989
 20
93.32928802320785
 30
0.0
 10
178.8828903210554
 20
93.37540563471269
 30
0.0
  0
LINE
  5
21E
330
1F
100
AcDbEntity
  8
0
  6
Continuous
 62
     7
 48
10.0
370
    15
100
AcDbLine
 10
158.4621078459
 20
94.1327037657
 30
0.0
 11
158.4621078459
 21
93.2825672017
 31
0.0
  0
LINE
  5
21F
330
1F
100
AcDbEntity
  8
0
  6
Continuous
 62
     7
 48
10.0
370
    15
100
AcDbLine
 10
158.4621078459
 20
94.1327037657
 30
0.0
 11
159.6412280936
 21
94.1327037657
 31
0.0
  0
SPLINE
  5
220
330
1F
100
AcDbEntity
  8
0
  6
Continuous
 62
     7
 48
10.0
370
    15
100
AcDbSpline
210
0.0
220
0.0
230
1.0
 70
     8
 71
     3
 72
    10
 73
     6
 74
     0
 42
0.00000001
 43
0.00000001
 40
0.0
 40
0.0
 40
0.0
 40
0.0
 40
0.3059302153435717
 40
0.6192508316259046
 40
1.0
 40
1.0
 40
1.0
 40
1.0
 10
160.6205428954479
 20
93.40635177906061
 30
0.0
 10
160.5048314093765
 20
93.44923723716089
 30
0.0
 10
160.2706131779478
 20
93.53604414364256
 30
0.0
 10
159.9263054851222
 20
93.75929752919744
 30
0.0
 10
159.7422153151379
 20
94.00042649831676
 30
0.0
 10
159.641228093569
 20
94.13270376566463
 30
0.0
  0
SPLINE
  5
221
330
1F
100
AcDbEntity
  8
0
  6
Continuous
 62
     7
 48
10.0
370
    15
100
AcDbSpline
210
0.0
220
0.0
230
1.0
 70
     8
 71
     3
 72
     9
 73
     5
 74
     0
 42
0.00000001
 43
0.00000001
 40
0.0
 40
0.0
 40
0.0
 40
0.0
 40
0.0081946006733183
 40
1.0
 40
1.0
 40
1.0
 40
1.0
 10
161.4621078458529
 20
93.28256720166888
 30
0.0
 10
161.4597865988256
 20
93.28256850985233
 30
0.0
 10
161.1765211756804
 20
93.28272814953277
 30
0.0
 10
160.8973883445211
 20
93.34479426782407
 30
0.0
 10
160.6205428954479
 20
93.40635177906061
 30
0.0
  0
ARC
  5
222
330
1F
100
AcDbEntity
  8
0
  6
Continuous
 62
     7
 48
100.0
370
    15
100
AcDbCircle
 10
160.7880280298
 20
92.8074736745
 30
0.0
 40
0.6218571011912493
100
AcDbArc
 50
65.9631549314
 51
105.6244364081
  0
SPLINE
  5
223
330
1F
100
AcDbEntity
  8
0
  6
Continuous
 62
     7
 48
10.0
370
    15
100
AcDbSpline
210
0.0
220
0.0
230
1.0
 70
     8
 71
     3
 72
     9
 73
     5
 74
     0
 42
0.00000001
 43
0.00000001
 40
0.0
 40
0.0
 40
0.0
 40
0.0
 40
0.9901708720653869
 40
0.9999999999999999
 40
0.9999999999999999
 40
0.9999999999999999
 40
0.9999999999999999
 10
161.0413253706504
 20
93.37540563471269
 30
0.0
 10
161.179470320607
 20
93.32928802320811
 30
0.0
 10
161.3189865938624
 20
93.28271261606815
 30
0.0
 10
161.460714781366
 20
93.28256861705361
 30
0.0
 10
161.4621078458529
 20
93.28256720166888
 30
0.0
  0
LWPOLYLINE
  5
224
330
1F
100
AcDbEntity
  8
0
  6
Continuous
 62
     7
 48
10.0
370
    15
100
AcDbPolyline
 90
        9
 70
   128
 43
0.0
 10
158.4621078459
 20
94.1327037657
 10
158.2670175238
 20
94.1216566139
 10
158.0794244135
 20
94.0889396945
 10
157.9065376128
 20
94.0358103003
 10
157.7550010647
 20
93.9643101642
 10
157.6306382336
 20
93.8771869962
 10
157.5382283133
 20
93.7777888909
 10
157.4813225654
 20
93.6699356617
 10
157.4621078459
 20
93.5577720477
  0
LINE
  5
225
330
1F
100
AcDbEntity
  8
0
  6
Continuous
 62
     7
 48
10.0
370
    15
100
AcDbLine
 10
157.4621078459
 20
92.2825672017
 30
0.0
 11
157.4621078459
 21
93.5577720477
 31
0.0
  0
SPLINE
  5
226
330
1F
100
AcDbEntity
  8
0
  6
Continuous
 62
     7
 48
10.0
370
    15
100
AcDbSpline
210
0.0
220
0.0
230
1.0
 70
     8
 71
     3
 72
     9
 73
     5
 74
     0
 42
0.00000001
 43
0.00000001
 40
0.0
 40
0.0
 40
0.0
 40
0.0
 40
0.5125529169142825
 40
1.0
 40
1.0
 40
1.0
 40
1.0
 10
178.8828903210554
 20
93.37540563471269
 30
0.0
 10
178.9828269705642
 20
93.4358519435015
 30
0.0
 10
179.1778051790787
 20
93.55378378389118
 30
0.0
 10
179.308729193204
 20
93.83165307717665
 30
0.0
 10
179.3725477219952
 20
93.96709965366774
 30
0.0
  0
ARC
  5
227
330
1F
100
AcDbEntity
  8
0
  6
Continuous
 62
     7
 48
100.0
370
    15
100
AcDbCircle
 10
179.9471227674
 20
93.3937244699
 30
0.0
 40
0.8117238348588842
100
AcDbArc
 50
65.5582845705
 51
135.0598867271
  0
SPLINE
  5
228
330
1F
100
AcDbEntity
  8
0
  6
Continuous
 62
     7
 48
10.0
370
    15
100
AcDbSpline
210
0.0
220
0.0
230
1.0
 70
     8
 71
     3
 72
     9
 73
     5
 74
     0
 42
0.00000001
 43
0.00000001
 40
0.0
 40
0.0
 40
0.0
 40
0.0
 40
0.3904182649862919
 40
1.0
 40
1.0
 40
1.0
 40
1.0
 10
160.551667969711
 20
93.96709965366776
 30
0.0
 10
160.6015590694356
 20
93.85638935908676
 30
0.0
 10
160.7293479159085
 20
93.57282092873965
 30
0.0
 10
160.9231730867311
 20
93.45017087019804
 30
0.0
 10
161.0413253706504
 20
93.37540563471269
 30
0.0
  0
ARC
  5
229
330
1F
100
AcDbEntity
  8
0
  6
Continuous
 62
     7
 48
100.0
370
    15
100
AcDbCircle
 10
159.9770929243
 20
93.3937244699
 30
0.0
 40
0.8117238348588842
100
AcDbArc
 50
44.9401132729
 51
114.4417154295
  0
LINE
  5
22A
330
1F
100
AcDbEntity
  8
0
  6
Continuous
 62
     7
 48
10.0
370
    15
100
AcDbLine
 10
161.4621078459
 20
102.7282769782
 30
0.0
 11
161.4621078459
 21
93.2825672017
 31
0.0
  0
LINE
  5
22B
330
1F
100
AcDbEntity
  8
0
  6
Continuous
 62
     7
 48
10.0
370
    15
100
AcDbLine
 10
178.4621078459
 20
102.7282769782
 30
0.0
 11
161.4621078459
 21
102.7282769782
 31
0.0
  0
LINE
  5
22C
330
1F
100
AcDbEntity
  8
0
  6
Continuous
 62
     7
 48
10.0
370
    15
100
AcDbLine
 10
178.4621078459
 20
93.2825672017
 30
0.0
 11
178.4621078459
 21
102.7282769782
 31
0.0
  0
ARC
  5
22D
330
1F
100
AcDbEntity
  8
0
  6
Continuous
 62
     7
 48
100.0
370
    15
100
AcDbCircle
 10
178.7113397517
 20
107.2801213321
 30
0.0
 40
4.558662475405598
100
AcDbArc
 50
266.865953581
 51
279.4792515336
  0
LINE
  5
22E
330
1F
100
AcDbEntity
  8
0
  6
Continuous
 62
     7
 48
10.0
370
    15
100
AcDbLine
 10
179.372547722
 20
93.9670996537
 30
0.0
 11
179.4621078459
 21
94.5308330958
 31
0.0
  0
ARC
  5
22F
330
1F
100
AcDbEntity
  8
0
  6
Continuous
 62
     7
 48
100.0
370
    15
100
AcDbCircle
 10
161.21287594
 20
107.2801213321
 30
0.0
 40
4.558662475405156
100
AcDbArc
 50
260.5207484664
 51
273.134046419
  0
LINE
  5
230
330
1F
100
AcDbEntity
  8
0
  6
Continuous
 62
     7
 48
10.0
370
    15
100
AcDbLine
 10
160.4621078459
 20
94.5308330958
 30
0.0
 11
160.5516679697
 21
93.9670996537
 31
0.0
  0
LINE
  5
231
330
1F
100
AcDbEntity
  8
0
  6
Continuous
 62
     7
 48
10.0
370
    15
100
AcDbLine
 10
181.4621078459
 20
94.1327037657
 30
0.0
 11
181.4621078459
 21
107.4326482956
 31
0.0
  0
LWPOLYLINE
  5
232
330
1F
100
AcDbEntity
  8
0
  6
Continuous
 62
     7
 48
10.0
370
    15
100
AcDbPolyline
 90
        9
 70
   128
 43
0.0
 10
182.4621078459
 20
106.8577165776
 10
182.4428931263
 20
106.9698801916
 10
182.3859873784
 20
107.0777334208
 10
182.2935774582
 20
107.1771315261
 10
182.169214627
 20
107.2642546941
 10
182.0176780789
 20
107.3357548303
 10
181.8447912782
 20
107.3888842245
 10
181.6571981679
 20
107.4216011439
 10
181.4621078459
 20
107.4326482956
  0
LINE
  5
233
330
1F
100
AcDbEntity
  8
0
  6
Continuous
 62
     7
 48
10.0
370
    15
100
AcDbLine
 10
182.4621078459
 20
106.8577165776
 30
0.0
 11
182.4621078459
 21
93.5577720477
 31
0.0
  0
SPLINE
  5
234
330
1F
100
AcDbEntity
  8
0
  6
Continuous
 62
     7
 48
10.0
370
    15
100
AcDbSpline
210
0.0
220
0.0
230
1.0
 70
     8
 71
     3
 72
     9
 73
     5
 74
     0
 42
0.00000001
 43
0.00000001
 40
0.0
 40
0.0
 40
0.0
 40
0.0
 40
0.4940510699256325
 40
1.0
 40
1.0
 40
1.0
 40
1.0
 10
180.4621078458529
 20
95.10576481382878
 30
0.0
 10
180.4560629850864
 20
94.94264588144829
 30
0.0
 10
180.4438276897203
 20
94.61247974618405
 30
0.0
 10
180.3370245383176
 20
94.29389259429723
 30
0.0
 10
180.2829875981368
 20
94.13270376566463
 30
0.0
  0
LINE
  5
235
330
1F
100
AcDbEntity
  8
0
  6
Continuous
 62
     7
 48
10.0
370
    15
100
AcDbLine
 10
180.4621078459
 20
105.0394104007
 30
0.0
 11
180.4621078459
 21
95.1057648138
 31
0.0
  0
ELLIPSE
  5
236
330
1F
100
AcDbEntity
  8
0
  6
Continuous
 62
     7
 48
100.0
370
    15
100
AcDbEllipse
 10
178.4621078459
 20
105.0394104007
 30
0.0
 11
0.0
 21
3.095169276676472
 31
0.0
210
0.0
220
0.0
230
1.0
 40
0.6461682129
 41
4.712388980384699
 42
5.596287760075457
  0
LINE
  5
237
330
1F
100
AcDbEntity
  8
0
  6
Continuous
 62
     7
 48
10.0
370
    15
100
AcDbLine
 10
181.4621078459
 20
107.4326482956
 30
0.0
 11
179.7303905823
 21
107.4326482956
 31
0.0
  0
LWPOLYLINE
  5
238
330
1F
100
AcDbEntity
  8
0
  6
Continuous
 62
     7
 48
10.0
370
    15
100
AcDbPolyline
 90
        9
 70
   128
 43
0.0
 10
179.4621078459
 20
94.5308330958
 10
179.4813225654
 20
94.6429967098
 10
179.5382283133
 20
94.750849939
 10
179.6306382336
 20
94.8502480444
 10
179.7550010647
 20
94.9373712123
 10
179.9065376128
 20
95.0088713485
 10
180.0794244135
 20
95.0620007427
 10
180.2670175238
 20
95.0947176621
 10
180.4621078459
 20
95.1057648138
  0
SPLINE
  5
239
330
1F
100
AcDbEntity
  8
0
  6
Continuous
 62
     7
 48
10.0
370
    15
100
AcDbSpline
210
0.0
220
0.0
230
1.0
 70
     8
 71
     3
 72
     9
 73
     5
 74
     0
 42
0.00000001
 43
0.00000001
 40
0.0
 40
0.0
 40
0.0
 40
0.0
 40
0.4932311890097092
 40
1.0
 40
1.0
 40
1.0
 40
1.0
 10
159.641228093569
 20
94.13270376566463
 30
0.0
 10
159.5883212954639
 20
94.28977322126566
 30
0.0
 10
159.4810555764989
 20
94.60822318773353
 30
0.0
 10
159.468480501605
 20
94.93842754454408
 30
0.0
 10
159.4621078458529
 20
95.10576481382878
 30
0.0
  0
LWPOLYLINE
  5
23A
330
1F
100
AcDbEntity
  8
0
  6
Continuous
 62
     7
 48
10.0
370
    15
100
AcDbPolyline
 90
        9
 70
   128
 43
0.0
 10
160.4621078459
 20
94.5308330958
 10
160.4428931263
 20
94.6429967098
 10
160.3859873784
 20
94.750849939
 10
160.2935774582
 20
94.8502480444
 10
160.169214627
 20
94.9373712123
 10
160.0176780789
 20
95.0088713485
 10
159.8447912782
 20
95.0620007427
 10
159.6571981679
 20
95.0947176621
 10
159.4621078459
 20
95.1057648138
  0
LINE
  5
23B
330
1F
100
AcDbEntity
  8
0
  6
Continuous
 62
     7
 48
10.0
370
    15
100
AcDbLine
 10
158.4621078459
 20
107.4326482956
 30
0.0
 11
158.4621078459
 21
94.1327037657
 31
0.0
  0
LINE
  5
23C
330
1F
100
AcDbEntity
  8
0
  6
Continuous
 62
     7
 48
10.0
370
    15
100
AcDbLine
 10
160.1938251094
 20
107.4326482956
 30
0.0
 11
158.4621078459
 21
107.4326482956
 31
0.0
  0
ELLIPSE
  5
23D
330
1F
100
AcDbEntity
  8
0
  6
Continuous
 62
     7
 48
100.0
370
    15
100
AcDbEllipse
 10
161.4621078459
 20
105.0394104007
 30
0.0
 11
0.0
 21
3.095169276676472
 31
0.0
210
0.0
220
0.0
230
1.0
 40
0.6461682129
 41
0.686897547104135
 42
1.570796326794897
  0
LINE
  5
23E
330
1F
100
AcDbEntity
  8
0
  6
Continuous
 62
     7
 48
10.0
370
    15
100
AcDbLine
 10
159.4621078459
 20
95.1057648138
 30
0.0
 11
159.4621078459
 21
105.0394104007
 31
0.0
  0
LWPOLYLINE
  5
23F
330
1F
100
AcDbEntity
  8
0
  6
Continuous
 62
     7
 48
10.0
370
    15
100
AcDbPolyline
 90
        9
 70
   128
 43
0.0
 10
158.4621078459
 20
107.4326482956
 10
158.2670175238
 20
107.4216011439
 10
158.0794244135
 20
107.3888842245
 10
157.9065376128
 20
107.3357548303
 10
157.7550010647
 20
107.2642546941
 10
157.6306382336
 20
107.1771315261
 10
157.5382283133
 20
107.0777334208
 10
157.4813225654
 20
106.9698801916
 10
157.4621078459
 20
106.8577165776
  0
LINE
  5
240
330
1F
100
AcDbEntity
  8
0
  6
Continuous
 62
     7
 48
10.0
370
    15
100
AcDbLine
 10
157.4621078459
 20
93.5577720477
 30
0.0
 11
157.4621078459
 21
106.8577165776
 31
0.0
  0
LINE
  5
241
330
1F
100
AcDbEntity
  8
0
  6
Continuous
 62
     7
 48
10.0
370
    15
100
AcDbLine
 10
179.4621078459
 20
94.5308330958
 30
0.0
 11
179.4621078459
 21
104.4644786827
 31
0.0
  0
LWPOLYLINE
  5
242
330
1F
100
AcDbEntity
  8
0
  6
Continuous
 62
     7
 48
10.0
370
    15
100
AcDbPolyline
 90
        9
 70
   128
 43
0.0
 10
179.4621078459
 20
104.4644786827
 10
179.4813225654
 20
104.5766422967
 10
179.5382283133
 20
104.6844955259
 10
179.6306382336
 20
104.7838936312
 10
179.7550010647
 20
104.8710167992
 10
179.9065376128
 20
104.9425169353
 10
180.0794244135
 20
104.9956463295
 10
180.2670175238
 20
105.0283632489
 10
180.4621078459
 20
105.0394104007
  0
LINE
  5
243
330
1F
100
AcDbEntity
  8
0
  6
Continuous
 62
     7
 48
10.0
370
    15
100
AcDbLine
 10
160.4621078459
 20
104.4644786827
 30
0.0
 11
160.4621078459
 21
94.5308330958
 31
0.0
  0
LWPOLYLINE
  5
244
330
1F
100
AcDbEntity
  8
0
  6
Continuous
 62
     7
 48
10.0
370
    15
100
AcDbPolyline
 90
        9
 70
   128
 43
0.0
 10
160.4621078459
 20
104.4644786827
 10
160.4428931263
 20
104.5766422967
 10
160.3859873784
 20
104.6844955259
 10
160.2935774582
 20
104.7838936312
 10
160.169214627
 20
104.8710167992
 10
160.0176780789
 20
104.9425169353
 10
159.8447912782
 20
104.9956463295
 10
159.6571981679
 20
105.0283632489
 10
159.4621078459
 20
105.0394104007
  0
ELLIPSE
  5
245
330
1F
100
AcDbEntity
  8
0
  6
Continuous
 62
     7
 48
100.0
370
    15
100
AcDbEllipse
 10
178.4621078459
 20
104.4644786827
 30
0.0
 11
0.0
 21
3.150598299018668
 31
0.0
210
0.0
220
0.0
230
1.0
 40
0.3174000317
 41
4.712388980384694
 42
5.596287760075471
  0
ARC
  5
246
330
1F
100
AcDbEntity
  8
0
  6
Continuous
 62
     7
 48
100.0
370
    15
100
AcDbCircle
 10
180.6559339326
 20
105.6856253428
 30
0.0
 40
1.977048226695274
100
AcDbArc
 50
117.9138896515
 51
142.0824264232
  0
ELLIPSE
  5
247
330
1F
100
AcDbEntity
  8
0
  6
Continuous
 62
     7
 48
100.0
370
    15
100
AcDbEllipse
 10
161.4621078459
 20
104.4644786827
 30
0.0
 11
0.0
 21
3.150598299018668
 31
0.0
210
0.0
220
0.0
230
1.0
 40
0.3174000317
 41
0.6868975471041444
 42
1.570796326794897
  0
ARC
  5
248
330
1F
100
AcDbEntity
  8
0
  6
Continuous
 62
     7
 48
100.0
370
    15
100
AcDbCircle
 10
159.2682817591
 20
105.6856253428
 30
0.0
 40
1.977048226695928
100
AcDbArc
 50
37.9175735768
 51
62.0861103485
  0
LINE
  5
249
330
1F
100
AcDbEntity
  8
0
  6
Continuous
 62
     7
 48
10.0
370
    15
100
AcDbLine
 10
178.4621078459
 20
102.7282769782
 30
0.0
 11
178.4621078459
 21
108.4716536869
 31
0.0
  0
SPLINE
  5
24A
330
1F
100
AcDbEntity
  8
0
  6
Continuous
 62
     7
 48
10.0
370
    15
100
AcDbSpline
210
0.0
220
0.0
230
1.0
 70
     8
 71
     3
 72
    10
 73
     6
 74
     0
 42
0.00000001
 43
0.00000001
 40
0.0
 40
0.0
 40
0.0
 40
0.0
 40
0.6745481013520636
 40
0.9935965807413218
 40
1.0
 40
1.0
 40
1.0
 40
1.0
 10
179.0962492140798
 20
106.9005752469926
 30
0.0
 10
178.9574946983124
 20
107.2493415084013
 30
0.0
 10
178.7531119239
 20
107.7630676075764
 30
0.0
 10
178.5342965158596
 20
108.2951015632875
 30
0.0
 10
178.4635007851696
 20
108.4682469695722
 30
0.0
 10
178.4621078458529
 20
108.4716536869205
 30
0.0
  0
SPLINE
  5
24B
330
1F
100
AcDbEntity
  8
0
  6
Continuous
 62
     7
 48
10.0
370
    15
100
AcDbSpline
210
0.0
220
0.0
230
1.0
 70
     8
 71
     3
 72
    10
 73
     6
 74
     0
 42
0.00000001
 43
0.00000001
 40
0.0
 40
0.0
 40
0.0
 40
0.0
 40
0.0064034192586882
 40
0.3254518986479369
 40
1.0
 40
1.0
 40
1.0
 40
1.0
 10
161.4621078458529
 20
108.4716536869205
 30
0.0
 10
161.4607149065362
 20
108.4682469695722
 30
0.0
 10
161.3899191758481
 20
108.2951015632867
 30
0.0
 10
161.171103767804
 20
107.7630676075772
 30
0.0
 10
160.9667209933926
 20
107.2493415084016
 30
0.0
 10
160.8279664776259
 20
106.9005752469926
 30
0.0
  0
LINE
  5
24C
330
1F
100
AcDbEntity
  8
0
  6
Continuous
 62
     7
 48
10.0
370
    15
100
AcDbLine
 10
161.4621078459
 20
108.4716536869
 30
0.0
 11
161.4621078459
 21
102.7282769782
 31
0.0
  0
LINE
  5
24D
330
1F
100
AcDbEntity
  8
0
  6
Continuous
 62
     7
 48
10.0
370
    15
100
AcDbLine
 10
181.4621078459
 20
107.4326482956
 30
0.0
 11
181.4621078459
 21
108.4716536869
 31
0.0
  0
SPLINE
  5
24E
330
1F
100
AcDbEntity
  8
0
  6
Continuous
 62
     7
 48
10.0
370
    15
100
AcDbSpline
210
0.0
220
0.0
230
1.0
 70
     8
 71
     3
 72
    11
 73
     7
 74
     0
 42
0.00000001
 43
0.00000001
 40
0.0
 40
0.0
 40
0.0
 40
0.0
 40
0.0053260143189216
 40
0.324851777325233
 40
0.6593591381278135
 40
1.0
 40
1.0
 40
1.0
 40
1.0
 10
178.4621078458529
 20
108.4716536869205
 30
0.0
 10
178.464429011442
 20
108.4697614837531
 30
0.0
 10
178.6060048168969
 20
108.3543495593431
 30
0.0
 10
178.8931136088472
 20
108.1212377692411
 30
0.0
 10
179.3215219623311
 20
107.7739340405947
 30
0.0
 10
179.5932781037226
 20
107.547097123697
 30
0.0
 10
179.7303905823068
 20
107.4326482956006
 30
0.0
  0
LINE
  5
24F
330
1F
100
AcDbEntity
  8
0
  6
Continuous
 62
     7
 48
10.0
370
    15
100
AcDbLine
 10
178.4621078459
 20
108.4716536869
 30
0.0
 11
181.4621078459
 21
108.4716536869
 31
0.0
  0
LINE
  5
250
330
1F
100
AcDbEntity
  8
0
  6
Continuous
 62
     7
 48
10.0
370
    15
100
AcDbLine
 10
158.4621078459
 20
108.4716536869
 30
0.0
 11
158.4621078459
 21
107.4326482956
 31
0.0
  0
LINE
  5
251
330
1F
100
AcDbEntity
  8
0
  6
Continuous
 62
     7
 48
10.0
370
    15
100
AcDbLine
 10
158.4621078459
 20
108.4716536869
 30
0.0
 11
161.4621078459
 21
108.4716536869
 31
0.0
  0
SPLINE
  5
252
330
1F
100
AcDbEntity
  8
0
  6
Continuous
 62
     7
 48
10.0
370
    15
100
AcDbSpline
210
0.0
220
0.0
230
1.0
 70
     8
 71
     3
 72
    11
 73
     7
 74
     0
 42
0.00000001
 43
0.00000001
 40
0.0
 40
0.0
 40
0.0
 40
0.0
 40
0.3340648987876705
 40
0.6751495456297844
 40
0.9946740073712234
 40
1.0
 40
1.0
 40
1.0
 40
1.0
 10
160.193825109399
 20
107.4326482956006
 30
0.0
 10
160.3282276992329
 20
107.5448580456375
 30
0.0
 10
160.5998570975538
 20
107.771635423409
 30
0.0
 10
161.0282422221068
 20
108.118915992391
 30
0.0
 10
161.3182108618851
 20
108.3543495482255
 30
0.0
 10
161.4597866800554
 20
108.4697614835738
 30
0.0
 10
161.4621078458529
 20
108.4716536869205
 30
0.0
  0
ARC
  5
253
330
1F
100
AcDbEntity
  8
0
  6
Continuous
 62
     7
 48
100.0
370
    15
100
AcDbCircle
 10
181.7113397517
 20
103.9198093331
 30
0.0
 40
4.558662475405629
100
AcDbArc
 50
80.5207484664
 51
93.134046419
  0
LINE
  5
254
330
1F
100
AcDbEntity
  8
0
  6
Continuous
 62
     7
 48
10.0
370
    15
100
AcDbLine
 10
182.4621078459
 20
108.4162246646
 30
0.0
 11
182.4621078459
 21
106.8577165776
 31
0.0
  0
ARC
  5
255
330
1F
100
AcDbEntity
  8
0
  6
Continuous
 62
     7
 48
100.0
370
    15
100
AcDbCircle
 10
158.21287594
 20
103.9198093331
 30
0.0
 40
4.558662475404893
100
AcDbArc
 50
86.865953581
 51
99.4792515336
  0
LINE
  5
256
330
1F
100
AcDbEntity
  8
0
  6
Continuous
 62
     7
 48
10.0
370
    15
100
AcDbLine
 10
157.4621078459
 20
106.8577165776
 30
0.0
 11
157.4621078459
 21
108.4162246646
 31
0.0
  0
LINE
  5
257
330
1F
100
AcDbEntity
  8
0
  6
Continuous
 62
     7
 48
10.0
370
    15
100
AcDbLine
 10
158.4621078459
 20
122.837996224
 30
0.0
 11
158.4621078459
 21
108.4716536869
 31
0.0
  0
ARC
  5
258
330
1F
100
AcDbEntity
  8
0
  6
Continuous
 62
     7
 48
100.0
370
    15
100
AcDbCircle
 10
159.4621078459
 20
122.837996224
 30
0.0
 40
1.0
100
AcDbArc
 50
90.0
 51
180.0
  0
ARC
  5
259
330
1F
100
AcDbEntity
  8
0
  6
Continuous
 62
     7
 48
100.0
370
    15
100
AcDbCircle
 10
180.4621078459
 20
122.837996224
 30
0.0
 40
1.0
100
AcDbArc
 50
0.0
 51
90.0
  0
LINE
  5
25A
330
1F
100
AcDbEntity
  8
0
  6
Continuous
 62
     7
 48
10.0
370
    15
100
AcDbLine
 10
181.4621078459
 20
108.4716536869
 30
0.0
 11
181.4621078459
 21
122.837996224
 31
0.0
  0
ARC
  5
25B
330
1F
100
AcDbEntity
  8
0
  6
Continuous
 62
     7
 48
100.0
370
    15
100
AcDbCircle
 10
181.7113397517
 20
118.2861518701
 30
0.0
 40
4.558662475408114
100
AcDbArc
 50
80.5207484664
 51
93.134046419
  0
LINE
  5
25C
330
1F
100
AcDbEntity
  8
0
  6
Continuous
 62
     7
 48
10.0
370
    15
100
AcDbLine
 10
182.4621078459
 20
122.7825672017
 30
0.0
 11
182.4621078459
 21
108.4162246646
 31
0.0
  0
ARC
  5
25D
330
1F
100
AcDbEntity
  8
0
  6
Continuous
 62
     7
 48
100.0
370
    15
100
AcDbCircle
 10
158.21287594
 20
118.2861518702
 30
0.0
 40
4.558662475406276
100
AcDbArc
 50
86.865953581
 51
99.4792515336
  0
LINE
  5
25E
330
1F
100
AcDbEntity
  8
0
  6
Continuous
 62
     7
 48
10.0
370
    15
100
AcDbLine
 10
157.4621078459
 20
108.4162246646
 30
0.0
 11
157.4621078459
 21
122.7825672017
 31
0.0
  0
LINE
  5
25F
330
1F
100
AcDbEntity
  8
0
  6
Continuous
 62
     7
 48
10.0
370
    15
100
AcDbLine
 10
180.4621078459
 20
123.837996224
 30
0.0
 11
180.4621078459
 21
124.7825672017
 31
0.0
  0
ARC
  5
260
330
1F
100
AcDbEntity
  8
0
  6
Continuous
 62
     7
 48
100.0
370
    15
100
AcDbCircle
 10
180.4621078459
 20
122.7825672017
 30
0.0
 40
2.0
100
AcDbArc
 50
0.0
 51
90.0
  0
ARC
  5
261
330
1F
100
AcDbEntity
  8
0
  6
Continuous
 62
     7
 48
100.0
370
    15
100
AcDbCircle
 10
159.4621078459
 20
122.7825672017
 30
0.0
 40
2.0
100
AcDbArc
 50
90.0
 51
180.0
  0
LINE
  5
262
330
1F
100
AcDbEntity
  8
0
  6
Continuous
 62
     7
 48
10.0
370
    15
100
AcDbLine
 10
159.4621078459
 20
123.837996224
 30
0.0
 11
159.4621078459
 21
124.7825672017
 31
0.0
  0
LINE
  5
263
330
1F
100
AcDbEntity
  8
0
  6
Continuous
 62
     7
 48
10.0
370
    15
100
AcDbLine
 10
159.4621078459
 20
124.7825672017
 30
0.0
 11
162.4621078459
 21
124.7825672017
 31
0.0
  0
LINE
  5
264
330
1F
100
AcDbEntity
  8
0
  6
Continuous
 62
     7
 48
10.0
370
    15
100
AcDbLine
 10
177.4621078459
 20
124.7825672017
 30
0.0
 11
180.4621078459
 21
124.7825672017
 31
0.0
  0
CIRCLE
  5
265
330
1F
100
AcDbEntity
  8
0
  6
Continuous
 62
     7
 48
100.0
370
    15
100
AcDbCircle
 10
169.9621078459
 20
113.9230666144
 30
0.0
 40
6.000000000000064
  0
LINE
  5
266
330
1F
100
AcDbEntity
  8
0
  6
Continuous
 62
     8
 48
10.0
370
    15
100
AcDbLine
 10
176.4621078459
 20
122.306991341
 30
0.0
 11
176.4621078459
 21
196.1730666144
 31
0.0
  0
LINE
  5
267
330
1F
100
AcDbEntity
  8
0
  6
Continuous
 62
     8
 48
10.0
370
    15
100
AcDbLine
 10
163.4621078459
 20
196.1730666144
 30
0.0
 11
163.4621078459
 21
122.306991341
 31
0.0
  0
LINE
  5
268
330
1F
100
AcDbEntity
  8
0
  6
Continuous
 62
     8
 48
10.0
370
    15
100
AcDbLine
 10
174.5960824421
 20
93.7825672017
 30
0.0
 11
165.3281332496
 21
93.7825672017
 31
0.0
  0
LINE
  5
269
330
1F
100
AcDbEntity
  8
0
  6
Continuous
 62
     8
 48
10.0
370
    15
100
AcDbLine
 10
180.4621078459
 20
123.837996224
 30
0.0
 11
177.4621078459
 21
123.837996224
 31
0.0
  0
LINE
  5
26A
330
1F
100
AcDbEntity
  8
0
  6
Continuous
 62
     8
 48
10.0
370
    15
100
AcDbLine
 10
162.4621078459
 20
123.837996224
 30
0.0
 11
159.4621078459
 21
123.837996224
 31
0.0
  0
DIMENSION
  5
26B
330
1F
100
AcDbEntity
  8
SLD-0
 48
10.0
100
AcDbDimension
  2
*D7
 10
157.4621078459
 20
80.2825672017
 30
0.0
 11
169.8986298461
 21
80.2825672017
 31
0.0
 70
   160
 71
     2
 42
-1.0
 73
     0
 74
     0
 75
     0
  3
SLDDIMSTYLE2
100
AcDbAlignedDimension
 13
182.4621078459
 23
93.5577720477
 33
0.0
 14
157.4621078459
 24
93.5577720477
 34
0.0
 50
0.0
100
AcDbRotatedDimension
  0
ENDSEC
  0
SECTION
  2
OBJECTS
  0
DICTIONARY
  5
C
330
0
100
AcDbDictionary
281
     1
  3
ACAD_GROUP
350
D
  3
ACAD_IMAGE_DICT
350
73
  3
ACAD_IMAGE_VARS
350
29A
  3
ACAD_LAYOUT
350
1A
  3
ACAD_MATERIAL
350
3B
  3
ACAD_MLEADERSTYLE
350
299
  3
ACAD_MLINESTYLE
350
17
  3
ACAD_PLOTSETTINGS
350
19
  3
ACAD_PLOTSTYLENAME
350
E
  3
ACAD_SCALELIST
350
4A
  3
ACAD_TABLESTYLE
350
298
  3
ACAD_VISUALSTYLE
350
2A
  3
AcDbVariableDictionary
350
276
  0
IMAGEDEF_REACTOR
  5
76
330
75
100
AcDbRasterImageDefReactor
 90
        2
330
75
  0
DICTIONARY
  5
D
102
{ACAD_REACTORS
330
C
102
}
330
C
100
AcDbDictionary
281
     1
  0
DICTIONARY
  5
73
102
{ACAD_REACTORS
330
C
102
}
330
C
100
AcDbDictionary
281
     1
  3
S:\MWDesign CLIENT L -Z\Marley NZ\RAINWATER PRODUCTS\12-501 illustration of rainwater products\12-501 Illustration\dxf6BE.bmp
350
74
  0
RASTERVARIABLES
  5
29A
102
{ACAD_REACTORS
330
C
102
}
330
C
100
AcDbRasterVariables
 90
        0
 70
     1
 71
     1
 72
     1
  0
DICTIONARY
  5
1A
102
{ACAD_REACTORS
330
C
102
}
330
C
100
AcDbDictionary
281
     1
  3
Layout1
350
1E
  3
Layout2
350
26
  3
Model
350
22
  0
DICTIONARY
  5
3B
102
{ACAD_REACTORS
330
C
102
}
330
C
100
AcDbDictionary
281
     1
  3
ByBlock
350
3D
  3
ByLayer
350
3C
  3
Global
350
3E
  0
DICTIONARY
  5
299
102
{ACAD_REACTORS
330
C
102
}
330
C
100
AcDbDictionary
281
     1
  0
DICTIONARY
  5
17
102
{ACAD_REACTORS
330
C
102
}
330
C
100
AcDbDictionary
281
     1
  3
Standard
350
18
  0
DICTIONARY
  5
19
102
{ACAD_REACTORS
330
C
102
}
330
C
100
AcDbDictionary
281
     1
  0
ACDBDICTIONARYWDFLT
  5
E
102
{ACAD_REACTORS
330
C
102
}
330
C
100
AcDbDictionary
281
     1
  3
Normal
350
F
100
AcDbDictionaryWithDefault
340
F
  0
DICTIONARY
  5
4A
102
{ACAD_REACTORS
330
C
102
}
330
C
100
AcDbDictionary
281
     1
  3
A0
350
4B
  3
A1
350
4C
  3
A2
350
4D
  3
A3
350
4E
  3
A4
350
4F
  3
A5
350
50
  3
A6
350
51
  3
A7
350
52
  3
A8
350
53
  3
A9
350
54
  3
B0
350
55
  3
B1
350
56
  3
B2
350
57
  3
B3
350
58
  3
B4
350
59
  3
B5
350
5A
  3
B6
350
5B
  3
B7
350
5C
  3
B8
350
5D
  3
B9
350
5E
  3
C0
350
5F
  3
C1
350
60
  3
C2
350
61
  3
C3
350
62
  3
C4
350
63
  3
C5
350
64
  3
C6
350
65
  3
C7
350
66
  3
C8
350
67
  3
C9
350
68
  3
D0
350
69
  3
D1
350
6A
  3
D2
350
6B
  0
DICTIONARY
  5
298
102
{ACAD_REACTORS
330
C
102
}
330
C
100
AcDbDictionary
281
     1
  0
DICTIONARY
  5
2A
102
{ACAD_REACTORS
330
C
102
}
330
C
100
AcDbDictionary
281
     1
  3
2dWireframe
350
2F
  3
3D Hidden
350
31
  3
3dWireframe
350
30
  3
Basic
350
32
  3
Brighten
350
36
  3
ColorChange
350
3A
  3
Conceptual
350
34
  3
Dim
350
35
  3
Facepattern
350
39
  3
Flat
350
2B
  3
FlatWithEdges
350
2C
  3
Gouraud
350
2D
  3
GouraudWithEdges
350
2E
  3
Linepattern
350
38
  3
Realistic
350
33
  3
Thicken
350
37
  0
DICTIONARY
  5
276
102
{ACAD_REACTORS
330
C
102
}
330
C
100
AcDbDictionary
281
     1
  3
CANNOSCALE
350
277
  0
IMAGEDEF
  5
74
102
{ACAD_REACTORS
330
73
330
76
102
}
330
73
100
AcDbRasterImageDef
 90
        0
  1
S:\MWDesign CLIENT L -Z\Marley NZ\RAINWATER PRODUCTS\12-501 illustration of rainwater products\12-501 Illustration\dxf6BE.bmp
 10
394.0
 20
64.0
 11
0.2645502645502645
 21
0.2645502645502645
280
     1
281
     3
  0
LAYOUT
  5
1E
102
{ACAD_REACTORS
330
1A
102
}
330
1A
100
AcDbPlotSettings
  1

  2
none_device
  4

  6

 40
0.0
 41
0.0
 42
0.0
 43
0.0
 44
0.0
 45
0.0
 46
0.0
 47
0.0
 48
0.0
 49
0.0
140
0.0
141
0.0
142
1.0
143
1.0
 70
   688
 72
     0
 73
     0
 74
     5
  7

 75
    16
 76
     0
 77
     2
 78
   300
147
1.0
148
0.0
149
0.0
100
AcDbLayout
  1
Layout1
 70
     1
 71
     1
 10
0.0
 20
0.0
 11
420.0
 21
297.0
 12
0.0
 22
0.0
 32
0.0
 14
1.0000000000E+20
 24
1.0000000000E+20
 34
1.0000000000E+20
 15
-1.0000000000E+20
 25
-1.0000000000E+20
 35
-1.0000000000E+20
146
0.0
 13
0.0
 23
0.0
 33
0.0
 16
1.0
 26
0.0
 36
0.0
 17
0.0
 27
1.0
 37
0.0
 76
     0
330
1B
  0
LAYOUT
  5
26
102
{ACAD_REACTORS
330
1A
102
}
330
1A
100
AcDbPlotSettings
  1

  2
none_device
  4

  6

 40
0.0
 41
0.0
 42
0.0
 43
0.0
 44
0.0
 45
0.0
 46
0.0
 47
0.0
 48
0.0
 49
0.0
140
0.0
141
0.0
142
1.0
143
1.0
 70
   688
 72
     0
 73
     0
 74
     5
  7

 75
    16
 76
     0
 77
     2
 78
   300
147
1.0
148
0.0
149
0.0
100
AcDbLayout
  1
Layout2
 70
     1
 71
     2
 10
0.0
 20
0.0
 11
0.0
 21
0.0
 12
0.0
 22
0.0
 32
0.0
 14
0.0
 24
0.0
 34
0.0
 15
0.0
 25
0.0
 35
0.0
146
0.0
 13
0.0
 23
0.0
 33
0.0
 16
1.0
 26
0.0
 36
0.0
 17
0.0
 27
1.0
 37
0.0
 76
     0
330
23
  0
LAYOUT
  5
22
102
{ACAD_REACTORS
330
1A
102
}
330
1A
100
AcDbPlotSettings
  1

  2
none_device
  4

  6

 40
0.0
 41
0.0
 42
0.0
 43
0.0
 44
0.0
 45
0.0
 46
0.0
 47
0.0
 48
0.0
 49
0.0
140
0.0
141
0.0
142
1.0
143
1.0
 70
  1712
 72
     0
 73
     0
 74
     0
  7

 75
     0
 76
     0
 77
     2
 78
   300
147
1.0
148
0.0
149
0.0
100
AcDbLayout
  1
Model
 70
     1
 71
     0
 10
0.0
 20
0.0
 11
210.0
 21
297.0
 12
0.0
 22
0.0
 32
0.0
 14
0.0
 24
0.0
 34
0.0
 15
210.0
 25
297.0
 35
0.0
146
0.0
 13
0.0
 23
0.0
 33
0.0
 16
1.0
 26
0.0
 36
0.0
 17
0.0
 27
1.0
 37
0.0
 76
     0
330
1F
331
29
  0
MATERIAL
  5
3D
102
{ACAD_REACTORS
330
3B
102
}
330
3B
100
AcDbMaterial
  1
ByBlock
 72
     1
 94
      127
  0
MATERIAL
  5
3C
102
{ACAD_REACTORS
330
3B
102
}
330
3B
100
AcDbMaterial
  1
ByLayer
 72
     1
 94
      127
  0
MATERIAL
  5
3E
102
{ACAD_REACTORS
330
3B
102
}
330
3B
100
AcDbMaterial
  1
Global
 72
     1
 94
      127
  0
MLINESTYLE
  5
18
102
{ACAD_REACTORS
330
17
102
}
330
17
100
AcDbMlineStyle
  2
Standard
 70
     0
  3

 62
   256
 51
90.0
 52
90.0
 71
     2
 49
0.5
 62
   256
  6
BYLAYER
 49
-0.5
 62
   256
  6
BYLAYER
  0
ACDBPLACEHOLDER
  5
F
102
{ACAD_REACTORS
330
E
102
}
330
E
  0
SCALE
  5
4B
102
{ACAD_REACTORS
330
4A
102
}
330
4A
100
AcDbScale
 70
     0
300
1:1
140
1.0
141
1.0
290
     1
  0
SCALE
  5
4C
102
{ACAD_REACTORS
330
4A
102
}
330
4A
100
AcDbScale
 70
     0
300
1:2
140
1.0
141
2.0
290
     0
  0
SCALE
  5
4D
102
{ACAD_REACTORS
330
4A
102
}
330
4A
100
AcDbScale
 70
     0
300
1:4
140
1.0
141
4.0
290
     0
  0
SCALE
  5
4E
102
{ACAD_REACTORS
330
4A
102
}
330
4A
100
AcDbScale
 70
     0
300
1:5
140
1.0
141
5.0
290
     0
  0
SCALE
  5
4F
102
{ACAD_REACTORS
330
4A
102
}
330
4A
100
AcDbScale
 70
     0
300
1:8
140
1.0
141
8.0
290
     0
  0
SCALE
  5
50
102
{ACAD_REACTORS
330
4A
102
}
330
4A
100
AcDbScale
 70
     0
300
1:10
140
1.0
141
10.0
290
     0
  0
SCALE
  5
51
102
{ACAD_REACTORS
330
4A
102
}
330
4A
100
AcDbScale
 70
     0
300
1:16
140
1.0
141
16.0
290
     0
  0
SCALE
  5
52
102
{ACAD_REACTORS
330
4A
102
}
330
4A
100
AcDbScale
 70
     0
300
1:20
140
1.0
141
20.0
290
     0
  0
SCALE
  5
53
102
{ACAD_REACTORS
330
4A
102
}
330
4A
100
AcDbScale
 70
     0
300
1:30
140
1.0
141
30.0
290
     0
  0
SCALE
  5
54
102
{ACAD_REACTORS
330
4A
102
}
330
4A
100
AcDbScale
 70
     0
300
1:40
140
1.0
141
40.0
290
     0
  0
SCALE
  5
55
102
{ACAD_REACTORS
330
4A
102
}
330
4A
100
AcDbScale
 70
     0
300
1:50
140
1.0
141
50.0
290
     0
  0
SCALE
  5
56
102
{ACAD_REACTORS
330
4A
102
}
330
4A
100
AcDbScale
 70
     0
300
1:100
140
1.0
141
100.0
290
     0
  0
SCALE
  5
57
102
{ACAD_REACTORS
330
4A
102
}
330
4A
100
AcDbScale
 70
     0
300
2:1
140
2.0
141
1.0
290
     0
  0
SCALE
  5
58
102
{ACAD_REACTORS
330
4A
102
}
330
4A
100
AcDbScale
 70
     0
300
4:1
140
4.0
141
1.0
290
     0
  0
SCALE
  5
59
102
{ACAD_REACTORS
330
4A
102
}
330
4A
100
AcDbScale
 70
     0
300
8:1
140
8.0
141
1.0
290
     0
  0
SCALE
  5
5A
102
{ACAD_REACTORS
330
4A
102
}
330
4A
100
AcDbScale
 70
     0
300
10:1
140
10.0
141
1.0
290
     0
  0
SCALE
  5
5B
102
{ACAD_REACTORS
330
4A
102
}
330
4A
100
AcDbScale
 70
     0
300
100:1
140
100.0
141
1.0
290
     0
  0
SCALE
  5
5C
102
{ACAD_REACTORS
330
4A
102
}
330
4A
100
AcDbScale
 70
     0
300
1/128" = 1'-0"
140
0.0078125
141
12.0
290
     0
  0
SCALE
  5
5D
102
{ACAD_REACTORS
330
4A
102
}
330
4A
100
AcDbScale
 70
     0
300
1/64" = 1'-0"
140
0.015625
141
12.0
290
     0
  0
SCALE
  5
5E
102
{ACAD_REACTORS
330
4A
102
}
330
4A
100
AcDbScale
 70
     0
300
1/32" = 1'-0"
140
0.03125
141
12.0
290
     0
  0
SCALE
  5
5F
102
{ACAD_REACTORS
330
4A
102
}
330
4A
100
AcDbScale
 70
     0
300
1/16" = 1'-0"
140
0.0625
141
12.0
290
     0
  0
SCALE
  5
60
102
{ACAD_REACTORS
330
4A
102
}
330
4A
100
AcDbScale
 70
     0
300
3/32" = 1'-0"
140
0.09375
141
12.0
290
     0
  0
SCALE
  5
61
102
{ACAD_REACTORS
330
4A
102
}
330
4A
100
AcDbScale
 70
     0
300
1/8" = 1'-0"
140
0.125
141
12.0
290
     0
  0
SCALE
  5
62
102
{ACAD_REACTORS
330
4A
102
}
330
4A
100
AcDbScale
 70
     0
300
3/16" = 1'-0"
140
0.1875
141
12.0
290
     0
  0
SCALE
  5
63
102
{ACAD_REACTORS
330
4A
102
}
330
4A
100
AcDbScale
 70
     0
300
1/4" = 1'-0"
140
0.25
141
12.0
290
     0
  0
SCALE
  5
64
102
{ACAD_REACTORS
330
4A
102
}
330
4A
100
AcDbScale
 70
     0
300
3/8" = 1'-0"
140
0.375
141
12.0
290
     0
  0
SCALE
  5
65
102
{ACAD_REACTORS
330
4A
102
}
330
4A
100
AcDbScale
 70
     0
300
1/2" = 1'-0"
140
0.5
141
12.0
290
     0
  0
SCALE
  5
66
102
{ACAD_REACTORS
330
4A
102
}
330
4A
100
AcDbScale
 70
     0
300
3/4" = 1'-0"
140
0.75
141
12.0
290
     0
  0
SCALE
  5
67
102
{ACAD_REACTORS
330
4A
102
}
330
4A
100
AcDbScale
 70
     0
300
1" = 1'-0"
140
1.0
141
12.0
290
     0
  0
SCALE
  5
68
102
{ACAD_REACTORS
330
4A
102
}
330
4A
100
AcDbScale
 70
     0
300
1-1/2" = 1'-0"
140
1.5
141
12.0
290
     0
  0
SCALE
  5
69
102
{ACAD_REACTORS
330
4A
102
}
330
4A
100
AcDbScale
 70
     0
300
3" = 1'-0"
140
3.0
141
12.0
290
     0
  0
SCALE
  5
6A
102
{ACAD_REACTORS
330
4A
102
}
330
4A
100
AcDbScale
 70
     0
300
6" = 1'-0"
140
6.0
141
12.0
290
     0
  0
SCALE
  5
6B
102
{ACAD_REACTORS
330
4A
102
}
330
4A
100
AcDbScale
 70
     0
300
1'-0" = 1'-0"
140
12.0
141
12.0
290
     0
  0
VISUALSTYLE
  5
2F
102
{ACAD_REACTORS
330
2A
102
}
102
{ACAD_XDICTIONARY
360
280
102
}
330
2A
100
AcDbVisualStyle
  2
2dWireframe
 70
     4
 71
     0
 72
     2
 73
     0
 90
        0
 40
-0.6
 41
-30.0
 62
     5
 63
     7
421
 16777215
 74
     1
 91
        4
 64
     7
 65
   257
 75
     1
175
     1
 42
1.0
 92
        0
 66
   257
 43
1.0
 76
     1
 77
     6
 78
     2
 67
     7
 79
     5
170
     0
171
     0
290
     0
174
     0
 93
        1
 44
0.0
173
     0
291
     0
 45
0.0
  0
VISUALSTYLE
  5
31
102
{ACAD_REACTORS
330
2A
102
}
102
{ACAD_XDICTIONARY
360
284
102
}
330
2A
100
AcDbVisualStyle
  2
3D Hidden
 70
     6
 71
     1
 72
     2
 73
     2
 90
        0
 40
-0.6
 41
-30.0
 62
     5
 63
     7
421
 16777215
 74
     2
 91
        2
 64
     7
 65
   257
 75
     2
175
     1
 42
40.0
 92
        0
 66
   257
 43
1.0
 76
     1
 77
     6
 78
     2
 67
     7
 79
     3
170
     0
171
     0
290
     0
174
     0
 93
        1
 44
0.0
173
     0
291
     0
 45
0.0
  0
VISUALSTYLE
  5
30
102
{ACAD_REACTORS
330
2A
102
}
102
{ACAD_XDICTIONARY
360
282
102
}
330
2A
100
AcDbVisualStyle
  2
3dWireframe
 70
     5
 71
     0
 72
     2
 73
     0
 90
        0
 40
-0.6
 41
-30.0
 62
     5
 63
     7
421
 16777215
 74
     1
 91
        4
 64
     7
 65
   257
 75
     1
175
     1
 42
1.0
 92
        0
 66
   257
 43
1.0
 76
     1
 77
     6
 78
     2
 67
     7
 79
     5
170
     0
171
     0
290
     0
174
     0
 93
        1
 44
0.0
173
     0
291
     0
 45
0.0
  0
VISUALSTYLE
  5
32
102
{ACAD_REACTORS
330
2A
102
}
102
{ACAD_XDICTIONARY
360
286
102
}
330
2A
100
AcDbVisualStyle
  2
Basic
 70
     7
 71
     1
 72
     0
 73
     1
 90
        0
 40
-0.6
 41
-30.0
 62
     5
 63
     7
421
 16777215
 74
     0
 91
        4
 64
     7
 65
   257
 75
     1
175
     1
 42
1.0
 92
        8
 66
     7
 43
1.0
 76
     1
 77
     6
 78
     2
 67
     7
 79
     5
170
     0
171
     0
290
     0
174
     0
 93
        1
 44
0.0
173
     0
291
     1
 45
0.0
  0
VISUALSTYLE
  5
36
102
{ACAD_REACTORS
330
2A
102
}
102
{ACAD_XDICTIONARY
360
28E
102
}
330
2A
100
AcDbVisualStyle
  2
Brighten
 70
    12
 71
     2
 72
     2
 73
     0
 90
        0
 40
-0.6
 41
-30.0
 62
     5
 63
     7
421
 16777215
 74
     1
 91
        4
 64
     7
 65
   257
 75
     1
175
     1
 42
1.0
 92
        8
 66
     7
 43
1.0
 76
     1
 77
     6
 78
     2
 67
     7
 79
     5
170
     0
171
     0
290
     0
174
     0
 93
        1
 44
50.0
173
     0
291
     1
 45
0.0
  0
VISUALSTYLE
  5
3A
102
{ACAD_REACTORS
330
2A
102
}
102
{ACAD_XDICTIONARY
360
296
102
}
330
2A
100
AcDbVisualStyle
  2
ColorChange
 70
    16
 71
     2
 72
     2
 73
     3
 90
        0
 40
-0.6
 41
-30.0
 62
     5
 63
     8
421
  8421504
 74
     1
 91
        4
 64
     7
 65
   257
 75
     1
175
     1
 42
1.0
 92
        8
 66
     8
424
  8421504
 43
1.0
 76
     1
 77
     6
 78
     2
 67
     7
 79
     5
170
     0
171
     0
290
     0
174
     0
 93
        1
 44
0.0
173
     0
291
     1
 45
0.0
  0
VISUALSTYLE
  5
34
102
{ACAD_REACTORS
330
2A
102
}
102
{ACAD_XDICTIONARY
360
28A
102
}
330
2A
100
AcDbVisualStyle
  2
Conceptual
 70
     9
 71
     3
 72
     2
 73
     0
 90
        0
 40
-0.6
 41
-30.0
 62
     5
 63
     7
421
 16777215
 74
     2
 91
        2
 64
     7
 65
   257
 75
     1
175
     1
 42
40.0
 92
        8
 66
     7
 43
1.0
 76
     1
 77
     6
 78
     2
 67
     7
 79
     3
170
     0
171
     0
290
     0
174
     0
 93
        1
 44
0.0
173
     0
291
     0
 45
0.0
  0
VISUALSTYLE
  5
35
102
{ACAD_REACTORS
330
2A
102
}
102
{ACAD_XDICTIONARY
360
28C
102
}
330
2A
100
AcDbVisualStyle
  2
Dim
 70
    11
 71
     2
 72
     2
 73
     0
 90
        0
 40
-0.6
 41
-30.0
 62
     5
 63
     7
421
 16777215
 74
     1
 91
        4
 64
     7
 65
   257
 75
     1
175
     1
 42
1.0
 92
        8
 66
     7
 43
1.0
 76
     1
 77
     6
 78
     2
 67
     7
 79
     5
170
     0
171
     0
290
     0
174
     0
 93
        1
 44
-50.0
173
     0
291
     1
 45
0.0
  0
VISUALSTYLE
  5
39
102
{ACAD_REACTORS
330
2A
102
}
102
{ACAD_XDICTIONARY
360
294
102
}
330
2A
100
AcDbVisualStyle
  2
Facepattern
 70
    15
 71
     2
 72
     2
 73
     0
 90
        0
 40
-0.6
 41
-30.0
 62
     5
 63
     7
421
 16777215
 74
     1
 91
        4
 64
     7
 65
   257
 75
     1
175
     1
 42
1.0
 92
        8
 66
     7
 43
1.0
 76
     1
 77
     6
 78
     2
 67
     7
 79
     5
170
     0
171
     0
290
     0
174
     0
 93
        1
 44
0.0
173
     0
291
     1
 45
0.0
  0
VISUALSTYLE
  5
2B
102
{ACAD_REACTORS
330
2A
102
}
102
{ACAD_XDICTIONARY
360
278
102
}
330
2A
100
AcDbVisualStyle
  2
Flat
 70
     0
 71
     2
 72
     1
 73
     1
 90
        2
 40
-0.6
 41
30.0
 62
     5
 63
     7
421
 16777215
 74
     0
 91
        4
 64
     7
 65
   257
 75
     1
175
     1
 42
1.0
 92
        8
 66
     7
 43
1.0
 76
     1
 77
     6
 78
     2
 67
     7
 79
     5
170
     0
171
     0
290
     0
174
     0
 93
       13
 44
0.0
173
     0
291
     1
 45
0.0
  0
VISUALSTYLE
  5
2C
102
{ACAD_REACTORS
330
2A
102
}
102
{ACAD_XDICTIONARY
360
27A
102
}
330
2A
100
AcDbVisualStyle
  2
FlatWithEdges
 70
     1
 71
     2
 72
     1
 73
     1
 90
        2
 40
-0.6
 41
30.0
 62
     5
 63
     7
421
 16777215
 74
     1
 91
        4
 64
     7
 65
   257
 75
     1
175
     1
 42
1.0
 92
        0
 66
   257
 43
1.0
 76
     1
 77
     6
 78
     2
 67
     7
 79
     5
170
     0
171
     0
290
     0
174
     0
 93
       13
 44
0.0
173
     0
291
     1
 45
0.0
  0
VISUALSTYLE
  5
2D
102
{ACAD_REACTORS
330
2A
102
}
102
{ACAD_XDICTIONARY
360
27C
102
}
330
2A
100
AcDbVisualStyle
  2
Gouraud
 70
     2
 71
     2
 72
     2
 73
     1
 90
        2
 40
-0.6
 41
30.0
 62
     5
 63
     7
421
 16777215
 74
     0
 91
        4
 64
     7
 65
   257
 75
     1
175
     1
 42
1.0
 92
        0
 66
     7
 43
1.0
 76
     1
 77
     6
 78
     2
 67
     7
 79
     5
170
     0
171
     0
290
     0
174
     0
 93
       13
 44
0.0
173
     0
291
     1
 45
0.0
  0
VISUALSTYLE
  5
2E
102
{ACAD_REACTORS
330
2A
102
}
102
{ACAD_XDICTIONARY
360
27E
102
}
330
2A
100
AcDbVisualStyle
  2
GouraudWithEdges
 70
     3
 71
     2
 72
     2
 73
     1
 90
        2
 40
-0.6
 41
30.0
 62
     5
 63
     7
421
 16777215
 74
     1
 91
        4
 64
     7
 65
   257
 75
     1
175
     1
 42
1.0
 92
        0
 66
   257
 43
1.0
 76
     1
 77
     6
 78
     2
 67
     7
 79
     5
170
     0
171
     0
290
     0
174
     0
 93
       13
 44
0.0
173
     0
291
     1
 45
0.0
  0
VISUALSTYLE
  5
38
102
{ACAD_REACTORS
330
2A
102
}
102
{ACAD_XDICTIONARY
360
292
102
}
330
2A
100
AcDbVisualStyle
  2
Linepattern
 70
    14
 71
     2
 72
     2
 73
     0
 90
        0
 40
-0.6
 41
-30.0
 62
     5
 63
     7
421
 16777215
 74
     1
 91
        4
 64
     7
 65
   257
 75
     7
175
     7
 42
1.0
 92
        8
 66
     7
 43
1.0
 76
     1
 77
     6
 78
     2
 67
     7
 79
     5
170
     0
171
     0
290
     0
174
     0
 93
        1
 44
0.0
173
     0
291
     1
 45
0.0
  0
VISUALSTYLE
  5
33
102
{ACAD_REACTORS
330
2A
102
}
102
{ACAD_XDICTIONARY
360
288
102
}
330
2A
100
AcDbVisualStyle
  2
Realistic
 70
     8
 71
     2
 72
     2
 73
     0
 90
        0
 40
-0.6
 41
-30.0
 62
     5
 63
     7
421
 16777215
 74
     1
 91
        0
 64
     7
 65
   257
 75
     1
175
     1
 42
1.0
 92
        8
 66
     8
424
  7895160
 43
1.0
 76
     1
 77
     6
 78
     2
 67
     7
 79
     5
170
     0
171
     0
290
     0
174
     0
 93
       13
 44
0.0
173
     0
291
     0
 45
0.0
  0
VISUALSTYLE
  5
37
102
{ACAD_REACTORS
330
2A
102
}
102
{ACAD_XDICTIONARY
360
290
102
}
330
2A
100
AcDbVisualStyle
  2
Thicken
 70
    13
 71
     2
 72
     2
 73
     0
 90
        0
 40
-0.6
 41
-30.0
 62
     5
 63
     7
421
 16777215
 74
     1
 91
        4
 64
     7
 65
   257
 75
     1
175
     1
 42
1.0
 92
       12
 66
     7
 43
1.0
 76
     1
 77
     6
 78
     2
 67
     7
 79
     5
170
     0
171
     0
290
     0
174
     0
 93
        1
 44
0.0
173
     0
291
     1
 45
0.0
  0
DICTIONARYVAR
  5
277
102
{ACAD_REACTORS
330
276
102
}
330
276
100
DictionaryVariables
280
     0
  1
1:1
  0
DICTIONARY
  5
280
330
2F
100
AcDbDictionary
280
     1
281
     1
  3
ACAD_XREC_ROUNDTRIP
360
281
  0
DICTIONARY
  5
284
330
31
100
AcDbDictionary
280
     1
281
     1
  3
ACAD_XREC_ROUNDTRIP
360
285
  0
DICTIONARY
  5
282
330
30
100
AcDbDictionary
280
     1
281
     1
  3
ACAD_XREC_ROUNDTRIP
360
283
  0
DICTIONARY
  5
286
330
32
100
AcDbDictionary
280
     1
281
     1
  3
ACAD_XREC_ROUNDTRIP
360
287
  0
DICTIONARY
  5
28E
330
36
100
AcDbDictionary
280
     1
281
     1
  3
ACAD_XREC_ROUNDTRIP
360
28F
  0
DICTIONARY
  5
296
330
3A
100
AcDbDictionary
280
     1
281
     1
  3
ACAD_XREC_ROUNDTRIP
360
297
  0
DICTIONARY
  5
28A
330
34
100
AcDbDictionary
280
     1
281
     1
  3
ACAD_XREC_ROUNDTRIP
360
28B
  0
DICTIONARY
  5
28C
330
35
100
AcDbDictionary
280
     1
281
     1
  3
ACAD_XREC_ROUNDTRIP
360
28D
  0
DICTIONARY
  5
294
330
39
100
AcDbDictionary
280
     1
281
     1
  3
ACAD_XREC_ROUNDTRIP
360
295
  0
DICTIONARY
  5
278
330
2B
100
AcDbDictionary
280
     1
281
     1
  3
ACAD_XREC_ROUNDTRIP
360
279
  0
DICTIONARY
  5
27A
330
2C
100
AcDbDictionary
280
     1
281
     1
  3
ACAD_XREC_ROUNDTRIP
360
27B
  0
DICTIONARY
  5
27C
330
2D
100
AcDbDictionary
280
     1
281
     1
  3
ACAD_XREC_ROUNDTRIP
360
27D
  0
DICTIONARY
  5
27E
330
2E
100
AcDbDictionary
280
     1
281
     1
  3
ACAD_XREC_ROUNDTRIP
360
27F
  0
DICTIONARY
  5
292
330
38
100
AcDbDictionary
280
     1
281
     1
  3
ACAD_XREC_ROUNDTRIP
360
293
  0
DICTIONARY
  5
288
330
33
100
AcDbDictionary
280
     1
281
     1
  3
ACAD_XREC_ROUNDTRIP
360
289
  0
DICTIONARY
  5
290
330
37
100
AcDbDictionary
280
     1
281
     1
  3
ACAD_XREC_ROUNDTRIP
360
291
  0
XRECORD
  5
281
102
{ACAD_REACTORS
330
280
102
}
330
280
100
AcDbXrecord
280
     1
102
RTVSPropertyOp0
 70
     1
102
RTVSPropertyOp1
 70
     1
102
RTVSPropertyOp2
 70
     1
102
RTVSPropertyOp3
 70
     1
102
RTVSPropertyOp4
 70
     1
102
RTVSPropertyOp5
 70
     1
102
RTVSPropertyOp6
 70
     1
102
RTVSPropertyOp7
 70
     1
102
RTVSPropertyOp8
 70
     1
102
RTVSPropertyOp9
 70
     1
102
RTVSPropertyOp10
 70
     1
102
RTVSPropertyOp11
 70
     1
102
RTVSPropertyOp12
 70
     1
102
RTVSPropertyOp13
 70
     1
102
RTVSPropertyOp14
 70
     1
102
RTVSPropertyOp15
 70
     1
102
RTVSPropertyOp16
 70
     1
102
RTVSPropertyOp17
 70
     1
102
RTVSPropertyOp18
 70
     1
102
RTVSPropertyOp19
 70
     1
102
RTVSPropertyOp20
 70
     1
102
RTVSPropertyOp21
 70
     1
102
RTVSPropertyOp22
 70
     1
102
RTVSPropertyOp23
 70
     1
102
RTVSPropertyOp24
 70
     1
102
RTVSPropertyOp25
 70
     1
102
RTVSPropertyOp26
 70
     1
102
RTVSPropertyOp27
 70
     1
  0
XRECORD
  5
285
102
{ACAD_REACTORS
330
284
102
}
330
284
100
AcDbXrecord
280
     1
102
RTVSPropertyOp0
 70
     1
102
RTVSPropertyOp1
 70
     1
102
RTVSPropertyOp2
 70
     1
102
RTVSPropertyOp3
 70
     1
102
RTVSPropertyOp4
 70
     1
102
RTVSPropertyOp5
 70
     1
102
RTVSPropertyOp6
 70
     1
102
RTVSPropertyOp7
 70
     1
102
RTVSPropertyOp8
 70
     1
102
RTVSPropertyOp9
 70
     1
102
RTVSPropertyOp10
 70
     1
102
RTVSPropertyOp11
 70
     1
102
RTVSPropertyOp12
 70
     1
102
RTVSPropertyOp13
 70
     1
102
RTVSPropertyOp14
 70
     1
102
RTVSPropertyOp15
 70
     1
102
RTVSPropertyOp16
 70
     1
102
RTVSPropertyOp17
 70
     1
102
RTVSPropertyOp18
 70
     1
102
RTVSPropertyOp19
 70
     1
102
RTVSPropertyOp20
 70
     1
102
RTVSPropertyOp21
 70
     1
102
RTVSPropertyOp22
 70
     1
102
RTVSPropertyOp23
 70
     1
102
RTVSPropertyOp24
 70
     1
102
RTVSPropertyOp25
 70
     1
102
RTVSPropertyOp26
 70
     1
102
RTVSPropertyOp27
 70
     1
  0
XRECORD
  5
283
102
{ACAD_REACTORS
330
282
102
}
330
282
100
AcDbXrecord
280
     1
102
RTVSPropertyOp0
 70
     1
102
RTVSPropertyOp1
 70
     1
102
RTVSPropertyOp2
 70
     1
102
RTVSPropertyOp3
 70
     1
102
RTVSPropertyOp4
 70
     1
102
RTVSPropertyOp5
 70
     1
102
RTVSPropertyOp6
 70
     1
102
RTVSPropertyOp7
 70
     1
102
RTVSPropertyOp8
 70
     1
102
RTVSPropertyOp9
 70
     1
102
RTVSPropertyOp10
 70
     1
102
RTVSPropertyOp11
 70
     1
102
RTVSPropertyOp12
 70
     1
102
RTVSPropertyOp13
 70
     1
102
RTVSPropertyOp14
 70
     1
102
RTVSPropertyOp15
 70
     1
102
RTVSPropertyOp16
 70
     1
102
RTVSPropertyOp17
 70
     1
102
RTVSPropertyOp18
 70
     1
102
RTVSPropertyOp19
 70
     1
102
RTVSPropertyOp20
 70
     1
102
RTVSPropertyOp21
 70
     1
102
RTVSPropertyOp22
 70
     1
102
RTVSPropertyOp23
 70
     1
102
RTVSPropertyOp24
 70
     1
102
RTVSPropertyOp25
 70
     1
102
RTVSPropertyOp26
 70
     1
102
RTVSPropertyOp27
 70
     1
  0
XRECORD
  5
287
102
{ACAD_REACTORS
330
286
102
}
330
286
100
AcDbXrecord
280
     1
102
RTVSPropertyOp0
 70
     1
102
RTVSPropertyOp1
 70
     1
102
RTVSPropertyOp2
 70
     1
102
RTVSPropertyOp3
 70
     1
102
RTVSPropertyOp4
 70
     1
102
RTVSPropertyOp5
 70
     1
102
RTVSPropertyOp6
 70
     1
102
RTVSPropertyOp7
 70
     1
102
RTVSPropertyOp8
 70
     1
102
RTVSPropertyOp9
 70
     1
102
RTVSPropertyOp10
 70
     1
102
RTVSPropertyOp11
 70
     1
102
RTVSPropertyOp12
 70
     1
102
RTVSPropertyOp13
 70
     1
102
RTVSPropertyOp14
 70
     1
102
RTVSPropertyOp15
 70
     1
102
RTVSPropertyOp16
 70
     1
102
RTVSPropertyOp17
 70
     1
102
RTVSPropertyOp18
 70
     1
102
RTVSPropertyOp19
 70
     1
102
RTVSPropertyOp20
 70
     1
102
RTVSPropertyOp21
 70
     1
102
RTVSPropertyOp22
 70
     1
102
RTVSPropertyOp23
 70
     1
102
RTVSPropertyOp24
 70
     1
102
RTVSPropertyOp25
 70
     1
102
RTVSPropertyOp26
 70
     1
102
RTVSPropertyOp27
 70
     1
  0
XRECORD
  5
28F
102
{ACAD_REACTORS
330
28E
102
}
330
28E
100
AcDbXrecord
280
     1
102
RTVSPropertyOp0
 70
     1
102
RTVSPropertyOp1
 70
     1
102
RTVSPropertyOp2
 70
     1
102
RTVSPropertyOp3
 70
     1
102
RTVSPropertyOp4
 70
     1
102
RTVSPropertyOp5
 70
     1
102
RTVSPropertyOp6
 70
     1
102
RTVSPropertyOp7
 70
     1
102
RTVSPropertyOp8
 70
     1
102
RTVSPropertyOp9
 70
     1
102
RTVSPropertyOp10
 70
     1
102
RTVSPropertyOp11
 70
     1
102
RTVSPropertyOp12
 70
     1
102
RTVSPropertyOp13
 70
     1
102
RTVSPropertyOp14
 70
     1
102
RTVSPropertyOp15
 70
     1
102
RTVSPropertyOp16
 70
     1
102
RTVSPropertyOp17
 70
     1
102
RTVSPropertyOp18
 70
     1
102
RTVSPropertyOp19
 70
     1
102
RTVSPropertyOp20
 70
     1
102
RTVSPropertyOp21
 70
     1
102
RTVSPropertyOp22
 70
     1
102
RTVSPropertyOp23
 70
     1
102
RTVSPropertyOp24
 70
     1
102
RTVSPropertyOp25
 70
     1
102
RTVSPropertyOp26
 70
     1
102
RTVSPropertyOp27
 70
     1
  0
XRECORD
  5
297
102
{ACAD_REACTORS
330
296
102
}
330
296
100
AcDbXrecord
280
     1
102
RTVSPropertyOp0
 70
     1
102
RTVSPropertyOp1
 70
     1
102
RTVSPropertyOp2
 70
     1
102
RTVSPropertyOp3
 70
     1
102
RTVSPropertyOp4
 70
     1
102
RTVSPropertyOp5
 70
     1
102
RTVSPropertyOp6
 70
     1
102
RTVSPropertyOp7
 70
     1
102
RTVSPropertyOp8
 70
     1
102
RTVSPropertyOp9
 70
     1
102
RTVSPropertyOp10
 70
     1
102
RTVSPropertyOp11
 70
     1
102
RTVSPropertyOp12
 70
     1
102
RTVSPropertyOp13
 70
     1
102
RTVSPropertyOp14
 70
     1
102
RTVSPropertyOp15
 70
     1
102
RTVSPropertyOp16
 70
     1
102
RTVSPropertyOp17
 70
     1
102
RTVSPropertyOp18
 70
     1
102
RTVSPropertyOp19
 70
     1
102
RTVSPropertyOp20
 70
     1
102
RTVSPropertyOp21
 70
     1
102
RTVSPropertyOp22
 70
     1
102
RTVSPropertyOp23
 70
     1
102
RTVSPropertyOp24
 70
     1
102
RTVSPropertyOp25
 70
     1
102
RTVSPropertyOp26
 70
     1
102
RTVSPropertyOp27
 70
     1
  0
XRECORD
  5
28B
102
{ACAD_REACTORS
330
28A
102
}
330
28A
100
AcDbXrecord
280
     1
102
RTVSPropertyOp0
 70
     1
102
RTVSPropertyOp1
 70
     1
102
RTVSPropertyOp2
 70
     1
102
RTVSPropertyOp3
 70
     1
102
RTVSPropertyOp4
 70
     1
102
RTVSPropertyOp5
 70
     1
102
RTVSPropertyOp6
 70
     1
102
RTVSPropertyOp7
 70
     1
102
RTVSPropertyOp8
 70
     1
102
RTVSPropertyOp9
 70
     1
102
RTVSPropertyOp10
 70
     1
102
RTVSPropertyOp11
 70
     1
102
RTVSPropertyOp12
 70
     1
102
RTVSPropertyOp13
 70
     1
102
RTVSPropertyOp14
 70
     1
102
RTVSPropertyOp15
 70
     1
102
RTVSPropertyOp16
 70
     1
102
RTVSPropertyOp17
 70
     1
102
RTVSPropertyOp18
 70
     1
102
RTVSPropertyOp19
 70
     1
102
RTVSPropertyOp20
 70
     1
102
RTVSPropertyOp21
 70
     1
102
RTVSPropertyOp22
 70
     1
102
RTVSPropertyOp23
 70
     1
102
RTVSPropertyOp24
 70
     1
102
RTVSPropertyOp25
 70
     1
102
RTVSPropertyOp26
 70
     1
102
RTVSPropertyOp27
 70
     1
  0
XRECORD
  5
28D
102
{ACAD_REACTORS
330
28C
102
}
330
28C
100
AcDbXrecord
280
     1
102
RTVSPropertyOp0
 70
     1
102
RTVSPropertyOp1
 70
     1
102
RTVSPropertyOp2
 70
     1
102
RTVSPropertyOp3
 70
     1
102
RTVSPropertyOp4
 70
     1
102
RTVSPropertyOp5
 70
     1
102
RTVSPropertyOp6
 70
     1
102
RTVSPropertyOp7
 70
     1
102
RTVSPropertyOp8
 70
     1
102
RTVSPropertyOp9
 70
     1
102
RTVSPropertyOp10
 70
     1
102
RTVSPropertyOp11
 70
     1
102
RTVSPropertyOp12
 70
     1
102
RTVSPropertyOp13
 70
     1
102
RTVSPropertyOp14
 70
     1
102
RTVSPropertyOp15
 70
     1
102
RTVSPropertyOp16
 70
     1
102
RTVSPropertyOp17
 70
     1
102
RTVSPropertyOp18
 70
     1
102
RTVSPropertyOp19
 70
     1
102
RTVSPropertyOp20
 70
     1
102
RTVSPropertyOp21
 70
     1
102
RTVSPropertyOp22
 70
     1
102
RTVSPropertyOp23
 70
     1
102
RTVSPropertyOp24
 70
     1
102
RTVSPropertyOp25
 70
     1
102
RTVSPropertyOp26
 70
     1
102
RTVSPropertyOp27
 70
     1
  0
XRECORD
  5
295
102
{ACAD_REACTORS
330
294
102
}
330
294
100
AcDbXrecord
280
     1
102
RTVSPropertyOp0
 70
     1
102
RTVSPropertyOp1
 70
     1
102
RTVSPropertyOp2
 70
     1
102
RTVSPropertyOp3
 70
     1
102
RTVSPropertyOp4
 70
     1
102
RTVSPropertyOp5
 70
     1
102
RTVSPropertyOp6
 70
     1
102
RTVSPropertyOp7
 70
     1
102
RTVSPropertyOp8
 70
     1
102
RTVSPropertyOp9
 70
     1
102
RTVSPropertyOp10
 70
     1
102
RTVSPropertyOp11
 70
     1
102
RTVSPropertyOp12
 70
     1
102
RTVSPropertyOp13
 70
     1
102
RTVSPropertyOp14
 70
     1
102
RTVSPropertyOp15
 70
     1
102
RTVSPropertyOp16
 70
     1
102
RTVSPropertyOp17
 70
     1
102
RTVSPropertyOp18
 70
     1
102
RTVSPropertyOp19
 70
     1
102
RTVSPropertyOp20
 70
     1
102
RTVSPropertyOp21
 70
     1
102
RTVSPropertyOp22
 70
     1
102
RTVSPropertyOp23
 70
     1
102
RTVSPropertyOp24
 70
     1
102
RTVSPropertyOp25
 70
     1
102
RTVSPropertyOp26
 70
     1
102
RTVSPropertyOp27
 70
     1
  0
XRECORD
  5
279
102
{ACAD_REACTORS
330
278
102
}
330
278
100
AcDbXrecord
280
     1
102
RTVSPropertyOp0
 70
     1
102
RTVSPropertyOp1
 70
     1
102
RTVSPropertyOp2
 70
     1
102
RTVSPropertyOp3
 70
     1
102
RTVSPropertyOp4
 70
     1
102
RTVSPropertyOp5
 70
     1
102
RTVSPropertyOp6
 70
     1
102
RTVSPropertyOp7
 70
     1
102
RTVSPropertyOp8
 70
     1
102
RTVSPropertyOp9
 70
     1
102
RTVSPropertyOp10
 70
     1
102
RTVSPropertyOp11
 70
     1
102
RTVSPropertyOp12
 70
     1
102
RTVSPropertyOp13
 70
     1
102
RTVSPropertyOp14
 70
     1
102
RTVSPropertyOp15
 70
     1
102
RTVSPropertyOp16
 70
     1
102
RTVSPropertyOp17
 70
     1
102
RTVSPropertyOp18
 70
     1
102
RTVSPropertyOp19
 70
     1
102
RTVSPropertyOp20
 70
     1
102
RTVSPropertyOp21
 70
     1
102
RTVSPropertyOp22
 70
     1
102
RTVSPropertyOp23
 70
     1
102
RTVSPropertyOp24
 70
     1
102
RTVSPropertyOp25
 70
     1
102
RTVSPropertyOp26
 70
     1
102
RTVSPropertyOp27
 70
     1
  0
XRECORD
  5
27B
102
{ACAD_REACTORS
330
27A
102
}
330
27A
100
AcDbXrecord
280
     1
102
RTVSPropertyOp0
 70
     1
102
RTVSPropertyOp1
 70
     1
102
RTVSPropertyOp2
 70
     1
102
RTVSPropertyOp3
 70
     1
102
RTVSPropertyOp4
 70
     1
102
RTVSPropertyOp5
 70
     1
102
RTVSPropertyOp6
 70
     1
102
RTVSPropertyOp7
 70
     1
102
RTVSPropertyOp8
 70
     1
102
RTVSPropertyOp9
 70
     1
102
RTVSPropertyOp10
 70
     1
102
RTVSPropertyOp11
 70
     1
102
RTVSPropertyOp12
 70
     1
102
RTVSPropertyOp13
 70
     1
102
RTVSPropertyOp14
 70
     1
102
RTVSPropertyOp15
 70
     1
102
RTVSPropertyOp16
 70
     1
102
RTVSPropertyOp17
 70
     1
102
RTVSPropertyOp18
 70
     1
102
RTVSPropertyOp19
 70
     1
102
RTVSPropertyOp20
 70
     1
102
RTVSPropertyOp21
 70
     1
102
RTVSPropertyOp22
 70
     1
102
RTVSPropertyOp23
 70
     1
102
RTVSPropertyOp24
 70
     1
102
RTVSPropertyOp25
 70
     1
102
RTVSPropertyOp26
 70
     1
102
RTVSPropertyOp27
 70
     1
  0
XRECORD
  5
27D
102
{ACAD_REACTORS
330
27C
102
}
330
27C
100
AcDbXrecord
280
     1
102
RTVSPropertyOp0
 70
     1
102
RTVSPropertyOp1
 70
     1
102
RTVSPropertyOp2
 70
     1
102
RTVSPropertyOp3
 70
     1
102
RTVSPropertyOp4
 70
     1
102
RTVSPropertyOp5
 70
     1
102
RTVSPropertyOp6
 70
     1
102
RTVSPropertyOp7
 70
     1
102
RTVSPropertyOp8
 70
     1
102
RTVSPropertyOp9
 70
     1
102
RTVSPropertyOp10
 70
     1
102
RTVSPropertyOp11
 70
     1
102
RTVSPropertyOp12
 70
     1
102
RTVSPropertyOp13
 70
     1
102
RTVSPropertyOp14
 70
     1
102
RTVSPropertyOp15
 70
     1
102
RTVSPropertyOp16
 70
     1
102
RTVSPropertyOp17
 70
     1
102
RTVSPropertyOp18
 70
     1
102
RTVSPropertyOp19
 70
     1
102
RTVSPropertyOp20
 70
     1
102
RTVSPropertyOp21
 70
     1
102
RTVSPropertyOp22
 70
     1
102
RTVSPropertyOp23
 70
     1
102
RTVSPropertyOp24
 70
     1
102
RTVSPropertyOp25
 70
     1
102
RTVSPropertyOp26
 70
     1
102
RTVSPropertyOp27
 70
     1
  0
XRECORD
  5
27F
102
{ACAD_REACTORS
330
27E
102
}
330
27E
100
AcDbXrecord
280
     1
102
RTVSPropertyOp0
 70
     1
102
RTVSPropertyOp1
 70
     1
102
RTVSPropertyOp2
 70
     1
102
RTVSPropertyOp3
 70
     1
102
RTVSPropertyOp4
 70
     1
102
RTVSPropertyOp5
 70
     1
102
RTVSPropertyOp6
 70
     1
102
RTVSPropertyOp7
 70
     1
102
RTVSPropertyOp8
 70
     1
102
RTVSPropertyOp9
 70
     1
102
RTVSPropertyOp10
 70
     1
102
RTVSPropertyOp11
 70
     1
102
RTVSPropertyOp12
 70
     1
102
RTVSPropertyOp13
 70
     1
102
RTVSPropertyOp14
 70
     1
102
RTVSPropertyOp15
 70
     1
102
RTVSPropertyOp16
 70
     1
102
RTVSPropertyOp17
 70
     1
102
RTVSPropertyOp18
 70
     1
102
RTVSPropertyOp19
 70
     1
102
RTVSPropertyOp20
 70
     1
102
RTVSPropertyOp21
 70
     1
102
RTVSPropertyOp22
 70
     1
102
RTVSPropertyOp23
 70
     1
102
RTVSPropertyOp24
 70
     1
102
RTVSPropertyOp25
 70
     1
102
RTVSPropertyOp26
 70
     1
102
RTVSPropertyOp27
 70
     1
  0
XRECORD
  5
293
102
{ACAD_REACTORS
330
292
102
}
330
292
100
AcDbXrecord
280
     1
102
RTVSPropertyOp0
 70
     1
102
RTVSPropertyOp1
 70
     1
102
RTVSPropertyOp2
 70
     1
102
RTVSPropertyOp3
 70
     1
102
RTVSPropertyOp4
 70
     1
102
RTVSPropertyOp5
 70
     1
102
RTVSPropertyOp6
 70
     1
102
RTVSPropertyOp7
 70
     1
102
RTVSPropertyOp8
 70
     1
102
RTVSPropertyOp9
 70
     1
102
RTVSPropertyOp10
 70
     1
102
RTVSPropertyOp11
 70
     1
102
RTVSPropertyOp12
 70
     1
102
RTVSPropertyOp13
 70
     1
102
RTVSPropertyOp14
 70
     1
102
RTVSPropertyOp15
 70
     1
102
RTVSPropertyOp16
 70
     1
102
RTVSPropertyOp17
 70
     1
102
RTVSPropertyOp18
 70
     1
102
RTVSPropertyOp19
 70
     1
102
RTVSPropertyOp20
 70
     1
102
RTVSPropertyOp21
 70
     1
102
RTVSPropertyOp22
 70
     1
102
RTVSPropertyOp23
 70
     1
102
RTVSPropertyOp24
 70
     1
102
RTVSPropertyOp25
 70
     1
102
RTVSPropertyOp26
 70
     1
102
RTVSPropertyOp27
 70
     1
  0
XRECORD
  5
289
102
{ACAD_REACTORS
330
288
102
}
330
288
100
AcDbXrecord
280
     1
102
RTVSPropertyOp0
 70
     1
102
RTVSPropertyOp1
 70
     1
102
RTVSPropertyOp2
 70
     1
102
RTVSPropertyOp3
 70
     1
102
RTVSPropertyOp4
 70
     1
102
RTVSPropertyOp5
 70
     1
102
RTVSPropertyOp6
 70
     1
102
RTVSPropertyOp7
 70
     1
102
RTVSPropertyOp8
 70
     1
102
RTVSPropertyOp9
 70
     1
102
RTVSPropertyOp10
 70
     1
102
RTVSPropertyOp11
 70
     1
102
RTVSPropertyOp12
 70
     1
102
RTVSPropertyOp13
 70
     1
102
RTVSPropertyOp14
 70
     1
102
RTVSPropertyOp15
 70
     1
102
RTVSPropertyOp16
 70
     1
102
RTVSPropertyOp17
 70
     1
102
RTVSPropertyOp18
 70
     1
102
RTVSPropertyOp19
 70
     1
102
RTVSPropertyOp20
 70
     1
102
RTVSPropertyOp21
 70
     1
102
RTVSPropertyOp22
 70
     1
102
RTVSPropertyOp23
 70
     1
102
RTVSPropertyOp24
 70
     1
102
RTVSPropertyOp25
 70
     1
102
RTVSPropertyOp26
 70
     1
102
RTVSPropertyOp27
 70
     1
  0
XRECORD
  5
291
102
{ACAD_REACTORS
330
290
102
}
330
290
100
AcDbXrecord
280
     1
102
RTVSPropertyOp0
 70
     1
102
RTVSPropertyOp1
 70
     1
102
RTVSPropertyOp2
 70
     1
102
RTVSPropertyOp3
 70
     1
102
RTVSPropertyOp4
 70
     1
102
RTVSPropertyOp5
 70
     1
102
RTVSPropertyOp6
 70
     1
102
RTVSPropertyOp7
 70
     1
102
RTVSPropertyOp8
 70
     1
102
RTVSPropertyOp9
 70
     1
102
RTVSPropertyOp10
 70
     1
102
RTVSPropertyOp11
 70
     1
102
RTVSPropertyOp12
 70
     1
102
RTVSPropertyOp13
 70
     1
102
RTVSPropertyOp14
 70
     1
102
RTVSPropertyOp15
 70
     1
102
RTVSPropertyOp16
 70
     1
102
RTVSPropertyOp17
 70
     1
102
RTVSPropertyOp18
 70
     1
102
RTVSPropertyOp19
 70
     1
102
RTVSPropertyOp20
 70
     1
102
RTVSPropertyOp21
 70
     1
102
RTVSPropertyOp22
 70
     1
102
RTVSPropertyOp23
 70
     1
102
RTVSPropertyOp24
 70
     1
102
RTVSPropertyOp25
 70
     1
102
RTVSPropertyOp26
 70
     1
102
RTVSPropertyOp27
 70
     1
  0
ENDSEC
  0
EOF
