  0
SECTION
  2
HEADER
  9
$ACADVER
  1
AC1015
  9
$ACADMAINTVER
 70
    20
  9
$DWGCODEPAGE
  3
ANSI_1252
  9
$INSBASE
 10
0.0
 20
0.0
 30
0.0
  9
$EXTMIN
 10
-1.000000000000000E+20
 20
-1.000000000000000E+20
 30
-1.000000000000000E+20
  9
$EXTMAX
 10
1.000000000000000E+20
 20
1.000000000000000E+20
 30
1.000000000000000E+20
  9
$LIMMIN
 10
0.0
 20
0.0
  9
$LIMMAX
 10
12.0
 20
9.0
  9
$ORTHOMODE
 70
     0
  9
$REGENMODE
 70
     1
  9
$FILLMODE
 70
     1
  9
$QTEXTMODE
 70
     0
  9
$MIRRTEXT
 70
     1
  9
$LTSCALE
 40
5.0
  9
$ATTMODE
 70
     1
  9
$TEXTSIZE
 40
0.2
  9
$TRACEWID
 40
0.05
  9
$TEXTSTYLE
  7
Standard
  9
$CLAYER
  8
Specialized_Lines
  9
$CELTYPE
  6
PLASTER
  9
$CECOLOR
 62
   256
  9
$CELTSCALE
 40
3.0
  9
$DISPSILH
 70
     0
  9
$DIMSCALE
 40
1.0
  9
$DIMASZ
 40
0.18
  9
$DIMEXO
 40
0.0625
  9
$DIMDLI
 40
0.38
  9
$DIMRND
 40
0.0
  9
$DIMDLE
 40
0.0
  9
$DIMEXE
 40
0.18
  9
$DIMTP
 40
0.0
  9
$DIMTM
 40
0.0
  9
$DIMTXT
 40
0.18
  9
$DIMCEN
 40
0.09
  9
$DIMTSZ
 40
0.0
  9
$DIMTOL
 70
     0
  9
$DIMLIM
 70
     0
  9
$DIMTIH
 70
     1
  9
$DIMTOH
 70
     1
  9
$DIMSE1
 70
     0
  9
$DIMSE2
 70
     0
  9
$DIMTAD
 70
     0
  9
$DIMZIN
 70
     0
  9
$DIMBLK
  1

  9
$DIMASO
 70
     1
  9
$DIMSHO
 70
     1
  9
$DIMPOST
  1

  9
$DIMAPOST
  1

  9
$DIMALT
 70
     0
  9
$DIMALTD
 70
     2
  9
$DIMALTF
 40
25.4
  9
$DIMLFAC
 40
1.0
  9
$DIMTOFL
 70
     0
  9
$DIMTVP
 40
0.0
  9
$DIMTIX
 70
     0
  9
$DIMSOXD
 70
     0
  9
$DIMSAH
 70
     0
  9
$DIMBLK1
  1

  9
$DIMBLK2
  1

  9
$DIMSTYLE
  2
Standard
  9
$DIMCLRD
 70
     0
  9
$DIMCLRE
 70
     0
  9
$DIMCLRT
 70
     0
  9
$DIMTFAC
 40
1.0
  9
$DIMGAP
 40
0.09
  9
$DIMJUST
 70
     0
  9
$DIMSD1
 70
     0
  9
$DIMSD2
 70
     0
  9
$DIMTOLJ
 70
     1
  9
$DIMTZIN
 70
     0
  9
$DIMALTZ
 70
     0
  9
$DIMALTTZ
 70
     0
  9
$DIMUPT
 70
     0
  9
$DIMDEC
 70
     4
  9
$DIMTDEC
 70
     4
  9
$DIMALTU
 70
     2
  9
$DIMALTTD
 70
     2
  9
$DIMTXSTY
  7
Standard
  9
$DIMAUNIT
 70
     0
  9
$DIMADEC
 70
     0
  9
$DIMALTRND
 40
0.0
  9
$DIMAZIN
 70
     0
  9
$DIMDSEP
 70
    46
  9
$DIMATFIT
 70
     3
  9
$DIMFRAC
 70
     0
  9
$DIMLDRBLK
  1

  9
$DIMLUNIT
 70
     2
  9
$DIMLWD
 70
    -2
  9
$DIMLWE
 70
    -2
  9
$DIMTMOVE
 70
     0
  9
$LUNITS
 70
     2
  9
$LUPREC
 70
     4
  9
$SKETCHINC
 40
0.1
  9
$FILLETRAD
 40
0.5
  9
$AUNITS
 70
     0
  9
$AUPREC
 70
     0
  9
$MENU
  1
.
  9
$ELEVATION
 40
0.0
  9
$PELEVATION
 40
0.0
  9
$THICKNESS
 40
0.0
  9
$LIMCHECK
 70
     0
  9
$CHAMFERA
 40
0.5
  9
$CHAMFERB
 40
0.5
  9
$CHAMFERC
 40
1.0
  9
$CHAMFERD
 40
0.0
  9
$SKPOLY
 70
     0
  9
$TDCREATE
 40
2456216.553107732
  9
$TDUCREATE
 40
2456216.011441065
  9
$TDUPDATE
 40
2457071.451710070
  9
$TDUUPDATE
 40
2457070.910043403
  9
$TDINDWG
 40
0.0230177662
  9
$TDUSRTIMER
 40
0.0230177662
  9
$USRTIMER
 70
     1
  9
$ANGBASE
 50
0.0
  9
$ANGDIR
 70
     0
  9
$PDMODE
 70
     0
  9
$PDSIZE
 40
0.0
  9
$PLINEWID
 40
0.0
  9
$SPLFRAME
 70
     0
  9
$SPLINETYPE
 70
     6
  9
$SPLINESEGS
 70
     8
  9
$HANDSEED
  5
7CE
  9
$SURFTAB1
 70
     6
  9
$SURFTAB2
 70
     6
  9
$SURFTYPE
 70
     6
  9
$SURFU
 70
     6
  9
$SURFV
 70
     6
  9
$UCSBASE
  2

  9
$UCSNAME
  2

  9
$UCSORG
 10
0.0
 20
0.0
 30
0.0
  9
$UCSXDIR
 10
1.0
 20
0.0
 30
0.0
  9
$UCSYDIR
 10
0.0
 20
1.0
 30
0.0
  9
$UCSORTHOREF
  2

  9
$UCSORTHOVIEW
 70
     0
  9
$UCSORGTOP
 10
0.0
 20
0.0
 30
0.0
  9
$UCSORGBOTTOM
 10
0.0
 20
0.0
 30
0.0
  9
$UCSORGLEFT
 10
0.0
 20
0.0
 30
0.0
  9
$UCSORGRIGHT
 10
0.0
 20
0.0
 30
0.0
  9
$UCSORGFRONT
 10
0.0
 20
0.0
 30
0.0
  9
$UCSORGBACK
 10
0.0
 20
0.0
 30
0.0
  9
$PUCSBASE
  2

  9
$PUCSNAME
  2

  9
$PUCSORG
 10
0.0
 20
0.0
 30
0.0
  9
$PUCSXDIR
 10
1.0
 20
0.0
 30
0.0
  9
$PUCSYDIR
 10
0.0
 20
1.0
 30
0.0
  9
$PUCSORTHOREF
  2

  9
$PUCSORTHOVIEW
 70
     0
  9
$PUCSORGTOP
 10
0.0
 20
0.0
 30
0.0
  9
$PUCSORGBOTTOM
 10
0.0
 20
0.0
 30
0.0
  9
$PUCSORGLEFT
 10
0.0
 20
0.0
 30
0.0
  9
$PUCSORGRIGHT
 10
0.0
 20
0.0
 30
0.0
  9
$PUCSORGFRONT
 10
0.0
 20
0.0
 30
0.0
  9
$PUCSORGBACK
 10
0.0
 20
0.0
 30
0.0
  9
$USERI1
 70
     0
  9
$USERI2
 70
     0
  9
$USERI3
 70
     0
  9
$USERI4
 70
     0
  9
$USERI5
 70
     0
  9
$USERR1
 40
0.0
  9
$USERR2
 40
0.0
  9
$USERR3
 40
0.0
  9
$USERR4
 40
0.0
  9
$USERR5
 40
0.0
  9
$WORLDVIEW
 70
     1
  9
$SHADEDGE
 70
     3
  9
$SHADEDIF
 70
    70
  9
$TILEMODE
 70
     1
  9
$MAXACTVP
 70
    64
  9
$PINSBASE
 10
0.0
 20
0.0
 30
0.0
  9
$PLIMCHECK
 70
     0
  9
$PEXTMIN
 10
1.000000000000000E+20
 20
1.000000000000000E+20
 30
1.000000000000000E+20
  9
$PEXTMAX
 10
-1.000000000000000E+20
 20
-1.000000000000000E+20
 30
-1.000000000000000E+20
  9
$PLIMMIN
 10
0.0
 20
0.0
  9
$PLIMMAX
 10
12.0
 20
9.0
  9
$UNITMODE
 70
     0
  9
$VISRETAIN
 70
     1
  9
$PLINEGEN
 70
     0
  9
$PSLTSCALE
 70
     1
  9
$TREEDEPTH
 70
  3020
  9
$CMLSTYLE
  2
Standard
  9
$CMLJUST
 70
     0
  9
$CMLSCALE
 40
1.0
  9
$PROXYGRAPHICS
 70
     1
  9
$MEASUREMENT
 70
     0
  9
$CELWEIGHT
370
    -1
  9
$ENDCAPS
280
     0
  9
$JOINSTYLE
280
     0
  9
$LWDISPLAY
290
     1
  9
$INSUNITS
 70
     0
  9
$HYPERLINKBASE
  1

  9
$STYLESHEET
  1

  9
$XEDIT
290
     1
  9
$CEPSNTYPE
380
     0
  9
$PSTYLEMODE
290
     1
  9
$FINGERPRINTGUID
  2
{48E7DE08-EFCC-4666-9A32-88E4F0CB6844}
  9
$VERSIONGUID
  2
{41F0BE4C-5FC6-4E3E-9242-EB04221976BF}
  9
$EXTNAMES
290
     1
  9
$PSVPSCALE
 40
0.0
  9
$OLESTARTUP
290
     0
  0
ENDSEC
  0
SECTION
  2
CLASSES
  0
CLASS
  1
ACDBDICTIONARYWDFLT
  2
AcDbDictionaryWithDefault
  3
ObjectDBX Classes
 90
        0
280
     0
281
     0
  0
CLASS
  1
VISUALSTYLE
  2
AcDbVisualStyle
  3
ObjectDBX Classes
 90
     4095
280
     0
281
     0
  0
CLASS
  1
MATERIAL
  2
AcDbMaterial
  3
ObjectDBX Classes
 90
     1153
280
     0
281
     0
  0
CLASS
  1
SCALE
  2
AcDbScale
  3
ObjectDBX Classes
 90
     1153
280
     0
281
     0
  0
CLASS
  1
DICTIONARYVAR
  2
AcDbDictionaryVar
  3
ObjectDBX Classes
 90
        0
280
     0
281
     0
  0
CLASS
  1
TABLESTYLE
  2
AcDbTableStyle
  3
ObjectDBX Classes
 90
     4095
280
     0
281
     0
  0
CLASS
  1
MLEADERSTYLE
  2
AcDbMLeaderStyle
  3
ACDB_MLEADERSTYLE_CLASS
 90
     4095
280
     0
281
     0
  0
CLASS
  1
ACDBSECTIONVIEWSTYLE
  2
AcDbSectionViewStyle
  3
ObjectDBX Classes
 90
     1025
280
     0
281
     0
  0
CLASS
  1
ACDBDETAILVIEWSTYLE
  2
AcDbDetailViewStyle
  3
ObjectDBX Classes
 90
     1025
280
     0
281
     0
  0
CLASS
  1
EXACXREFPANELOBJECT
  2
ExAcXREFPanelObject
  3
EXAC_ESW
 90
     1025
280
     0
281
     0
  0
CLASS
  1
NPOCOLLECTION
  2
AcDbImpNonPersistentObjectsCollection
  3
ObjectDBX Classes
 90
     1153
280
     0
281
     0
  0
CLASS
  1
IMAGE
  2
AcDbRasterImage
  3
ISM
 90
    34943
280
     0
281
     1
  0
CLASS
  1
IMAGEDEF_REACTOR
  2
AcDbRasterImageDefReactor
  3
ISM
 90
        1
280
     0
281
     0
  0
CLASS
  1
SORTENTSTABLE
  2
AcDbSortentsTable
  3
ObjectDBX Classes
 90
        0
280
     0
281
     0
  0
CLASS
  1
IMAGEDEF
  2
AcDbRasterImageDef
  3
ISM
 90
    32768
280
     0
281
     0
  0
CLASS
  1
RASTERVARIABLES
  2
AcDbRasterVariables
  3
ISM
 90
        0
280
     0
281
     0
  0
CLASS
  1
ACDBASSOCNETWORK
  2
AcDbAssocNetwork
  3
ObjectDBX Classes
 90
     1025
280
     0
281
     0
  0
CLASS
  1
ACDBASSOC2DCONSTRAINTGROUP
  2
AcDbAssoc2dConstraintGroup
  3
ObjectDBX Classes
 90
     1025
280
     0
281
     0
  0
CLASS
  1
ACDBASSOCGEOMDEPENDENCY
  2
AcDbAssocGeomDependency
  3
ObjectDBX Classes
 90
     1025
280
     0
281
     0
  0
CLASS
  1
ACAD_EVALUATION_GRAPH
  2
AcDbEvalGraph
  3
ObjectDBX Classes
 90
    33921
280
     0
281
     0
  0
CLASS
  1
ACAECUSTOBJ
  2
AcAeEditorObj
  3
AcAeEditorObj
 90
    33792
280
     0
281
     0
  0
CLASS
  1
ACDB_DYNAMICBLOCKPURGEPREVENTER_VERSION
  2
AcDbDynamicBlockPurgePreventer
  3
ObjectDBX Classes
 90
     1153
280
     0
281
     0
  0
CLASS
  1
PDFUNDERLAY
  2
AcDbPdfReference
  3
ObjectDBX Classes
 90
     4095
280
     0
281
     1
  0
CLASS
  1
PDFDEFINITION
  2
AcDbPdfDefinition
  3
ObjectDBX Classes
 90
    33921
280
     0
281
     0
  0
CLASS
  1
SPATIAL_FILTER
  2
AcDbSpatialFilter
  3
ObjectDBX Classes
 90
        0
280
     0
281
     0
  0
CLASS
  1
CELLSTYLEMAP
  2
AcDbCellStyleMap
  3
ObjectDBX Classes
 90
     1152
280
     0
281
     0
  0
CLASS
  1
ACDBPLACEHOLDER
  2
AcDbPlaceHolder
  3
ObjectDBX Classes
 90
        0
280
     0
281
     0
  0
CLASS
  1
LAYOUT
  2
AcDbLayout
  3
ObjectDBX Classes
 90
        0
280
     0
281
     0
  0
ENDSEC
  0
SECTION
  2
TABLES
  0
TABLE
  2
VPORT
  5
8
330
0
100
AcDbSymbolTable
 70
     1
  0
VPORT
  5
29
330
8
100
AcDbSymbolTableRecord
100
AcDbViewportTableRecord
  2
*Active
 70
     0
 10
0.0
 20
0.0
 11
1.0
 21
1.0
 12
491.3544983965111
 22
254.1295459790484
 13
0.0
 23
0.0
 14
0.5
 24
0.5
 15
0.5
 25
0.5
 16
0.0
 26
0.0
 36
1.0
 17
0.0
 27
0.0
 37
0.0
 40
607.2691649618342
 41
1.710191082802547
 42
50.0
 43
0.0
 44
0.0
 50
0.0
 51
0.0
 71
     0
 72
   100
 73
     1
 74
     3
 75
     0
 76
     0
 77
     0
 78
     0
281
     0
 65
     1
110
0.0
120
0.0
130
0.0
111
1.0
121
0.0
131
0.0
112
0.0
122
1.0
132
0.0
 79
     0
146
0.0
1001
ACAD_NAV_VCDISPLAY
1070
     3
  0
ENDTAB
  0
TABLE
  2
LTYPE
  5
5
330
0
100
AcDbSymbolTable
 70
     6
  0
LTYPE
  5
14
330
5
100
AcDbSymbolTableRecord
100
AcDbLinetypeTableRecord
  2
ByBlock
 70
     0
  3

 72
    65
 73
     0
 40
0.0
  0
LTYPE
  5
15
330
5
100
AcDbSymbolTableRecord
100
AcDbLinetypeTableRecord
  2
ByLayer
 70
     0
  3

 72
    65
 73
     0
 40
0.0
  0
LTYPE
  5
16
330
5
100
AcDbSymbolTableRecord
100
AcDbLinetypeTableRecord
  2
Continuous
 70
     0
  3
Solid line
 72
    65
 73
     0
 40
0.0
  0
LTYPE
  5
15E
330
5
100
AcDbSymbolTableRecord
100
AcDbLinetypeTableRecord
  2
Sketch
 70
     0
  3
??????????
 72
    65
 73
     3
 40
40.0
 49
0.0
 74
     4
 75
     1
340
15F
 46
0.3174603174603174
 50
0.0
 44
0.0
 45
0.0
 49
-40.0
 74
     0
 49
0.0
 74
     0
  0
LTYPE
  5
173
330
5
100
AcDbSymbolTableRecord
100
AcDbLinetypeTableRecord
  2
Hidden
 70
     0
  3
- - - - - 
 72
    65
 73
     2
 40
4.938889980316162
 49
2.822222709655761
 74
     0
 49
-2.1166672706604
 74
     0
  0
LTYPE
  5
20A
330
5
100
AcDbSymbolTableRecord
100
AcDbLinetypeTableRecord
  2
ZIGZAG
 70
     0
  3
Zig zag /\/\/\/\/\/\/\/\/\/\/\/\/\/\/\/\/\/\/\/
 72
    65
 73
     4
 40
0.8001000000000001
 49
0.0001
 74
     0
 49
-0.2
 74
     4
 75
   131
340
20F
 46
0.2
 50
0.0
 44
-0.2
 45
0.0
 49
-0.4
 74
     4
 75
   131
340
20F
 46
0.2
 50
180.0
 44
0.2
 45
0.0
 49
-0.2
 74
     0
  0
LTYPE
  5
20B
330
5
100
AcDbSymbolTableRecord
100
AcDbLinetypeTableRecord
  2
DASHEDX2
 70
     0
  3
Dashed (2x) ____  ____  ____  ____  ____  ___
 72
    65
 73
     2
 40
1.5
 49
1.0
 74
     0
 49
-0.5
 74
     0
  0
LTYPE
  5
2EC
330
5
100
AcDbSymbolTableRecord
100
AcDbLinetypeTableRecord
  2
PLASTER
 70
     0
  3
PLASTER
 72
    65
 73
     2
 40
2.379214999999999
 49
0.000024
 74
     4
 75
     1
340
2ED
 46
0.2
 50
0.0
 44
0.0
 45
0.0
 49
-2.379191
 74
     0
  0
ENDTAB
  0
TABLE
  2
LAYER
  5
2
102
{ACAD_XDICTIONARY
360
216
102
}
330
0
100
AcDbSymbolTable
 70
     8
  0
LAYER
  5
10
102
{ACAD_XDICTIONARY
360
241
102
}
330
2
100
AcDbSymbolTableRecord
100
AcDbLayerTableRecord
  2
0
 70
     0
 62
     7
  6
Continuous
370
    -3
390
F
  0
LAYER
  5
40
102
{ACAD_XDICTIONARY
360
243
102
}
330
2
100
AcDbSymbolTableRecord
100
AcDbLayerTableRecord
  2
Specialized_Fills
 70
     0
 62
     7
  6
Continuous
370
    -3
390
F
  0
LAYER
  5
170
102
{ACAD_XDICTIONARY
360
245
102
}
330
2
100
AcDbSymbolTableRecord
100
AcDbLayerTableRecord
  2
Specialized_Lines
 70
     0
 62
     7
  6
Continuous
370
    -3
390
F
  0
LAYER
  5
1A3
102
{ACAD_XDICTIONARY
360
247
102
}
330
2
100
AcDbSymbolTableRecord
100
AcDbLayerTableRecord
  2
Specialized_Text
 70
     0
 62
     7
  6
Continuous
370
    -3
390
F
  0
LAYER
  5
20C
102
{ACAD_XDICTIONARY
360
20D
102
}
330
2
100
AcDbSymbolTableRecord
100
AcDbLayerTableRecord
  2
Viewport
 70
     0
 62
     7
  6
Continuous
370
    -3
390
F
1001
AcAecLayerStandard
1000

1000

1001
AcCmTransparency
1071
        0
  0
LAYER
  5
493
330
2
100
AcDbSymbolTableRecord
100
AcDbLayerTableRecord
  2
Defpoints
 70
     0
 62
     7
  6
Continuous
290
     0
370
    -3
390
F
  0
LAYER
  5
595
330
2
100
AcDbSymbolTableRecord
100
AcDbLayerTableRecord
  2
eps
 70
     0
 62
   254
  6
Continuous
370
    -3
390
F
1001
AcAecLayerStandard
1000

1000

1001
AcCmTransparency
1071
        0
  0
LAYER
  5
6B5
102
{ACAD_XDICTIONARY
360
6B6
102
}
330
2
100
AcDbSymbolTableRecord
100
AcDbLayerTableRecord
  2
TEXT
 70
     0
 62
    18
  6
Continuous
370
     0
390
F
1001
AcCmTransparency
1071
 33554687
  0
ENDTAB
  0
TABLE
  2
STYLE
  5
3
330
0
100
AcDbSymbolTable
 70
     6
  0
STYLE
  5
11
330
3
100
AcDbSymbolTableRecord
100
AcDbTextStyleTableRecord
  2
Standard
 70
     0
 40
0.0
 41
1.0
 50
0.0
 71
     0
 42
0.2
  3
txt
  4
BIGFONT.SHX
  0
STYLE
  5
15F
330
3
100
AcDbSymbolTableRecord
100
AcDbTextStyleTableRecord
  2

 70
     1
 40
0.2
 41
1.0
 50
0.0
 71
     0
 42
0.2
  3
18F Wall_ Horizontal Joint - ABOVE SCHIST1.Shx
  4

  0
STYLE
  5
18C
330
3
100
AcDbSymbolTableRecord
100
AcDbTextStyleTableRecord
  2
GENERATED_STYLE_1
 70
     0
 40
0.0
 41
1.0
 50
0.0
 71
     0
 42
0.2
  3
ARIALUNI.TTF
  4

1001
ACAD
1000
Arial Unicode MS
1071
       34
  0
STYLE
  5
20E
330
3
100
AcDbSymbolTableRecord
100
AcDbTextStyleTableRecord
  2
GENERATED_STYLE_2
 70
     0
 40
0.0
 41
1.0
 50
0.0
 71
     0
 42
0.2
  3
ARIALUNI.TTF
  4

1001
ACAD
1000
Arial Unicode MS
1071
       34
  0
STYLE
  5
20F
330
3
100
AcDbSymbolTableRecord
100
AcDbTextStyleTableRecord
  2

 70
     1
 40
0.0
 41
1.0
 50
0.0
 71
     0
 42
0.2
  3
ltypeshp.shx
  4

  0
STYLE
  5
2ED
330
3
100
AcDbSymbolTableRecord
100
AcDbTextStyleTableRecord
  2

 70
     1
 40
0.0
 41
1.0
 50
0.0
 71
     0
 42
0.2
  3
P:\VERT-X CONSULTING LTD\2013\10 OCT\1310-015- SPECIALIZED CONSTRUCTION PRODUCTS - CONTRACT DRAUGHTING\DRAWINGS\PLASTER.SHX
  4

  0
ENDTAB
  0
TABLE
  2
VIEW
  5
6
330
0
100
AcDbSymbolTable
 70
     0
  0
ENDTAB
  0
TABLE
  2
UCS
  5
7
330
0
100
AcDbSymbolTable
 70
     0
  0
ENDTAB
  0
TABLE
  2
APPID
  5
9
330
0
100
AcDbSymbolTable
 70
    20
  0
APPID
  5
12
330
9
100
AcDbSymbolTableRecord
100
AcDbRegAppTableRecord
  2
ACAD
 70
     0
  0
APPID
  5
210
330
9
100
AcDbSymbolTableRecord
100
AcDbRegAppTableRecord
  2
ACAD_PSEXT
 70
     0
  0
APPID
  5
211
330
9
100
AcDbSymbolTableRecord
100
AcDbRegAppTableRecord
  2
ACAD_NAV_VCDISPLAY
 70
     0
  0
APPID
  5
212
330
9
100
AcDbSymbolTableRecord
100
AcDbRegAppTableRecord
  2
AcAecLayerStandard
 70
     0
  0
APPID
  5
213
330
9
100
AcDbSymbolTableRecord
100
AcDbRegAppTableRecord
  2
AcCmTransparency
 70
     0
  0
APPID
  5
214
330
9
100
AcDbSymbolTableRecord
100
AcDbRegAppTableRecord
  2
GradientColor1ACI
 70
     0
  0
APPID
  5
215
330
9
100
AcDbSymbolTableRecord
100
AcDbRegAppTableRecord
  2
GradientColor2ACI
 70
     0
  0
APPID
  5
25C
330
9
100
AcDbSymbolTableRecord
100
AcDbRegAppTableRecord
  2
ACAD_EXEMPT_FROM_CAD_STANDARDS
 70
     0
  0
APPID
  5
28E
330
9
100
AcDbSymbolTableRecord
100
AcDbRegAppTableRecord
  2
ACAUTHENVIRON
 70
     0
  0
APPID
  5
29F
330
9
100
AcDbSymbolTableRecord
100
AcDbRegAppTableRecord
  2
AcDbDynamicBlockTrueName
 70
     0
  0
APPID
  5
2A0
330
9
100
AcDbSymbolTableRecord
100
AcDbRegAppTableRecord
  2
AcDbDynamicBlockGUID
 70
     0
  0
APPID
  5
4A6
330
9
100
AcDbSymbolTableRecord
100
AcDbRegAppTableRecord
  2
AcadAnnoMonitorAlertIconDisabled
 70
     0
  0
APPID
  5
598
330
9
100
AcDbSymbolTableRecord
100
AcDbRegAppTableRecord
  2
AcadAnnotative
 70
     0
  0
APPID
  5
599
330
9
100
AcDbSymbolTableRecord
100
AcDbRegAppTableRecord
  2
ACAD_DSTYLE_DIMJAG
 70
     0
  0
APPID
  5
59A
330
9
100
AcDbSymbolTableRecord
100
AcDbRegAppTableRecord
  2
ACAD_DSTYLE_DIMTALN
 70
     0
  0
APPID
  5
59B
330
9
100
AcDbSymbolTableRecord
100
AcDbRegAppTableRecord
  2
AcDbDynamicBlockTrueName2
 70
     0
  0
APPID
  5
5C1
330
9
100
AcDbSymbolTableRecord
100
AcDbRegAppTableRecord
  2
AdeskUnderlayLayerOverrideData
 70
     0
  0
APPID
  5
601
330
9
100
AcDbSymbolTableRecord
100
AcDbRegAppTableRecord
  2
BNS_SPRHATCH
 70
     0
  0
APPID
  5
7C1
330
9
100
AcDbSymbolTableRecord
100
AcDbRegAppTableRecord
  2
ACAD_MLEADERVER
 70
     0
  0
APPID
  5
7CD
330
9
100
AcDbSymbolTableRecord
100
AcDbRegAppTableRecord
  2
ACAD_OBJECT_CHANGE_GUID
 70
     0
  0
ENDTAB
  0
TABLE
  2
DIMSTYLE
  5
A
330
0
100
AcDbSymbolTable
 70
     6
100
AcDbDimStyleTable
 71
     1
340
27
  0
DIMSTYLE
105
27
330
A
100
AcDbSymbolTableRecord
100
AcDbDimStyleTableRecord
  2
Standard
 70
     0
340
11
  0
DIMSTYLE
105
18F
102
{ACAD_REACTORS
330
18E
102
}
330
A
100
AcDbSymbolTableRecord
100
AcDbDimStyleTableRecord
  2
GENERATED_STYLE__1
 70
     0
 41
3.799999999999999
 42
5.536782593415084
 73
     0
 74
     0
 77
     1
140
5.0
172
     1
176
     7
177
     7
178
     7
179
     2
271
     0
279
     2
340
18C
342
190
343
190
344
190
  0
DIMSTYLE
105
1A1
330
A
100
AcDbSymbolTableRecord
100
AcDbDimStyleTableRecord
  2
GENERATED_STYLE__2
 70
     0
 41
3.799999999999999
 42
15.0
 73
     0
 74
     0
 77
     1
140
5.0
172
     1
176
     7
177
     7
178
     7
179
     2
271
     0
279
     2
340
18C
342
190
343
190
344
190
  0
DIMSTYLE
105
1A5
330
A
100
AcDbSymbolTableRecord
100
AcDbDimStyleTableRecord
  2
GENERATED_STYLE__3
 70
     0
 41
7.295999999999999
172
     1
341
1A6
  0
DIMSTYLE
105
596
330
A
100
AcDbSymbolTableRecord
100
AcDbDimStyleTableRecord
  2
Annotative
 70
     0
 40
0.0
 41
2.5
 42
0.625
 43
3.75
 44
1.25
 73
     0
 74
     0
 77
     1
 78
     8
140
2.5
141
2.5
143
0.03937007874016
147
0.625
171
     3
172
     1
271
     2
272
     2
274
     3
278
    44
283
     0
284
     8
340
11
1001
AcadAnnotative
1000
AnnotativeData
1002
{
1070
     1
1070
     1
1002
}
1001
ACAD_DSTYLE_DIMJAG
1070
   388
1040
1.5
1001
ACAD_DSTYLE_DIMTALN
1070
   392
1070
     0
  0
DIMSTYLE
105
597
330
A
100
AcDbSymbolTableRecord
100
AcDbDimStyleTableRecord
  2
ISO-25
 70
     0
 41
2.5
 42
0.625
 43
3.75
 44
1.25
 73
     0
 74
     0
 77
     1
 78
     8
140
2.5
141
2.5
143
0.03937007874016
147
0.625
171
     3
172
     1
271
     2
272
     2
274
     3
278
    44
283
     0
284
     8
340
11
  0
ENDTAB
  0
TABLE
  2
BLOCK_RECORD
  5
1
330
0
100
AcDbSymbolTable
 70
     8
  0
BLOCK_RECORD
  5
1F
102
{ACAD_XDICTIONARY
360
25F
102
}
330
1
100
AcDbSymbolTableRecord
100
AcDbBlockTableRecord
  2
*Model_Space
340
22
  0
BLOCK_RECORD
  5
1B
330
1
100
AcDbSymbolTableRecord
100
AcDbBlockTableRecord
  2
*Paper_Space
340
1E
  0
BLOCK_RECORD
  5
23
330
1
100
AcDbSymbolTableRecord
100
AcDbBlockTableRecord
  2
*Paper_Space0
340
26
  0
BLOCK_RECORD
  5
44
102
{ACAD_XDICTIONARY
360
28F
102
}
330
1
100
AcDbSymbolTableRecord
100
AcDbBlockTableRecord
  2
Fill_1
340
0
1001
AcDbDynamicBlockGUID
1000
{1997A259-181D-4D0F-8A17-8EA9F0F8E448}
  0
BLOCK_RECORD
  5
182
330
1
100
AcDbSymbolTableRecord
100
AcDbBlockTableRecord
  2
*D2
340
0
  0
BLOCK_RECORD
  5
190
330
1
100
AcDbSymbolTableRecord
100
AcDbBlockTableRecord
  2
ARROWHEAD_6
340
0
102
{BLKREFS
331
543
331
544
102
}
  0
BLOCK_RECORD
  5
1A6
330
1
100
AcDbSymbolTableRecord
100
AcDbBlockTableRecord
  2
ARROWHEAD_5
340
0
  0
BLOCK_RECORD
  5
1C5
330
1
100
AcDbSymbolTableRecord
100
AcDbBlockTableRecord
  2
18F Wall_ Horizontal Joint - AB_STORY_MARKER
340
0
  0
BLOCK_RECORD
  5
561
102
{ACAD_XDICTIONARY
360
7C8
102
}
330
1
100
AcDbSymbolTableRecord
100
AcDbBlockTableRecord
  2
therma
340
0
310
2800000020000000200000000100080000000000000400000000000000000000000000000000000000000000000080000080000000808000800000008000800080800000C0C0C000C0DCC000F0CAA6000020400000206000002080000020A0000020C0000020E00000400000004020000040400000406000004080000040A0
310
000040C0000040E00000600000006020000060400000606000006080000060A0000060C0000060E00000800000008020000080400000806000008080000080A0000080C0000080E00000A0000000A0200000A0400000A0600000A0800000A0A00000A0C00000A0E00000C0000000C0200000C0400000C0600000C0800000C0
310
A00000C0C00000C0E00000E0000000E0200000E0400000E0600000E0800000E0A00000E0C00000E0E00040000000400020004000400040006000400080004000A0004000C0004000E00040200000402020004020400040206000402080004020A0004020C0004020E000404000004040200040404000404060004040800040
310
40A0004040C0004040E00040600000406020004060400040606000406080004060A0004060C0004060E00040800000408020004080400040806000408080004080A0004080C0004080E00040A0000040A0200040A0400040A0600040A0800040A0A00040A0C00040A0E00040C0000040C0200040C0400040C0600040C08000
310
40C0A00040C0C00040C0E00040E0000040E0200040E0400040E0600040E0800040E0A00040E0C00040E0E00080000000800020008000400080006000800080008000A0008000C0008000E00080200000802020008020400080206000802080008020A0008020C0008020E00080400000804020008040400080406000804080
310
008040A0008040C0008040E00080600000806020008060400080606000806080008060A0008060C0008060E00080800000808020008080400080806000808080008080A0008080C0008080E00080A0000080A0200080A0400080A0600080A0800080A0A00080A0C00080A0E00080C0000080C0200080C0400080C0600080C0
310
800080C0A00080C0C00080C0E00080E0000080E0200080E0400080E0600080E0800080E0A00080E0C00080E0E000C0000000C0002000C0004000C0006000C0008000C000A000C000C000C000E000C0200000C0202000C0204000C0206000C0208000C020A000C020C000C020E000C0400000C0402000C0404000C0406000C0
310
408000C040A000C040C000C040E000C0600000C0602000C0604000C0606000C0608000C060A000C060C000C060E000C0800000C0802000C0804000C0806000C0808000C080A000C080C000C080E000C0A00000C0A02000C0A04000C0A06000C0A08000C0A0A000C0A0C000C0A0E000C0C00000C0C02000C0C04000C0C06000
310
C0C08000C0C0A000F0FBFF00A4A0A000808080000000FF0000FF000000FFFF00FF000000FF00FF00FFFF0000FFFFFF0049494949494949494949494949494949494949494949494949494949494949494949494949494949494949494949494949494949494949494949070749494949494949494949494949070707074949
310
49494907494949494949070707070749494949494949494949490749490707490707070707074949490707070707074949494949070707070749074949070749070707070707074949070707070707074949494907070707070707070707490707070707070707074907070707070707494949070707070707074907074949
310
07070707070707070749070707070707494949490707070707070749494949490707070707070707074949070707074949494949490707070707074907074949070707070707070707070707494949494949494949070707070707070707070749070707070707070707070749494949494949494949494949490707070707
310
07494907070707070707070707494949494949494907070707494907070707070749494949494949490707070749494949494949490707070749490707070707074949494949494949070707074949494949494907070707074949070707070707494949494949494949494949494949494949494907070707494949070707
310
07494949494949494949494949490749494949494949070707070707070749494949070707070749494949490707070707494949494949494907070707070749490707494949070749494949070707070707494949494949070707070707070749074949494949074949490707070707070749494949494907070707070707
310
07490749494949490749494907070707070707494949494949070707070707070749070749494907494949494907070707070749494949494907070707070707074949070707070707070707490707070707494949494949490707070707070707494949494949490707070749494949494949494949494949490707070707
310
07494949494949494907070707494907074949494949494949494949070707074949494949494949490707070707070707074949494949494907070707494949070707494949070707070707070707070707074949494949070707070707490707070707490707070707074907070707070707494949494907070707070749
310
07070707074907070707070749070707070707074949494949070707070707490707070707490707070707074907070707070749494949494907070707070749490707074949070707070707494907070707074949494949490707070707494949494949494949070707070749494949494949494949494949494907074949
310
4949494949494949490707494949494949494949494949494949494949494949494949494949494949494949494949494949494949494949
102
{BLKREFS
331
62A
331
62B
331
62C
331
62D
331
62E
331
62F
331
630
331
631
331
632
331
633
331
634
331
635
331
636
331
637
331
638
331
639
331
63A
331
63B
102
}
  0
BLOCK_RECORD
  5
574
102
{ACAD_XDICTIONARY
360
575
102
}
330
1
100
AcDbSymbolTableRecord
100
AcDbBlockTableRecord
  2
*U7
340
0
310
2800000020000000200000000100080000000000000400000000000000000000000000000000000000000000000080000080000000808000800000008000800080800000C0C0C000C0DCC000F0CAA6000020400000206000002080000020A0000020C0000020E00000400000004020000040400000406000004080000040A0
310
000040C0000040E00000600000006020000060400000606000006080000060A0000060C0000060E00000800000008020000080400000806000008080000080A0000080C0000080E00000A0000000A0200000A0400000A0600000A0800000A0A00000A0C00000A0E00000C0000000C0200000C0400000C0600000C0800000C0
310
A00000C0C00000C0E00000E0000000E0200000E0400000E0600000E0800000E0A00000E0C00000E0E00040000000400020004000400040006000400080004000A0004000C0004000E00040200000402020004020400040206000402080004020A0004020C0004020E000404000004040200040404000404060004040800040
310
40A0004040C0004040E00040600000406020004060400040606000406080004060A0004060C0004060E00040800000408020004080400040806000408080004080A0004080C0004080E00040A0000040A0200040A0400040A0600040A0800040A0A00040A0C00040A0E00040C0000040C0200040C0400040C0600040C08000
310
40C0A00040C0C00040C0E00040E0000040E0200040E0400040E0600040E0800040E0A00040E0C00040E0E00080000000800020008000400080006000800080008000A0008000C0008000E00080200000802020008020400080206000802080008020A0008020C0008020E00080400000804020008040400080406000804080
310
008040A0008040C0008040E00080600000806020008060400080606000806080008060A0008060C0008060E00080800000808020008080400080806000808080008080A0008080C0008080E00080A0000080A0200080A0400080A0600080A0800080A0A00080A0C00080A0E00080C0000080C0200080C0400080C0600080C0
310
800080C0A00080C0C00080C0E00080E0000080E0200080E0400080E0600080E0800080E0A00080E0C00080E0E000C0000000C0002000C0004000C0006000C0008000C000A000C000C000C000E000C0200000C0202000C0204000C0206000C0208000C020A000C020C000C020E000C0400000C0402000C0404000C0406000C0
310
408000C040A000C040C000C040E000C0600000C0602000C0604000C0606000C0608000C060A000C060C000C060E000C0800000C0802000C0804000C0806000C0808000C080A000C080C000C080E000C0A00000C0A02000C0A04000C0A06000C0A08000C0A0A000C0A0C000C0A0E000C0C00000C0C02000C0C04000C0C06000
310
C0C08000C0C0A000F0FBFF00A4A0A000808080000000FF0000FF000000FFFF00FF000000FF00FF00FFFF0000FFFFFF0049494949494949494949494949494949494949494949494949494949494949494949494949494949494949494949494949494949494949494949494949494949494949494949494949494949494949
310
49494949494949494949494949494949494949494949494949494949494949494949494949494949494949494949494949494949494949494949494949494949494949494949494949494949494949494949494949494949494949494949494949494949494949494949494949494949494949494949494949494949494949
310
49494949494949494949494949494949494949494949494949494949494949494949494949494949494949494949494949494949494949494949494949494949494949494949494949494949494949494949494949494949494949494949494949494949494949494949494949494949494949494949494949494949494949
310
49494949494949494949494949494949494949494949494949494949494949494949494949494949494949494949494949494949FFFF494949494949494949494949494949494949494949494949494949494949FFFFFFFFFFFFFFFFFFFFFFFFFFFFFFFFFFFFFFFFFFFFFFFFFFFF494949494949FFFFFFFFFFFFFFFFFFFFFF
310
FFFFFFFFFFFFFFFFFFFFFFFFFFFFFF494949494949FFFF49494949494949494949494949494949494949494949FFFF494949494949FFFF49494949494949494949494949494949494949494949FFFFFFFFFFFF4949FFFF49494949494949494949494949494949494949494949FFFFFFFFFFFF4949FFFF4949494949494949
310
4949494949494949494949494949FFFF494949494949FFFF49494949494949494949494949494949494949494949FFFF49494949494949494949494949494949494949494949494949494949494949494949494949494949494949494949494949494949494949494949494949494949494949494949494949494949494949
310
49494949494949494949494949494949494949494949494949494949494949494949494949494949494949494949494949494949494949494949494949494949494949494949494949494949494949494949494949494949494949494949494949494949494949494949494949494949494949494949494949494949494949
310
49494949494949494949494949494949494949494949494949494949494949494949494949494949494949494949494949494949494949494949494949494949494949494949494949494949494949494949494949494949494949494949494949494949494949494949494949494949494949494949494949494949494949
310
4949494949494949494949494949494949494949494949494949494949494949494949494949494949494949494949494949494949494949
1001
AcDbDynamicBlockTrueName2
1000
BASE FLASHING
1001
AcDbDynamicBlockGUID
1000
{470B8C0F-4304-4278-9445-A343C0DD80EE}
  0
ENDTAB
  0
ENDSEC
  0
SECTION
  2
BLOCKS
  0
BLOCK
  5
20
330
1F
100
AcDbEntity
  8
0
100
AcDbBlockBegin
  2
*Model_Space
 70
     0
 10
0.0
 20
0.0
 30
0.0
  3
*Model_Space
  1

  0
ENDBLK
  5
21
330
1F
100
AcDbEntity
  8
0
100
AcDbBlockEnd
  0
BLOCK
  5
1C
330
1B
100
AcDbEntity
 67
     1
  8
0
100
AcDbBlockBegin
  2
*Paper_Space
 70
     0
 10
0.0
 20
0.0
 30
0.0
  3
*Paper_Space
  1

  0
ENDBLK
  5
1D
330
1B
100
AcDbEntity
 67
     1
  8
0
100
AcDbBlockEnd
  0
BLOCK
  5
24
330
23
100
AcDbEntity
 67
     1
  8
0
100
AcDbBlockBegin
  2
*Paper_Space0
 70
     0
 10
0.0
 20
0.0
 30
0.0
  3
*Paper_Space0
  1

  0
ENDBLK
  5
25
330
23
100
AcDbEntity
 67
     1
  8
0
100
AcDbBlockEnd
  0
BLOCK
  5
45
330
44
100
AcDbEntity
  8
0
100
AcDbBlockBegin
  2
Fill_1
 70
     0
 10
0.0
 20
0.0
 30
0.0
  3
Fill_1
  1

  0
LINE
  5
288
102
{ACAD_REACTORS
330
29E
102
}
330
44
100
AcDbEntity
  8
Specialized_Fills
  6
Continuous
100
AcDbLine
 10
152.235958667251
 20
385.7652405577885
 30
0.0
 11
152.235958667251
 21
251.1439750709732
 31
0.0
  0
ARC
  5
289
102
{ACAD_REACTORS
330
29E
102
}
330
44
100
AcDbEntity
  8
Specialized_Fills
  6
Continuous
100
AcDbCircle
 10
152.0055326934057
 20
250.5899860182152
 30
0.0
 40
0.5999999999985246
100
AcDbArc
 50
292.5843593561497
 51
67.41564064385025
  0
LINE
  5
28A
102
{ACAD_REACTORS
330
29E
102
}
330
44
100
AcDbEntity
  8
Specialized_Fills
  6
Continuous
100
AcDbLine
 10
152.235958667251
 20
250.0359969654573
 30
0.0
 11
152.235958667251
 21
232.6571517732878
 31
0.0
  0
LINE
  5
28B
102
{ACAD_REACTORS
330
29E
102
}
330
44
100
AcDbEntity
  8
Specialized_Fills
  6
Continuous
100
AcDbLine
 10
152.235958667251
 20
232.6571517732878
 30
0.0
 11
202.8178565036744
 21
232.6571517732877
 31
0.0
  0
LINE
  5
28C
102
{ACAD_REACTORS
330
29E
102
}
330
44
100
AcDbEntity
  8
Specialized_Fills
  6
Continuous
100
AcDbLine
 10
202.8178565036744
 20
232.6571517732877
 30
0.0
 11
202.8178565036742
 21
385.7652405577921
 31
0.0
  0
LINE
  5
28D
102
{ACAD_REACTORS
330
29E
102
}
330
44
100
AcDbEntity
  8
Specialized_Fills
  6
Continuous
100
AcDbLine
 10
202.8178565036742
 20
385.7652405577921
 30
0.0
 11
152.235958667251
 21
385.7652405577885
 31
0.0
  0
HATCH
  5
29E
330
44
100
AcDbEntity
  8
0
 62
   251
100
AcDbHatch
 10
0.0
 20
0.0
 30
0.0
210
0.0
220
0.0
230
1.0
  2
HPCRC1E0
 70
     0
 71
     1
 91
        1
 92
        7
 72
     1
 73
     1
 93
        6
 10
202.8178565036742
 20
385.7652405577921
 42
0.0
 10
152.235958667251
 20
385.7652405577885
 42
0.0
 10
152.235958667251
 20
251.1439750709732
 42
-0.6671143126624806
 10
152.235958667251
 20
250.0359969654573
 42
0.0
 10
152.235958667251
 20
232.6571517732878
 42
0.0
 10
202.8178565036744
 20
232.6571517732878
 42
0.0
 97
        6
330
28D
330
288
330
289
330
28A
330
28B
330
28C
 75
     1
 76
     2
 52
0.0
 41
0.12
 77
     0
 78
    78
 53
82.8749847
 43
0.0
 44
4.2
 45
-0.0000004961129005
 46
8.399999852931037
 79
     2
 49
0.9674709324
 49
-66.75549316799998
 53
75.96376039999999
 43
0.12
 44
5.16
 45
-0.000000348785556
 46
8.399999709154096
 79
     2
 49
0.4947726600000001
 49
-34.139315184
 53
63.43495179999999
 43
0.24
 44
5.639999999999999
 45
-0.0000000286036308
 46
8.400000041591663
 79
     2
 49
1.073312639999999
 49
-17.70965881199999
 53
45.0
 43
0.72
 44
6.599999999999999
 45
0.0000000000000009
 46
8.400000002875099
 79
     2
 49
1.527350688
 49
-10.352043456
 53
33.6900673
 43
1.799999999999999
 44
7.679999999999999
 45
0.0000001596020127
 46
8.399999824188462
 79
     2
 49
0.4326661440000001
 49
-29.85396423600001
 53
33.6900673
 43
10.2
 44
7.679999999999999
 45
0.0000001596020127
 46
8.399999824188462
 79
     2
 49
0.4326661440000001
 49
-29.85396423600001
 53
33.6900673
 43
18.6
 44
7.679999999999999
 45
0.0000001596020127
 46
8.399999824188462
 79
     2
 49
0.4326661440000001
 49
-29.85396423600001
 53
26.5650501
 43
2.16
 44
7.919999999999999
 45
-0.0000000460215162
 46
8.400000143556356
 79
     2
 49
0.26832816
 49
-18.514643556
 53
26.5650501
 43
10.56
 44
7.919999999999999
 45
-0.0000000460215162
 46
8.400000143556356
 79
     2
 49
0.26832816
 49
-18.514643556
 53
18.434948
 43
2.399999999999999
 44
8.039999999999999
 45
0.0000002686412607
 46
8.399999851558131
 79
     2
 49
0.3794733239999999
 49
-26.183659056
 53
18.434948
 43
10.8
 44
8.039999999999999
 45
0.0000002686412607
 46
8.399999851558131
 79
     2
 49
0.3794733239999999
 49
-26.183659056
 53
18.434948
 43
19.2
 44
8.039999999999999
 45
0.0000002686412607
 46
8.399999851558131
 79
     2
 49
0.3794733239999999
 49
-26.183659056
 53
26.5650501
 43
2.759999999999999
 44
8.16
 45
-0.0000000460215162
 46
8.400000143556356
 79
     2
 49
0.26832816
 49
-18.514643556
 53
26.5650501
 43
11.16
 44
8.16
 45
-0.0000000460215162
 46
8.400000143556356
 79
     2
 49
0.26832816
 49
-18.514643556
 53
11.3099327
 43
3.0
 44
8.279999999999999
 45
-0.0000000543109101
 46
8.400000069389928
 79
     2
 49
0.6118823435999998
 49
-42.21988036799999
 53
11.3099327
 43
11.4
 44
8.279999999999999
 45
-0.0000000543109101
 46
8.400000069389928
 79
     2
 49
0.6118823435999998
 49
-42.21988036799999
 53
11.3099327
 43
19.8
 44
8.279999999999999
 45
-0.0000000543109101
 46
8.400000069389928
 79
     2
 49
0.6118823435999998
 49
-42.21988036799999
 53
11.3099327
 43
28.2
 44
8.279999999999999
 45
-0.0000000543109101
 46
8.400000069389928
 79
     2
 49
0.6118823435999998
 49
-42.21988036799999
 53
11.3099327
 43
36.6
 44
8.279999999999999
 45
-0.0000000543109101
 46
8.400000069389928
 79
     2
 49
0.6118823435999998
 49
-42.21988036799999
 53
0.0
 43
3.599999999999999
 44
8.4
 45
0.0
 46
8.4
 79
     2
 49
1.199999999999999
 49
-7.199999999999999
 53
348.6900673
 43
4.799999999999999
 44
8.4
 45
0.0000000543109101
 46
8.400000069389928
 79
     2
 49
0.6118823435999998
 49
-42.21988036799999
 53
348.6900673
 43
13.2
 44
8.4
 45
0.0000000543109101
 46
8.400000069389928
 79
     2
 49
0.6118823435999998
 49
-42.21988036799999
 53
348.6900673
 43
21.6
 44
8.4
 45
0.0000000543109101
 46
8.400000069389928
 79
     2
 49
0.6118823435999998
 49
-42.21988036799999
 53
348.6900673
 43
30.0
 44
8.4
 45
0.0000000543109101
 46
8.400000069389928
 79
     2
 49
0.6118823435999998
 49
-42.21988036799999
 53
348.6900673
 43
38.4
 44
8.4
 45
0.0000000543109101
 46
8.400000069389928
 79
     2
 49
0.6118823435999998
 49
-42.21988036799999
 53
333.4349499
 43
5.399999999999999
 44
8.279999999999999
 45
0.0000000460215162
 46
8.400000143556356
 79
     2
 49
0.2683281599999999
 49
-18.514643556
 53
333.4349499
 43
13.8
 44
8.279999999999999
 45
0.0000000460215162
 46
8.400000143556356
 79
     2
 49
0.2683281599999999
 49
-18.514643556
 53
341.565052
 43
5.639999999999999
 44
8.16
 45
-0.0000002686412607
 46
8.399999851558131
 79
     2
 49
0.379473324
 49
-26.183659056
 53
341.565052
 43
14.04
 44
8.16
 45
-0.0000002686412607
 46
8.399999851558131
 79
     2
 49
0.379473324
 49
-26.183659056
 53
341.565052
 43
22.44
 44
8.16
 45
-0.0000002686412607
 46
8.399999851558131
 79
     2
 49
0.379473324
 49
-26.183659056
 53
333.4349499
 43
6.0
 44
8.039999999999999
 45
0.0000000460215162
 46
8.400000143556356
 79
     2
 49
0.2683281599999999
 49
-18.514643556
 53
333.4349499
 43
14.4
 44
8.039999999999999
 45
0.0000000460215162
 46
8.400000143556356
 79
     2
 49
0.2683281599999999
 49
-18.514643556
 53
326.3099327
 43
6.24
 44
7.919999999999999
 45
-0.0000001596020127
 46
8.399999824188462
 79
     2
 49
0.4326661440000001
 49
-29.85396423600001
 53
326.3099327
 43
14.64
 44
7.919999999999999
 45
-0.0000001596020127
 46
8.399999824188462
 79
     2
 49
0.4326661440000001
 49
-29.85396423600001
 53
326.3099327
 43
23.04
 44
7.919999999999999
 45
-0.0000001596020127
 46
8.399999824188462
 79
     2
 49
0.4326661440000001
 49
-29.85396423600001
 53
315.0
 43
6.599999999999999
 44
7.679999999999999
 45
-0.0000000000000009
 46
8.400000002875099
 79
     2
 49
1.527350688
 49
-10.352043456
 53
296.5650482
 43
7.679999999999999
 44
6.599999999999999
 45
0.0000000286036308
 46
8.400000041591663
 79
     2
 49
1.073312639999999
 49
-17.70965881199999
 53
284.0362396
 43
8.16
 44
5.639999999999999
 45
0.000000348785556
 46
8.399999709154096
 79
     2
 49
0.4947726600000001
 49
-34.139315184
 53
277.1250153
 43
8.279999999999999
 44
5.16
 45
0.0000004961129005
 46
8.399999852931037
 79
     2
 49
0.9674709324
 49
-66.75549316799998
 53
277.1250153
 43
0.0
 44
4.2
 45
0.0000004961129005
 46
8.399999852931037
 79
     2
 49
0.9674709324
 49
-66.75549316799998
 53
284.0362396
 43
0.12
 44
3.239999999999999
 45
0.000000348785556
 46
8.399999709154096
 79
     2
 49
0.4947726600000001
 49
-34.139315184
 53
296.5650482
 43
0.24
 44
2.759999999999999
 45
0.0000000286036308
 46
8.400000041591663
 79
     2
 49
1.073312639999999
 49
-17.70965881199999
 53
315.0
 43
0.72
 44
1.799999999999999
 45
-0.0000000000000009
 46
8.400000002875099
 79
     2
 49
1.527350688
 49
-10.352043456
 53
326.3099327
 43
1.799999999999999
 44
0.72
 45
-0.0000001596020127
 46
8.399999824188462
 79
     2
 49
0.4326661440000001
 49
-29.85396423600001
 53
326.3099327
 43
10.2
 44
0.72
 45
-0.0000001596020127
 46
8.399999824188462
 79
     2
 49
0.4326661440000001
 49
-29.85396423600001
 53
326.3099327
 43
18.6
 44
0.72
 45
-0.0000001596020127
 46
8.399999824188462
 79
     2
 49
0.4326661440000001
 49
-29.85396423600001
 53
333.4349499
 43
2.16
 44
0.48
 45
0.0000000460215162
 46
8.400000143556356
 79
     2
 49
0.2683281599999999
 49
-18.514643556
 53
333.4349499
 43
10.56
 44
0.48
 45
0.0000000460215162
 46
8.400000143556356
 79
     2
 49
0.2683281599999999
 49
-18.514643556
 53
341.565052
 43
2.399999999999999
 44
0.36
 45
-0.0000002686412607
 46
8.399999851558131
 79
     2
 49
0.379473324
 49
-26.183659056
 53
341.565052
 43
10.8
 44
0.36
 45
-0.0000002686412607
 46
8.399999851558131
 79
     2
 49
0.379473324
 49
-26.183659056
 53
341.565052
 43
19.2
 44
0.36
 45
-0.0000002686412607
 46
8.399999851558131
 79
     2
 49
0.379473324
 49
-26.183659056
 53
333.4349499
 43
2.759999999999999
 44
0.24
 45
0.0000000460215162
 46
8.400000143556356
 79
     2
 49
0.2683281599999999
 49
-18.514643556
 53
333.4349499
 43
11.16
 44
0.24
 45
0.0000000460215162
 46
8.400000143556356
 79
     2
 49
0.2683281599999999
 49
-18.514643556
 53
348.6900673
 43
3.0
 44
0.12
 45
0.0000000543109101
 46
8.400000069389928
 79
     2
 49
0.6118823435999998
 49
-42.21988036799999
 53
348.6900673
 43
11.4
 44
0.12
 45
0.0000000543109101
 46
8.400000069389928
 79
     2
 49
0.6118823435999998
 49
-42.21988036799999
 53
348.6900673
 43
19.8
 44
0.12
 45
0.0000000543109101
 46
8.400000069389928
 79
     2
 49
0.6118823435999998
 49
-42.21988036799999
 53
348.6900673
 43
28.2
 44
0.12
 45
0.0000000543109101
 46
8.400000069389928
 79
     2
 49
0.6118823435999998
 49
-42.21988036799999
 53
348.6900673
 43
36.6
 44
0.12
 45
0.0000000543109101
 46
8.400000069389928
 79
     2
 49
0.6118823435999998
 49
-42.21988036799999
 53
0.0
 43
3.599999999999999
 44
0.0
 45
0.0
 46
8.4
 79
     2
 49
1.199999999999999
 49
-7.199999999999999
 53
11.3099327
 43
4.799999999999999
 44
0.0
 45
-0.0000000543109101
 46
8.400000069389928
 79
     2
 49
0.6118823435999998
 49
-42.21988036799999
 53
11.3099327
 43
13.2
 44
0.0
 45
-0.0000000543109101
 46
8.400000069389928
 79
     2
 49
0.6118823435999998
 49
-42.21988036799999
 53
11.3099327
 43
21.6
 44
0.0
 45
-0.0000000543109101
 46
8.400000069389928
 79
     2
 49
0.6118823435999998
 49
-42.21988036799999
 53
11.3099327
 43
30.0
 44
0.0
 45
-0.0000000543109101
 46
8.400000069389928
 79
     2
 49
0.6118823435999998
 49
-42.21988036799999
 53
11.3099327
 43
38.4
 44
0.0
 45
-0.0000000543109101
 46
8.400000069389928
 79
     2
 49
0.6118823435999998
 49
-42.21988036799999
 53
26.5650501
 43
5.399999999999999
 44
0.12
 45
-0.0000000460215162
 46
8.400000143556356
 79
     2
 49
0.26832816
 49
-18.514643556
 53
26.5650501
 43
13.8
 44
0.12
 45
-0.0000000460215162
 46
8.400000143556356
 79
     2
 49
0.26832816
 49
-18.514643556
 53
18.434948
 43
5.639999999999999
 44
0.24
 45
0.0000002686412607
 46
8.399999851558131
 79
     2
 49
0.3794733239999999
 49
-26.183659056
 53
18.434948
 43
14.04
 44
0.24
 45
0.0000002686412607
 46
8.399999851558131
 79
     2
 49
0.3794733239999999
 49
-26.183659056
 53
18.434948
 43
22.44
 44
0.24
 45
0.0000002686412607
 46
8.399999851558131
 79
     2
 49
0.3794733239999999
 49
-26.183659056
 53
26.5650501
 43
6.0
 44
0.36
 45
-0.0000000460215162
 46
8.400000143556356
 79
     2
 49
0.26832816
 49
-18.514643556
 53
26.5650501
 43
14.4
 44
0.36
 45
-0.0000000460215162
 46
8.400000143556356
 79
     2
 49
0.26832816
 49
-18.514643556
 53
33.6900673
 43
6.24
 44
0.48
 45
0.0000001596020127
 46
8.399999824188462
 79
     2
 49
0.4326661440000001
 49
-29.85396423600001
 53
33.6900673
 43
14.64
 44
0.48
 45
0.0000001596020127
 46
8.399999824188462
 79
     2
 49
0.4326661440000001
 49
-29.85396423600001
 53
33.6900673
 43
23.04
 44
0.48
 45
0.0000001596020127
 46
8.399999824188462
 79
     2
 49
0.4326661440000001
 49
-29.85396423600001
 53
45.0
 43
6.599999999999999
 44
0.72
 45
0.0000000000000009
 46
8.400000002875099
 79
     2
 49
1.527350688
 49
-10.352043456
 53
63.43495179999999
 43
7.679999999999999
 44
1.799999999999999
 45
-0.0000000286036308
 46
8.400000041591663
 79
     2
 49
1.073312639999999
 49
-17.70965881199999
 53
75.96376039999999
 43
8.16
 44
2.759999999999999
 45
-0.000000348785556
 46
8.399999709154096
 79
     2
 49
0.4947726600000001
 49
-34.139315184
 53
82.8749847
 43
8.279999999999999
 44
3.239999999999999
 45
-0.0000004961129005
 46
8.399999852931037
 79
     2
 49
0.9674709324
 49
-66.75549316799998
 47
0.2471946540355698
 98
        1
 10
172.8652566422222
 20
352.0937975559349
1001
GradientColor1ACI
1070
     5
1001
GradientColor2ACI
1070
     2
1001
ACAD
1010
0.0
1020
0.0
1030
0.0
  0
ENDBLK
  5
46
330
44
100
AcDbEntity
  8
0
100
AcDbBlockEnd
  0
BLOCK
  5
183
330
182
100
AcDbEntity
  8
0
100
AcDbBlockBegin
  2
*D2
 70
     1
 10
0.0
 20
0.0
 30
0.0
  3
*D2
  1

  0
LINE
  5
540
330
182
100
AcDbEntity
  8
Specialized_Lines
  6
Continuous
 62
     7
370
    -2
100
AcDbLine
 10
211.8178565036744
 20
231.3440325139026
 30
0.0
 11
250.1969423995873
 21
231.3440325139026
 31
0.0
  0
LINE
  5
541
330
182
100
AcDbEntity
  8
Specialized_Lines
  6
Continuous
 62
     7
370
    -2
100
AcDbLine
 10
232.5215232948135
 20
296.9671461606566
 30
0.0
 11
250.1969423995873
 21
296.9671461606566
 31
0.0
  0
LINE
  5
542
330
182
100
AcDbEntity
  8
Specialized_Lines
  6
Continuous
 62
     7
370
    -2
100
AcDbLine
 10
250.0169423995873
 20
235.1440325139027
 30
0.0
 11
250.0169423995873
 21
293.1671461606566
 31
0.0
  0
INSERT
  5
543
330
182
100
AcDbEntity
  8
Specialized_Lines
  6
Continuous
 62
     7
370
    -2
100
AcDbBlockReference
  2
ARROWHEAD_6
 10
250.0169423995873
 20
231.3440325139026
 30
0.0
 41
3.799999999999999
 42
3.799999999999999
 43
3.799999999999999
 50
270.0
  0
INSERT
  5
544
330
182
100
AcDbEntity
  8
Specialized_Lines
  6
Continuous
 62
     7
370
    -2
100
AcDbBlockReference
  2
ARROWHEAD_6
 10
250.0169423995873
 20
296.9671461606566
 30
0.0
 41
3.799999999999999
 42
3.799999999999999
 43
3.799999999999999
 50
90.0
  0
MTEXT
  5
545
330
182
100
AcDbEntity
  8
Specialized_Lines
  6
Continuous
 62
     7
100
AcDbMText
 10
245.4623721403786
 20
264.1555893372797
 30
0.0
 40
5.0
 41
0.0
 71
     5
 72
     1
  1
\A1;35mm min cover
  7
GENERATED_STYLE_1
 11
0.0000000000000001
 21
1.0
 31
0.0
 73
     1
 44
1.0
1001
ACAD
1000
MTEXTBEGIN
1070
    73
1070
     1
1070
    44
1040
1.0
1070
    74
1070
     0
1000
MTEXTEND
  0
POINT
  5
546
330
182
100
AcDbEntity
  8
Defpoints
  6
Continuous
 62
     0
100
AcDbPoint
 10
202.8178565036744
 20
231.3440325139026
 30
0.0
  0
POINT
  5
547
330
182
100
AcDbEntity
  8
Defpoints
  6
Continuous
 62
     0
100
AcDbPoint
 10
223.5215232948135
 20
296.9671461606566
 30
0.0
  0
POINT
  5
548
330
182
100
AcDbEntity
  8
Defpoints
  6
Continuous
 62
     0
100
AcDbPoint
 10
250.0169423995873
 20
296.9671461606566
 30
0.0
  0
ENDBLK
  5
184
330
182
100
AcDbEntity
  8
0
100
AcDbBlockEnd
  0
BLOCK
  5
191
330
190
100
AcDbEntity
  8
0
100
AcDbBlockBegin
  2
ARROWHEAD_6
 70
     0
 10
0.0
 20
0.0
 30
0.0
  3
ARROWHEAD_6
  1

  0
LINE
  5
193
330
190
100
AcDbEntity
  8
0
  6
Continuous
 62
     0
370
     0
100
AcDbLine
 10
-0.5
 20
-0.5
 30
0.0
 11
0.5
 21
0.5
 31
0.0
  0
LINE
  5
194
330
190
100
AcDbEntity
  8
0
  6
Continuous
 62
     0
370
     0
100
AcDbLine
 10
0.0
 20
0.0
 30
0.0
 11
-1.0
 21
0.0
 31
0.0
  0
ENDBLK
  5
192
330
190
100
AcDbEntity
  8
0
100
AcDbBlockEnd
  0
BLOCK
  5
1A7
330
1A6
100
AcDbEntity
  8
0
100
AcDbBlockBegin
  2
ARROWHEAD_5
 70
     0
 10
0.0
 20
0.0
 30
0.0
  3
ARROWHEAD_5
  1

  0
SOLID
  5
1A9
330
1A6
100
AcDbEntity
  8
0
  6
Continuous
 62
     0
370
     0
100
AcDbTrace
 10
-1.0
 20
0.2679
 30
0.0
 11
0.0
 21
0.0
 31
0.0
 12
-1.0
 22
-0.2679
 32
0.0
 13
-1.0
 23
0.2679
 33
0.0
  0
LINE
  5
1AA
330
1A6
100
AcDbEntity
  8
0
  6
Continuous
 62
     0
370
     0
100
AcDbLine
 10
0.0
 20
0.0
 30
0.0
 11
-1.0
 21
0.0
 31
0.0
  0
ENDBLK
  5
1A8
330
1A6
100
AcDbEntity
  8
0
100
AcDbBlockEnd
  0
BLOCK
  5
1C6
330
1C5
100
AcDbEntity
  8
0
100
AcDbBlockBegin
  2
18F Wall_ Horizontal Joint - AB_STORY_MARKER
 70
     0
 10
0.0
 20
0.0
 30
0.0
  3
18F Wall_ Horizontal Joint - AB_STORY_MARKER
  1

  0
ENDBLK
  5
1C7
330
1C5
100
AcDbEntity
  8
0
100
AcDbBlockEnd
  0
BLOCK
  5
562
330
561
100
AcDbEntity
  8
0
 62
     7
100
AcDbBlockBegin
  2
therma
 70
     0
 10
0.0
 20
0.0
 30
0.0
  3
therma
  1

  0
HATCH
  5
563
330
561
100
AcDbEntity
  8
eps
 62
   254
100
AcDbHatch
 10
0.0
 20
0.0
 30
0.0
210
0.0
220
0.0
230
1.0
  2
SOLID
 70
     1
 71
     1
 91
       13
 92
        7
 72
     1
 73
     1
 93
        2
 10
5.153274474768295
 20
-2.088877458424576
 42
1.0
 10
-0.8467255252317045
 20
-2.088877458424576
 42
1.0
 97
        1
330
564
 92
        7
 72
     1
 73
     1
 93
        2
 10
11.18338068794492
 20
-3.150707591624268
 42
1.0
 10
7.183380687944918
 20
-3.150707591624268
 42
1.0
 97
        1
330
565
 92
        7
 72
     1
 73
     1
 93
        2
 10
1.50424343474242
 20
-10.22395803436757
 42
1.0
 10
9.50424343474242
 20
-10.22395803436757
 42
1.0
 97
        1
330
566
 92
        7
 72
     1
 73
     1
 93
        2
 10
3.121692185625761
 20
-16.43286101922513
 42
1.0
 10
-0.8783078143742386
 20
-16.43286101922513
 42
1.0
 97
        1
330
567
 92
        7
 72
     1
 73
     1
 93
        2
 10
20.23028334799255
 20
-23.4014379273367
 42
1.0
 10
12.23028334799255
 20
-23.4014379273367
 42
1.0
 97
        1
330
570
 92
        7
 72
     1
 73
     1
 93
        2
 10
5.872128148083902
 20
-23.17290683493138
 42
1.0
 10
-0.1278718519160975
 20
-23.17290683493138
 42
1.0
 97
        1
330
572
 92
        7
 72
     1
 73
     1
 93
        2
 10
5.625021722852579
 20
-18.32128648862363
 42
1.0
 10
11.62502172285258
 20
-18.32128648862363
 42
1.0
 97
        1
330
56B
 92
        7
 72
     1
 73
     1
 93
        2
 10
18.81562264413605
 20
-2.148910809607514
 42
1.0
 10
12.81562264413605
 20
-2.148910809607514
 42
1.0
 97
        1
330
56D
 92
        7
 72
     1
 73
     1
 93
        2
 10
21.01098252133033
 20
-7.164015699477204
 42
1.0
 10
17.01098252133033
 20
-7.164015699477204
 42
1.0
 97
        1
330
56A
 92
        7
 72
     1
 73
     1
 93
        2
 10
26.60587034827131
 20
-3.646358717532166
 42
1.0
 10
20.60587034827131
 20
-3.646358717532166
 42
1.0
 97
        1
330
56F
 92
        7
 72
     1
 73
     1
 93
        2
 10
21.80413181950371
 20
-11.85245936021328
 42
1.0
 10
27.80413181950371
 20
-11.85245936021328
 42
1.0
 97
        1
330
571
 92
        7
 72
     1
 73
     1
 93
        2
 10
24.00715224641408
 20
-19.56290887698651
 42
1.0
 10
20.00715224641408
 20
-19.56290887698651
 42
1.0
 97
        1
330
569
 92
        7
 72
     1
 73
     1
 93
        2
 10
22.40377860212266
 20
-25.5089748094988
 42
1.0
 10
28.40377860212266
 20
-25.5089748094988
 42
1.0
 97
        1
330
56E
 75
     1
 76
     1
 47
0.1543695318342555
 98
       13
 10
3.629268677542313
 20
-2.522538144440659
 10
9.4972407657051
 20
-3.564040262551316
 10
6.236338855102985
 20
-10.02363147243977
 10
1.887609562473699
 20
-16.96595259413243
 10
15.59743406924917
 20
-23.78728337988377
 10
3.820206121295086
 20
-23.42523594603063
 10
7.987802866017773
 20
-17.81103782758236
 10
15.65781158521804
 20
-2.175576020331391
 10
18.73758094779714
 20
-7.427726734728821
 10
24.41461559220716
 20
-4.04707803234578
 10
24.23348304430056
 20
-10.38567890629292
 10
22.36126400144804
 20
-17.69035534963132
 10
25.07928431521668
 20
-24.14963870152951
1001
GradientColor1ACI
1070
     5
1001
GradientColor2ACI
1070
     2
1001
ACAD
1010
0.0
1020
0.0
1030
0.0
  0
CIRCLE
  5
564
102
{ACAD_REACTORS
330
563
102
}
330
561
100
AcDbEntity
  8
eps
 62
   254
100
AcDbCircle
 10
2.153274474768295
 20
-2.088877458424576
 30
0.0
 40
3.0
  0
CIRCLE
  5
565
102
{ACAD_REACTORS
330
563
102
}
330
561
100
AcDbEntity
  8
eps
 62
   254
100
AcDbCircle
 10
9.183380687944918
 20
-3.150707591624268
 30
0.0
 40
2.0
  0
CIRCLE
  5
566
102
{ACAD_REACTORS
330
563
102
}
330
561
100
AcDbEntity
  8
eps
 62
   254
100
AcDbCircle
 10
5.50424343474242
 20
-10.22395803436757
 30
0.0
 40
4.0
  0
CIRCLE
  5
567
102
{ACAD_REACTORS
330
563
102
}
330
561
100
AcDbEntity
  8
eps
 62
   254
100
AcDbCircle
 10
1.121692185625761
 20
-16.43286101922513
 30
0.0
 40
2.0
  0
CIRCLE
  5
568
330
561
100
AcDbEntity
  8
eps
 62
   254
100
AcDbCircle
 10
8.703972890144541
 20
-26.21122040256978
 30
0.0
 40
2.0
  0
CIRCLE
  5
569
102
{ACAD_REACTORS
330
563
102
}
330
561
100
AcDbEntity
  8
eps
 62
   254
100
AcDbCircle
 10
22.00715224641408
 20
-19.56290887698651
 30
0.0
 40
2.0
  0
CIRCLE
  5
56A
102
{ACAD_REACTORS
330
563
102
}
330
561
100
AcDbEntity
  8
eps
 62
   254
100
AcDbCircle
 10
19.01098252133033
 20
-7.164015699477204
 30
0.0
 40
2.0
  0
CIRCLE
  5
56B
102
{ACAD_REACTORS
330
563
102
}
330
561
100
AcDbEntity
  8
eps
 62
   254
100
AcDbCircle
 10
8.625021722852579
 20
-18.32128648862363
 30
0.0
 40
3.0
  0
CIRCLE
  5
56C
330
561
100
AcDbEntity
  8
eps
 62
   254
100
AcDbCircle
 10
14.19781484395298
 20
-11.79242597922803
 30
0.0
 40
3.0
  0
CIRCLE
  5
56D
102
{ACAD_REACTORS
330
563
102
}
330
561
100
AcDbEntity
  8
eps
 62
   254
100
AcDbCircle
 10
15.81562264413605
 20
-2.148910809607514
 30
0.0
 40
3.0
  0
CIRCLE
  5
56E
102
{ACAD_REACTORS
330
563
102
}
330
561
100
AcDbEntity
  8
eps
 62
   254
100
AcDbCircle
 10
25.40377860212266
 20
-25.5089748094988
 30
0.0
 40
3.0
  0
CIRCLE
  5
56F
102
{ACAD_REACTORS
330
563
102
}
330
561
100
AcDbEntity
  8
eps
 62
   254
100
AcDbCircle
 10
23.60587034827131
 20
-3.646358717532166
 30
0.0
 40
3.0
  0
CIRCLE
  5
570
102
{ACAD_REACTORS
330
563
102
}
330
561
100
AcDbEntity
  8
eps
 62
   254
100
AcDbCircle
 10
16.23028334799255
 20
-23.4014379273367
 30
0.0
 40
4.0
  0
CIRCLE
  5
571
102
{ACAD_REACTORS
330
563
102
}
330
561
100
AcDbEntity
  8
eps
 62
   254
100
AcDbCircle
 10
24.80413181950371
 20
-11.85245936021328
 30
0.0
 40
3.0
  0
CIRCLE
  5
572
102
{ACAD_REACTORS
330
563
102
}
330
561
100
AcDbEntity
  8
eps
 62
   254
100
AcDbCircle
 10
2.872128148083902
 20
-23.17290683493138
 30
0.0
 40
3.0
  0
ENDBLK
  5
573
330
561
100
AcDbEntity
  8
0
 62
     7
100
AcDbBlockEnd
  0
BLOCK
  5
57F
330
574
100
AcDbEntity
  8
0
 48
3.0
100
AcDbBlockBegin
  2
*U7
 70
     1
 10
0.0
 20
0.0
 30
0.0
  3
*U7
  1

  0
LINE
  5
580
330
574
100
AcDbEntity
  8
Specialized_Lines
  6
Continuous
100
AcDbLine
 10
7797.578786902071
 20
3997.530308442822
 30
0.0
 11
7747.578786902071
 21
3997.530308442822
 31
0.0
  0
HATCH
  5
581
330
574
100
AcDbEntity
  8
0
  6
Continuous
 62
    30
 48
3.0
100
AcDbHatch
 10
0.0
 20
0.0
 30
0.0
210
0.0
220
0.0
230
1.0
  2
SOLID
 70
     1
 71
     0
 91
        1
 92
        7
 72
     0
 73
     1
 93
       18
 10
7811.864026827585
 20
4006.530308442822
 10
7798.778786902072
 20
4006.530308442822
 10
7798.778786902072
 20
4015.530308442822
 10
7797.578786902071
 20
4014.330308442821
 10
7797.578786902072
 20
3997.530308442822
 10
7722.227315039494
 20
3997.530308442822
 10
7722.227315039494
 20
4014.681780305398
 10
7721.378786902072
 20
4015.530308442822
 10
7721.378786902071
 20
3995.4817803054
 10
7722.227315039494
 20
3996.330308442823
 10
7725.681730627222
 20
3996.330308442822
 10
7722.227315039495
 20
3992.875892855096
 10
7721.378786902071
 20
3993.724420992517
 10
7721.378786902071
 20
3990.330308442823
 10
7727.378786902069
 20
3996.330308442823
 10
7798.778786902072
 20
3996.330308442824
 10
7798.778786902072
 20
4005.330308442823
 10
7811.864026827585
 20
4005.330308442823
 97
        0
 75
     1
 76
     1
 47
0.1028394275951878
 98
        1
 10
7800.95723889595
 20
4005.7841323297
1001
GradientColor1ACI
1070
     5
1001
GradientColor2ACI
1070
     2
1001
ACAD
1010
0.0
1020
0.0
1030
0.0
  0
LINE
  5
582
102
{ACAD_REACTORS
330
57C
102
}
330
574
100
AcDbEntity
  8
Specialized_Fills
  6
Continuous
100
AcDbLine
 10
7727.378786902069
 20
3996.330308442824
 30
0.0
 11
7721.378786902072
 21
3990.330308442825
 31
0.0
  0
LINE
  5
583
330
574
100
AcDbEntity
  8
Specialized_Fills
  6
Continuous
100
AcDbLine
 10
7721.378786902071
 20
3990.330308442823
 30
0.0
 11
7721.378786902071
 21
3993.724420992517
 31
0.0
  0
LINE
  5
584
330
574
100
AcDbEntity
  8
Specialized_Fills
  6
Continuous
100
AcDbLine
 10
7721.378786902071
 20
3993.724420992517
 30
0.0
 11
7722.227315039495
 21
3992.875892855096
 31
0.0
  0
LINE
  5
585
330
574
100
AcDbEntity
  8
Specialized_Fills
  6
Continuous
100
AcDbLine
 10
7722.227315039495
 20
3992.875892855096
 30
0.0
 11
7725.681730627222
 21
3996.330308442822
 31
0.0
  0
LINE
  5
586
330
574
100
AcDbEntity
  8
Specialized_Fills
  6
Continuous
100
AcDbLine
 10
7725.681730627222
 20
3996.330308442822
 30
0.0
 11
7722.227315039494
 21
3996.330308442823
 31
0.0
  0
LINE
  5
587
330
574
100
AcDbEntity
  8
Specialized_Fills
  6
Continuous
100
AcDbLine
 10
7722.227315039494
 20
3996.330308442823
 30
0.0
 11
7721.378786902071
 21
3995.4817803054
 31
0.0
  0
LINE
  5
588
330
574
100
AcDbEntity
  8
Specialized_Fills
  6
Continuous
100
AcDbLine
 10
7721.378786902071
 20
3995.4817803054
 30
0.0
 11
7721.378786902072
 21
4015.530308442822
 31
0.0
  0
LINE
  5
589
102
{ACAD_REACTORS
330
57B
102
}
330
574
100
AcDbEntity
  8
Specialized_Fills
  6
Continuous
100
AcDbLine
 10
7721.378786902072
 20
4015.530308442822
 30
0.0
 11
7722.227315039494
 21
4014.681780305398
 31
0.0
  0
LINE
  5
58A
102
{ACAD_REACTORS
330
57D
102
}
330
574
100
AcDbEntity
  8
Specialized_Fills
  6
Continuous
100
AcDbLine
 10
7722.227315039494
 20
4014.681780305398
 30
0.0
 11
7722.227315039494
 21
3997.530308442822
 31
0.0
  0
LINE
  5
58B
102
{ACAD_REACTORS
330
579
102
}
330
574
100
AcDbEntity
  8
Specialized_Fills
  6
Continuous
100
AcDbLine
 10
7722.227315039494
 20
3997.530308442822
 30
0.0
 11
7797.578786902072
 21
3997.530308442822
 31
0.0
  0
LINE
  5
58C
330
574
100
AcDbEntity
  8
Specialized_Fills
  6
Continuous
100
AcDbLine
 10
7797.578786902072
 20
3997.530308442822
 30
0.0
 11
7797.578786902071
 21
4014.330308442821
 31
0.0
  0
LINE
  5
58D
330
574
100
AcDbEntity
  8
Specialized_Fills
  6
Continuous
100
AcDbLine
 10
7797.578786902071
 20
4014.330308442821
 30
0.0
 11
7798.778786902072
 21
4015.530308442822
 31
0.0
  0
LINE
  5
58E
330
574
100
AcDbEntity
  8
Specialized_Fills
  6
Continuous
100
AcDbLine
 10
7798.778786902072
 20
4015.530308442822
 30
0.0
 11
7798.778786902072
 21
4006.530308442822
 31
0.0
  0
LINE
  5
58F
330
574
100
AcDbEntity
  8
Specialized_Fills
  6
Continuous
100
AcDbLine
 10
7798.778786902072
 20
4006.530308442822
 30
0.0
 11
7811.864026827585
 21
4006.530308442822
 31
0.0
  0
LINE
  5
590
330
574
100
AcDbEntity
  8
Specialized_Fills
  6
Continuous
100
AcDbLine
 10
7811.864026827585
 20
4006.530308442822
 30
0.0
 11
7811.864026827585
 21
4005.330308442823
 31
0.0
  0
LINE
  5
591
330
574
100
AcDbEntity
  8
Specialized_Fills
  6
Continuous
100
AcDbLine
 10
7811.864026827585
 20
4005.330308442823
 30
0.0
 11
7798.778786902072
 21
4005.330308442823
 31
0.0
  0
LINE
  5
592
330
574
100
AcDbEntity
  8
Specialized_Fills
  6
Continuous
100
AcDbLine
 10
7798.778786902072
 20
4005.330308442823
 30
0.0
 11
7798.778786902072
 21
3996.330308442824
 31
0.0
  0
LINE
  5
593
102
{ACAD_REACTORS
330
57A
102
}
330
574
100
AcDbEntity
  8
Specialized_Fills
  6
Continuous
100
AcDbLine
 10
7798.778786902072
 20
3996.330308442824
 30
0.0
 11
7727.378786902069
 21
3996.330308442824
 31
0.0
  0
ENDBLK
  5
594
330
574
100
AcDbEntity
  8
0
 48
3.0
100
AcDbBlockEnd
  0
ENDSEC
  0
SECTION
  2
ENTITIES
  0
HATCH
  5
3F
330
1F
100
AcDbEntity
  8
Specialized_Fills
  6
Continuous
 62
   254
370
    13
100
AcDbHatch
 10
0.0
 20
0.0
 30
0.0
210
0.0
220
0.0
230
1.0
  2
SOLID
 70
     1
 71
     1
 91
        1
 92
        2
 72
     0
 73
     1
 93
        4
 10
226.0215232948137
 20
185.760244947706
 10
226.0215232948137
 20
230.760244947722
 10
316.0215232947887
 20
230.760244947722
 10
316.0215232947887
 20
185.760244947706
 97
        1
330
41
 75
     0
 76
     1
 98
        0
  0
LWPOLYLINE
  5
41
102
{ACAD_REACTORS
330
3F
102
}
330
1F
100
AcDbEntity
  8
Specialized_Fills
  6
Continuous
100
AcDbPolyline
 90
        4
 70
   129
 43
0.0
 10
226.0215232948137
 20
185.760244947706
 10
226.0215232948137
 20
230.760244947722
 10
316.0215232947887
 20
230.760244947722
 10
316.0215232947887
 20
185.760244947706
  0
HATCH
  5
42
330
1F
100
AcDbEntity
  8
Specialized_Fills
  6
Continuous
100
AcDbHatch
 10
0.0
 20
0.0
 30
0.0
210
0.0
220
0.0
230
1.0
  2
LINES___ANGLED
 70
     0
 71
     1
 91
        1
 92
        2
 72
     0
 73
     1
 93
        4
 10
203.5215232948141
 20
299.4571517732849
 10
203.5215232948141
 20
249.4571517732877
 10
220.2785598431425
 20
249.4571517732877
 10
220.2785598431425
 20
299.4571517732849
 97
        1
330
43
 75
     0
 76
     2
 52
0.0
 41
1.0
 77
     0
 78
     1
 53
44.99999999999999
 43
0.0
 44
0.0
 45
-1.838477563650065
 46
1.838477563650065
 79
     0
 98
        0
  0
LWPOLYLINE
  5
43
102
{ACAD_REACTORS
330
42
102
}
330
1F
100
AcDbEntity
  8
Specialized_Fills
  6
Continuous
100
AcDbPolyline
 90
        4
 70
   129
 43
0.0
 10
203.5215232948141
 20
299.4571517732849
 10
203.5215232948141
 20
249.4571517732877
 10
220.2785598431425
 20
249.4571517732877
 10
220.2785598431425
 20
299.4571517732849
  0
LWPOLYLINE
  5
161
102
{ACAD_REACTORS
330
48C
102
}
330
1F
100
AcDbEntity
  8
Specialized_Fills
  6
Continuous
100
AcDbPolyline
 90
       41
 70
   129
 43
0.0
 10
79.08396980960367
 20
42.03268225987572
 10
73.71880541775027
 20
42.03268225987573
 10
67.74047938111374
 20
41.87939184867992
 10
61.4555725220853
 20
41.26623020389668
 10
55.170665663057
 20
40.34648773671937
 10
48.73246839283297
 20
40.34648773672027
 10
42.75414235619632
 20
40.34648773672183
 10
39.22846289869267
 20
41.41952061509249
 10
35.85607385238456
 20
41.5728110262883
 10
31.71723275009788
 20
40.193197325526
 10
28.80471493737736
 20
38.04713156878465
 10
24.81916424628628
 20
34.36816170008511
 10
24.81916424628628
 20
30.68919183138566
 10
22.36651766715323
 20
27.47009319627359
 10
21.44677519997839
 20
24.40428497235733
 10
23.65211957631976
 20
14.11641976746843
 10
171.9779589942405
 20
14.11641976746843
 10
171.977958994266
 20
22.41150962681176
 10
170.9049261158953
 20
24.71086579474897
 10
170.5983452935036
 20
28.69641648584007
 10
170.4450548823077
 20
33.60170964410589
 10
169.5253124151329
 20
36.82080827921823
 10
168.1456987143707
 20
39.12016444715533
 10
164.4667288456711
 20
40.95964938150362
 10
158.9482740426219
 20
40.95964938150509
 10
154.9627233515309
 20
40.95964938150506
 10
150.6705918380481
 20
41.11293979270086
 10
146.5317507357616
 20
40.95964938150508
 10
142.2396192222783
 20
40.65306855911123
 10
135.6481315408585
 20
40.65306855911341
 10
130.4362575602009
 20
41.11293979270086
 10
127.0638685138929
 20
40.49977814791762
 10
122.3897618600893
 20
39.85642467018143
 10
119.1183849922572
 20
40.35971341907865
 10
112.6421648571092
 20
39.34611274109505
 10
106.7675092141727
 20
40.24990591693961
 10
101.1577890218007
 20
41.11293979270088
 10
97.63210956429697
 20
40.80635897030922
 10
94.10643010679336
 20
40.34648773672182
 10
89.35442735972324
 20
41.87939184867994
 10
84.44913420145701
 20
42.03268225987571
  0
HATCH
  5
162
330
1F
100
AcDbEntity
  8
Specialized_Fills
  6
Continuous
100
AcDbHatch
 10
0.0
 20
0.0
 30
0.0
210
0.0
220
0.0
230
1.0
  2
LINES___HORIZONTAL
 70
     0
 71
     1
 91
        1
 92
        2
 72
     0
 73
     1
 93
        4
 10
183.2394684943
 20
215.4262015971783
 10
175.7394684943
 20
215.4262015971783
 10
175.7394684943
 20
14.1164197674684
 10
183.2394684942999
 20
14.1164197674684
 97
        1
330
163
 75
     0
 76
     2
 52
0.0
 41
1.0
 77
     0
 78
     1
 53
0.0
 43
0.0
 44
0.0
 45
0.0
 46
2.0
 79
     0
 98
        0
  0
LWPOLYLINE
  5
163
102
{ACAD_REACTORS
330
162
102
}
330
1F
100
AcDbEntity
  8
Specialized_Fills
  6
Continuous
100
AcDbPolyline
 90
        4
 70
   129
 43
0.0
 10
183.2394684943
 20
215.4262015971783
 10
175.7394684943
 20
215.4262015971783
 10
175.7394684943
 20
14.1164197674684
 10
183.2394684942999
 20
14.1164197674684
  0
LWPOLYLINE
  5
165
102
{ACAD_REACTORS
330
48C
102
}
330
1F
100
AcDbEntity
  8
Specialized_Fills
  6
Continuous
100
AcDbPolyline
 90
       48
 70
   129
 43
0.0
 10
118.0265386779077
 20
76.57983212759825
 10
128.6995684903127
 20
74.49163064256248
 10
137.7484415921342
 20
74.49163064256248
 10
145.1731579833724
 20
77.27589928927684
 10
150.0456281151226
 20
77.27589928927684
 10
157.9343892808132
 20
77.27589928927684
 10
163.734948961468
 20
77.27589928927684
 10
168.1433743187657
 20
80.988257484896
 10
168.1433743187657
 20
83.77252613161038
 10
169.5355086421229
 20
88.41297387613435
 10
169.7675310293491
 20
92.82139923343192
 10
169.7675310293491
 20
97.2298245907298
 10
171.6237101271586
 20
102.3343171097061
 10
170.2315758038015
 20
105.814652918099
 10
168.3753967059919
 20
106.7427424670038
 10
164.895060897599
 20
105.5826305308729
 10
157.9343892808132
 20
105.5826305308729
 10
149.1175385662178
 20
105.5826305308729
 10
138.4445087538128
 20
105.5826305308729
 10
130.323725200896
 20
105.5826305308729
 10
124.7551879074671
 20
105.1185857564205
 10
121.9709192607529
 20
104.6545409819681
 10
118.0265386779076
 20
105.3506081436467
 10
110.8338446738957
 20
103.7264514330633
 10
104.1051954443361
 20
104.4225185947419
 10
93.20014324470525
 20
104.4225185947419
 10
84.29048357521924
 20
104.3761141172963
 10
77.65464330054988
 20
105.1185857564205
 10
67.31428391968345
 20
103.0025870798272
 10
59.5568970969083
 20
103.4944290458361
 10
52.36420309289482
 20
103.9584738202895
 10
44.0113971527517
 20
103.9584738202895
 10
34.73050166370388
 20
103.9584738202895
 10
28.92994198304905
 20
105.5826305308729
 10
24.05747185129894
 20
104.6545409819681
 10
21.96927036626323
 20
98.15791413963458
 10
21.27320320458466
 20
94.21353355678919
 10
21.27320320458466
 20
84.93263806774136
 10
23.36140468962037
 20
78.66803361263404
 10
25.91365094910856
 20
75.18769780424105
 10
30.09005391918004
 20
77.27589928927684
 10
41.22712850603739
 20
77.27589928927681
 10
52.59622548012089
 20
77.27589928927684
 10
66.26415728970215
 20
76.4555077287079
 10
75.13615817214372
 20
78.27102897265203
 10
77.88666568777614
 20
78.90005599986024
 10
91.57598653412163
 20
76.57983212759825
 10
104.5692402187885
 20
76.57983212759825
  0
LWPOLYLINE
  5
167
102
{ACAD_REACTORS
330
48C
102
}
330
1F
100
AcDbEntity
  8
Specialized_Fills
  6
Continuous
100
AcDbPolyline
 90
       76
 70
   129
 43
0.0
 10
55.90213424186964
 20
74.11516373687702
 10
51.16897738383034
 20
74.115163736877
 10
48.99961382389571
 20
73.91794886779202
 10
44.2664569658562
 20
73.91794886779202
 10
36.37786220245738
 20
74.90402321321693
 10
31.64470534441785
 20
75.29845295138682
 10
29.47534178448314
 20
73.9179488677921
 10
26.51711874820819
 20
72.53744478419716
 10
22.57282136650872
 20
68.39593253341269
 10
19.61459833023434
 20
63.0711310681184
 10
19.02295372297931
 20
60.50733777001358
 10
18.70740993244152
 20
54.5514487236467
 10
20.99510241382922
 20
47.68837127948994
 10
22.17839162833894
 20
44.53293337413067
 10
23.9533254501037
 20
41.77192520694091
 10
25.33382953369863
 20
41.180280599686
 10
28.68648230814284
 20
41.77192520694094
 10
32.03913508258745
 20
42.56078468327818
 10
40.32215958415668
 20
42.56078468328083
 10
42.29430827500624
 20
42.95521442145072
 10
45.64696104945113
 20
43.15242929053579
 10
48.80239895481071
 20
44.1385036359606
 10
50.97176251474528
 20
43.54685902870571
 10
58.66314240905961
 20
44.33571850504564
 10
63.98794387435413
 20
44.33571850504567
 10
68.91831560147619
 20
44.53293337413065
 10
73.45425759043258
 20
44.73014824321555
 10
76.8069103648757
 20
44.92736311230043
 10
82.9205713065115
 20
45.32179285047045
 10
85.4843646046161
 20
45.1245779813854
 10
96.52839727337486
 20
45.12457798138549
 10
98.89497570239463
 20
44.13850363596063
 10
102.2476284768391
 20
42.95521442145077
 10
107.3752150730484
 20
42.1663549451109
 10
111.911157062003
 20
41.57471033785594
 10
115.8554544437026
 20
41.77192520694093
 10
120.7858261708269
 20
42.36356981419584
 10
127.4911317197158
 20
43.5468590287044
 10
136.168585959455
 20
43.54685902870573
 10
143.6627509846841
 20
44.33571850502871
 10
150.9597011408283
 20
44.33571850503741
 10
158.4538661660574
 20
44.33571850504565
 10
162.2009486786718
 20
44.33571850504566
 10
164.7647419767766
 20
44.13850363596064
 10
166.1452460603714
 20
44.33571850504566
 10
168.5118244893911
 20
47.09672667223524
 10
168.9062542275611
 20
50.05494970851016
 10
169.4978988348159
 20
53.40760248295451
 10
169.3006839657254
 20
56.56304038831394
 10
169.3006839657309
 20
64.0572054135432
 10
169.300683965731
 20
68.79036227158255
 10
167.9201798821361
 20
73.12908939145213
 10
164.5675271076916
 20
74.31237860596192
 10
162.9898081550118
 20
74.31237860596195
 10
158.6510810351424
 20
73.52351912962207
 10
155.2984282606978
 20
72.34022991511219
 10
150.7624862717438
 20
72.14301504601895
 10
143.6627509846844
 20
72.14301504602724
 10
138.7323792575596
 20
71.94580017694227
 10
134.7880818758602
 20
71.94580017694227
 10
130.4493547559907
 20
72.34022991511221
 10
125.913412767036
 20
72.53744478419722
 10
119.996966694487
 20
73.12908939145244
 10
115.6582395746176
 20
73.52351912962205
 10
110.5306529784082
 20
73.52351912962205
 10
107.3752150730485
 20
73.52351912962207
 10
101.0643392623292
 20
73.52351912962205
 10
94.75346345161005
 20
73.72073399870707
 10
89.42866198631582
 20
73.72073399870707
 10
84.10386052102138
 20
74.50959347504692
 10
78.38462931755711
 20
76.28452729681173
 10
74.63754680494247
 20
75.10123808230185
 10
70.49603455415686
 20
74.31237860596119
 10
64.38237361252379
 20
73.12908939145209
 10
61.02972083807938
 20
73.12908939145209
 10
60.24086136173952
 20
73.91794886779208
  0
HATCH
  5
168
330
1F
100
AcDbEntity
  8
Specialized_Fills
  6
Continuous
 62
   254
370
    13
100
AcDbHatch
 10
0.0
 20
0.0
 30
0.0
210
0.0
220
0.0
230
1.0
  2
SOLID
 70
     1
 71
     0
 91
        1
 92
        2
 72
     0
 73
     1
 93
       40
 10
85.82727727211972
 20
169.4441080751775
 10
90.68957310992558
 20
171.4878709149919
 10
96.61992926491604
 20
170.7046163284837
 10
103.1097529816981
 20
170.7046163284837
 10
106.9141324018806
 20
170.7046163284837
 10
114.5228912422458
 20
169.3618941801839
 10
126.7192840893018
 20
169.3618941801839
 10
136.2302326397582
 20
169.3618941801839
 10
147.4195838755894
 20
169.3618941801839
 10
153.2380465182215
 20
169.3618941801839
 10
161.2943794080199
 20
170.3689357914087
 10
166.665268001219
 20
170.3689357914087
 10
169.91017985961
 20
169.4737876925423
 10
172.0361565944179
 20
170.5927228161254
 10
172.0361565944179
 20
176.4111854587576
 10
172.9313046932843
 20
179.5442038047904
 10
171.5885825449847
 20
182.7891156631814
 10
171.9242630820597
 20
184.9150923979893
 10
170.9172214708348
 20
186.929175620439
 10
165.6260416716364
 20
187.0591232753425
 10
150.214782446359
 20
187.8277901442069
 10
146.7181101851618
 20
187.5202200491459
 10
143.0771334954628
 20
187.5202200491459
 10
140.6313103230777
 20
186.864863705276
 10
130.2060467295083
 20
188.5484466458524
 10
124.8315319576682
 20
188.5484466458524
 10
120.9100930768249
 20
188.9219187868199
 10
114.5756691741449
 20
188.9317293353753
 10
103.1601677226262
 20
188.9317293353753
 10
95.71148253110825
 20
190.96318893306
 10
81.28863657194742
 20
189.4301241917639
 10
66.80683829866258
 20
183.63740488245
 10
55.14866687981527
 20
180.665714128626
 10
41.01103764167391
 20
176.6695057137058
 10
30.91795765632582
 20
171.9792334636018
 10
30.61732696195191
 20
167.9207190895576
 10
53.60018581111083
 20
168.328141349689
 10
63.34512607461139
 20
168.328141349689
 10
70.86501422462387
 20
167.2802200404002
 10
78.94075431230291
 20
169.4441080751775
 97
        0
 75
     1
 76
     1
 98
        0
  0
HATCH
  5
169
330
1F
100
AcDbEntity
  8
Specialized_Fills
  6
Continuous
 62
     9
370
    20
100
AcDbHatch
 10
0.0
 20
0.0
 30
0.0
210
0.0
220
0.0
230
1.0
  2
SOLID
 70
     1
 71
     1
 91
        1
 92
        2
 72
     1
 73
     1
 93
       11
 10
223.5215232948135
 20
296.9671461606566
 42
0.0
 10
222.3759376915534
 20
296.9671461606566
 42
0.4447153019644188
 10
222.3759376915531
 20
294.635106040721
 42
0.0
 10
222.3759376915534
 20
231.0708634002753
 42
0.0
 10
96.72777160509237
 20
197.4035387669565
 42
0.0
 10
97.53294706627265
 20
194.6488829329263
 42
0.0
 10
102.3802658732432
 20
195.9617556679341
 42
0.0
 10
102.0837551341366
 20
196.9020063135308
 42
0.0
 10
98.2903693086272
 20
195.8891204410382
 42
0.0
 10
98.06170870086299
 20
196.7478429040934
 42
0.0
 10
223.5215232948136
 20
230.1477343038907
 42
0.0
 97
        1
330
16A
 75
     0
 76
     1
 98
        0
  0
LWPOLYLINE
  5
16A
102
{ACAD_REACTORS
330
169
102
}
330
1F
100
AcDbEntity
  8
Specialized_Fills
  6
Continuous
100
AcDbPolyline
 90
       11
 70
   129
 43
0.0
 10
223.5215232948135
 20
296.9671461606566
 10
222.3759376915534
 20
296.9671461606566
 42
0.4447153019644188
 10
222.3759376915531
 20
294.635106040721
 10
222.3759376915534
 20
231.0708634002753
 10
96.72777160509237
 20
197.4035387669565
 10
97.53294706627265
 20
194.6488829329263
 10
102.3802658732432
 20
195.9617556679341
 10
102.0837551341366
 20
196.9020063135308
 10
98.2903693086272
 20
195.8891204410382
 10
98.06170870086299
 20
196.7478429040934
 10
223.5215232948136
 20
230.1477343038907
  0
HATCH
  5
16B
330
1F
100
AcDbEntity
  8
Specialized_Fills
  6
Continuous
 62
   254
370
    13
100
AcDbHatch
 10
0.0
 20
0.0
 30
0.0
210
0.0
220
0.0
230
1.0
  2
SOLID
 70
     1
 71
     0
 91
        1
 92
        2
 72
     0
 73
     1
 93
       50
 10
104.2821731291558
 20
109.1528532628322
 10
116.3666724638533
 20
109.1528532628322
 10
121.8449788289162
 20
108.6694732894443
 10
134.5739847947976
 20
110.1196132096081
 10
145.6917241827195
 20
110.1196132096081
 10
154.8759436770897
 20
110.1196132096081
 10
156.5544590226211
 20
109.0930056532322
 10
162.0012048473868
 20
109.0930056532322
 10
165.8325564072155
 20
110.1196132096081
 10
167.9272029585631
 20
110.280739867404
 10
169.6995961943188
 20
114.9534129434871
 10
170.0218495099108
 20
118.3370727572025
 10
170.9886094566865
 20
123.8153791222655
 10
171.1497361144825
 20
129.2936854873284
 10
171.1497361144825
 20
133.4829785900237
 10
169.5384695365228
 20
138.1556516661069
 10
164.7046698026441
 20
137.833398350515
 10
155.3593236504777
 20
136.7055117459431
 10
145.3694708671276
 20
136.7055117459431
 10
137.1520113195332
 20
135.7387517991673
 10
126.1752892812933
 20
137.7151756330941
 10
118.1798892190673
 20
139.8575366229314
 10
106.2156930227072
 20
137.511145034923
 10
99.44837339527659
 20
137.511145034923
 10
96.70922021274513
 20
138.8001582972907
 10
92.35880045225398
 20
137.511145034923
 10
84.78584753584346
 20
137.511145034923
 10
77.69627459282085
 20
137.511145034923
 10
69.6399417030224
 20
137.511145034923
 10
64.96726862693947
 20
137.350018377127
 10
57.8776956839164
 20
137.3500183771271
 10
41.4427765887279
 20
138.4779049816988
 10
36.60897685484879
 20
138.4779049816988
 10
31.83318271777651
 20
137.9326523717173
 10
26.8214991536906
 20
135.7052374543457
 10
26.8214991536906
 20
130.4151270255885
 10
23.75880364230484
 20
125.681870326174
 10
24.59408423631913
 20
116.2153569273452
 10
22.10757765321176
 20
110.9252464985879
 10
22.75208428439563
 20
108.0249666582605
 10
38.7036234061965
 20
108.0249666582604
 10
40.53653767911272
 20
108.0249666582604
 10
44.63929979891747
 20
108.0249666582604
 10
46.97041463971562
 20
108.0249666582604
 10
50.30474276750623
 20
108.0249666582604
 10
59.65008891967231
 20
108.0249666582604
 10
64.16896939290731
 20
108.5989284659179
 10
70.44557499200227
 20
110.280739867404
 10
81.40218772212811
 20
110.280739867404
 10
93.32556039902986
 20
110.280739867404
 97
        0
 75
     1
 76
     1
 98
        0
  0
LWPOLYLINE
  5
16E
102
{ACAD_REACTORS
330
48C
102
}
330
1F
100
AcDbEntity
  8
Specialized_Fills
  6
Continuous
100
AcDbPolyline
 90
       18
 70
   129
 43
0.0
 10
140.6769413584777
 20
205.8196189659818
 10
129.8909715863736
 20
203.4663164702497
 10
117.5361334837815
 20
200.5246883505852
 10
103.4163185093909
 20
196.2103004417437
 10
102.925365187236
 20
191.7559068037255
 10
111.3644053498956
 20
191.4966312072835
 10
118.9075638876684
 20
191.3752231967131
 10
125.6829631389715
 20
192.1048325164189
 10
133.7573422144431
 20
191.2695519224046
 10
146.8434048540005
 20
191.2695519224046
 10
159.0941868995436
 20
191.2695519224046
 10
165.219577922315
 20
191.2695519224046
 10
168.5607002983722
 20
195.1675280278046
 10
171.3449689450866
 20
196.8380892158333
 10
170.5096883510723
 20
204.0771876972905
 10
170.485439637747
 20
209.3495727095795
 10
166.5632688115273
 20
212.0950922879332
 10
153.8162136263135
 20
209.9378983335124
  0
LINE
  5
16F
330
1F
100
AcDbEntity
  8
Specialized_Lines
  6
Continuous
100
AcDbLine
 10
226.0215232948137
 20
386.10690561428
 30
0.0
 11
226.0215232948137
 21
14.11641976746844
 31
0.0
  0
LINE
  5
171
330
1F
100
AcDbEntity
  8
Specialized_Lines
  6
Continuous
100
AcDbLine
 10
316.0215232947887
 20
386.10690561428
 30
0.0
 11
316.0215232947887
 21
14.11641976746843
 31
0.0
  0
LINE
  5
172
330
1F
100
AcDbEntity
  8
Specialized_Lines
  6
Continuous
100
AcDbLine
 10
226.0215232948137
 20
378.5447313685535
 30
0.0
 11
226.0215232948137
 21
14.11641976746844
 31
0.0
  0
LINE
  5
174
330
1F
100
AcDbEntity
  8
Specialized_Lines
  6
DASHEDX2
100
AcDbLine
 10
224.0215232948137
 20
386.10690561428
 30
0.0
 11
224.0215232948137
 21
14.11641976746844
 31
0.0
  0
LINE
  5
175
102
{ACAD_REACTORS
330
6D2
102
}
330
1F
100
AcDbEntity
  8
Specialized_Lines
  6
DASHEDX2
100
AcDbLine
 10
124.4859586672472
 20
213.4883494109672
 30
0.0
 11
124.4859586672475
 21
386.1069056142799
 31
0.0
  0
LWPOLYLINE
  5
176
102
{ACAD_REACTORS
330
48C
102
}
330
1F
100
AcDbEntity
  8
Specialized_Lines
  6
Continuous
100
AcDbPolyline
 90
       40
 70
   129
 43
0.0
 10
170.9172214708347
 20
186.929175620439
 10
165.6260416716357
 20
187.0591232753425
 10
150.214782446359
 20
187.8277901442069
 10
146.7181101851618
 20
187.5202200491459
 10
143.0771334954626
 20
187.5202200491459
 10
140.6313103230777
 20
186.864863705276
 10
130.2060467295082
 20
188.5484466458525
 10
124.831531957668
 20
188.5484466458525
 10
120.910093076825
 20
188.9219187868199
 10
114.5756691741549
 20
188.9317293353753
 10
103.1601677226262
 20
188.9317293353753
 10
95.71148253110818
 20
190.96318893306
 10
81.28863657194745
 20
189.4301241917639
 10
66.80683829866251
 20
183.63740488245
 10
55.1486668798143
 20
180.6657141286259
 10
41.01103764167379
 20
176.6695057137058
 10
30.91795765632577
 20
171.9792334636018
 10
30.61732696195185
 20
167.9207190895576
 10
53.60018581111109
 20
168.328141349689
 10
63.34512607461127
 20
168.328141349689
 10
70.86501422462382
 20
167.2802200404003
 10
78.94075431230283
 20
169.4441080751775
 10
85.82727727211965
 20
169.4441080751775
 10
90.6895731099255
 20
171.4878709149919
 10
96.61992926491599
 20
170.7046163284837
 10
103.109752981698
 20
170.7046163284837
 10
106.9141324018806
 20
170.7046163284837
 10
114.5228912422458
 20
169.3618941801839
 10
126.7192840893017
 20
169.3618941801839
 10
136.2302326397582
 20
169.3618941801839
 10
147.4195838755893
 20
169.3618941801839
 10
153.2380465182215
 20
169.3618941801839
 10
161.2943794080199
 20
170.3689357914087
 10
166.6652680012189
 20
170.3689357914087
 10
169.9101798596099
 20
169.4737876925422
 10
172.0361565944178
 20
170.5927228161253
 10
172.0361565944178
 20
176.4111854587576
 10
172.9313046932843
 20
179.5442038047904
 10
171.5885825449846
 20
182.7891156631815
 10
171.9242630820595
 20
184.9150923979894
  0
LWPOLYLINE
  5
177
330
1F
100
AcDbEntity
  8
Specialized_Lines
  6
Continuous
100
AcDbPolyline
 90
        6
 70
   128
 43
0.0
 10
220.7998128431738
 20
14.11641976746843
 10
223.5215232948138
 20
14.11641976746843
 10
223.5215232948136
 20
227.0166246422373
 10
183.9807503050039
 20
216.6518799803719
 10
183.9807503050042
 20
14.11641976746841
 10
203.0076245344769
 20
14.11641976746836
  0
LWPOLYLINE
  5
178
330
1F
100
AcDbEntity
  8
Specialized_Lines
  6
Sketch
100
AcDbPolyline
 90
       46
 70
   129
 43
0.0
 10
24.59408423631913
 20
116.2153569273452
 10
23.75880364230484
 20
125.681870326174
 10
26.8214991536906
 20
130.4151270255885
 10
26.8214991536906
 20
135.7052374543457
 10
31.83318271777641
 20
137.9326523717173
 10
36.60897685484891
 20
138.4779049816988
 10
41.44277658872796
 20
138.4779049816988
 10
57.87769568391674
 20
137.350018377127
 10
64.96726862693936
 20
137.350018377127
 10
69.63994170302242
 20
137.511145034923
 10
77.69627459282085
 20
137.511145034923
 10
84.78584753584346
 20
137.511145034923
 10
92.35880045225398
 20
137.511145034923
 10
96.70922021274513
 20
138.8001582972907
 10
99.44837339527659
 20
137.511145034923
 10
106.2156930227072
 20
137.511145034923
 10
118.1798892190674
 20
139.8575366229314
 10
126.1752892812936
 20
137.7151756330941
 10
137.1520113195332
 20
135.7387517991673
 10
145.3694708671276
 20
136.7055117459431
 10
155.3593236504776
 20
136.7055117459431
 10
164.7046698026438
 20
137.8333983505149
 10
169.5384695365228
 20
138.1556516661069
 10
171.1497361144825
 20
133.4829785900237
 10
171.1497361144825
 20
129.2936854873285
 10
170.9886094566865
 20
123.8153791222655
 10
170.0218495099107
 20
118.3370727572025
 10
169.6995961943188
 20
114.9534129434871
 10
167.9272029585631
 20
110.280739867404
 10
165.8325564072155
 20
110.1196132096081
 10
158.2137452825458
 20
108.0781589214675
 10
154.8759436770897
 20
110.1196132096081
 10
145.6917241827195
 20
110.1196132096081
 10
134.5739847947977
 20
110.1196132096081
 10
121.8449788289162
 20
108.6694732894443
 10
116.3666724638532
 20
109.1528532628322
 10
104.2821731291556
 20
109.1528532628322
 10
93.32556039902978
 20
110.280739867404
 10
81.40218772212811
 20
110.280739867404
 10
70.44557499200228
 20
110.280739867404
 10
64.16896939290737
 20
108.5989284659179
 10
59.6500889196724
 20
108.0249666582604
 10
50.30474276750623
 20
108.0249666582604
 10
38.7036234061965
 20
108.0249666582604
 10
22.75208428439563
 20
108.0249666582604
 10
22.10757765321176
 20
110.9252464985879
  0
LWPOLYLINE
  5
179
102
{ACAD_REACTORS
330
48C
102
}
330
1F
100
AcDbEntity
  8
Specialized_Lines
  6
Continuous
100
AcDbPolyline
 90
       46
 70
   129
 43
0.0
 10
24.59408423631908
 20
116.2153569273452
 10
23.75880364230477
 20
125.681870326174
 10
26.82149915369052
 20
130.4151270255885
 10
26.82149915369052
 20
135.7052374543457
 10
31.83318271777637
 20
137.9326523717173
 10
36.60897685484883
 20
138.4779049816988
 10
41.44277658872789
 20
138.4779049816988
 10
57.87769568391667
 20
137.350018377127
 10
64.9672686269393
 20
137.350018377127
 10
69.63994170302237
 20
137.511145034923
 10
77.6962745928208
 20
137.511145034923
 10
84.78584753584341
 20
137.511145034923
 10
92.35880045225391
 20
137.511145034923
 10
96.7092202127451
 20
138.8001582972907
 10
99.44837339527651
 20
137.511145034923
 10
106.2156930227072
 20
137.511145034923
 10
118.1798892190673
 20
139.8575366229314
 10
126.1752892812936
 20
137.7151756330941
 10
137.1520113195331
 20
135.7387517991673
 10
145.3694708671275
 20
136.7055117459431
 10
155.3593236504776
 20
136.7055117459431
 10
164.7046698026437
 20
137.8333983505149
 10
169.5384695365228
 20
138.1556516661069
 10
171.1497361144824
 20
133.4829785900237
 10
171.1497361144824
 20
129.2936854873285
 10
170.9886094566865
 20
123.8153791222655
 10
170.0218495099107
 20
118.3370727572025
 10
169.6995961943187
 20
114.9534129434871
 10
167.9272029585631
 20
110.280739867404
 10
165.8325564072155
 20
110.1196132096081
 10
158.2137452825457
 20
108.0781589214675
 10
154.8759436770896
 20
110.1196132096081
 10
145.6917241827194
 20
110.1196132096081
 10
134.5739847947976
 20
110.1196132096081
 10
121.8449788289161
 20
108.6694732894443
 10
116.3666724638532
 20
109.1528532628322
 10
104.2821731291555
 20
109.1528532628322
 10
93.32556039902971
 20
110.280739867404
 10
81.40218772212808
 20
110.280739867404
 10
70.4455749920022
 20
110.280739867404
 10
64.16896939290731
 20
108.5989284659179
 10
59.65008891967233
 20
108.0249666582604
 10
50.30474276750618
 20
108.0249666582604
 10
38.70362340619647
 20
108.0249666582604
 10
22.75208428439555
 20
108.0249666582604
 10
22.1075776532117
 20
110.9252464985879
  0
LWPOLYLINE
  5
17A
102
{ACAD_REACTORS
330
48C
102
}
330
1F
100
AcDbEntity
  8
Specialized_Lines
  6
Continuous
100
AcDbPolyline
 90
       47
 70
   129
 43
0.0
 10
172.9326163358908
 20
165.8083716361225
 10
171.3858004210495
 20
168.3219474977396
 10
169.0655765487875
 20
168.70865147645
 10
164.0384248255533
 20
168.70865147645
 10
158.0445131555433
 20
168.5152994870948
 10
153.5974174003746
 20
168.1285955083844
 10
148.5702656771404
 20
168.1285955083844
 10
142.3830020177751
 20
168.3219474977396
 10
138.1292582519616
 20
168.3219474977396
 10
132.5220505606619
 20
167.3551875509638
 10
129.041714752269
 20
168.3219474977396
 10
124.7879709864554
 20
167.7418915296741
 10
119.9541712525763
 20
167.7418915296741
 10
115.1203715186973
 20
167.7418915296741
 10
108.739755869977
 20
168.826170729811
 10
103.8589968397579
 20
169.4464676874246
 10
94.93680051295568
 20
169.9696005837853
 10
87.27768505155399
 20
169.9696005837853
 10
83.79734924316109
 20
168.70865147645
 10
80.31701343476814
 20
166.5817795935431
 10
74.51645375411328
 20
166.1950756148328
 10
69.87600600958939
 20
165.6150196467673
 10
63.88209433957936
 20
164.068203731926
 10
48.80063916987672
 20
164.068203731926
 10
30.36933782485028
 20
159.0866674239342
 10
27.62623866747458
 20
151.4059897832813
 10
29.54640807763775
 20
142.0794526482026
 10
38.74633572340826
 20
140.6726130199511
 10
43.193431478577
 20
140.2859090412408
 10
54.21449487182127
 20
140.2859090412408
 10
63.68874235022421
 20
140.2859090412408
 10
77.4167335944407
 20
140.2859090412408
 10
92.30483677478821
 20
140.2859090412408
 10
96.55858054060178
 20
141.6393729667269
 10
103.1325481786772
 20
141.0593169986614
 10
115.7004274867628
 20
141.0593169986614
 10
122.8544510929038
 20
139.8992050625304
 10
129.4284187309793
 20
139.3191490944649
 10
136.9691463158306
 20
139.3191490944649
 10
142.7697059964855
 20
139.8992050625304
 10
147.9902097090749
 20
141.4460209773717
 10
154.5641773471503
 20
141.4460209773717
 10
162.491608910712
 20
141.4460209773717
 10
168.5553623997935
 20
144.9469306865925
 10
170.6123924636288
 20
148.2133406048025
 10
171.9658563891149
 20
157.6875880832056
 10
171.9658563891149
 20
161.3612758809537
  0
LWPOLYLINE
  5
17B
330
1F
100
AcDbEntity
  8
Specialized_Lines
  6
DASHEDX2
100
AcDbPolyline
 90
        4
 70
   129
 43
0.0
 10
27.45886507327572
 20
110.4123402311898
 10
27.45886507327572
 20
165.7939331923237
 10
172.0361565944179
 20
165.7939331923237
 10
172.0361565944179
 20
110.4123402311898
  0
LWPOLYLINE
  5
17C
330
1F
100
AcDbEntity
  8
Specialized_Lines
  6
DASHEDX2
100
AcDbPolyline
 90
        2
 70
   128
 43
0.0
 10
27.4588650732755
 20
165.7939331923236
 10
172.0361565944177
 20
110.4123402311898
  0
LWPOLYLINE
  5
17D
330
1F
100
AcDbEntity
  8
Specialized_Lines
  6
Hidden
100
AcDbPolyline
 90
        2
 70
   128
 43
0.0
 10
172.0361565944177
 20
165.7939331923236
 10
27.4588650732755
 20
110.4123402311897
  0
LWPOLYLINE
  5
17E
330
1F
100
AcDbEntity
  8
Specialized_Lines
  6
DASHEDX2
100
AcDbPolyline
 90
        4
 70
   128
 43
0.0
 10
221.1552243432072
 20
252.7494952546716
 10
221.1552243432072
 20
296.542672604691
 10
222.5289108600262
 20
300.026864108935
 10
222.5289108600259
 20
334.5860822747856
  0
LWPOLYLINE
  5
180
330
1F
100
AcDbEntity
  8
0
  6
Continuous
100
AcDbPolyline
 90
        6
 70
   128
 43
0.0
 10
327.5087184385967
 20
14.11641976746841
 10
280.4445402470555
 20
14.11641976746841
 10
278.4445402470602
 20
19.61137460637735
 10
274.4445402470553
 20
8.621464928559474
 10
272.44454024706
 20
14.11641976746841
 10
18.10532477198369
 20
14.11641976746841
  0
LWPOLYLINE
  5
181
102
{ACAD_XDICTIONARY
360
7A1
102
}
330
1F
100
AcDbEntity
  8
0
  6
Continuous
100
AcDbPolyline
 90
        6
 70
   128
 43
0.0
 10
323.501366012659
 20
386.10690561428
 10
280.4445402470555
 20
386.10690561428
 10
278.4445402470602
 20
391.6018604531889
 10
274.4445402470553
 20
380.611950775371
 10
272.44454024706
 20
386.10690561428
 10
111.8432752357701
 20
386.10690561428
  0
DIMENSION
  5
18E
330
1F
100
AcDbEntity
  8
Specialized_Lines
  6
Continuous
100
AcDbDimension
  2
*D2
 10
250.0169423995873
 20
296.9671461606566
 30
0.0
 11
245.4623721403786
 21
264.1555893372797
 31
0.0
 70
    32
  1
35mm min cover
 71
     5
 42
65.62311364675401
  3
GENERATED_STYLE__1
100
AcDbAlignedDimension
 13
202.8178565036744
 23
231.3440325139026
 33
0.0
 14
223.5215232948135
 24
296.9671461606566
 34
0.0
 50
90.0
100
AcDbRotatedDimension
1001
ACAD
1000
DSTYLE
1002
{
1070
   147
1040
2.0
1070
    42
1040
9.0
1002
}
  0
MTEXT
  5
1A2
102
{ACAD_REACTORS
330
1A4
102
}
330
1F
100
AcDbEntity
  8
Specialized_Text
  6
Continuous
100
AcDbMText
 10
218.594376273835
 20
408.4875557681425
 30
0.0
 40
5.25
 41
56.94862086801528
 71
     4
 72
     1
  1
{20mm Cavity}
  7
GENERATED_STYLE_1
 73
     1
 44
1.0
1001
ACAD
1000
MTEXTBEGIN
1070
    73
1070
     1
1070
    44
1040
1.0
1070
    74
1070
     0
1000
MTEXTEND
1000
ACAD_MTEXT_DEFINED_HEIGHT_BEGIN
1070
    46
1040
16.35137030218993
1000
ACAD_MTEXT_DEFINED_HEIGHT_END
  0
LEADER
  5
1A4
330
1F
100
AcDbEntity
  8
Specialized_Text
  6
Continuous
 62
   251
370
    13
100
AcDbLeader
  3
GENERATED_STYLE__3
 73
     0
 74
     0
 75
     1
 40
6.879433833560709
 41
42.50852660300136
 76
     3
 10
210.9333581303824
 20
379.1719340590534
 30
0.0
 10
211.208376273835
 20
408.4875557681425
 30
0.0
 10
218.504376273835
 20
408.4875557681425
 30
0.0
340
1A2
  0
MTEXT
  5
1AB
102
{ACAD_REACTORS
330
1AC
102
}
330
1F
100
AcDbEntity
  8
Specialized_Text
  6
Continuous
100
AcDbMText
 10
323.5084992625278
 20
116.7706939367904
 30
0.0
 40
5.25
 41
69.48941082324239
 71
     4
 72
     1
  1
{Proprietary schist cladding system}
  7
GENERATED_STYLE_1
 73
     1
 44
1.0
1001
ACAD
1000
MTEXTBEGIN
1070
    73
1070
     1
1070
    44
1040
1.0
1070
    74
1070
     0
1000
MTEXTEND
  0
LEADER
  5
1AC
330
1F
100
AcDbEntity
  8
Specialized_Text
  6
Continuous
 62
   251
370
    13
100
AcDbLeader
  3
GENERATED_STYLE__3
 73
     0
 40
15.53990450204638
 41
56.02387448840381
 76
     2
 10
183.2466017441685
 20
117.5237498114698
 30
0.0
 10
323.4184992625278
 20
116.7706939367904
 30
0.0
340
1AB
  0
MTEXT
  5
1AD
102
{ACAD_REACTORS
330
1AE
102
}
330
1F
100
AcDbEntity
  8
Specialized_Text
  6
Continuous
100
AcDbMText
 10
323.501366012659
 20
374.4835779830726
 30
0.0
 40
5.25
 41
67.9055500821762
 71
     4
 72
     1
  1
{Mesh reinforcing and selected plaster finish}
  7
GENERATED_STYLE_1
 73
     1
 44
1.0
1001
ACAD
1000
MTEXTBEGIN
1070
    73
1070
     1
1070
    44
1040
1.0
1070
    74
1070
     0
1000
MTEXTEND
1000
ACAD_MTEXT_DEFINED_HEIGHT_BEGIN
1070
    46
1040
24.39563973758219
1000
ACAD_MTEXT_DEFINED_HEIGHT_END
  0
LEADER
  5
1AE
330
1F
100
AcDbEntity
  8
Specialized_Text
  6
Continuous
 62
   251
370
    13
100
AcDbLeader
  3
GENERATED_STYLE__3
 73
     0
 40
23.01858799454297
 41
67.41558663028648
 76
     2
 10
124.4859586672473
 20
375.1825184610313
 30
0.0
 10
323.411366012659
 20
374.4835779830726
 30
0.0
340
1AD
  0
MTEXT
  5
1AF
102
{ACAD_XDICTIONARY
360
7A4
102
}
102
{ACAD_REACTORS
330
1B0
102
}
330
1F
100
AcDbEntity
  8
Specialized_Text
  6
Continuous
100
AcDbMText
 10
323.501366012659
 20
258.1417082258868
 30
0.0
 40
5.25
 41
69.48941082323795
 71
     4
 72
     1
  1
{Discontinuous horizontal 50mm x 50mm ventilated EPS battens on 15\U+00B0 slope and no longer than 100mm in length where required for fixing}
  7
GENERATED_STYLE_1
 73
     1
 44
1.0
1001
ACAD
1000
MTEXTBEGIN
1070
    73
1070
     1
1070
    44
1040
1.0
1070
    74
1070
     0
1000
MTEXTEND
  0
LEADER
  5
1B0
330
1F
100
AcDbEntity
  8
Specialized_Text
  6
Continuous
 62
   251
370
    13
100
AcDbLeader
  3
GENERATED_STYLE__3
 73
     0
 40
68.29416780354707
 41
64.29996589358798
 76
     2
 10
211.2805260681494
 20
258.8823455361587
 30
0.0
 10
323.411366012659
 20
258.1417082258868
 30
0.0
340
1AF
  0
MTEXT
  5
1B1
102
{ACAD_REACTORS
330
1B2
102
}
330
1F
100
AcDbEntity
  8
Specialized_Text
  6
Continuous
100
AcDbMText
 10
323.4961766627974
 20
203.3787456269717
 30
0.0
 40
5.25
 41
69.48941082323928
 71
     4
 72
     1
  1
{Breather type building paper as supplied and installed by builder}
  7
GENERATED_STYLE_1
 73
     1
 44
1.0
1001
ACAD
1000
MTEXTBEGIN
1070
    73
1070
     1
1070
    44
1040
1.0
1070
    74
1070
     0
1000
MTEXTEND
  0
LEADER
  5
1B2
330
1F
100
AcDbEntity
  8
Specialized_Text
  6
Continuous
 62
   251
370
    13
100
AcDbLeader
  3
GENERATED_STYLE__3
 73
     0
 40
33.03990450204639
 41
60.35351296043657
 76
     2
 10
224.0163339449521
 20
204.1116560660444
 30
0.0
 10
323.4061766627974
 20
203.3787456269717
 30
0.0
340
1B1
  0
MTEXT
  5
1B3
102
{ACAD_REACTORS
330
1B4
102
}
330
1F
100
AcDbEntity
  8
Specialized_Text
  6
Continuous
100
AcDbMText
 10
323.501366012659
 20
159.2937315273907
 30
0.0
 40
5.25
 41
69.48941082324312
 71
     4
 72
     1
  1
{Top peice of the schist must either be placed or cut so a 15 degree slope is formed on the sill}
  7
GENERATED_STYLE_1
 73
     1
 44
1.0
1001
ACAD
1000
MTEXTBEGIN
1070
    73
1070
     1
1070
    44
1040
1.0
1070
    74
1070
     0
1000
MTEXTEND
  0
LEADER
  5
1B4
330
1F
100
AcDbEntity
  8
Specialized_Text
  6
Continuous
 62
   251
370
    13
100
AcDbLeader
  3
GENERATED_STYLE__3
 73
     0
 40
40.54365620736699
 41
67.29740791268759
 76
     3
 10
126.6659866804289
 20
193.7248992325857
 30
0.0
 10
126.6659866804289
 20
159.2937315273907
 30
0.0
 10
323.411366012659
 20
159.2937315273907
 30
0.0
340
1B3
  0
MTEXT
  5
1B5
102
{ACAD_REACTORS
330
1B6
102
}
330
1F
100
AcDbEntity
  8
Specialized_Text
  6
Continuous
100
AcDbMText
 10
323.5013660126589
 20
26.18851072021745
 30
0.0
 40
5.25
 41
55.82655327702541
 71
     4
 72
     1
  1
{Schist veneer}
  7
GENERATED_STYLE_1
 73
     1
 44
1.0
1001
ACAD
1000
MTEXTBEGIN
1070
    73
1070
     1
1070
    44
1040
1.0
1070
    74
1070
     0
1000
MTEXTEND
1000
ACAD_MTEXT_DEFINED_HEIGHT_BEGIN
1070
    46
1040
14.93409584178196
1000
ACAD_MTEXT_DEFINED_HEIGHT_END
  0
LEADER
  5
1B6
330
1F
100
AcDbEntity
  8
Specialized_Text
  6
Continuous
 62
   251
370
    13
100
AcDbLeader
  3
GENERATED_STYLE__3
 73
     0
 40
5.429058663028649
 41
44.20242155525238
 76
     2
 10
143.1920965001842
 20
26.3514158119269
 30
0.0
 10
323.411366012659
 20
26.18851072021745
 30
0.0
340
1B5
  0
MTEXT
  5
1B7
102
{ACAD_REACTORS
330
1B8
102
}
330
1F
100
AcDbEntity
  8
Specialized_Text
  6
Continuous
100
AcDbMText
 10
76.03823227814783
 20
280.8908768923
 30
0.0
 40
5.5
 41
53.09644917403741
 71
     6
 72
     1
  1
THERMASHELL proprietary PVC punched base bead
  7
GENERATED_STYLE_1
 73
     1
 44
1.0
1001
ACAD
1000
MTEXTBEGIN
1070
    73
1070
     1
1070
    44
1040
1.0
1070
    74
1070
     0
1000
MTEXTEND
  0
LEADER
  5
1B8
330
1F
100
AcDbEntity
  8
Specialized_Text
  6
Continuous
 62
   251
370
    13
100
AcDbLeader
  3
GENERATED_STYLE__3
 73
     0
 75
     1
 40
33.28137789904503
 41
56.3618690313779
 76
     4
 10
127.235958667251
 20
241.3465743693726
 30
0.0
 10
104.9192831557384
 20
264.1408597085408
 30
0.0
 10
83.42423227814782
 20
280.8908768923
 30
0.0
 10
76.12823227814783
 20
280.8908768923
 30
0.0
340
1B7
  0
MTEXT
  5
1B9
102
{ACAD_XDICTIONARY
360
7A6
102
}
102
{ACAD_REACTORS
330
1BA
102
}
330
1F
100
AcDbEntity
  8
Specialized_Text
  6
Continuous
100
AcDbMText
 10
323.5013660126589
 20
72.09416442206758
 30
0.0
 40
5.25
 41
69.48941082324239
 71
     4
 72
     1
  1
{Ventilation openings at top of schist veneer wall to provide opening of 1000mm\U+00B2 per lineal metre of wall}
  7
GENERATED_STYLE_1
 73
     1
 44
1.0
1001
ACAD
1000
MTEXTBEGIN
1070
    73
1070
     1
1070
    44
1040
1.0
1070
    74
1070
     0
1000
MTEXTEND
  0
LEADER
  5
1BA
330
1F
100
AcDbEntity
  8
Specialized_Text
  6
Continuous
 62
   251
370
    13
100
AcDbLeader
  3
GENERATED_STYLE__3
 73
     0
 40
49.3831855388813
 41
65.72885402455661
 76
     3
 10
142.1639216745265
 20
136.8174885674382
 30
0.0
 10
142.2597170623444
 20
72.07963155412199
 30
0.0
 10
323.411366012659
 20
72.09416442206758
 30
0.0
340
1B9
  0
MTEXT
  5
1BB
102
{ACAD_XDICTIONARY
360
7A8
102
}
102
{ACAD_REACTORS
330
1BC
102
}
330
1F
100
AcDbEntity
  8
Specialized_Text
  6
Continuous
100
AcDbMText
 10
83.23751153285455
 20
210.0357933843958
 30
0.0
 40
5.5
 41
61.49412486462316
 71
     6
 72
     1
  1
{Flashing with 15\U+00BA slope and minimum 35mm cover over schist}
  7
GENERATED_STYLE_1
 73
     1
 44
1.0
1001
ACAD
1000
MTEXTBEGIN
1070
    73
1070
     1
1070
    44
1040
1.0
1070
    74
1070
     0
1000
MTEXTEND
  0
LEADER
  5
1BC
330
1F
100
AcDbEntity
  8
Specialized_Text
  6
Continuous
 62
   251
370
    13
100
AcDbLeader
  3
GENERATED_STYLE__3
 73
     0
 40
33.14631650750341
 41
57.53990450204639
 76
     3
 10
107.2946850157583
 20
200.234934681834
 30
0.0
 10
93.8499728216521
 20
210.1428183773273
 30
0.0
 10
83.32751153285455
 20
210.0357933843958
 30
0.0
340
1BB
  0
MTEXT
  5
1BD
102
{ACAD_REACTORS
330
1BE
102
}
330
1F
100
AcDbEntity
  8
Specialized_Text
  6
Continuous
100
AcDbMText
 10
323.5072985900051
 20
316.5386895568877
 30
0.0
 40
5.25
 41
70.80701875070378
 71
     4
 72
     1
  1
{Flashing tape or second layer of building wrap over flashing upstand}
  7
GENERATED_STYLE_1
 73
     1
 44
1.0
1001
ACAD
1000
MTEXTBEGIN
1070
    73
1070
     1
1070
    44
1040
1.0
1070
    74
1070
     0
1000
MTEXTEND
  0
LEADER
  5
1BE
330
1F
100
AcDbEntity
  8
Specialized_Text
  6
Continuous
 62
   251
370
    13
100
AcDbLeader
  3
GENERATED_STYLE__3
 73
     0
 40
33.21896316507503
 41
59.12875170532061
 76
     2
 10
222.5289108600255
 20
313.0094980501556
 30
0.0
 10
323.4172985900051
 20
316.5386895568877
 30
0.0
340
1BD
  0
LINE
  5
1BF
330
1F
100
AcDbEntity
  8
Specialized_Lines
  6
Continuous
100
AcDbLine
 10
316.0215233948189
 20
230.760244947722
 30
0.0
 11
226.0215233948155
 21
185.7602449477202
 31
0.0
  0
LINE
  5
1C0
330
1F
100
AcDbEntity
  8
Specialized_Lines
  6
Continuous
100
AcDbLine
 10
316.0215233548012
 20
185.7602448676918
 30
0.0
 11
226.0215234348333
 21
230.7602450277522
 31
0.0
  0
MTEXT
  5
1C3
102
{ACAD_XDICTIONARY
360
7AA
102
}
102
{ACAD_REACTORS
330
1C4
102
}
330
1F
100
AcDbEntity
  8
Specialized_Text
  6
Continuous
100
AcDbMText
 10
323.501366012659
 20
349.9119306229837
 30
0.0
 40
5.25
 41
69.48941082323489
 71
     4
 72
     1
  1
{\C30;75mm Neopor\U+00AE EPS}
  7
GENERATED_STYLE_1
 73
     1
 44
1.0
1001
ACAD
1000
MTEXTBEGIN
1070
    73
1070
     1
1070
    44
1040
1.0
1070
    74
1070
     0
1000
MTEXTEND
  0
LEADER
  5
1C4
330
1F
100
AcDbEntity
  8
Specialized_Text
  6
Continuous
 62
   251
370
    13
100
AcDbLeader
  3
GENERATED_STYLE__3
 73
     0
 40
6.800648021828102
 41
67.85607094133697
 76
     2
 10
188.9830597395927
 20
350.6025378228851
 30
0.0
 10
323.411366012659
 20
349.9119306229837
 30
0.0
340
1C3
  0
LINE
  5
232
330
1F
100
AcDbEntity
  8
Viewport
 62
     7
100
AcDbLine
 10
390.9752839094099
 20
471.6539900379408
 30
0.0
 11
390.9752839094099
 21
-68.39562560085539
 31
0.0
  0
LINE
  5
233
330
1F
100
AcDbEntity
  8
Viewport
 62
     7
100
AcDbLine
 10
390.9752839094099
 20
-68.39562560085539
 30
0.0
 11
17.83355682342608
 21
-68.39562560085539
 31
0.0
  0
MTEXT
  5
236
330
1F
100
AcDbEntity
  8
Specialized_Lines
 62
    30
100
AcDbMText
 10
96.12992161390417
 20
-27.06275934053281
 30
0.0
 40
7.0
 41
63.23088711380842
 71
     1
 72
     5
  1
THERMASHELL
  7
GENERATED_STYLE_2
 73
     1
 44
1.0
1001
ACAD
1000
ACAD_MTEXT_COLUMN_INFO_BEGIN
1070
    75
1070
     2
1070
    79
1070
     0
1070
    76
1070
     1
1070
    78
1070
     0
1070
    48
1040
63.23088711380842
1070
    49
1040
12.5
1070
    50
1070
     1
1040
0.0
1000
ACAD_MTEXT_COLUMN_INFO_END
1000
MTEXTBEGIN
1070
    73
1070
     1
1070
    44
1040
1.0
1070
    74
1070
     0
1000
MTEXTEND
  0
LINE
  5
237
102
{ACAD_REACTORS
330
5B6
102
}
330
1F
100
AcDbEntity
  8
Viewport
 62
     7
100
AcDbLine
 10
17.83355682342608
 20
-68.39562560085539
 30
0.0
 11
17.83355682342608
 21
471.6539900379408
 31
0.0
  0
LINE
  5
238
102
{ACAD_REACTORS
330
5B5
102
}
330
1F
100
AcDbEntity
  8
Viewport
 62
     7
100
AcDbLine
 10
390.9752839094099
 20
471.6539900379408
 30
0.0
 11
17.83355682342608
 21
471.6539900379408
 31
0.0
  0
MTEXT
  5
239
330
1F
100
AcDbEntity
  8
Specialized_Lines
100
AcDbMText
 10
94.66295662835461
 20
-11.46747236136195
 30
0.0
 40
10.0
 41
281.454011626372
 71
     1
 72
     5
  1
{\fArial|b1|i0|c0|p34;Wall: Horizontal Joint - ABOVE SCHIST}
 73
     1
 44
1.0
1001
ACAD
1000
ACAD_MTEXT_COLUMN_INFO_BEGIN
1070
    75
1070
     2
1070
    79
1070
     0
1070
    76
1070
     1
1070
    78
1070
     0
1070
    48
1040
281.454011626372
1070
    49
1040
12.5
1070
    50
1070
     1
1040
0.0
1000
ACAD_MTEXT_COLUMN_INFO_END
1000
MTEXTBEGIN
1070
    73
1070
     1
1070
    44
1040
1.0
1070
    74
1070
     0
1000
MTEXTEND
  0
MTEXT
  5
23A
330
1F
100
AcDbEntity
  8
Specialized_Lines
 62
    30
100
AcDbMText
 10
65.87810114698647
 20
-31.01044388101707
 30
0.0
 40
4.0
 41
34.37092666967328
 71
     5
 72
     5
  1
SCALE: 1:2
  7
GENERATED_STYLE_2
 73
     1
 44
1.0
1001
ACAD
1000
ACAD_MTEXT_COLUMN_INFO_BEGIN
1070
    75
1070
     2
1070
    79
1070
     0
1070
    76
1070
     1
1070
    78
1070
     0
1070
    48
1040
34.37092666967328
1070
    49
1040
12.5
1070
    50
1070
     1
1040
0.0
1000
ACAD_MTEXT_COLUMN_INFO_END
1000
MTEXTBEGIN
1070
    73
1070
     1
1070
    44
1040
1.0
1070
    74
1070
     0
1000
MTEXTEND
  0
HATCH
  5
23B
330
1F
100
AcDbEntity
  8
0
 62
    30
370
     5
100
AcDbHatch
 10
0.0
 20
0.0
 30
0.0
210
0.0
220
0.0
230
1.0
  2
SOLID
 70
     1
 71
     0
 91
        1
 92
        1
 93
        4
 72
     1
 10
89.03208652850214
 20
-25.98748438062592
 11
89.03208652850214
 21
-5.987484380625915
 72
     1
 10
89.03208652850214
 20
-5.987484380625915
 11
44.03208652850213
 21
-5.987484380625915
 72
     1
 10
44.03208652850213
 20
-5.987484380625915
 11
44.03208652850213
 21
-25.98748438062592
 72
     1
 10
44.03208652850213
 20
-25.98748438062592
 11
89.03208652850214
 21
-25.98748438062592
 97
        0
 75
     1
 76
     1
 98
        1
 10
74.44725971803115
 20
-19.85380387750172
1001
GradientColor1ACI
1070
     5
1001
GradientColor2ACI
1070
     2
1001
ACAD
1010
0.0
1020
0.0
1030
0.0
  0
LWPOLYLINE
  5
23C
330
1F
100
AcDbEntity
  8
0
370
     5
100
AcDbPolyline
 90
        5
 70
     0
 43
0.0
 10
44.03208652850213
 20
-5.987484380625915
 10
44.03208652850213
 20
-25.98748438062592
 10
89.03208652850214
 20
-25.98748438062592
 10
89.03208652850214
 20
-5.987484380625915
 10
44.03208652850213
 20
-5.987484380625915
  0
MTEXT
  5
23D
330
1F
100
AcDbEntity
  8
Specialized_Lines
100
AcDbMText
 10
66.73690161738983
 20
-16.18232902701436
 30
0.0
 40
10.0
 41
90.34063603881987
 71
     5
 72
     5
  1
{\fArial|b1|i0|c0|p34;18F}
 73
     1
 44
1.0
1001
ACAD
1000
ACAD_MTEXT_COLUMN_INFO_BEGIN
1070
    75
1070
     2
1070
    79
1070
     0
1070
    76
1070
     1
1070
    78
1070
     0
1070
    48
1040
90.34063603881987
1070
    49
1040
12.5
1070
    50
1070
     1
1040
0.0
1000
ACAD_MTEXT_COLUMN_INFO_END
1000
MTEXTBEGIN
1070
    73
1070
     1
1070
    44
1040
1.0
1070
    74
1070
     0
1000
MTEXTEND
  0
LWPOLYLINE
  5
23E
330
1F
100
AcDbEntity
  8
0
370
     5
100
AcDbPolyline
 90
        4
 70
     0
 43
0.0
 10
44.03208652850213
 20
-25.98748438062592
 10
44.03208652850213
 20
-35.98748438062592
 10
89.03208652850214
 20
-35.98748438062592
 10
89.03208652850214
 20
-25.98748438062592
  0
LWPOLYLINE
  5
311
330
1F
100
AcDbEntity
  8
Specialized_Fills
  6
DASHEDX2
 62
   253
370
    20
100
AcDbPolyline
 90
       10
 70
   128
 43
0.0
 10
227.08754830621
 20
94.01035812090503
 42
-0.6483811795542844
 10
261.9596774858118
 20
112.093137598867
 10
279.9596774262071
 20
98.59313751947221
 42
1.936147802777197
 10
279.9596774262071
 20
134.5931375194717
 10
261.9596774476276
 20
121.0931374908336
 42
-1.925144779599369
 10
261.9596774476276
 20
157.0931374908331
 10
279.9596773880229
 20
143.5931374114383
 42
1.947135862880747
 10
279.9596773880229
 20
179.5931374114383
 10
261.9596774094433
 20
166.093137382801
 42
-0.6819471913684881
 10
227.4457465061687
 20
185.760244947706
  0
HATCH
  5
335
330
1F
100
AcDbEntity
  8
0
 62
    30
100
AcDbHatch
 10
0.0
 20
0.0
 30
0.0
210
0.0
220
0.0
230
1.0
  2
SOLID
 70
     1
 71
     1
 91
        1
 92
        7
 72
     0
 73
     1
 93
        4
 10
43.95316348834604
 20
-49.80908510848883
 10
43.95316348834604
 20
-54.80908510848883
 10
48.95316348834967
 20
-54.80908510848838
 10
48.95316348834239
 20
-49.80908510848838
 97
        1
330
336
 75
     1
 76
     1
 47
0.0321901215665183
 98
        1
 10
45.74261161704725
 20
-51.23206569873207
1001
GradientColor1ACI
1070
     5
1001
GradientColor2ACI
1070
     2
1001
ACAD
1010
0.0
1020
0.0
1030
0.0
  0
LWPOLYLINE
  5
336
102
{ACAD_REACTORS
330
335
102
}
330
1F
100
AcDbEntity
  8
0
 62
    30
100
AcDbPolyline
 90
        4
 70
     1
 43
0.0
 10
43.95316348834604
 20
-49.80908510848883
 10
48.95316348834239
 20
-49.80908510848838
 10
48.95316348834967
 20
-54.80908510848838
 10
43.95316348834604
 20
-54.80908510848883
  0
LINE
  5
337
330
1F
100
AcDbEntity
  8
0
 62
    30
100
AcDbLine
 10
43.95316348834604
 20
-49.80908510848883
 30
0.0
 11
48.95316348834604
 21
-49.80908510848883
 31
0.0
  0
LWPOLYLINE
  5
338
330
1F
100
AcDbEntity
  8
0
370
     5
100
AcDbPolyline
 90
        2
 70
     0
 43
0.0
 10
48.95316348834604
 20
-52.30908510848883
 10
370.1072214120259
 20
-52.30908510848883
  0
MTEXT
  5
339
102
{ACAD_XDICTIONARY
360
7C6
102
}
330
1F
100
AcDbEntity
  8
Specialized_Text
  6
Continuous
100
AcDbMText
 10
52.51684280348036
 20
-49.78261807489696
 30
0.0
 40
3.0
 41
163.0041735515597
 71
     4
 72
     1
  1
\U+00A9 copyright 2013 Specialized Construction Products Ltd
  7
GENERATED_STYLE_2
 73
     1
 44
1.0
1001
ACAD
1000
MTEXTBEGIN
1070
    73
1070
     1
1070
    44
1040
1.0
1070
    74
1070
     0
1000
MTEXTEND
  0
MTEXT
  5
33A
330
1F
100
AcDbEntity
  8
Specialized_Text
  6
Continuous
100
AcDbMText
 10
230.4178434771611
 20
-49.78261807489696
 30
0.0
 40
3.0
 41
163.0041735515597
 71
     4
 72
     1
  1
All Dimensions to be site checked before construction & installation
  7
GENERATED_STYLE_2
 73
     1
 44
1.0
1001
ACAD
1000
MTEXTBEGIN
1070
    73
1070
     1
1070
    44
1040
1.0
1070
    74
1070
     0
1000
MTEXTEND
  0
MTEXT
  5
33B
330
1F
100
AcDbEntity
  8
Specialized_Text
  6
Continuous
 62
    30
370
    20
100
AcDbMText
 10
268.9732172663708
 20
-62.90652189501031
 30
0.0
 40
5.5
 41
111.9228601720179
 71
     7
 72
     1
  1
{\fArial Unicode MS|b1|i0|c0|p34;web \fArial Unicode MS|b0|i0|c0|p34;\C256;www.specialized.co.nz}
  7
GENERATED_STYLE_2
 73
     1
 44
1.12662050634974
1001
ACAD
1000
MTEXTBEGIN
1070
    73
1070
     1
1070
    44
1040
1.12662050634974
1070
    74
1070
     0
1000
MTEXTEND
  0
HATCH
  5
48C
330
1F
100
AcDbEntity
  8
Specialized_Lines
 62
   254
100
AcDbHatch
 10
0.0
 20
0.0
 30
0.0
210
0.0
220
0.0
230
1.0
  2
SOLID
 70
     1
 71
     1
 91
        7
 92
        7
 72
     0
 73
     1
 93
       18
 10
140.6769413584777
 20
205.8196189659818
 10
129.8909715863736
 20
203.4663164702497
 10
117.5361334837815
 20
200.5246883505852
 10
103.4163185093909
 20
196.2103004417437
 10
102.925365187236
 20
191.7559068037255
 10
111.3644053498955
 20
191.4966312072835
 10
118.9075638876684
 20
191.3752231967131
 10
125.6829631389715
 20
192.1048325164189
 10
133.7573422144431
 20
191.2695519224046
 10
146.8434048540005
 20
191.2695519224046
 10
159.0941868995436
 20
191.2695519224046
 10
165.219577922315
 20
191.2695519224046
 10
168.5607002983722
 20
195.1675280278046
 10
171.3449689450866
 20
196.8380892158333
 10
170.5096883510723
 20
204.0771876972905
 10
170.485439637747
 20
209.3495727095795
 10
166.5632688115273
 20
212.0950922879332
 10
153.8162136263135
 20
209.9378983335124
 97
        1
330
16E
 92
        7
 72
     0
 73
     1
 93
       40
 10
136.2302326397582
 20
169.3618941801839
 10
147.4195838755893
 20
169.3618941801839
 10
153.2380465182215
 20
169.3618941801839
 10
161.2943794080199
 20
170.3689357914087
 10
166.6652680012189
 20
170.3689357914087
 10
169.9101798596099
 20
169.4737876925422
 10
172.0361565944178
 20
170.5927228161253
 10
172.0361565944178
 20
176.4111854587576
 10
172.9313046932843
 20
179.5442038047904
 10
171.5885825449846
 20
182.7891156631815
 10
171.9242630820595
 20
184.9150923979894
 10
170.9172214708347
 20
186.929175620439
 10
165.6260416716355
 20
187.0591232753425
 10
150.214782446359
 20
187.8277901442069
 10
146.7181101851617
 20
187.5202200491459
 10
143.0771334954626
 20
187.5202200491459
 10
140.6313103230777
 20
186.864863705276
 10
130.2060467295082
 20
188.5484466458525
 10
124.831531957668
 20
188.5484466458525
 10
120.910093076825
 20
188.9219187868199
 10
114.5756691741536
 20
188.9317293353753
 10
103.1601677226262
 20
188.9317293353753
 10
95.71148253110818
 20
190.96318893306
 10
81.28863657194743
 20
189.4301241917639
 10
66.80683829866246
 20
183.63740488245
 10
55.14866687981423
 20
180.6657141286259
 10
41.01103764167382
 20
176.6695057137058
 10
30.91795765632577
 20
171.9792334636018
 10
30.61732696195186
 20
167.9207190895576
 10
53.6001858111112
 20
168.328141349689
 10
63.34512607461125
 20
168.328141349689
 10
70.86501422462382
 20
167.2802200404003
 10
78.94075431230283
 20
169.4441080751775
 10
85.82727727211965
 20
169.4441080751775
 10
90.6895731099255
 20
171.4878709149919
 10
96.61992926491596
 20
170.7046163284837
 10
103.109752981698
 20
170.7046163284837
 10
106.9141324018806
 20
170.7046163284837
 10
114.5228912422458
 20
169.3618941801839
 10
126.7192840893017
 20
169.3618941801839
 97
        1
330
176
 92
        7
 72
     0
 73
     1
 93
       47
 10
122.8544510929039
 20
139.8992050625304
 10
129.4284187309793
 20
139.3191490944649
 10
136.9691463158306
 20
139.3191490944649
 10
142.7697059964855
 20
139.8992050625305
 10
147.9902097090749
 20
141.4460209773717
 10
154.5641773471503
 20
141.4460209773717
 10
162.491608910712
 20
141.4460209773717
 10
168.5553623997935
 20
144.9469306865925
 10
170.6123924636288
 20
148.2133406048025
 10
171.9658563891149
 20
157.6875880832056
 10
171.9658563891149
 20
161.3612758809537
 10
172.9326163358908
 20
165.8083716361225
 10
171.3858004210495
 20
168.3219474977396
 10
169.0655765487875
 20
168.70865147645
 10
164.0384248255533
 20
168.70865147645
 10
158.0445131555433
 20
168.5152994870948
 10
153.5974174003745
 20
168.1285955083844
 10
148.5702656771404
 20
168.1285955083844
 10
142.3830020177751
 20
168.3219474977396
 10
138.1292582519616
 20
168.3219474977396
 10
132.5220505606619
 20
167.3551875509638
 10
129.041714752269
 20
168.3219474977396
 10
124.7879709864554
 20
167.7418915296741
 10
119.9541712525763
 20
167.7418915296741
 10
115.1203715186973
 20
167.7418915296741
 10
108.739755869977
 20
168.826170729811
 10
103.8589968397579
 20
169.4464676874246
 10
94.93680051295569
 20
169.9696005837853
 10
87.27768505155399
 20
169.9696005837853
 10
83.79734924316109
 20
168.70865147645
 10
80.31701343476816
 20
166.5817795935431
 10
74.51645375411327
 20
166.1950756148328
 10
69.87600600958938
 20
165.6150196467673
 10
63.88209433957936
 20
164.068203731926
 10
48.80063916987674
 20
164.068203731926
 10
30.36933782485028
 20
159.0866674239342
 10
27.6262386674746
 20
151.4059897832813
 10
29.54640807763773
 20
142.0794526482026
 10
38.74633572340822
 20
140.6726130199511
 10
43.19343147857686
 20
140.2859090412408
 10
54.21449487182127
 20
140.2859090412408
 10
63.68874235022421
 20
140.2859090412408
 10
77.4167335944407
 20
140.2859090412408
 10
92.30483677478824
 20
140.2859090412408
 10
96.55858054060178
 20
141.6393729667269
 10
103.1325481786774
 20
141.0593169986614
 10
115.7004274867627
 20
141.0593169986614
 97
        1
330
17A
 92
        7
 72
     0
 73
     1
 93
       46
 10
134.5739847947977
 20
110.1196132096081
 10
145.6917241827194
 20
110.1196132096081
 10
154.8759436770896
 20
110.1196132096081
 10
158.2137452825457
 20
108.0781589214675
 10
165.8325564072154
 20
110.1196132096081
 10
167.9272029585631
 20
110.280739867404
 10
169.6995961943187
 20
114.9534129434871
 10
170.0218495099107
 20
118.3370727572025
 10
170.9886094566865
 20
123.8153791222655
 10
171.1497361144824
 20
129.2936854873285
 10
171.1497361144824
 20
133.4829785900237
 10
169.5384695365228
 20
138.1556516661069
 10
164.7046698026437
 20
137.8333983505149
 10
155.3593236504776
 20
136.7055117459431
 10
145.3694708671274
 20
136.7055117459431
 10
137.1520113195331
 20
135.7387517991673
 10
126.1752892812935
 20
137.7151756330941
 10
118.1798892190673
 20
139.8575366229314
 10
106.2156930227071
 20
137.511145034923
 10
99.44837339527653
 20
137.511145034923
 10
96.7092202127451
 20
138.8001582972907
 10
92.35880045225391
 20
137.511145034923
 10
84.78584753584341
 20
137.511145034923
 10
77.6962745928208
 20
137.511145034923
 10
69.63994170302261
 20
137.511145034923
 10
64.96726862693908
 20
137.350018377127
 10
57.87769568391675
 20
137.350018377127
 10
41.44277658872794
 20
138.4779049816988
 10
36.60897685484889
 20
138.4779049816988
 10
31.83318271777635
 20
137.9326523717173
 10
26.82149915369051
 20
135.7052374543457
 10
26.82149915369056
 20
130.4151270255885
 10
23.75880364230475
 20
125.681870326174
 10
24.59408423631906
 20
116.2153569273452
 10
22.1075776532117
 20
110.9252464985879
 10
22.75208428439556
 20
108.0249666582604
 10
38.70362340619647
 20
108.0249666582604
 10
50.30474276750618
 20
108.0249666582604
 10
59.65008891967234
 20
108.0249666582604
 10
64.16896939290734
 20
108.5989284659178
 10
70.44557499200225
 20
110.280739867404
 10
81.40218772212808
 20
110.280739867404
 10
93.32556039902963
 20
110.280739867404
 10
104.2821731291554
 20
109.1528532628322
 10
116.3666724638529
 20
109.1528532628322
 10
121.8449788289161
 20
108.6694732894443
 97
        1
330
179
 92
        7
 72
     0
 73
     1
 93
       48
 10
121.9709192607529
 20
104.6545409819681
 10
118.0265386779076
 20
105.3506081436467
 10
110.8338446738957
 20
103.7264514330633
 10
104.1051954443361
 20
104.4225185947419
 10
93.20014324470395
 20
104.4225185947419
 10
84.29048357521919
 20
104.3761141172963
 10
77.65464330054993
 20
105.1185857564205
 10
67.31428391968345
 20
103.0025870798272
 10
59.55689709690543
 20
103.4944290458361
 10
52.36420309289496
 20
103.9584738202895
 10
44.0113971527517
 20
103.9584738202895
 10
34.73050166370388
 20
103.9584738202895
 10
28.92994198304908
 20
105.5826305308729
 10
24.05747185129893
 20
104.6545409819681
 10
21.96927036626326
 20
98.15791413963466
 10
21.27320320458466
 20
94.21353355678904
 10
21.27320320458465
 20
84.93263806774132
 10
23.36140468962037
 20
78.66803361263406
 10
25.91365094910856
 20
75.18769780424107
 10
30.09005391918004
 20
77.27589928927684
 10
41.22712850603739
 20
77.27589928927681
 10
52.59622548012078
 20
77.27589928927685
 10
66.26415728970227
 20
76.4555077287079
 10
75.13615817214368
 20
78.27102897265205
 10
77.88666568777616
 20
78.90005599986025
 10
91.57598653412165
 20
76.57983212759823
 10
104.5692402187885
 20
76.57983212759825
 10
118.0265386779078
 20
76.57983212759825
 10
128.6995684903129
 20
74.49163064256246
 10
137.7484415921343
 20
74.49163064256248
 10
145.1731579833724
 20
77.27589928927682
 10
150.0456281151226
 20
77.27589928927684
 10
157.9343892808132
 20
77.27589928927684
 10
163.734948961468
 20
77.27589928927682
 10
168.1433743187657
 20
80.98825748489598
 10
168.1433743187657
 20
83.7725261316104
 10
169.5355086421229
 20
88.41297387613439
 10
169.7675310293491
 20
92.82139923343192
 10
169.7675310293491
 20
97.2298245907298
 10
171.6237101271586
 20
102.3343171097061
 10
170.2315758038015
 20
105.814652918099
 10
168.3753967059919
 20
106.7427424670038
 10
164.895060897599
 20
105.5826305308729
 10
157.9343892808132
 20
105.5826305308729
 10
149.1175385662178
 20
105.5826305308729
 10
138.4445087538128
 20
105.5826305308729
 10
130.3237252008961
 20
105.5826305308729
 10
124.7551879074672
 20
105.1185857564205
 97
        1
330
165
 92
        7
 72
     0
 73
     1
 93
       76
 10
119.9969666944902
 20
73.1290893914519
 10
115.6582395746174
 20
73.52351912962203
 10
110.5306529784082
 20
73.52351912962205
 10
107.3752150730485
 20
73.52351912962207
 10
101.0643392623293
 20
73.52351912962205
 10
94.75346345161041
 20
73.72073399870711
 10
89.42866198631582
 20
73.72073399870707
 10
84.1038605210215
 20
74.50959347504691
 10
78.3846293175571
 20
76.28452729681175
 10
74.6375468049424
 20
75.10123808230183
 10
70.49603455415565
 20
74.31237860596097
 10
64.38237361252379
 20
73.12908939145209
 10
61.0297208380794
 20
73.12908939145208
 10
60.24086136173953
 20
73.91794886779209
 10
55.90213424186938
 20
74.11516373687702
 10
51.16897738383035
 20
74.115163736877
 10
48.99961382389601
 20
73.91794886779203
 10
44.26645696585602
 20
73.91794886779201
 10
36.37786220245729
 20
74.90402321321697
 10
31.64470534441786
 20
75.29845295138684
 10
29.47534178448325
 20
73.91794886779216
 10
26.51711874820818
 20
72.53744478419716
 10
22.57282136650871
 20
68.39593253341266
 10
19.61459833023431
 20
63.07113106811835
 10
19.02295372297929
 20
60.50733777001349
 10
18.70740993244152
 20
54.55144872364662
 10
20.99510241382906
 20
47.68837127949109
 10
22.17839162833897
 20
44.53293337413064
 10
23.95332545010372
 20
41.77192520694089
 10
25.33382953369865
 20
41.180280599686
 10
28.68648230814277
 20
41.77192520694094
 10
32.03913508258747
 20
42.56078468327823
 10
40.32215958415673
 20
42.56078468328084
 10
42.29430827500613
 20
42.95521442145073
 10
45.64696104945116
 20
43.15242929053579
 10
48.80239895481072
 20
44.13850363596063
 10
50.97176251474533
 20
43.54685902870568
 10
58.66314240905949
 20
44.33571850504563
 10
63.98794387435351
 20
44.33571850504569
 10
68.91831560148073
 20
44.53293337413088
 10
73.45425759043445
 20
44.73014824321563
 10
76.80691036487897
 20
44.92736311230046
 10
82.92057130651139
 20
45.32179285047042
 10
85.48436460461633
 20
45.12457798138538
 10
96.52839727337484
 20
45.12457798138547
 10
98.89497570239498
 20
44.13850363596051
 10
102.2476284768391
 20
42.95521442145073
 10
107.3752150730486
 20
42.16635494511081
 10
111.9111570620031
 20
41.57471033785592
 10
115.8554544437022
 20
41.77192520694089
 10
120.7858261708268
 20
42.36356981419584
 10
127.4911317197158
 20
43.5468590287044
 10
136.1685859594551
 20
43.54685902870573
 10
143.6627509846843
 20
44.33571850502869
 10
150.9597011408283
 20
44.33571850503741
 10
158.4538661660574
 20
44.33571850504563
 10
162.2009486786721
 20
44.33571850504563
 10
164.7647419767766
 20
44.13850363596063
 10
166.1452460603714
 20
44.33571850504563
 10
168.5118244893911
 20
47.09672667223523
 10
168.9062542275611
 20
50.05494970851015
 10
169.4978988348159
 20
53.4076024829545
 10
169.3006839657254
 20
56.56304038831388
 10
169.3006839657309
 20
64.05720541354321
 10
169.300683965731
 20
68.79036227158255
 10
167.9201798821361
 20
73.12908939145211
 10
164.5675271076916
 20
74.31237860596191
 10
162.9898081550117
 20
74.31237860596195
 10
158.6510810351424
 20
73.52351912962207
 10
155.2984282606978
 20
72.34022991511221
 10
150.762486271744
 20
72.14301504601897
 10
143.6627509846849
 20
72.14301504602722
 10
138.7323792575596
 20
71.9458001769423
 10
134.7880818758601
 20
71.94580017694227
 10
130.4493547559903
 20
72.34022991511221
 10
125.9134127670358
 20
72.53744478419719
 97
        1
330
167
 92
        7
 72
     0
 73
     1
 93
       41
 10
171.9779589942405
 20
14.11641976746844
 10
171.977958994266
 20
22.41150962681181
 10
170.9049261158953
 20
24.710865794749
 10
170.5983452935036
 20
28.69641648584002
 10
170.4450548823077
 20
33.60170964410588
 10
169.525312415133
 20
36.82080827921817
 10
168.1456987143707
 20
39.12016444715528
 10
164.4667288456711
 20
40.95964938150362
 10
158.9482740426219
 20
40.9596493815051
 10
154.9627233515306
 20
40.95964938150507
 10
150.6705918380483
 20
41.11293979270084
 10
146.5317507357619
 20
40.95964938150504
 10
142.2396192222784
 20
40.65306855911123
 10
135.6481315408585
 20
40.65306855911342
 10
130.4362575602009
 20
41.11293979270087
 10
127.0638685138929
 20
40.49977814791771
 10
122.3897618600894
 20
39.85642467018147
 10
119.1183849922573
 20
40.35971341907864
 10
112.6421648571093
 20
39.34611274109503
 10
106.7675092141727
 20
40.24990591693961
 10
101.1577890218006
 20
41.11293979270089
 10
97.63210956429674
 20
40.80635897030916
 10
94.1064301067934
 20
40.3464877367218
 10
89.35442735972321
 20
41.87939184867994
 10
84.44913420145701
 20
42.03268225987568
 10
79.08396980960367
 20
42.03268225987571
 10
73.71880541774991
 20
42.03268225987573
 10
67.7404793811137
 20
41.87939184867992
 10
61.45557252208518
 20
41.26623020389669
 10
55.17066566305697
 20
40.34648773671938
 10
48.73246839283297
 20
40.34648773672026
 10
42.75414235619634
 20
40.34648773672182
 10
39.22846289869263
 20
41.41952061509249
 10
35.8560738523846
 20
41.57281102628831
 10
31.71723275009792
 20
40.19319732552605
 10
28.8047149373774
 20
38.04713156878472
 10
24.81916424628628
 20
34.36816170008512
 10
24.81916424628626
 20
30.6891918313857
 10
22.36651766715323
 20
27.47009319627361
 10
21.44677519997836
 20
24.40428497235726
 10
23.65211957631978
 20
14.11641976746844
 97
        1
330
161
 75
     1
 76
     1
 47
0.420333580275523
 98
        7
 10
144.2208679119635
 20
200.4400465454064
 10
127.8200417730122
 20
177.7420330477669
 10
118.5682911995009
 20
150.8406839853721
 10
122.7736333256425
 20
121.4173335841242
 10
123.1941678012572
 20
90.73298178946926
 10
123.1941678012572
 20
64.25196555956972
 10
127.399507297398
 20
25.58127691585992
1001
GradientColor1ACI
1070
     5
1001
GradientColor2ACI
1070
     2
1001
ACAD
1010
0.0
1020
0.0
1030
0.0
  0
LWPOLYLINE
  5
48D
330
1F
100
AcDbEntity
  8
Specialized_Fills
  6
DASHEDX2
 62
   253
370
    20
100
AcDbPolyline
 90
        3
 70
   128
 43
0.0
 10
229.4901734432823
 20
14.11641976746841
 42
-0.4608232503065651
 10
261.6014792858531
 20
20.34325077206597
 10
269.9039205489966
 20
14.11641976746841
  0
LWPOLYLINE
  5
48E
330
1F
100
AcDbEntity
  8
Specialized_Fills
  6
DASHEDX2
 62
   253
370
    20
100
AcDbPolyline
 90
       10
 70
   128
 43
0.0
 10
227.08754830621
 20
230.7602449477219
 42
-0.6483811795542844
 10
261.9596774858118
 20
248.8430244256839
 10
279.9596774262071
 20
235.3430243462891
 42
1.936147802777197
 10
279.9596774262071
 20
271.3430243462886
 10
261.9596774476276
 20
257.8430243176505
 42
-1.925144779599369
 10
261.9596774476276
 20
293.84302431765
 10
279.9596773880229
 20
280.3430242382552
 42
1.947135862880747
 10
279.9596773880229
 20
316.3430242382552
 10
261.9596774094433
 20
302.843024209618
 42
-0.6819471913684881
 10
227.4457465061687
 20
322.510131774523
  0
LWPOLYLINE
  5
48F
330
1F
100
AcDbEntity
  8
Specialized_Fills
  6
DASHEDX2
 62
   253
370
    20
100
AcDbPolyline
 90
        6
 70
   128
 43
0.0
 10
227.4457465061687
 20
322.5101317745228
 42
-0.6483811795542848
 10
262.3178756857704
 20
340.5929112524848
 10
280.3178756261658
 20
327.0929111730901
 42
1.936147802777197
 10
280.3178756261658
 20
363.0929111730896
 10
262.3178756475862
 20
349.5929111444514
 42
-1.021166413603655
 10
237.780076158226
 20
386.10690561428
 42
-1.021166413603655
  0
LWPOLYLINE
  5
490
330
1F
100
AcDbEntity
  8
Specialized_Fills
  6
DASHEDX2
 62
   253
370
    20
100
AcDbPolyline
 90
        4
 70
   128
 43
0.0
 10
261.5530152436614
 20
386.10690561428
 42
-0.0104723754863413
 10
262.3178756475862
 20
385.592911144451
 10
280.3178755879816
 20
372.0929110650562
 42
0.5501147576916461
 10
315.0046586873344
 20
386.1069056142799
  0
LWPOLYLINE
  5
491
330
1F
100
AcDbEntity
  8
Specialized_Fills
  6
DASHEDX2
 62
   253
370
    20
100
AcDbPolyline
 90
        8
 70
   128
 43
0.0
 10
311.6704983654157
 20
14.11641976746842
 42
0.7985986770164324
 10
279.6014792262484
 20
42.84325069267072
 10
261.6014792476688
 20
29.34325066403255
 42
-1.925144779599369
 10
261.6014792476688
 20
65.34325066403209
 10
279.6014791880642
 20
51.84325058463731
 42
1.947135862880747
 10
279.6014791880642
 20
87.8432505846373
 10
261.6014792094846
 20
74.34325055600004
 42
-0.6819471913684881
 10
227.08754830621
 20
94.01035812090503
  0
LWPOLYLINE
  5
492
330
1F
100
AcDbEntity
  8
Specialized_Fills
  6
DASHEDX2
 62
   253
370
    20
100
AcDbPolyline
 90
        2
 70
   128
 43
0.0
 10
273.3984758355556
 20
11.49550327845644
 10
275.0419679869231
 20
10.26288415359999
  0
LWPOLYLINE
  5
522
330
1F
100
AcDbEntity
  8
Specialized_Lines
  6
PLASTER
 48
3.0
100
AcDbPolyline
 90
        4
 70
     0
 43
0.0
 10
124.384126407499
 20
211.1571517732864
 10
123.7597298242074
 20
211.640928852692
 10
122.6739442846422
 20
213.1072329210001
 10
122.7728924951857
 20
385.7652405577921
  0
PDFUNDERLAY
  5
5AF
330
1F
100
AcDbEntity
  8
0
 62
     7
 92
        8
310
0800000000000000
100
AcDbUnderlayReference
340
0
 10
133.331486120479
 20
471.6539820280673
 30
0.0
 41
14.64050888668862
 42
14.64050888668862
 43
14.64050888668862
281
   100
282
     0
 11
0.918513357764084
 21
9.215030932800971
 11
6.878692319585923
 21
7.080213791027176
  0
ARC
  5
5CA
330
1F
100
AcDbEntity
  8
Specialized_Lines
  6
PLASTER
 48
3.0
100
AcDbCircle
 10
219.4542257398188
 20
239.3996019820529
 30
0.0
 40
2.688828007274818
100
AcDbArc
 50
354.8044207629553
 51
72.02224453700354
  0
LINE
  5
5CD
102
{ACAD_REACTORS
330
5D5
102
}
330
1F
100
AcDbEntity
  8
Specialized_Fills
  6
Continuous
100
AcDbLine
 10
127.235958667251
 20
385.7652405577885
 30
0.0
 11
127.235958667251
 21
232.6571517732878
 31
0.0
  0
LINE
  5
5D0
102
{ACAD_REACTORS
330
5D6
102
}
330
1F
100
AcDbEntity
  8
Specialized_Fills
  6
Continuous
100
AcDbLine
 10
127.235958667251
 20
232.6571517732878
 30
0.0
 11
202.8178565036744
 21
232.6571517732877
 31
0.0
  0
LINE
  5
5D1
102
{ACAD_REACTORS
330
5F3
102
}
330
1F
100
AcDbEntity
  8
Specialized_Fills
  6
Continuous
100
AcDbLine
 10
202.8178565036744
 20
232.6571517732877
 30
0.0
 11
202.8178565036742
 21
385.7652405577921
 31
0.0
  0
LINE
  5
5F0
102
{ACAD_REACTORS
330
5F2
102
}
330
1F
100
AcDbEntity
  8
Specialized_Lines
  6
Continuous
 48
3.0
100
AcDbLine
 10
127.235958667251
 20
385.7652405577921
 30
0.0
 11
202.8178565036742
 21
385.7652405577921
 31
0.0
  0
INSERT
  5
62A
102
{ACAD_XDICTIONARY
360
63C
102
}
102
{ACAD_REACTORS
330
666
102
}
330
1F
100
AcDbEntity
  8
Specialized_Lines
  6
Continuous
 48
3.0
100
AcDbBlockReference
  2
therma
 10
127.235958667251
 20
238.6647537024173
 30
0.0
1001
BNS_SPRHATCH
1010
-0.8783078243742323
1020
-28.50897481949881
1030
-0.00000001
1010
28.40377861212266
1020
-28.50897481949881
1030
-0.00000001
1010
28.40377861212266
1020
0.9111225515754313
1030
-0.00000001
1010
-0.8783078243742323
1020
0.9111225515754313
1030
-0.00000001
  0
INSERT
  5
62B
102
{ACAD_XDICTIONARY
360
63F
102
}
102
{ACAD_REACTORS
330
666
102
}
330
1F
100
AcDbEntity
  8
Specialized_Lines
  6
Continuous
 48
3.0
100
AcDbBlockReference
  2
therma
 10
156.5180451037479
 20
238.6647537024173
 30
0.0
1001
BNS_SPRHATCH
1010
-0.8783078243742323
1020
-28.50897481949881
1030
-0.00000001
1010
28.40377861212266
1020
-28.50897481949881
1030
-0.00000001
1010
28.40377861212266
1020
0.9111225515754313
1030
-0.00000001
1010
-0.8783078243742323
1020
0.9111225515754313
1030
-0.00000001
  0
INSERT
  5
62C
102
{ACAD_XDICTIONARY
360
642
102
}
102
{ACAD_REACTORS
330
666
102
}
330
1F
100
AcDbEntity
  8
Specialized_Lines
  6
Continuous
 48
3.0
100
AcDbBlockReference
  2
therma
 10
185.8001315402448
 20
238.6647537024173
 30
0.0
1001
BNS_SPRHATCH
1010
-0.8783078243742323
1020
-28.50897481949881
1030
-0.00000001
1010
28.40377861212266
1020
-28.50897481949881
1030
-0.00000001
1010
28.40377861212266
1020
0.9111225515754313
1030
-0.00000001
1010
-0.8783078243742323
1020
0.9111225515754313
1030
-0.00000001
  0
INSERT
  5
62D
102
{ACAD_XDICTIONARY
360
645
102
}
102
{ACAD_REACTORS
330
666
102
}
330
1F
100
AcDbEntity
  8
Specialized_Lines
  6
Continuous
 48
3.0
100
AcDbBlockReference
  2
therma
 10
127.235958667251
 20
268.0848510734916
 30
0.0
1001
BNS_SPRHATCH
1010
-0.8783078243742323
1020
-28.50897481949881
1030
-0.00000001
1010
28.40377861212266
1020
-28.50897481949881
1030
-0.00000001
1010
28.40377861212266
1020
0.9111225515754313
1030
-0.00000001
1010
-0.8783078243742323
1020
0.9111225515754313
1030
-0.00000001
  0
INSERT
  5
62E
102
{ACAD_XDICTIONARY
360
648
102
}
102
{ACAD_REACTORS
330
666
102
}
330
1F
100
AcDbEntity
  8
Specialized_Lines
  6
Continuous
 48
3.0
100
AcDbBlockReference
  2
therma
 10
185.8001315402447
 20
268.0848510734915
 30
0.0
1001
BNS_SPRHATCH
1010
-0.8783078243742323
1020
-28.50897481949881
1030
-0.00000001
1010
28.40377861212266
1020
-28.50897481949881
1030
-0.00000001
1010
28.40377861212266
1020
0.9111225515754313
1030
-0.00000001
1010
-0.8783078243742323
1020
0.9111225515754313
1030
-0.00000001
  0
INSERT
  5
62F
102
{ACAD_XDICTIONARY
360
64B
102
}
102
{ACAD_REACTORS
330
666
102
}
330
1F
100
AcDbEntity
  8
Specialized_Lines
  6
Continuous
 48
3.0
100
AcDbBlockReference
  2
therma
 10
127.235958667251
 20
297.5049484445658
 30
0.0
1001
BNS_SPRHATCH
1010
-0.8783078243742323
1020
-28.50897481949881
1030
-0.00000001
1010
28.40377861212266
1020
-28.50897481949881
1030
-0.00000001
1010
28.40377861212266
1020
0.9111225515754313
1030
-0.00000001
1010
-0.8783078243742323
1020
0.9111225515754313
1030
-0.00000001
  0
INSERT
  5
630
102
{ACAD_XDICTIONARY
360
64E
102
}
102
{ACAD_REACTORS
330
666
102
}
330
1F
100
AcDbEntity
  8
Specialized_Lines
  6
Continuous
 48
3.0
100
AcDbBlockReference
  2
therma
 10
185.8001315402449
 20
297.5049484445658
 30
0.0
1001
BNS_SPRHATCH
1010
-0.8783078243742323
1020
-28.50897481949881
1030
-0.00000001
1010
28.40377861212266
1020
-28.50897481949881
1030
-0.00000001
1010
28.40377861212266
1020
0.9111225515754313
1030
-0.00000001
1010
-0.8783078243742323
1020
0.9111225515754313
1030
-0.00000001
  0
INSERT
  5
631
102
{ACAD_XDICTIONARY
360
651
102
}
102
{ACAD_REACTORS
330
666
102
}
330
1F
100
AcDbEntity
  8
Specialized_Lines
  6
Continuous
 48
3.0
100
AcDbBlockReference
  2
therma
 10
127.235958667251
 20
326.92504581564
 30
0.0
1001
BNS_SPRHATCH
1010
-0.8783078243742323
1020
-28.50897481949881
1030
-0.00000001
1010
28.40377861212266
1020
-28.50897481949881
1030
-0.00000001
1010
28.40377861212266
1020
0.9111225515754313
1030
-0.00000001
1010
-0.8783078243742323
1020
0.9111225515754313
1030
-0.00000001
  0
INSERT
  5
632
102
{ACAD_XDICTIONARY
360
654
102
}
102
{ACAD_REACTORS
330
666
102
}
330
1F
100
AcDbEntity
  8
Specialized_Lines
  6
Continuous
 48
3.0
100
AcDbBlockReference
  2
therma
 10
185.8001315402448
 20
326.92504581564
 30
0.0
1001
BNS_SPRHATCH
1010
-0.8783078243742323
1020
-28.50897481949881
1030
-0.00000001
1010
28.40377861212266
1020
-28.50897481949881
1030
-0.00000001
1010
28.40377861212266
1020
0.9111225515754313
1030
-0.00000001
1010
-0.8783078243742323
1020
0.9111225515754313
1030
-0.00000001
  0
INSERT
  5
633
102
{ACAD_XDICTIONARY
360
657
102
}
102
{ACAD_REACTORS
330
666
102
}
330
1F
100
AcDbEntity
  8
Specialized_Lines
  6
Continuous
 48
3.0
100
AcDbBlockReference
  2
therma
 10
127.235958667251
 20
356.3451431867143
 30
0.0
1001
BNS_SPRHATCH
1010
-0.8783078243742323
1020
-28.50897481949881
1030
-0.00000001
1010
28.40377861212266
1020
-28.50897481949881
1030
-0.00000001
1010
28.40377861212266
1020
0.9111225515754313
1030
-0.00000001
1010
-0.8783078243742323
1020
0.9111225515754313
1030
-0.00000001
  0
INSERT
  5
634
102
{ACAD_XDICTIONARY
360
65A
102
}
102
{ACAD_REACTORS
330
666
102
}
330
1F
100
AcDbEntity
  8
Specialized_Lines
  6
Continuous
 48
3.0
100
AcDbBlockReference
  2
therma
 10
185.8001315402449
 20
356.3451431867143
 30
0.0
1001
BNS_SPRHATCH
1010
-0.8783078243742323
1020
-28.50897481949881
1030
-0.00000001
1010
28.40377861212266
1020
-28.50897481949881
1030
-0.00000001
1010
28.40377861212266
1020
0.9111225515754313
1030
-0.00000001
1010
-0.8783078243742323
1020
0.9111225515754313
1030
-0.00000001
  0
INSERT
  5
635
102
{ACAD_XDICTIONARY
360
65D
102
}
102
{ACAD_REACTORS
330
666
102
}
330
1F
100
AcDbEntity
  8
Specialized_Lines
  6
Continuous
 48
3.0
100
AcDbBlockReference
  2
therma
 10
127.235958667251
 20
385.7652405577885
 30
0.0
1001
BNS_SPRHATCH
1010
-0.8783078243742323
1020
-28.50897481949881
1030
-0.00000001
1010
28.40377861212266
1020
-28.50897481949881
1030
-0.00000001
1010
28.40377861212266
1020
0.9111225515754313
1030
-0.00000001
1010
-0.8783078243742323
1020
0.9111225515754313
1030
-0.00000001
  0
INSERT
  5
636
102
{ACAD_XDICTIONARY
360
660
102
}
102
{ACAD_REACTORS
330
666
102
}
330
1F
100
AcDbEntity
  8
Specialized_Lines
  6
Continuous
 48
3.0
100
AcDbBlockReference
  2
therma
 10
156.5180451037479
 20
385.7652405577885
 30
0.0
1001
BNS_SPRHATCH
1010
-0.8783078243742323
1020
-28.50897481949881
1030
-0.00000001
1010
28.40377861212266
1020
-28.50897481949881
1030
-0.00000001
1010
28.40377861212266
1020
0.9111225515754313
1030
-0.00000001
1010
-0.8783078243742323
1020
0.9111225515754313
1030
-0.00000001
  0
INSERT
  5
637
102
{ACAD_XDICTIONARY
360
663
102
}
102
{ACAD_REACTORS
330
666
102
}
330
1F
100
AcDbEntity
  8
Specialized_Lines
  6
Continuous
 48
3.0
100
AcDbBlockReference
  2
therma
 10
185.8001315402449
 20
385.7652405577885
 30
0.0
1001
BNS_SPRHATCH
1010
-0.8783078243742323
1020
-28.50897481949881
1030
-0.00000001
1010
28.40377861212266
1020
-28.50897481949881
1030
-0.00000001
1010
28.40377861212266
1020
0.9111225515754313
1030
-0.00000001
1010
-0.8783078243742323
1020
0.9111225515754313
1030
-0.00000001
  0
INSERT
  5
638
102
{ACAD_REACTORS
330
666
102
}
330
1F
100
AcDbEntity
  8
Specialized_Lines
  6
Continuous
 48
3.0
100
AcDbBlockReference
  2
therma
 10
156.5180451037479
 20
268.0848510734916
 30
0.0
1001
BNS_SPRHATCH
1010
-0.8783078243742323
1020
-28.50897481949881
1030
-0.00000001
1010
28.40377861212266
1020
-28.50897481949881
1030
-0.00000001
1010
28.40377861212266
1020
0.9111225515754313
1030
-0.00000001
1010
-0.8783078243742323
1020
0.9111225515754313
1030
-0.00000001
  0
INSERT
  5
639
102
{ACAD_REACTORS
330
666
102
}
330
1F
100
AcDbEntity
  8
Specialized_Lines
  6
Continuous
 48
3.0
100
AcDbBlockReference
  2
therma
 10
156.5180451037479
 20
297.5049484445658
 30
0.0
1001
BNS_SPRHATCH
1010
-0.8783078243742323
1020
-28.50897481949881
1030
-0.00000001
1010
28.40377861212266
1020
-28.50897481949881
1030
-0.00000001
1010
28.40377861212266
1020
0.9111225515754313
1030
-0.00000001
1010
-0.8783078243742323
1020
0.9111225515754313
1030
-0.00000001
  0
INSERT
  5
63A
102
{ACAD_REACTORS
330
666
102
}
330
1F
100
AcDbEntity
  8
Specialized_Lines
  6
Continuous
 48
3.0
100
AcDbBlockReference
  2
therma
 10
156.5180451037479
 20
326.92504581564
 30
0.0
1001
BNS_SPRHATCH
1010
-0.8783078243742323
1020
-28.50897481949881
1030
-0.00000001
1010
28.40377861212266
1020
-28.50897481949881
1030
-0.00000001
1010
28.40377861212266
1020
0.9111225515754313
1030
-0.00000001
1010
-0.8783078243742323
1020
0.9111225515754313
1030
-0.00000001
  0
INSERT
  5
63B
102
{ACAD_REACTORS
330
666
102
}
330
1F
100
AcDbEntity
  8
Specialized_Lines
  6
Continuous
 48
3.0
100
AcDbBlockReference
  2
therma
 10
156.5180451037479
 20
356.3451431867143
 30
0.0
1001
BNS_SPRHATCH
1010
-0.8783078243742323
1020
-28.50897481949881
1030
-0.00000001
1010
28.40377861212266
1020
-28.50897481949881
1030
-0.00000001
1010
28.40377861212266
1020
0.9111225515754313
1030
-0.00000001
1010
-0.8783078243742323
1020
0.9111225515754313
1030
-0.00000001
  0
HATCH
  5
6BF
330
1F
100
AcDbEntity
  8
Specialized_Lines
 62
    30
100
AcDbHatch
 10
0.0
 20
0.0
 30
0.0
210
0.0
220
0.0
230
1.0
  2
SOLID
 70
     1
 71
     1
 91
        2
 92
       16
 93
        5
 72
     1
 10
134.1089783303296
 20
214.8535057432182
 11
131.7769467305015
 21
218.8927029592542
 72
     1
 10
131.7769467305015
 20
218.8927029592542
 11
131.0841264074524
 21
218.8927029592542
 72
     1
 10
131.0841264074524
 20
218.8927029592542
 11
131.0841264074524
 21
231.3571517732871
 72
     1
 10
131.0841264074524
 20
231.3571517732871
 11
199.388251488851
 21
231.3571517732871
 72
     1
 10
199.388251488851
 20
231.3571517732871
 11
134.1089783303296
 21
214.8535057432182
 97
        1
330
6C0
 92
        1
 93
       40
 72
     1
 10
126.884126407499
 20
213.026947434746
 11
124.384126407499
 21
212.3949073847125
 72
     1
 10
124.384126407499
 20
212.3949073847125
 11
124.384126407499
 21
211.1571517732864
 72
     1
 10
124.384126407499
 20
211.1571517732864
 11
204.2841264074059
 21
231.3571517732871
 72
     1
 10
204.2841264074059
 20
231.3571517732871
 11
204.2841264074059
 21
241.3571517732871
 72
     1
 10
204.2841264074059
 20
241.3571517732871
 11
220.2841264074059
 21
241.3571517732871
 72
     1
 10
220.2841264074059
 20
241.3571517732871
 11
220.2841264074059
 21
242.5571517732878
 72
     1
 10
220.2841264074059
 20
242.5571517732878
 11
204.2841264074059
 21
242.5571517732878
 72
     1
 10
204.2841264074059
 20
242.5571517732878
 11
204.2841264074059
 21
250.5571517732879
 72
     1
 10
204.2841264074059
 20
250.5571517732879
 11
203.0841264073361
 21
250.5571517732879
 72
     1
 10
203.0841264073361
 20
250.5571517732879
 11
203.0841264072196
 21
246.2411920599679
 72
     1
 10
203.0841264072196
 20
246.2411920599679
 11
202.1444337864496
 21
245.8991719166133
 72
     1
 10
202.1444337864496
 20
245.8991719166133
 11
203.0841264073361
 21
245.5571517732878
 72
     1
 10
203.0841264073361
 20
245.5571517732878
 11
203.0841264073361
 21
232.5571517732878
 72
     1
 10
203.0841264073361
 20
232.5571517732878
 11
128.084126407336
 21
232.5571517732878
 72
     1
 10
128.084126407336
 20
232.5571517732878
 11
128.084126407336
 21
245.5571517732878
 72
     1
 10
128.084126407336
 20
245.5571517732878
 11
129.0238190282225
 21
245.8991719166133
 72
     1
 10
129.0238190282225
 20
245.8991719166133
 11
128.0841264074524
 21
246.2411920599679
 72
     1
 10
128.0841264074524
 20
246.2411920599679
 11
128.0841264074524
 21
250.5571517732879
 72
     1
 10
128.0841264074524
 20
250.5571517732879
 11
126.884126407499
 21
250.5571517732879
 72
     1
 10
126.884126407499
 20
250.5571517732879
 11
126.884126407499
 21
231.3571517732871
 72
     1
 10
126.884126407499
 20
231.3571517732871
 11
126.884126407499
 21
230.1571517732864
 72
     1
 10
126.884126407499
 20
230.1571517732864
 11
127.5769467304317
 21
231.3571517732871
 72
     1
 10
127.5769467304317
 20
231.3571517732871
 11
129.884126407499
 21
231.3571517732871
 72
     1
 10
129.884126407499
 20
231.3571517732871
 11
129.884126407499
 21
227.0571517732879
 72
     1
 10
129.884126407499
 20
227.0571517732879
 11
129.884126407499
 21
226.4571517732857
 72
     1
 10
129.884126407499
 20
226.4571517732857
 11
126.884126407499
 21
227.6571517732864
 72
     1
 10
126.884126407499
 20
227.6571517732864
 11
126.884126407499
 21
223.6269517732889
 72
     1
 10
126.884126407499
 20
223.6269517732889
 11
129.884126407499
 21
224.8269517732897
 72
     1
 10
129.884126407499
 20
224.8269517732897
 11
129.884126407499
 21
224.2269517732875
 72
     1
 10
129.884126407499
 20
224.2269517732875
 11
129.884126407499
 21
220.5269517732868
 72
     1
 10
129.884126407499
 20
220.5269517732868
 11
129.884126407499
 21
219.9269517732882
 72
     1
 10
129.884126407499
 20
219.9269517732882
 11
126.884126407499
 21
221.126951773289
 72
     1
 10
126.884126407499
 20
221.126951773289
 11
126.884126407499
 21
216.5269517732868
 72
     1
 10
126.884126407499
 20
216.5269517732868
 11
127.557173168575
 21
217.6927029592571
 72
     1
 10
127.557173168575
 20
217.6927029592571
 11
129.884126407499
 21
217.6927029592571
 72
     1
 10
129.884126407499
 20
217.6927029592571
 11
131.0841264074524
 21
217.6927029592571
 72
     1
 10
131.0841264074524
 20
217.6927029592571
 11
132.8998291992439
 21
214.5478134722853
 72
     1
 10
132.8998291992439
 20
214.5478134722853
 11
127.3879407313043
 21
213.1543197669034
 72
     1
 10
127.3879407313043
 20
213.1543197669034
 11
126.884126407499
 21
214.0269517732868
 72
     1
 10
126.884126407499
 20
214.0269517732868
 11
126.884126407499
 21
213.026947434746
 97
        0
 75
     0
 76
     1
 98
        0
  0
REGION
  5
6C0
102
{ACAD_REACTORS
330
6BF
102
}
330
1F
100
AcDbEntity
  8
Specialized_Fills
 62
     7
100
AcDbModelerGeometry
 70
     1
  1
koo mlm n o         
  1
ni ^ *+0;:,4 ^ *+0\^ [ nf ^ LR mnfqoqoqjioo QK o  
  1
mjqlffffffffffffff fqfffffffffffffffj:rooh n:rono 
  1
=0;& {rn {n {rn {rn |
  1
3*2/ {rn {rn {m {o |
  1
,7:33 {rn {rn {rn {l {rn {n |
  1
9><: {rn {rn {k {m {rn {j 90-(>-; ;0*=3: 0*+ |
  1
300/ {rn {i {h {l |
  1
/3>1:r,*-9><: {rn nilqgiimimonighlkn mloqfhliflgnofkljf o o o n rn o o -:):-,:@) V V V V |
  1
300/ {rn {rn {g {l |
  1
<0:;8: {rn {f {no {rn {nn -:):-,:; {k {rn |
  1
<0:;8: {rn {nm {nl {rn {nk -:):-,:; {i {rn |
  1
<0:;8: {rn {nj {h {rn {ni -:):-,:; {k {rn |
  1
<0:;8: {rn {h {nh {rn {ng -:):-,:; {k {rn |
  1
:;8: {rn {nf {mo {h {mn 90-(>-; |
  1
<0:;8: {rn {mm {g {rn {ml -:):-,:; {i {rn |
  1
<0:;8: {rn {g {mk {rn {mj -:):-,:; {i {rn |
  1
:;8: {rn {mi {mh {g {mg 90-(>-; |
  1
<0:;8: {rn {nh {f {rn {mf -:):-,:; {k {rn |
  1
:;8: {rn {lo {nf {f {ln 90-(>-; |
  1
<0:;8: {rn {no {nj {rn {lm -:):-,:; {k {rn |
  1
:;8: {rn {mo {ll {no {lk 90-(>-; |
  1
):-+:' {rn {nn {lj |
  1
):-+:' {rn {nn {li |
  1
,+->687+r<*-): {rn nlkqnogfhgllolmfjf mnkqgjljojhklmngnf o oqkfffffffffgmikifk roqgiiomjkolhfkkjhkh o Y rkqiikoilnfffmokoni Y ro |
  1
<0:;8: {rn {lh {nm {rn {lg -:):-,:; {i {rn |
  1
:;8: {rn {lf {mi {nm {ko 90-(>-; |
  1
<0:;8: {rn {nl {kn {rn {km -:):-,:; {i {rn |
  1
:;8: {rn {mh {kl {nl {kk 90-(>-; |
  1
):-+:' {rn {nk {kj |
  1
):-+:' {rn {nk {ki |
  1
,+->687+r<*-): {rn nmkqlgknmikohkffom mnmqlfkfohlgkhnmj o oqfifkfihnjimmnnlfm oqmkjnoklonojfilgig o V V |
  1
:;8: {rn {kh {lo {nj {kg 90-(>-; |
  1
):-+:' {rn {ni {kf |
  1
,+->687+r<*-): {rn nlnqhhifkihlojonjj mngqgfmhomfjfmjknh o n o o Y roqifmgmolmmffokmnmf Y ro |
  1
:;8: {rn {ll {kh {nh {jo 90-(>-; |
  1
):-+:' {rn {lm {jn |
  1
,+->687+r<*-): {rn nffqlggmjnkgggjofg mlnqljhnjnhhlmghnn o oqfifkfihnjinfkklhl oqmkjnoklonohomoogn o Y rihqlllnjjjjojkgfof Y ro |
  1
/061+ {rn nlnqhhifkihlojonjj mngqgfmhomfjfmjknh o |
  1
/061+ {rn nlkqnogfhgllolmfjf mnkqgjljojhklmngnf o |
  1
<0:;8: {rn {jm {mm {rn {jl -:):-,:; {i {rn |
  1
:;8: {rn {jk {lf {mm {jj 90-(>-; |
  1
):-+:' {rn {lg {ji |
  1
,+->687+r<*-): {rn nmkqlgknmikohkffom mnnqnjhnjnhhlmgilf o o n o V V |
  1
<0:;8: {rn {mk {jh {rn {jg -:):-,:; {i {rn |
  1
:;8: {rn {kl {jf {mk {io 90-(>-; |
  1
):-+:' {rn {mj {in |
  1
,+->687+r<*-): {rn nmiqggknmikohkffom mnlqomifkhklkhkiol o o n o V V |
  1
/061+ {rn nmkqlgknmikohkffom mnmqlfkfohlgkhnmj o |
  1
/061+ {rn nmiqggknmikohkffom mnlqomifkhklkhkiol o |
  1
):-+:' {rn {mf {im |
  1
,+->687+r<*-): {rn nlnqogknmikohkjmki mngqgfmhomfjfmjknh o o rn o Y rnmqkikkkggnkolkkim Y ro |
  1
/061+ {rn nlnqogknmikohkjmki mngqgfmhomfjfmjknh o |
  1
,+->687+r<*-): {rn nlnqogknmikohkjmki mlnqljhnjnhhlmghnn o rn o o Y rigqloknmjognknffjk Y o |
  1
/061+ {rn nffqlggmjnkgggjofg mlnqljhnjnhhlmghnn o |
  1
<0:;8: {rn {il {lh {rn {ik -:):-,:; {i {rn |
  1
:;8: {rn {ij {jk {lh {ii 90-(>-; |
  1
):-+:' {rn {jl {ih |
  1
,+->687+r<*-): {rn mokqmgknmikohkojgf mlnqljhnjnhhlmghnn o roqfifkfihnjinflkjgn roqmkjnoklonohojggln o V V |
  1
/061+ {rn nmkqlgknmikohkffom mnnqnjhnjnhhlmgilf o |
  1
<0:;8: {rn {kn {ig {rn {if -:):-,:; {i {rn |
  1
:;8: {rn {jf {ho {kn {hn 90-(>-; |
  1
):-+:' {rn {km {hm |
  1
,+->687+r<*-): {rn nmiqggknmikohkffom mnkqomifjnhhlmgihg o oqkffffffffffjohk roqgiiomjkolhghmgmhh o V V |
  1
/061+ {rn nmiqggknmikohkffom mnkqomifjnhhlmgihg o |
  1
/061+ {rn nlnqogknmikohkjmki mlnqljhnjnhhlmghnn o |
  1
<0:;8: {rn {hl {jm {rn {hk -:):-,:; {i {rn |
  1
:;8: {rn {hj {ij {jm {hi 90-(>-; |
  1
):-+:' {rn {ik {hh |
  1
,+->687+r<*-): {rn mokqmgknmikohkojgf mknqljhnjnhhlmghnn o o rn o V V |
  1
/061+ {rn mokqmgknmikohkojgf mlnqljhnjnhhlmghnn o |
  1
<0:;8: {rn {jh {hg {rn {hf -:):-,:; {i {rn |
  1
:;8: {rn {ho {go {jh {gn 90-(>-; |
  1
):-+:' {rn {jg {gm |
  1
,+->687+r<*-): {rn nmhqlghfkohlnlokl mnlqnjklnfhiifolkl o oqfifkfihnjiniknlkg oqmkjnoklonogmngjkj o V V |
  1
/061+ {rn nmhqlghfkohlnlokl mnlqnjklnfhiifolkl o |
  1
<0:;8: {rn {gl {il {rn {gk -:):-,:; {i {rn |
  1
:;8: {rn {gj {hj {il {gi 90-(>-; |
  1
):-+:' {rn {hk {gh |
  1
,+->687+r<*-): {rn mmoqmgknmikohkojgf mknqljhnjnhhlmghnn o rn o o V V |
  1
/061+ {rn mokqmgknmikohkojgf mknqljhnjnhhlmghnn o |
  1
<0:;8: {rn {ig {gg {rn {gf -:):-,:; {i {rn |
  1
:;8: {rn {go {fo {ig {fn 90-(>-; |
  1
):-+:' {rn {if {fm |
  1
,+->687+r<*-): {rn nlmqgffgmfnffmklgh mnkqjkhgnlkhmmgjmh o roqkfffffffffgijhlil oqgiiomjkolhfmnfok o V V |
  1
/061+ {rn nlmqgffgmfnffmklgh mnkqjkhgnlkhmmgjmh o |
  1
<0:;8: {rn {fl {hl {rn {fk -:):-,:; {i {rn |
  1
:;8: {rn {fj {gj {hl {fi 90-(>-; |
  1
):-+:' {rn {gk {fh |
  1
,+->687+r<*-): {rn mmoqmgknmikohkojgf mkmqjjhnjnhhlmghgk o o rn o V V |
  1
/061+ {rn mmoqmgknmikohkojgf mknqljhnjnhhlmghnn o |
  1
<0:;8: {rn {hg {fg {rn {ff -:):-,:; {i {rn |
  1
:;8: {rn {fo {noo {hg {non 90-(>-; |
  1
):-+:' {rn {hf {nom |
  1
,+->687+r<*-): {rn nlnqogknmikohkjmki mnhqifmhomfjfmjhog o rn o o V V |
  1
/061+ {rn nlnqogknmikohkjmki mnhqifmhomfjfmjhog o |
  1
<0:;8: {rn {nol {gl {rn {nok -:):-,:; {i {rn |
  1
:;8: {rn {noj {fj {gl {noi 90-(>-; |
  1
):-+:' {rn {fk {noh |
  1
,+->687+r<*-): {rn mokqmgknmikohkojgf mkmqjjhnjnhhlmghgk o n o o V V |
  1
/061+ {rn mmoqmgknmikohkojgf mkmqjjhnjnhhlmghgk o |
  1
<0:;8: {rn {gg {nog {rn {nof -:):-,:; {i {rn |
  1
:;8: {rn {noo {nno {gg {nnn 90-(>-; |
  1
):-+:' {rn {gf {nnm |
  1
,+->687+r<*-): {rn nmfqggknmikohkffom mnhqifmhomfjfmjhog o rn o o V V |
  1
/061+ {rn nmfqggknmikohkffom mnhqifmhomfjfmjhog o |
  1
<0:;8: {rn {nnl {fl {rn {nnk -:):-,:; {i {rn |
  1
:;8: {rn {nnj {noj {fl {nni 90-(>-; |
  1
):-+:' {rn {nok {nnh |
  1
,+->687+r<*-): {rn mokqmgknmikohkojgf mjoqjjhnjnhhlmghgk o o rn o V V |
  1
/061+ {rn mokqmgknmikohkojgf mkmqjjhnjnhhlmghgk o |
  1
<0:;8: {rn {fg {nng {rn {nnf -:):-,:; {i {rn |
  1
:;8: {rn {nno {nmo {fg {nmn 90-(>-; |
  1
):-+:' {rn {ff {nmm |
  1
,+->687+r<*-): {rn nmhqjjhnhlnigjhkff mnhqifmhomfjfmjhog o roqjooooooooookfkmoj roqgiiomjkolhgnjgjlm o V V |
  1
/061+ {rn nmhqjjhnhlnigjhkff mnhqifmhomfjfmjhog o |
  1
<0:;8: {rn {nml {nol {rn {nmk -:):-,:; {i {rn |
  1
:;8: {rn {nmj {nnj {nol {nmi 90-(>-; |
  1
):-+:' {rn {nnk {nmh |
  1
,+->687+r<*-): {rn molqogknmikohlliok mjoqjjhnjnhhlmghgk o n o o V V |
  1
/061+ {rn mokqmgknmikohkojgf mjoqjjhnjnhhlmghgk o |
  1
<0:;8: {rn {nog {nmg {rn {nmf -:):-,:; {i {rn |
  1
:;8: {rn {nmo {nlo {nog {nln 90-(>-; |
  1
):-+:' {rn {nof {nlm |
  1
,+->687+r<*-): {rn nmiqggknmikohkffom mniqjmifjnhhlmgihg o o n o V V |
  1
/061+ {rn nmiqggknmikohkffom mniqjmifjnhhlmgihg o |
  1
<0:;8: {rn {nll {nnl {rn {nlk -:):-,:; {i {rn |
  1
:;8: {rn {nlj {nmj {nnl {nli 90-(>-; |
  1
):-+:' {rn {nmk {nlh |
  1
,+->687+r<*-): {rn molqogknmikohlliok mkiqmknnfmojffihfk o o n o V V |
  1
/061+ {rn molqogknmikohlliok mjoqjjhnjnhhlmghgk o |
  1
<0:;8: {rn {nng {nlg {rn {nlf -:):-,:; {i {rn |
  1
:;8: {rn {nlo {nko {nng {nkn 90-(>-; |
  1
):-+:' {rn {nnf {nkm |
  1
,+->687+r<*-): {rn nmiqggknmikohkffom mmnqnmifjnhhlmggfh o oqfmgkhiifoggjmjfkn roqlhnlfoihiljknolj o V V |
  1
/061+ {rn nmiqggknmikohkffom mmnqnmifjnhhlmggfh o |
  1
<0:;8: {rn {nkl {nml {rn {nkk -:):-,:; {i {rn |
  1
:;8: {rn {nkj {nlj {nml {nki 90-(>-; |
  1
):-+:' {rn {nlk {nkh |
  1
,+->687+r<*-): {rn momqnkkkllhgikkfjj mkjqgffnhnfniinllk o oqflfifmimohhljfihm oqlkmomonklljfkfkfl o V V |
  1
/061+ {rn molqogknmikohmnfil mkiqmknnfmojffihfk o |
  1
<0:;8: {rn {nmg {nkg {rn {nkf -:):-,:; {i {rn |
  1
:;8: {rn {nko {njo {nmg {njn 90-(>-; |
  1
):-+:' {rn {nmf {njm |
  1
,+->687+r<*-): {rn nmfqggknmikohkffom mnfqfmifjnhhlmggmk o o n o V V |
  1
/061+ {rn nmfqggknmikohkffom mnfqfmifjnhhlmggmk o |
  1
<0:;8: {rn {njl {nll {rn {njk -:):-,:; {i {rn |
  1
:;8: {rn {njj {nkj {nll {nji 90-(>-; |
  1
):-+:' {rn {nkk {njh |
  1
,+->687+r<*-): {rn molqogknmikohlliok mkjqjjhnjnhhlmghgk o roqflfifmimohfjfmlln oqlkmomonklmfgnjlnn o V V |
  1
/061+ {rn momqnkkkllhgikkfjj mkjqgffnhnfniinllk o |
  1
<0:;8: {rn {nlg {njg {rn {njf -:):-,:; {i {rn |
  1
:;8: {rn {njo {nio {nlg {nin 90-(>-; |
  1
):-+:' {rn {nlf {nim |
  1
,+->687+r<*-): {rn nmfqggknmikohkffom mmoqjmifjnhhlmgihg o o n o V V |
  1
/061+ {rn nmfqggknmikohkffom mmoqjmifjnhhlmgihg o |
  1
<0:;8: {rn {nil {nkl {rn {nik -:):-,:; {i {rn |
  1
:;8: {rn {nij {njj {nkl {nii 90-(>-; |
  1
):-+:' {rn {njk {nih |
  1
,+->687+r<*-): {rn molqogknmikohlliok mlmqjjhnjnhhlmghgk o o n o V V |
  1
/061+ {rn molqogknmikohlliok mkjqjjhnjnhhlmghgk o |
  1
<0:;8: {rn {nkg {nig {rn {nif -:):-,:; {i {rn |
  1
:;8: {rn {nio {nho {nkg {nhn 90-(>-; |
  1
):-+:' {rn {nkf {nhm |
  1
,+->687+r<*-): {rn nmfqggknmikohkffom mmkqmmifjnhhlmghjn o o n o V V |
  1
/061+ {rn nmfqggknmikohkffom mmkqmmifjnhhlmghjn o |
  1
<0:;8: {rn {nhl {njl {rn {nhk -:):-,:; {i {rn |
  1
:;8: {rn {nhj {nij {njl {nhi 90-(>-; |
  1
):-+:' {rn {nik {nhh |
  1
,+->687+r<*-): {rn nmgqogknmikohlliok mlmqjjhnjnhhlmghgk o n o o V V |
  1
/061+ {rn molqogknmikohlliok mlmqjjhnjnhhlmghgk o |
  1
<0:;8: {rn {njg {nhg {rn {nhf -:):-,:; {i {rn |
  1
:;8: {rn {nho {ngo {njg {ngn 90-(>-; |
  1
):-+:' {rn {njf {ngm |
  1
,+->687+r<*-): {rn nmfqggknmikohkffom mmkqgmifjnhhlmgfif o roqfmgkhiifoggjmjfog roqlhnlfoihiljknolhm o V V |
  1
/061+ {rn nmfqggknmikohkffom mmkqgmifjnhhlmgfif o |
  1
<0:;8: {rn {ngl {nil {rn {ngk -:):-,:; {i {rn |
  1
:;8: {rn {ngj {nhj {nil {ngi 90-(>-; |
  1
):-+:' {rn {nhk {ngh |
  1
,+->687+r<*-): {rn nmgqogknmikohlliok mkjqjjhnjnhhlmghgk o o rn o V V |
  1
/061+ {rn nmgqogknmikohlliok mlmqjjhnjnhhlmghgk o |
  1
<0:;8: {rn {nig {ngg {rn {ngf -:):-,:; {i {rn |
  1
:;8: {rn {ngo {nfo {nig {nfn 90-(>-; |
  1
):-+:' {rn {nif {nfm |
  1
,+->687+r<*-): {rn nmiqggknmikohkffom mmlqimifjnhhlmggfh o o n o V V |
  1
/061+ {rn nmiqggknmikohkffom mmlqimifjnhhlmggfh o |
  1
<0:;8: {rn {nfl {nhl {rn {nfk -:):-,:; {i {rn |
  1
:;8: {rn {nfj {ngj {nhl {nfi 90-(>-; |
  1
):-+:' {rn {ngk {nfh |
  1
,+->687+r<*-): {rn nmfqomlgnfomgmmmjl mkjqgffnhnfniinllk o roqflfifmimohfjfmlln roqlkmomonklmfgnjlnn o V V |
  1
/061+ {rn nmgqogknmikohlliok mkjqjjhnjnhhlmghgk o |
  1
<0:;8: {rn {nhg {nfg {rn {nff -:):-,:; {i {rn |
  1
:;8: {rn {nfo {moo {nhg {mon 90-(>-; |
  1
):-+:' {rn {nhf {mom |
  1
,+->687+r<*-): {rn nmiqggknmikohkffom mmhqijhnjnhhlmgilf o oqfmgkhiifoggjmjfog roqlhnlfoihiljknolgl o V V |
  1
/061+ {rn nmiqggknmikohkffom mmhqijhnjnhhlmgilf o |
  1
<0:;8: {rn {mol {ngl {rn {mok -:):-,:; {i {rn |
  1
:;8: {rn {moj {nfj {ngl {moi 90-(>-; |
  1
):-+:' {rn {nfk {moh |
  1
,+->687+r<*-): {rn nmgqogknmikohkjmki mkiqmknnfmojffihfk o oqflfifmimohhljfhoj roqlkmomonklljfkflgm o V V |
  1
/061+ {rn nmfqomlgnfomgmmmjl mkjqgffnhnfniinllk o |
  1
<0:;8: {rn {ngg {mog {rn {mof -:):-,:; {i {rn |
  1
:;8: {rn {moo {mno {ngg {mnn 90-(>-; |
  1
):-+:' {rn {ngf {mnm |
  1
,+->687+r<*-): {rn nmfqggknmikohkffom mmiqkjhnjnhhlmgjii o o n o V V |
  1
/061+ {rn nmfqggknmikohkffom mmiqkjhnjnhhlmgjii o |
  1
<0:;8: {rn {mnl {nfl {rn {mnk -:):-,:; {i {rn |
  1
:;8: {rn {mnj {moj {nfl {mni 90-(>-; |
  1
):-+:' {rn {mok {mnh |
  1
,+->687+r<*-): {rn nmgqogknmikohkjmki mjoqjjhnjnhhlmghgk o o rn o V V |
  1
/061+ {rn nmgqogknmikohkjmki mkiqmknnfmojffihfk o |
  1
<0:;8: {rn {nfg {mnl {rn {mng -:):-,:; {i {rn |
  1
:;8: {rn {mno {mnf {nfg {mmo 90-(>-; |
  1
):-+:' {rn {nff {mmn |
  1
,+->687+r<*-): {rn nmfqggknmikohkffom mmhqojhnjnhhlmghgk o o n o V V |
  1
/061+ {rn nmfqggknmikohkffom mmhqojhnjnhhlmghgk o |
  1
<0:;8: {rn {mog {mol {rn {mmm -:):-,:; {i {rn |
  1
:;8: {rn {mml {mnj {mol {mmk 90-(>-; |
  1
):-+:' {rn {mnk {mmj |
  1
,+->687+r<*-): {rn nmiqggknmikohkffom mjoqjjhnjnhhlmghgk o n o o V V |
  1
/061+ {rn nmgqogknmikohkjmki mjoqjjhnjnhhlmghgk o |
  1
:;8: {rn {mnf {mmi {mog {mmh 90-(>-; |
  1
):-+:' {rn {mof {mmg |
  1
,+->687+r<*-): {rn nmfqggknmikohkffom mlnqljhnjnhhlmghnn o rn o o V V |
  1
/061+ {rn nmfqggknmikohkffom mlnqljhnjnhhlmghnn o |
  1
:;8: {rn {mmi {mml {mnl {mmf 90-(>-; |
  1
):-+:' {rn {mmm {mlo |
  1
,+->687+r<*-): {rn nmiqggknmikohkffom mlnqljhnjnhhlmghnn o o n o V V |
  1
/061+ {rn nmiqggknmikohkffom mjoqjjhnjnhhlmghgk o |
  1
):-+:' {rn {mng {mln |
  1
,+->687+r<*-): {rn nmhqjhifkihloklnh mlnqljhnjnhhlmigfm o roqkfffffffffgjhnffm roqgiiomjkolhfmiglmm o V V |
  1
/061+ {rn nmhqjhifkihloklnh mlnqljhnjnhhlmghnn o |
  1
,+->687+r<*-): {rn nmiqggknmikohkffom mloqnjhnjnhhlmgilf o o n o V V |
  1
/061+ {rn nmiqggknmikohkffom mlnqljhnjnhhlmghnn o |
  1
/061+ {rn nmiqggknmikohkffom mloqnjhnjnhhlmgilf o |
1001
ACAD_OBJECT_CHANGE_GUID
1070
     1
1071
-378631443
1070
 -5191
1070
 17814
1070
   135
1070
    65
1070
    27
1070
   134
1070
   121
1070
   163
1070
    91
1070
   146
  0
MTEXT
  5
70F
102
{ACAD_REACTORS
330
710
102
}
330
1F
100
AcDbEntity
  8
Specialized_Text
  6
Continuous
100
AcDbMText
 10
76.03823227814783
 20
245.0657165755263
 30
0.0
 40
5.5
 41
53.09644917403741
 71
     6
 72
     1
  1
5mm min gap
  7
GENERATED_STYLE_1
 73
     1
 44
1.0
1001
ACAD
1000
MTEXTBEGIN
1070
    73
1070
     1
1070
    44
1040
1.0
1070
    74
1070
     0
1000
MTEXTEND
  0
LEADER
  5
710
330
1F
100
AcDbEntity
  8
Specialized_Text
  6
Continuous
 62
   251
370
    13
100
AcDbLeader
  3
GENERATED_STYLE__3
 73
     0
 75
     1
 40
7.113233287858117
 41
45.92837653478854
 76
     4
 10
141.9975977786816
 20
212.0794096562022
 30
0.0
 10
118.9611859910074
 20
206.0043206217524
 30
0.0
 10
83.42423227814782
 20
245.0657165755263
 30
0.0
 10
76.12823227814783
 20
245.0657165755263
 30
0.0
340
70F
  0
ENDSEC
  0
SECTION
  2
OBJECTS
  0
DICTIONARY
  5
C
330
0
100
AcDbDictionary
281
     1
  3
ACAD_2007HEADERVARS_RT
350
76A
  3
ACAD_ASSOCNETWORK
350
5A9
  3
ACAD_CIP_PREVIOUS_PRODUCT_INFO
350
206
  3
ACAD_COLOR
350
1FA
  3
ACAD_DETAILVIEWSTYLE
350
1FF
  3
ACAD_GROUP
350
D
  3
ACAD_IMAGE_DICT
350
22C
  3
ACAD_IMAGE_VARS
350
231
  3
ACAD_LAYOUT
350
1A
  3
ACAD_MATERIAL
350
3B
  3
ACAD_MLEADERSTYLE
350
1ED
  3
ACAD_MLINESTYLE
350
17
  3
ACAD_PDFDEFINITIONS
350
5B8
  3
ACAD_PLOTSETTINGS
350
19
  3
ACAD_PLOTSTYLENAME
350
E
  3
ACAD_SCALELIST
350
135
  3
ACAD_SECTIONVIEWSTYLE
350
1FD
  3
ACAD_TABLESTYLE
350
1EC
  3
ACAD_VISUALSTYLE
350
2A
  3
ACDB_RECOMPOSE_DATA
350
768
  3
AcDbVariableDictionary
350
1CA
  3
AcDsDecomposeData
350
772
  3
DWGPROPS
350
769
  3
WATERMARKS
350
1C8
  0
DICTIONARY
  5
216
330
2
100
AcDbDictionary
280
     1
281
     1
  3
ACAD_LAYERSTATES
360
217
  0
DICTIONARY
  5
241
330
10
100
AcDbDictionary
280
     1
281
     1
  3
ADSK_XREC_LAYER_RECONCILED
360
242
  0
DICTIONARY
  5
243
330
40
100
AcDbDictionary
280
     1
281
     1
  3
ADSK_XREC_LAYER_RECONCILED
360
244
  0
DICTIONARY
  5
245
330
170
100
AcDbDictionary
280
     1
281
     1
  3
ADSK_XREC_LAYER_RECONCILED
360
246
  0
DICTIONARY
  5
247
330
1A3
100
AcDbDictionary
280
     1
281
     1
  3
ADSK_XREC_LAYER_RECONCILED
360
248
  0
DICTIONARY
  5
20D
330
20C
100
AcDbDictionary
280
     1
281
     1
  3
ADSK_XREC_LAYER_RECONCILED
360
249
  0
DICTIONARY
  5
6B6
330
6B5
100
AcDbDictionary
280
     1
281
     1
  0
DICTIONARY
  5
25F
330
1F
100
AcDbDictionary
280
     1
281
     1
  3
ACAD_ASSOCNETWORK
360
5B2
  3
ACAD_SORTENTS
360
33E
  0
DICTIONARY
  5
28F
330
44
100
AcDbDictionary
280
     1
281
     1
  3
ACAD_SORTENTS
360
29C
  0
DICTIONARY
  5
7C8
330
561
100
AcDbDictionary
280
     1
281
     1
  3
AcDbBlockTableRecordData
360
7C9
  0
DICTIONARY
  5
575
330
574
100
AcDbDictionary
280
     1
281
     1
  3
ACAD_ASSOCNETWORK
360
576
  3
AcDbDynamicBlockRoundTripPurgePreventer
360
57E
  0
DICTIONARY
  5
7A1
330
181
100
AcDbDictionary
280
     1
281
     1
  3
ACAD_XREC_ROUNDTRIP
360
7A2
  0
DICTIONARY
  5
7A4
330
1AF
100
AcDbDictionary
280
     1
281
     1
  3
ACAD_MTEXT_RT
360
7A5
  0
DICTIONARY
  5
7A6
330
1B9
100
AcDbDictionary
280
     1
281
     1
  3
ACAD_MTEXT_RT
360
7A7
  0
DICTIONARY
  5
7A8
330
1BB
100
AcDbDictionary
280
     1
281
     1
  3
ACAD_MTEXT_RT
360
7A9
  0
DICTIONARY
  5
7AA
330
1C3
100
AcDbDictionary
280
     1
281
     1
  3
ACAD_MTEXT_RT
360
7AB
  0
DICTIONARY
  5
7C6
330
339
100
AcDbDictionary
280
     1
281
     1
  3
ACAD_MTEXT_RT
360
7C7
  0
DICTIONARY
  5
63C
330
62A
100
AcDbDictionary
280
     1
281
     1
  3
ACAD_FILTER
360
63D
  0
DICTIONARY
  5
63F
330
62B
100
AcDbDictionary
280
     1
281
     1
  3
ACAD_FILTER
360
640
  0
DICTIONARY
  5
642
330
62C
100
AcDbDictionary
280
     1
281
     1
  3
ACAD_FILTER
360
643
  0
DICTIONARY
  5
645
330
62D
100
AcDbDictionary
280
     1
281
     1
  3
ACAD_FILTER
360
646
  0
DICTIONARY
  5
648
330
62E
100
AcDbDictionary
280
     1
281
     1
  3
ACAD_FILTER
360
649
  0
DICTIONARY
  5
64B
330
62F
100
AcDbDictionary
280
     1
281
     1
  3
ACAD_FILTER
360
64C
  0
DICTIONARY
  5
64E
330
630
100
AcDbDictionary
280
     1
281
     1
  3
ACAD_FILTER
360
64F
  0
DICTIONARY
  5
651
330
631
100
AcDbDictionary
280
     1
281
     1
  3
ACAD_FILTER
360
652
  0
DICTIONARY
  5
654
330
632
100
AcDbDictionary
280
     1
281
     1
  3
ACAD_FILTER
360
655
  0
DICTIONARY
  5
657
330
633
100
AcDbDictionary
280
     1
281
     1
  3
ACAD_FILTER
360
658
  0
DICTIONARY
  5
65A
330
634
100
AcDbDictionary
280
     1
281
     1
  3
ACAD_FILTER
360
65B
  0
DICTIONARY
  5
65D
330
635
100
AcDbDictionary
280
     1
281
     1
  3
ACAD_FILTER
360
65E
  0
DICTIONARY
  5
660
330
636
100
AcDbDictionary
280
     1
281
     1
  3
ACAD_FILTER
360
661
  0
DICTIONARY
  5
663
330
637
100
AcDbDictionary
280
     1
281
     1
  3
ACAD_FILTER
360
664
  0
DICTIONARY
  5
76A
102
{ACAD_REACTORS
330
C
102
}
330
C
100
AcDbDictionary
281
     1
  3
INTERFERECOLOR
350
76B
  0
DICTIONARY
  5
5A9
102
{ACAD_REACTORS
330
C
102
}
330
C
100
AcDbDictionary
281
     1
  3
ACAD_ASSOCNETWORK
350
5AA
  0
XRECORD
  5
206
102
{ACAD_REACTORS
330
C
102
}
330
C
100
AcDbXrecord
280
     1
300
ACD
300
2014
300
BDSPRM_F_S
  0
DICTIONARY
  5
1FA
102
{ACAD_REACTORS
330
C
102
}
330
C
100
AcDbDictionary
281
     1
  0
DICTIONARY
  5
1FF
102
{ACAD_REACTORS
330
C
102
}
330
C
100
AcDbDictionary
281
     1
  3
Imperial24
350
200
  3
Metric50
350
59D
  0
DICTIONARY
  5
D
102
{ACAD_REACTORS
330
C
102
}
330
C
100
AcDbDictionary
281
     1
  3
*A1
350
666
  0
DICTIONARY
  5
22C
102
{ACAD_REACTORS
330
C
102
}
330
C
100
AcDbDictionary
281
     1
  0
RASTERVARIABLES
  5
231
102
{ACAD_REACTORS
330
C
102
}
330
C
100
AcDbRasterVariables
 90
        0
 70
     1
 71
     1
 72
     0
  0
DICTIONARY
  5
1A
102
{ACAD_REACTORS
330
C
102
}
330
C
100
AcDbDictionary
281
     1
  3
Layout1
350
1E
  3
Layout2
350
26
  3
Model
350
22
  0
DICTIONARY
  5
3B
102
{ACAD_REACTORS
330
C
102
}
330
C
100
AcDbDictionary
281
     1
  3
ByBlock
350
3D
  3
ByLayer
350
3C
  3
Global
350
3E
  0
DICTIONARY
  5
1ED
102
{ACAD_REACTORS
330
C
102
}
330
C
100
AcDbDictionary
281
     1
  3
Standard
350
1FC
  0
DICTIONARY
  5
17
102
{ACAD_REACTORS
330
C
102
}
330
C
100
AcDbDictionary
281
     1
  3
Standard
350
18
  0
DICTIONARY
  5
5B8
102
{ACAD_REACTORS
330
C
102
}
330
C
100
AcDbDictionary
281
     1
  0
DICTIONARY
  5
19
102
{ACAD_REACTORS
330
C
102
}
330
C
100
AcDbDictionary
281
     1
  0
ACDBDICTIONARYWDFLT
  5
E
102
{ACAD_REACTORS
330
C
102
}
330
C
100
AcDbDictionary
281
     1
  3
Normal
350
F
100
AcDbDictionaryWithDefault
340
F
  0
DICTIONARY
  5
135
102
{ACAD_REACTORS
330
C
102
}
330
C
100
AcDbDictionary
281
     1
  3
A0
350
136
  3
A1
350
137
  3
A2
350
138
  3
A3
350
139
  3
A4
350
13A
  3
A5
350
13B
  3
A6
350
13C
  3
A7
350
13D
  3
A8
350
13E
  3
A9
350
13F
  3
B0
350
140
  3
B1
350
141
  3
B2
350
142
  3
B3
350
143
  3
B4
350
144
  3
B5
350
145
  3
B6
350
146
  3
B7
350
147
  3
B8
350
148
  3
B9
350
149
  3
C0
350
14A
  3
C1
350
14B
  3
C2
350
14C
  3
C3
350
14D
  3
C4
350
14E
  3
C5
350
14F
  3
C6
350
150
  3
C7
350
151
  3
C8
350
152
  3
C9
350
153
  3
D0
350
154
  3
D1
350
155
  3
D2
350
156
  0
DICTIONARY
  5
1FD
102
{ACAD_REACTORS
330
C
102
}
330
C
100
AcDbDictionary
281
     1
  3
Imperial24
350
1FE
  3
Metric50
350
59C
  0
DICTIONARY
  5
1EC
102
{ACAD_REACTORS
330
C
102
}
330
C
100
AcDbDictionary
281
     1
  3
Standard
350
1FB
  0
DICTIONARY
  5
2A
102
{ACAD_REACTORS
330
C
102
}
330
C
100
AcDbDictionary
281
     1
  3
2dWireframe
350
2F
  3
3D Hidden
350
31
  3
3dWireframe
350
30
  3
Basic
350
32
  3
Brighten
350
36
  3
ColorChange
350
3A
  3
Conceptual
350
34
  3
Dim
350
35
  3
EdgeColorOff
350
1F9
  3
Facepattern
350
39
  3
Flat
350
2B
  3
FlatWithEdges
350
2C
  3
Gouraud
350
2D
  3
GouraudWithEdges
350
2E
  3
Hidden
350
1F1
  3
JitterOff
350
1F7
  3
Linepattern
350
38
  3
OverhangOff
350
1F8
  3
Realistic
350
33
  3
Shaded
350
1F6
  3
Shaded with edges
350
1F5
  3
Shades of Gray
350
1F2
  3
Sketchy
350
1F3
  3
Thicken
350
37
  3
Wireframe
350
1F0
  3
X-Ray
350
1F4
  0
XRECORD
  5
768
102
{ACAD_REACTORS
330
C
102
}
330
C
100
AcDbXrecord
280
     1
 90
        1
330
1FB
330
236
330
239
330
23A
330
23D
  0
DICTIONARY
  5
1CA
102
{ACAD_REACTORS
330
C
102
}
330
C
100
AcDbDictionary
281
     1
  3
CANNOSCALE
350
1CB
  3
CMLEADERSTYLE
350
274
  3
CTABLESTYLE
350
273
  3
CVIEWDETAILSTYLE
350
275
  3
CVIEWSECTIONSTYLE
350
276
  3
DGNFRAME
350
765
  3
DIMASSOC
350
763
  3
HIDETEXT
350
761
  3
HPCOLOR
350
295
  3
INDEXCTL
350
760
  3
LAYEREVAL
350
277
  3
LAYERNOTIFY
350
278
  3
LIGHTINGUNITS
350
75E
  3
MSLTSCALE
350
75D
  3
SOLIDHIST
350
764
  3
SORTENTS
350
75F
  3
XCLIPFRAME
350
762
  0
DICTIONARY
  5
772
102
{ACAD_REACTORS
330
C
102
}
330
C
100
AcDbDictionary
281
     1
  3
AcDsRecords
350
774
  3
AcDsSchemas
350
773
1001
ACAD
1070
     2
  0
XRECORD
  5
769
102
{ACAD_REACTORS
330
C
102
}
330
C
100
AcDbXrecord
280
     1
  1
DWGPROPS COOKIE
  2

  3

  4

  6

  7

  8
Hayden
  9

300
=
301
=
302
=
303
=
304
=
305
=
306
=
307
=
308
=
309
=
 40
0.0230164583333333
 41
2456216.553107732
 42
2457071.45171007
  1

 90
        0
  0
DICTIONARY
  5
1C8
102
{ACAD_REACTORS
330
C
102
}
330
C
100
AcDbDictionary
281
     1
  3
AC_WATERMARK
350
1C9
  0
DICTIONARY
  5
217
102
{ACAD_REACTORS
330
216
102
}
330
216
100
AcDbDictionary
281
     1
  0
XRECORD
  5
242
102
{ACAD_REACTORS
330
241
102
}
330
241
100
AcDbXrecord
280
     1
290
     1
  0
XRECORD
  5
244
102
{ACAD_REACTORS
330
243
102
}
330
243
100
AcDbXrecord
280
     1
290
     1
  0
XRECORD
  5
246
102
{ACAD_REACTORS
330
245
102
}
330
245
100
AcDbXrecord
280
     1
290
     1
  0
XRECORD
  5
248
102
{ACAD_REACTORS
330
247
102
}
330
247
100
AcDbXrecord
280
     1
290
     1
  0
XRECORD
  5
249
102
{ACAD_REACTORS
330
20D
102
}
330
20D
100
AcDbXrecord
280
     1
290
     1
  0
DICTIONARY
  5
5B2
102
{ACAD_REACTORS
330
25F
102
}
330
25F
100
AcDbDictionary
281
     1
  3
ACAD_ASSOCNETWORK
350
5B3
  0
SORTENTSTABLE
  5
33E
102
{ACAD_REACTORS
330
25F
102
}
330
25F
100
AcDbSortentsTable
330
1F
331
167
  5
1B3
331
634
  5
176
331
335
  5
5D0
331
62C
  5
43
331
1BB
  5
34A
331
17A
  5
1C2
331
1B3
  5
318
331
490
  5
632
331
631
  5
172
331
23D
  5
5C3
331
1B8
  5
6C0
331
177
  5
1BF
331
1B0
  5
315
331
48D
  5
62D
331
42
  5
1A0
331
161
  5
1AF
331
16F
  5
1B9
331
23A
  5
5AF
331
1C3
  5
48D
331
5D0
  5
1AB
331
174
  5
1BC
331
232
  5
48F
331
1AD
  5
312
331
33A
  5
62B
331
6C0
  5
6BF
331
639
  5
17E
331
1C0
  5
34F
331
171
  5
1BA
331
169
  5
1B5
331
636
  5
17A
331
1A2
  5
23C
331
337
  5
337
331
62E
  5
169
331
1BD
  5
34C
331
5F0
  5
639
331
17C
  5
1C4
331
492
  5
62E
331
1B5
  5
31A
331
633
  5
175
331
62B
  5
42
331
3F
  5
181
331
181
  5
237
331
1BA
  5
349
331
179
  5
1C1
331
237
  5
492
331
1B2
  5
317
331
48F
  5
631
331
5CD
  5
1A4
331
163
  5
1B1
331
630
  5
16F
331
311
  5
5CC
331
23C
  5
5C2
331
5AF
  5
634
331
522
  5
633
331
176
  5
1BE
331
1AF
  5
314
331
48C
  5
1AE
331
41
  5
18E
331
5CA
  5
638
331
16E
  5
1B8
331
239
  5
5AE
331
63B
  5
180
331
1AC
  5
311
331
16B
  5
1B7
331
1A4
  5
23D
331
339
  5
62A
331
6BF
  5
63A
331
638
  5
17D
331
1BF
  5
34E
331
17E
  5
233
331
1B7
  5
347
331
168
  5
1B4
331
635
  5
179
331
336
  5
5D2
331
62D
  5
15D
331
1BC
  5
34B
331
17B
  5
1C3
331
1B4
  5
319
331
491
  5
62F
331
165
  5
1B2
331
632
  5
174
331
180
  5
236
331
62A
  5
41
331
1B9
  5
348
331
18E
  5
238
331
23E
  5
5CA
331
178
  5
1C0
331
236
  5
491
331
1B1
  5
316
331
48E
  5
630
331
43
  5
1A2
331
162
  5
1B0
331
23B
  5
5B1
331
1C4
  5
48E
331
5D1
  5
1AC
331
175
  5
1BD
331
233
  5
490
331
1AE
  5
313
331
33B
  5
62C
331
238
  5
522
331
63A
  5
17F
331
172
  5
1BB
331
1AB
  5
23E
331
16A
  5
1B6
331
637
  5
17B
331
338
  5
5F0
331
62F
  5
16C
331
1BE
  5
34D
331
17D
  5
232
331
1B6
  5
33B
  0
SORTENTSTABLE
  5
29C
102
{ACAD_REACTORS
330
28F
102
}
330
28F
100
AcDbSortentsTable
330
44
331
28B
  5
28D
331
28C
  5
293
331
28D
  5
296
331
29E
  5
289
331
288
  5
28A
331
289
  5
28B
331
28A
  5
28C
  0
DICTIONARY
  5
7C9
102
{ACAD_REACTORS
330
7C8
102
}
330
7C8
100
AcDbDictionary
280
     1
281
     1
  3
Edit
360
7CA
  0
DICTIONARY
  5
576
102
{ACAD_REACTORS
330
575
102
}
330
575
100
AcDbDictionary
281
     1
  3
ACAD_ASSOCNETWORK
350
577
  0
ACDB_DYNAMICBLOCKPURGEPREVENTER_VERSION
  5
57E
102
{ACAD_REACTORS
330
575
102
}
330
575
100
AcDbDynamicBlockPurgePreventer
 70
     1
  0
XRECORD
  5
7A2
102
{ACAD_REACTORS
330
7A1
102
}
330
7A1
100
AcDbXrecord
280
     1
102
VERTEXIDENTIFIER
310
07000000050000000600000000000000000000000000000000000000
  0
XRECORD
  5
7A5
102
{ACAD_REACTORS
330
7A4
102
}
330
7A4
100
AcDbXrecord
280
     1
 40
900869.0
  1
{Discontinuous horizontal 50mm x 50mm ventilated EPS battens on 15° slope and no longer than 100mm in length where required for fixing}
  0
XRECORD
  5
7A7
102
{ACAD_REACTORS
330
7A6
102
}
330
7A6
100
AcDbXrecord
280
     1
 40
563051.0
  1
{Ventilation openings at top of schist veneer wall to provide opening of 1000mm² per lineal metre of wall}
  0
XRECORD
  5
7A9
102
{ACAD_REACTORS
330
7A8
102
}
330
7A8
100
AcDbXrecord
280
     1
 40
203405.0
  1
{Flashing with 15º slope and minimum 35mm cover over schist}
  0
XRECORD
  5
7AB
102
{ACAD_REACTORS
330
7AA
102
}
330
7AA
100
AcDbXrecord
280
     1
 40
33784.0
  1
{\C30;\c30975;75mm Neopor® EPS}
  0
XRECORD
  5
7C7
102
{ACAD_REACTORS
330
7C6
102
}
330
7C6
100
AcDbXrecord
280
     1
 40
173389.0
  1
© copyright 2013 Specialized Construction Products Ltd
  0
DICTIONARY
  5
63D
102
{ACAD_REACTORS
330
63C
102
}
330
63C
100
AcDbDictionary
280
     1
281
     1
  3
SPATIAL
360
63E
  0
DICTIONARY
  5
640
102
{ACAD_REACTORS
330
63F
102
}
330
63F
100
AcDbDictionary
280
     1
281
     1
  3
SPATIAL
360
641
  0
DICTIONARY
  5
643
102
{ACAD_REACTORS
330
642
102
}
330
642
100
AcDbDictionary
280
     1
281
     1
  3
SPATIAL
360
644
  0
DICTIONARY
  5
646
102
{ACAD_REACTORS
330
645
102
}
330
645
100
AcDbDictionary
280
     1
281
     1
  3
SPATIAL
360
647
  0
DICTIONARY
  5
649
102
{ACAD_REACTORS
330
648
102
}
330
648
100
AcDbDictionary
280
     1
281
     1
  3
SPATIAL
360
64A
  0
DICTIONARY
  5
64C
102
{ACAD_REACTORS
330
64B
102
}
330
64B
100
AcDbDictionary
280
     1
281
     1
  3
SPATIAL
360
64D
  0
DICTIONARY
  5
64F
102
{ACAD_REACTORS
330
64E
102
}
330
64E
100
AcDbDictionary
280
     1
281
     1
  3
SPATIAL
360
650
  0
DICTIONARY
  5
652
102
{ACAD_REACTORS
330
651
102
}
330
651
100
AcDbDictionary
280
     1
281
     1
  3
SPATIAL
360
653
  0
DICTIONARY
  5
655
102
{ACAD_REACTORS
330
654
102
}
330
654
100
AcDbDictionary
280
     1
281
     1
  3
SPATIAL
360
656
  0
DICTIONARY
  5
658
102
{ACAD_REACTORS
330
657
102
}
330
657
100
AcDbDictionary
280
     1
281
     1
  3
SPATIAL
360
659
  0
DICTIONARY
  5
65B
102
{ACAD_REACTORS
330
65A
102
}
330
65A
100
AcDbDictionary
280
     1
281
     1
  3
SPATIAL
360
65C
  0
DICTIONARY
  5
65E
102
{ACAD_REACTORS
330
65D
102
}
330
65D
100
AcDbDictionary
280
     1
281
     1
  3
SPATIAL
360
65F
  0
DICTIONARY
  5
661
102
{ACAD_REACTORS
330
660
102
}
330
660
100
AcDbDictionary
280
     1
281
     1
  3
SPATIAL
360
662
  0
DICTIONARY
  5
664
102
{ACAD_REACTORS
330
663
102
}
330
663
100
AcDbDictionary
280
     1
281
     1
  3
SPATIAL
360
665
  0
XRECORD
  5
76B
102
{ACAD_REACTORS
330
76A
102
}
330
76A
100
AcDbXrecord
280
     1
1004
1800000001000000000000C0000000000000000000000000
  0
ACDBASSOCNETWORK
  5
5AA
102
{ACAD_REACTORS
330
5A9
102
}
330
5A9
100
AcDbAssocAction
 90
        1
 90
        0
330
0
360
0
 90
        0
 90
        0
 90
        0
100
AcDbAssocNetwork
 90
        0
 90
        4
 90
        2
330
577
330
5B3
 90
        0
  0
ACDBDETAILVIEWSTYLE
  5
200
102
{ACAD_XDICTIONARY
360
270
102
}
102
{ACAD_REACTORS
330
1FF
102
}
330
1FF
100
AcDbModelDocViewStyle
 70
     0
  3
Imperial24
290
     0
100
AcDbDetailViewStyle
 70
     0
 71
     0
 90
        3
 71
     1
340
11
 40
0.24
340
0
 40
0.24
300

 40
0.36
280
     3
 71
     2
340
16
 90
       25
 71
     3
340
11
 40
0.24
 90
        1
 40
0.75
 90
        1
300
%<\AcVar ViewType \f "%tc1">% %<\AcVar ViewDetailId>%\PSCALE %<\AcVar ViewScale \f "%sn">%
 71
     4
340
16
 90
       25
340
16
 90
       25
280
     0
  0
ACDBDETAILVIEWSTYLE
  5
59D
102
{ACAD_XDICTIONARY
360
672
102
}
102
{ACAD_REACTORS
330
1FF
102
}
330
1FF
100
AcDbModelDocViewStyle
 70
     0
  3
Metric50
290
     0
100
AcDbDetailViewStyle
 70
     0
 71
     0
 90
        3
 71
     1
340
11
 40
5.0
340
0
 40
5.0
300

 40
0.0
280
     1
 71
     2
340
16
 90
       25
 71
     3
340
11
 40
5.0
 90
        0
 40
15.0
 90
        1
300
%<\AcVar ViewDetailId>% (%<\AcVar ViewScale \f "%sn">%)
 71
     4
340
16
 90
       25
340
16
 90
       25
280
     0
  0
GROUP
  5
666
102
{ACAD_REACTORS
330
D
102
}
330
D
100
AcDbGroup
300
Superhatch
 70
     1
 71
     1
340
62A
340
62B
340
62C
340
62D
340
62E
340
62F
340
630
340
631
340
632
340
633
340
634
340
635
340
636
340
637
340
638
340
639
340
63A
340
63B
  0
LAYOUT
  5
1E
102
{ACAD_XDICTIONARY
360
775
102
}
102
{ACAD_REACTORS
330
1A
102
}
330
1A
100
AcDbPlotSettings
  1

  2
none_device
  4

  6

 40
0.0
 41
0.0
 42
0.0
 43
0.0
 44
0.0
 45
0.0
 46
0.0
 47
0.0
 48
0.0
 49
0.0
140
0.0
141
0.0
142
1.0
143
1.0
 70
   688
 72
     0
 73
     0
 74
     5
  7

 75
    16
147
1.0
148
0.0
149
0.0
100
AcDbLayout
  1
Layout1
 70
     1
 71
     1
 10
0.0
 20
0.0
 11
12.0
 21
9.0
 12
0.0
 22
0.0
 32
0.0
 14
1.000000000000000E+20
 24
1.000000000000000E+20
 34
1.000000000000000E+20
 15
-1.000000000000000E+20
 25
-1.000000000000000E+20
 35
-1.000000000000000E+20
146
0.0
 13
0.0
 23
0.0
 33
0.0
 16
1.0
 26
0.0
 36
0.0
 17
0.0
 27
1.0
 37
0.0
 76
     0
330
1B
  0
LAYOUT
  5
26
102
{ACAD_XDICTIONARY
360
779
102
}
102
{ACAD_REACTORS
330
1A
102
}
330
1A
100
AcDbPlotSettings
  1

  2
none_device
  4

  6

 40
0.0
 41
0.0
 42
0.0
 43
0.0
 44
0.0
 45
0.0
 46
0.0
 47
0.0
 48
0.0
 49
0.0
140
0.0
141
0.0
142
1.0
143
1.0
 70
   688
 72
     0
 73
     0
 74
     5
  7

 75
    16
147
1.0
148
0.0
149
0.0
100
AcDbLayout
  1
Layout2
 70
     1
 71
     2
 10
0.0
 20
0.0
 11
0.0
 21
0.0
 12
0.0
 22
0.0
 32
0.0
 14
0.0
 24
0.0
 34
0.0
 15
0.0
 25
0.0
 35
0.0
146
0.0
 13
0.0
 23
0.0
 33
0.0
 16
1.0
 26
0.0
 36
0.0
 17
0.0
 27
1.0
 37
0.0
 76
     0
330
23
  0
LAYOUT
  5
22
102
{ACAD_XDICTIONARY
360
777
102
}
102
{ACAD_REACTORS
330
1A
102
}
330
1A
100
AcDbPlotSettings
  1

  2
none_device
  4

  6

 40
0.0
 41
0.0
 42
0.0
 43
0.0
 44
0.0
 45
0.0
 46
0.0
 47
0.0
 48
0.0
 49
0.0
140
0.0
141
0.0
142
1.0
143
1.0
 70
  1712
 72
     0
 73
     0
 74
     0
  7

 75
     0
147
1.0
148
0.0
149
0.0
100
AcDbLayout
  1
Model
 70
     1
 71
     0
 10
0.0
 20
0.0
 11
12.0
 21
9.0
 12
0.0
 22
0.0
 32
0.0
 14
1.000000000000000E+20
 24
1.000000000000000E+20
 34
1.000000000000000E+20
 15
-1.000000000000000E+20
 25
-1.000000000000000E+20
 35
-1.000000000000000E+20
146
0.0
 13
0.0
 23
0.0
 33
0.0
 16
1.0
 26
0.0
 36
0.0
 17
0.0
 27
1.0
 37
0.0
 76
     0
330
1F
331
29
  0
MATERIAL
  5
3D
102
{ACAD_XDICTIONARY
360
79D
102
}
102
{ACAD_REACTORS
330
3B
102
}
330
3B
100
AcDbMaterial
  1
ByBlock
 73
     1
 78
     1
172
     1
176
     1
270
     1
274
     1
  0
MATERIAL
  5
3C
102
{ACAD_XDICTIONARY
360
79B
102
}
102
{ACAD_REACTORS
330
3B
102
}
330
3B
100
AcDbMaterial
  1
ByLayer
 73
     1
 78
     1
172
     1
176
     1
270
     1
274
     1
  0
MATERIAL
  5
3E
102
{ACAD_XDICTIONARY
360
79F
102
}
102
{ACAD_REACTORS
330
3B
102
}
330
3B
100
AcDbMaterial
  1
Global
 73
     1
 78
     1
172
     1
176
     1
270
     1
274
     1
  0
MLEADERSTYLE
  5
1FC
102
{ACAD_XDICTIONARY
360
7C2
102
}
102
{ACAD_REACTORS
330
1ED
102
}
330
1ED
100
AcDbMLeaderStyle
170
     2
171
     1
172
     0
 90
        2
 40
0.0
 41
0.0
173
     1
 91
-1056964608
340
14
 92
       -2
290
     1
 42
0.09
291
     1
 43
0.36
  3
Standard
 44
0.18
300

342
11
174
     1
178
     6
175
     1
176
     0
 93
-1056964608
 45
0.18
292
     0
297
     0
 46
0.18
 94
-1056964608
 47
1.0
 49
1.0
140
1.0
293
     1
141
0.0
294
     1
177
     0
142
1.0
295
     0
296
     0
143
0.125
1001
ACAD_MLEADERVER
1070
     2
  0
MLINESTYLE
  5
18
102
{ACAD_REACTORS
330
17
102
}
330
17
100
AcDbMlineStyle
  2
STANDARD
 70
     0
  3

 62
   256
 51
90.0
 52
90.0
 71
     2
 49
0.5
 62
   256
  6
BYLAYER
 49
-0.5
 62
   256
  6
BYLAYER
  0
ACDBPLACEHOLDER
  5
F
102
{ACAD_REACTORS
330
E
102
}
330
E
  0
SCALE
  5
136
102
{ACAD_REACTORS
330
135
102
}
330
135
100
AcDbScale
 70
     0
300
1:1
140
1.0
141
1.0
290
     1
  0
SCALE
  5
137
102
{ACAD_REACTORS
330
135
102
}
330
135
100
AcDbScale
 70
     0
300
1:2
140
1.0
141
2.0
290
     0
  0
SCALE
  5
138
102
{ACAD_REACTORS
330
135
102
}
330
135
100
AcDbScale
 70
     0
300
1:4
140
1.0
141
4.0
290
     0
  0
SCALE
  5
139
102
{ACAD_REACTORS
330
135
102
}
330
135
100
AcDbScale
 70
     0
300
1:5
140
1.0
141
5.0
290
     0
  0
SCALE
  5
13A
102
{ACAD_REACTORS
330
135
102
}
330
135
100
AcDbScale
 70
     0
300
1:8
140
1.0
141
8.0
290
     0
  0
SCALE
  5
13B
102
{ACAD_REACTORS
330
135
102
}
330
135
100
AcDbScale
 70
     0
300
1:10
140
1.0
141
10.0
290
     0
  0
SCALE
  5
13C
102
{ACAD_REACTORS
330
135
102
}
330
135
100
AcDbScale
 70
     0
300
1:16
140
1.0
141
16.0
290
     0
  0
SCALE
  5
13D
102
{ACAD_REACTORS
330
135
102
}
330
135
100
AcDbScale
 70
     0
300
1:20
140
1.0
141
20.0
290
     0
  0
SCALE
  5
13E
102
{ACAD_REACTORS
330
135
102
}
330
135
100
AcDbScale
 70
     0
300
1:30
140
1.0
141
30.0
290
     0
  0
SCALE
  5
13F
102
{ACAD_REACTORS
330
135
102
}
330
135
100
AcDbScale
 70
     0
300
1:40
140
1.0
141
40.0
290
     0
  0
SCALE
  5
140
102
{ACAD_REACTORS
330
135
102
}
330
135
100
AcDbScale
 70
     0
300
1:50
140
1.0
141
50.0
290
     0
  0
SCALE
  5
141
102
{ACAD_REACTORS
330
135
102
}
330
135
100
AcDbScale
 70
     0
300
1:100
140
1.0
141
100.0
290
     0
  0
SCALE
  5
142
102
{ACAD_REACTORS
330
135
102
}
330
135
100
AcDbScale
 70
     0
300
2:1
140
2.0
141
1.0
290
     0
  0
SCALE
  5
143
102
{ACAD_REACTORS
330
135
102
}
330
135
100
AcDbScale
 70
     0
300
4:1
140
4.0
141
1.0
290
     0
  0
SCALE
  5
144
102
{ACAD_REACTORS
330
135
102
}
330
135
100
AcDbScale
 70
     0
300
8:1
140
8.0
141
1.0
290
     0
  0
SCALE
  5
145
102
{ACAD_REACTORS
330
135
102
}
330
135
100
AcDbScale
 70
     0
300
10:1
140
10.0
141
1.0
290
     0
  0
SCALE
  5
146
102
{ACAD_REACTORS
330
135
102
}
330
135
100
AcDbScale
 70
     0
300
100:1
140
100.0
141
1.0
290
     0
  0
SCALE
  5
147
102
{ACAD_REACTORS
330
135
102
}
330
135
100
AcDbScale
 70
     0
300
1/128" = 1'-0"
140
0.0078125
141
12.0
290
     0
  0
SCALE
  5
148
102
{ACAD_REACTORS
330
135
102
}
330
135
100
AcDbScale
 70
     0
300
1/64" = 1'-0"
140
0.015625
141
12.0
290
     0
  0
SCALE
  5
149
102
{ACAD_REACTORS
330
135
102
}
330
135
100
AcDbScale
 70
     0
300
1/32" = 1'-0"
140
0.03125
141
12.0
290
     0
  0
SCALE
  5
14A
102
{ACAD_REACTORS
330
135
102
}
330
135
100
AcDbScale
 70
     0
300
1/16" = 1'-0"
140
0.0625
141
12.0
290
     0
  0
SCALE
  5
14B
102
{ACAD_REACTORS
330
135
102
}
330
135
100
AcDbScale
 70
     0
300
3/32" = 1'-0"
140
0.09375
141
12.0
290
     0
  0
SCALE
  5
14C
102
{ACAD_REACTORS
330
135
102
}
330
135
100
AcDbScale
 70
     0
300
1/8" = 1'-0"
140
0.125
141
12.0
290
     0
  0
SCALE
  5
14D
102
{ACAD_REACTORS
330
135
102
}
330
135
100
AcDbScale
 70
     0
300
3/16" = 1'-0"
140
0.1875
141
12.0
290
     0
  0
SCALE
  5
14E
102
{ACAD_REACTORS
330
135
102
}
330
135
100
AcDbScale
 70
     0
300
1/4" = 1'-0"
140
0.25
141
12.0
290
     0
  0
SCALE
  5
14F
102
{ACAD_REACTORS
330
135
102
}
330
135
100
AcDbScale
 70
     0
300
3/8" = 1'-0"
140
0.375
141
12.0
290
     0
  0
SCALE
  5
150
102
{ACAD_REACTORS
330
135
102
}
330
135
100
AcDbScale
 70
     0
300
1/2" = 1'-0"
140
0.5
141
12.0
290
     0
  0
SCALE
  5
151
102
{ACAD_REACTORS
330
135
102
}
330
135
100
AcDbScale
 70
     0
300
3/4" = 1'-0"
140
0.75
141
12.0
290
     0
  0
SCALE
  5
152
102
{ACAD_REACTORS
330
135
102
}
330
135
100
AcDbScale
 70
     0
300
1" = 1'-0"
140
1.0
141
12.0
290
     0
  0
SCALE
  5
153
102
{ACAD_REACTORS
330
135
102
}
330
135
100
AcDbScale
 70
     0
300
1-1/2" = 1'-0"
140
1.5
141
12.0
290
     0
  0
SCALE
  5
154
102
{ACAD_REACTORS
330
135
102
}
330
135
100
AcDbScale
 70
     0
300
3" = 1'-0"
140
3.0
141
12.0
290
     0
  0
SCALE
  5
155
102
{ACAD_REACTORS
330
135
102
}
330
135
100
AcDbScale
 70
     0
300
6" = 1'-0"
140
6.0
141
12.0
290
     0
  0
SCALE
  5
156
102
{ACAD_REACTORS
330
135
102
}
330
135
100
AcDbScale
 70
     0
300
1'-0" = 1'-0"
140
12.0
141
12.0
290
     0
  0
ACDBSECTIONVIEWSTYLE
  5
1FE
102
{ACAD_XDICTIONARY
360
26E
102
}
102
{ACAD_REACTORS
330
1FD
102
}
330
1FD
100
AcDbModelDocViewStyle
 70
     0
  3
Imperial24
290
     0
100
AcDbSectionViewStyle
 70
     0
 71
     0
 90
       78
 71
     1
340
11
 40
0.24
340
0
340
0
 40
0.24
300
I, O, Q, S, X, Z
 40
0.48
 90
        3
 40
0.18
 90
        1
 71
     2
340
16
 90
       25
340
16
 90
       50
 40
0.24
 40
0.0
 40
0.24
 71
     3
340
11
 40
0.24
 90
        1
 40
0.75
 90
        1
300
%<\AcVar ViewType \f "%tc1">% %<\AcVar ViewSectionStartId>%-%<\AcVar ViewSectionEndId>%\PSCALE %<\AcVar ViewScale \f "%sn">%
 71
     4
300
ANSI31
 40
1.0
 90
        0
290
     0
290
     0
 90
        6
 40
0.0
 40
1.570796326794896
 40
0.2617993877991494
 40
1.308996938995747
 40
-0.2617993877991494
 40
1.832595714594046
  0
ACDBSECTIONVIEWSTYLE
  5
59C
102
{ACAD_XDICTIONARY
360
670
102
}
102
{ACAD_REACTORS
330
1FD
102
}
330
1FD
100
AcDbModelDocViewStyle
 70
     0
  3
Metric50
290
     0
100
AcDbSectionViewStyle
 70
     0
 71
     0
 90
      102
 71
     1
340
11
 40
5.0
340
0
340
0
 40
5.0
300
I, O, Q, S, X, Z
 40
10.0
 90
        0
 40
2.5
 90
        0
 71
     2
340
16
 90
       25
340
16
 90
       50
 40
5.0
 40
2.5
 40
5.0
 71
     3
340
11
 40
5.0
 90
        0
 40
15.0
 90
        1
300
%<\AcVar ViewSectionStartId>%-%<\AcVar ViewSectionEndId>% (%<\AcVar ViewScale \f "%sn">%)
 71
     4
300
ANSI31
 40
1.0
 90
        0
290
     0
290
     0
 90
        6
 40
0.0
 40
1.570796326794896
 40
0.2617993877991494
 40
1.308996938995747
 40
-0.2617993877991494
 40
1.832595714594046
  0
TABLESTYLE
  5
1FB
102
{ACAD_XDICTIONARY
360
766
102
}
102
{ACAD_REACTORS
330
1EC
102
}
330
1EC
100
AcDbTableStyle
  3
Standard
 70
     0
 71
     0
 40
0.06
 41
0.06
280
     0
281
     0
  7
Standard
140
0.18
170
     2
 62
     0
 63
     7
283
     0
274
    -2
284
     1
 64
     0
275
    -2
285
     1
 65
     0
276
    -2
286
     1
 66
     0
277
    -2
287
     1
 67
     0
278
    -2
288
     1
 68
     0
279
    -2
289
     1
 69
     0
  7
Standard
140
0.25
170
     5
 62
     0
 63
     7
283
     0
274
    -2
284
     1
 64
     0
275
    -2
285
     1
 65
     0
276
    -2
286
     1
 66
     0
277
    -2
287
     1
 67
     0
278
    -2
288
     1
 68
     0
279
    -2
289
     1
 69
     0
  7
Standard
140
0.18
170
     5
 62
     0
 63
     7
283
     0
274
    -2
284
     1
 64
     0
275
    -2
285
     1
 65
     0
276
    -2
286
     1
 66
     0
277
    -2
287
     1
 67
     0
278
    -2
288
     1
 68
     0
279
    -2
289
     1
 69
     0
  0
VISUALSTYLE
  5
2F
102
{ACAD_XDICTIONARY
360
783
102
}
102
{ACAD_REACTORS
330
2A
102
}
330
2A
100
AcDbVisualStyle
  2
2dWireframe
 70
     4
 71
     0
 72
     2
 73
     0
 90
        0
 40
-0.6
 41
-30.0
 62
     5
 63
     7
 74
     1
 91
        4
 64
     7
 65
   257
 75
     1
175
     1
 42
1.0
 92
        0
 66
   257
 43
1.0
 76
     1
 77
     6
 78
     2
 67
     7
 79
     5
170
     0
171
     0
290
     0
174
     0
 93
        1
 44
0.0
173
     0
291
     0
 45
0.0
1001
ACAD
1000
AcDbSavedByObjectVersion
1070
     0
  0
VISUALSTYLE
  5
31
102
{ACAD_XDICTIONARY
360
787
102
}
102
{ACAD_REACTORS
330
2A
102
}
330
2A
100
AcDbVisualStyle
  2
3D Hidden
 70
     6
 71
     1
 72
     2
 73
     2
 90
        0
 40
-0.6
 41
-30.0
 62
     5
 63
     7
 74
     2
 91
        2
 64
     7
 65
   257
 75
     2
175
     1
 42
40.0
 92
        0
 66
   257
 43
1.0
 76
     1
 77
     6
 78
     2
 67
     7
 79
     3
170
     0
171
     0
290
     0
174
     0
 93
        1
 44
0.0
173
     0
291
     0
 45
0.0
1001
ACAD
1000
AcDbSavedByObjectVersion
1070
     0
  0
VISUALSTYLE
  5
30
102
{ACAD_XDICTIONARY
360
785
102
}
102
{ACAD_REACTORS
330
2A
102
}
330
2A
100
AcDbVisualStyle
  2
3dWireframe
 70
     5
 71
     0
 72
     2
 73
     0
 90
        0
 40
-0.6
 41
-30.0
 62
     5
 63
     7
 74
     1
 91
        4
 64
     7
 65
   257
 75
     1
175
     1
 42
1.0
 92
        0
 66
   257
 43
1.0
 76
     1
 77
     6
 78
     2
 67
     7
 79
     5
170
     0
171
     0
290
     0
174
     0
 93
        1
 44
0.0
173
     0
291
     0
 45
0.0
1001
ACAD
1000
AcDbSavedByObjectVersion
1070
     0
  0
VISUALSTYLE
  5
32
102
{ACAD_XDICTIONARY
360
789
102
}
102
{ACAD_REACTORS
330
2A
102
}
330
2A
100
AcDbVisualStyle
  2
Basic
 70
     7
 71
     1
 72
     0
 73
     1
 90
        0
 40
-0.6
 41
-30.0
 62
     5
 63
     7
 74
     0
 91
        4
 64
     7
 65
   257
 75
     1
175
     1
 42
1.0
 92
        8
 66
     7
 43
1.0
 76
     1
 77
     6
 78
     2
 67
     7
 79
     5
170
     0
171
     0
290
     0
174
     0
 93
        1
 44
0.0
173
     0
291
     1
 45
0.0
1001
ACAD
1000
AcDbSavedByObjectVersion
1070
     0
  0
VISUALSTYLE
  5
36
102
{ACAD_XDICTIONARY
360
791
102
}
102
{ACAD_REACTORS
330
2A
102
}
330
2A
100
AcDbVisualStyle
  2
Brighten
 70
    12
 71
     2
 72
     2
 73
     0
 90
        0
 40
-0.6
 41
-30.0
 62
     5
 63
     7
 74
     1
 91
        4
 64
     7
 65
   257
 75
     1
175
     1
 42
1.0
 92
        8
 66
     7
 43
1.0
 76
     1
 77
     6
 78
     2
 67
     7
 79
     5
170
     0
171
     0
290
     0
174
     0
 93
        1
 44
50.0
173
     0
291
     1
 45
0.0
1001
ACAD
1000
AcDbSavedByObjectVersion
1070
     0
  0
VISUALSTYLE
  5
3A
102
{ACAD_XDICTIONARY
360
799
102
}
102
{ACAD_REACTORS
330
2A
102
}
330
2A
100
AcDbVisualStyle
  2
ColorChange
 70
    16
 71
     2
 72
     2
 73
     3
 90
        0
 40
-0.6
 41
-30.0
 62
     5
 63
     8
 74
     1
 91
        4
 64
     7
 65
   257
 75
     1
175
     1
 42
1.0
 92
        8
 66
     8
 43
1.0
 76
     1
 77
     6
 78
     2
 67
     7
 79
     5
170
     0
171
     0
290
     0
174
     0
 93
        1
 44
0.0
173
     0
291
     1
 45
0.0
1001
ACAD
1000
AcDbSavedByObjectVersion
1070
     0
  0
VISUALSTYLE
  5
34
102
{ACAD_XDICTIONARY
360
78D
102
}
102
{ACAD_REACTORS
330
2A
102
}
330
2A
100
AcDbVisualStyle
  2
Conceptual
 70
     9
 71
     3
 72
     2
 73
     0
 90
        0
 40
-0.6
 41
-30.0
 62
     5
 63
     7
 74
     2
 91
        2
 64
     7
 65
   257
 75
     1
175
     1
 42
40.0
 92
        8
 66
     7
 43
1.0
 76
     1
 77
     6
 78
     2
 67
     7
 79
     3
170
     0
171
     0
290
     0
174
     0
 93
        1
 44
0.0
173
     0
291
     0
 45
0.0
1001
ACAD
1000
AcDbSavedByObjectVersion
1070
     0
  0
VISUALSTYLE
  5
35
102
{ACAD_XDICTIONARY
360
78F
102
}
102
{ACAD_REACTORS
330
2A
102
}
330
2A
100
AcDbVisualStyle
  2
Dim
 70
    11
 71
     2
 72
     2
 73
     0
 90
        0
 40
-0.6
 41
-30.0
 62
     5
 63
     7
 74
     1
 91
        4
 64
     7
 65
   257
 75
     1
175
     1
 42
1.0
 92
        8
 66
     7
 43
1.0
 76
     1
 77
     6
 78
     2
 67
     7
 79
     5
170
     0
171
     0
290
     0
174
     0
 93
        1
 44
-50.0
173
     0
291
     1
 45
0.0
1001
ACAD
1000
AcDbSavedByObjectVersion
1070
     0
  0
VISUALSTYLE
  5
1F9
102
{ACAD_XDICTIONARY
360
7BE
102
}
102
{ACAD_REACTORS
330
2A
102
}
330
2A
100
AcDbVisualStyle
  2
EdgeColorOff
 70
    22
 71
     2
 72
     2
 73
     0
 90
        0
 40
-0.6
 41
-30.0
 62
     5
 63
     7
 74
     1
 91
        4
 64
     7
 65
   257
 75
     1
175
     1
 42
1.0
 92
        8
 66
     7
 43
1.0
 76
     1
 77
     6
 78
     2
 67
     7
 79
     5
170
     0
171
     0
290
     0
174
     0
 93
        1
 44
0.0
173
     0
291
     1
 45
0.0
1001
ACAD
1000
AcDbSavedByObjectVersion
1070
     0
  0
VISUALSTYLE
  5
39
102
{ACAD_XDICTIONARY
360
797
102
}
102
{ACAD_REACTORS
330
2A
102
}
330
2A
100
AcDbVisualStyle
  2
Facepattern
 70
    15
 71
     2
 72
     2
 73
     0
 90
        0
 40
-0.6
 41
-30.0
 62
     5
 63
     7
 74
     1
 91
        4
 64
     7
 65
   257
 75
     1
175
     1
 42
1.0
 92
        8
 66
     7
 43
1.0
 76
     1
 77
     6
 78
     2
 67
     7
 79
     5
170
     0
171
     0
290
     0
174
     0
 93
        1
 44
0.0
173
     0
291
     1
 45
0.0
1001
ACAD
1000
AcDbSavedByObjectVersion
1070
     0
  0
VISUALSTYLE
  5
2B
102
{ACAD_XDICTIONARY
360
77B
102
}
102
{ACAD_REACTORS
330
2A
102
}
330
2A
100
AcDbVisualStyle
  2
Flat
 70
     0
 71
     2
 72
     1
 73
     1
 90
        2
 40
-0.6
 41
30.0
 62
     5
 63
     7
 74
     0
 91
        4
 64
     7
 65
   257
 75
     1
175
     1
 42
1.0
 92
        8
 66
     7
 43
1.0
 76
     1
 77
     6
 78
     2
 67
     7
 79
     5
170
     0
171
     0
290
     0
174
     0
 93
       13
 44
0.0
173
     0
291
     1
 45
0.0
1001
ACAD
1000
AcDbSavedByObjectVersion
1070
     0
  0
VISUALSTYLE
  5
2C
102
{ACAD_XDICTIONARY
360
77D
102
}
102
{ACAD_REACTORS
330
2A
102
}
330
2A
100
AcDbVisualStyle
  2
FlatWithEdges
 70
     1
 71
     2
 72
     1
 73
     1
 90
        2
 40
-0.6
 41
30.0
 62
     5
 63
     7
 74
     1
 91
        4
 64
     7
 65
   257
 75
     1
175
     1
 42
1.0
 92
        0
 66
   257
 43
1.0
 76
     1
 77
     6
 78
     2
 67
     7
 79
     5
170
     0
171
     0
290
     0
174
     0
 93
       13
 44
0.0
173
     0
291
     1
 45
0.0
1001
ACAD
1000
AcDbSavedByObjectVersion
1070
     0
  0
VISUALSTYLE
  5
2D
102
{ACAD_XDICTIONARY
360
77F
102
}
102
{ACAD_REACTORS
330
2A
102
}
330
2A
100
AcDbVisualStyle
  2
Gouraud
 70
     2
 71
     2
 72
     2
 73
     1
 90
        2
 40
-0.6
 41
30.0
 62
     5
 63
     7
 74
     0
 91
        4
 64
     7
 65
   257
 75
     1
175
     1
 42
1.0
 92
        0
 66
     7
 43
1.0
 76
     1
 77
     6
 78
     2
 67
     7
 79
     5
170
     0
171
     0
290
     0
174
     0
 93
       13
 44
0.0
173
     0
291
     1
 45
0.0
1001
ACAD
1000
AcDbSavedByObjectVersion
1070
     0
  0
VISUALSTYLE
  5
2E
102
{ACAD_XDICTIONARY
360
781
102
}
102
{ACAD_REACTORS
330
2A
102
}
330
2A
100
AcDbVisualStyle
  2
GouraudWithEdges
 70
     3
 71
     2
 72
     2
 73
     1
 90
        2
 40
-0.6
 41
30.0
 62
     5
 63
     7
 74
     1
 91
        4
 64
     7
 65
   257
 75
     1
175
     1
 42
1.0
 92
        0
 66
   257
 43
1.0
 76
     1
 77
     6
 78
     2
 67
     7
 79
     5
170
     0
171
     0
290
     0
174
     0
 93
       13
 44
0.0
173
     0
291
     1
 45
0.0
1001
ACAD
1000
AcDbSavedByObjectVersion
1070
     0
  0
VISUALSTYLE
  5
1F1
102
{ACAD_XDICTIONARY
360
7AE
102
}
102
{ACAD_REACTORS
330
2A
102
}
330
2A
100
AcDbVisualStyle
  2
Hidden
 70
     6
 71
     1
 72
     2
 73
     2
 90
        0
 40
-0.6
 41
-30.0
 62
     5
 63
     7
 74
     2
 91
        2
 64
     7
 65
   257
 75
     2
175
     1
 42
40.0
 92
        0
 66
   257
 43
1.0
 76
     1
 77
     6
 78
     2
 67
     7
 79
     3
170
     0
171
     0
290
     0
174
     0
 93
        1
 44
0.0
173
     0
291
     0
 45
0.0
1001
ACAD
1000
AcDbSavedByObjectVersion
1070
     0
  0
VISUALSTYLE
  5
1F7
102
{ACAD_XDICTIONARY
360
7BA
102
}
102
{ACAD_REACTORS
330
2A
102
}
330
2A
100
AcDbVisualStyle
  2
JitterOff
 70
    20
 71
     2
 72
     2
 73
     0
 90
        0
 40
-0.6
 41
-30.0
 62
     5
 63
     7
 74
     1
 91
        4
 64
     7
 65
   257
 75
     1
175
     1
 42
1.0
 92
       10
 66
     7
 43
1.0
 76
     1
 77
     6
 78
     2
 67
     7
 79
     5
170
     0
171
     0
290
     0
174
     0
 93
        1
 44
0.0
173
     0
291
     1
 45
0.0
1001
ACAD
1000
AcDbSavedByObjectVersion
1070
     0
  0
VISUALSTYLE
  5
38
102
{ACAD_XDICTIONARY
360
795
102
}
102
{ACAD_REACTORS
330
2A
102
}
330
2A
100
AcDbVisualStyle
  2
Linepattern
 70
    14
 71
     2
 72
     2
 73
     0
 90
        0
 40
-0.6
 41
-30.0
 62
     5
 63
     7
 74
     1
 91
        4
 64
     7
 65
   257
 75
     7
175
     7
 42
1.0
 92
        8
 66
     7
 43
1.0
 76
     1
 77
     6
 78
     2
 67
     7
 79
     5
170
     0
171
     0
290
     0
174
     0
 93
        1
 44
0.0
173
     0
291
     1
 45
0.0
1001
ACAD
1000
AcDbSavedByObjectVersion
1070
     0
  0
VISUALSTYLE
  5
1F8
102
{ACAD_XDICTIONARY
360
7BC
102
}
102
{ACAD_REACTORS
330
2A
102
}
330
2A
100
AcDbVisualStyle
  2
OverhangOff
 70
    21
 71
     2
 72
     2
 73
     0
 90
        0
 40
-0.6
 41
-30.0
 62
     5
 63
     7
 74
     1
 91
        4
 64
     7
 65
   257
 75
     1
175
     1
 42
1.0
 92
        9
 66
     7
 43
1.0
 76
     1
 77
     6
 78
     2
 67
     7
 79
     5
170
     0
171
     0
290
     0
174
     0
 93
        1
 44
0.0
173
     0
291
     1
 45
0.0
1001
ACAD
1000
AcDbSavedByObjectVersion
1070
     0
  0
VISUALSTYLE
  5
33
102
{ACAD_XDICTIONARY
360
78B
102
}
102
{ACAD_REACTORS
330
2A
102
}
330
2A
100
AcDbVisualStyle
  2
Realistic
 70
     8
 71
     2
 72
     2
 73
     0
 90
        0
 40
-0.6
 41
-30.0
 62
     5
 63
     7
 74
     1
 91
        0
 64
     7
 65
   257
 75
     1
175
     1
 42
1.0
 92
        8
 66
     8
 43
1.0
 76
     1
 77
     6
 78
     2
 67
     7
 79
     5
170
     0
171
     0
290
     0
174
     0
 93
       13
 44
0.0
173
     0
291
     0
 45
0.0
1001
ACAD
1000
AcDbSavedByObjectVersion
1070
     0
  0
VISUALSTYLE
  5
1F6
102
{ACAD_XDICTIONARY
360
7B8
102
}
102
{ACAD_REACTORS
330
2A
102
}
330
2A
100
AcDbVisualStyle
  2
Shaded
 70
    27
 71
     2
 72
     2
 73
     1
 90
        2
 40
-0.6
 41
30.0
 62
     5
 63
     7
 74
     0
 91
        4
 64
     7
 65
   257
 75
     1
175
     1
 42
1.0
 92
        8
 66
   257
 43
1.0
 76
     1
 77
     6
 78
     2
 67
     8
 79
     3
170
     0
171
     0
290
     0
174
     0
 93
        5
 44
0.0
173
     0
291
     0
 45
0.0
1001
ACAD
1000
AcDbSavedByObjectVersion
1070
     0
  0
VISUALSTYLE
  5
1F5
102
{ACAD_XDICTIONARY
360
7B6
102
}
102
{ACAD_REACTORS
330
2A
102
}
330
2A
100
AcDbVisualStyle
  2
Shaded with edges
 70
    26
 71
     2
 72
     2
 73
     1
 90
        2
 40
-0.6
 41
30.0
 62
     5
 63
     7
 74
     1
 91
       10
 64
     7
 65
   257
 75
     2
175
     1
 42
1.0
 92
        8
 66
   257
 43
1.0
 76
     1
 77
     6
 78
     2
 67
     7
 79
     3
170
     0
171
     0
290
     0
174
     0
 93
        5
 44
0.0
173
     0
291
     0
 45
0.0
1001
ACAD
1000
AcDbSavedByObjectVersion
1070
     0
  0
VISUALSTYLE
  5
1F2
102
{ACAD_XDICTIONARY
360
7B0
102
}
102
{ACAD_REACTORS
330
2A
102
}
330
2A
100
AcDbVisualStyle
  2
Shades of Gray
 70
    23
 71
     2
 72
     2
 73
     3
 90
        0
 40
-0.6
 41
-30.0
 62
     5
 63
     7
 74
     2
 91
        2
 64
     7
 65
     7
 75
     1
175
     1
 42
40.0
 92
        8
 66
     7
 43
1.0
 76
     1
 77
     6
 78
     2
 67
     7
 79
     3
170
     0
171
     0
290
     0
174
     0
 93
        1
 44
0.0
173
     0
291
     0
 45
0.0
1001
ACAD
1000
AcDbSavedByObjectVersion
1070
     0
  0
VISUALSTYLE
  5
1F3
102
{ACAD_XDICTIONARY
360
7B2
102
}
102
{ACAD_REACTORS
330
2A
102
}
330
2A
100
AcDbVisualStyle
  2
Sketchy
 70
    24
 71
     1
 72
     2
 73
     2
 90
        0
 40
-0.6
 41
-30.0
 62
     5
 63
     7
 74
     2
 91
        2
 64
     7
 65
     7
 75
     1
175
     1
 42
40.0
 92
       11
 66
     7
 43
1.0
 76
     1
 77
     6
 78
     2
 67
     7
 79
     6
170
     0
171
     0
290
     0
174
     0
 93
        1
 44
0.0
173
     0
291
     0
 45
0.0
1001
ACAD
1000
AcDbSavedByObjectVersion
1070
     0
  0
VISUALSTYLE
  5
37
102
{ACAD_XDICTIONARY
360
793
102
}
102
{ACAD_REACTORS
330
2A
102
}
330
2A
100
AcDbVisualStyle
  2
Thicken
 70
    13
 71
     2
 72
     2
 73
     0
 90
        0
 40
-0.6
 41
-30.0
 62
     5
 63
     7
 74
     1
 91
        4
 64
     7
 65
   257
 75
     1
175
     1
 42
1.0
 92
       12
 66
     7
 43
1.0
 76
     1
 77
     6
 78
     2
 67
     7
 79
     5
170
     0
171
     0
290
     0
174
     0
 93
        1
 44
0.0
173
     0
291
     1
 45
0.0
1001
ACAD
1000
AcDbSavedByObjectVersion
1070
     0
  0
VISUALSTYLE
  5
1F0
102
{ACAD_XDICTIONARY
360
7AC
102
}
102
{ACAD_REACTORS
330
2A
102
}
330
2A
100
AcDbVisualStyle
  2
Wireframe
 70
     5
 71
     0
 72
     2
 73
     0
 90
        0
 40
-0.6
 41
-30.0
 62
     5
 63
     7
 74
     1
 91
        4
 64
     7
 65
   257
 75
     1
175
     1
 42
1.0
 92
        0
 66
   257
 43
1.0
 76
     1
 77
     6
 78
     2
 67
     7
 79
     3
170
     0
171
     0
290
     0
174
     0
 93
        1
 44
0.0
173
     0
291
     0
 45
0.0
1001
ACAD
1000
AcDbSavedByObjectVersion
1070
     0
  0
VISUALSTYLE
  5
1F4
102
{ACAD_XDICTIONARY
360
7B4
102
}
102
{ACAD_REACTORS
330
2A
102
}
330
2A
100
AcDbVisualStyle
  2
X-Ray
 70
    25
 71
     2
 72
     2
 73
     1
 90
        1
 40
0.5
 41
-30.0
 62
     5
 63
     7
 74
     1
 91
        0
 64
     7
 65
   257
 75
     1
175
     1
 42
1.0
 92
        8
 66
     7
 43
1.0
 76
     1
 77
     6
 78
     2
 67
     7
 79
     3
170
     0
171
     0
290
     0
174
     0
 93
       13
 44
0.0
173
     0
291
     0
 45
0.0
1001
ACAD
1000
AcDbSavedByObjectVersion
1070
     0
  0
DICTIONARYVAR
  5
1CB
102
{ACAD_REACTORS
330
1CA
102
}
330
1CA
100
DictionaryVariables
280
     0
  1
1:1
  0
DICTIONARYVAR
  5
274
102
{ACAD_REACTORS
330
1CA
102
}
330
1CA
100
DictionaryVariables
280
     0
  1
STANDARD
  0
DICTIONARYVAR
  5
273
102
{ACAD_REACTORS
330
1CA
102
}
330
1CA
100
DictionaryVariables
280
     0
  1
STANDARD
  0
DICTIONARYVAR
  5
275
102
{ACAD_REACTORS
330
1CA
102
}
330
1CA
100
DictionaryVariables
280
     0
  1
Imperial24
  0
DICTIONARYVAR
  5
276
102
{ACAD_REACTORS
330
1CA
102
}
330
1CA
100
DictionaryVariables
280
     0
  1
Imperial24
  0
DICTIONARYVAR
  5
765
102
{ACAD_REACTORS
330
1CA
102
}
330
1CA
100
DictionaryVariables
280
     0
  1
2
  0
DICTIONARYVAR
  5
763
102
{ACAD_REACTORS
330
1CA
102
}
330
1CA
100
DictionaryVariables
280
     0
  1
2
  0
DICTIONARYVAR
  5
761
102
{ACAD_REACTORS
330
1CA
102
}
330
1CA
100
DictionaryVariables
280
     0
  1
1
  0
DICTIONARYVAR
  5
295
102
{ACAD_REACTORS
330
1CA
102
}
330
1CA
100
DictionaryVariables
280
     0
  1
RGB:223,223,223
  0
DICTIONARYVAR
  5
760
102
{ACAD_REACTORS
330
1CA
102
}
330
1CA
100
DictionaryVariables
280
     0
  1
0
  0
DICTIONARYVAR
  5
277
102
{ACAD_REACTORS
330
1CA
102
}
330
1CA
100
DictionaryVariables
280
     0
  1
1
  0
DICTIONARYVAR
  5
278
102
{ACAD_REACTORS
330
1CA
102
}
330
1CA
100
DictionaryVariables
280
     0
  1
15
  0
DICTIONARYVAR
  5
75E
102
{ACAD_REACTORS
330
1CA
102
}
330
1CA
100
DictionaryVariables
280
     0
  1
2
  0
DICTIONARYVAR
  5
75D
102
{ACAD_REACTORS
330
1CA
102
}
330
1CA
100
DictionaryVariables
280
     0
  1
1
  0
DICTIONARYVAR
  5
764
102
{ACAD_REACTORS
330
1CA
102
}
330
1CA
100
DictionaryVariables
280
     0
  1
1
  0
DICTIONARYVAR
  5
75F
102
{ACAD_REACTORS
330
1CA
102
}
330
1CA
100
DictionaryVariables
280
     0
  1
127
  0
DICTIONARYVAR
  5
762
102
{ACAD_REACTORS
330
1CA
102
}
330
1CA
100
DictionaryVariables
280
     0
  1
0
  0
DICTIONARY
  5
774
102
{ACAD_REACTORS
330
772
102
}
330
772
100
AcDbDictionary
281
     1
  0
DICTIONARY
  5
773
102
{ACAD_REACTORS
330
772
102
}
330
772
100
AcDbDictionary
281
     1
  3
8796087827392
350
76C
  3
8796087827408
350
76D
  3
8796087827424
350
76E
  3
8796087827440
350
76F
  3
8796087827456
350
770
  3
8796087827472
350
771
  0
XRECORD
  5
1C9
102
{ACAD_REACTORS
330
1C8
102
}
330
1C8
100
AcDbXrecord
280
     1
1000
This DWG file was created in ArchiCAD(TM)®
  0
ACDBASSOCNETWORK
  5
5B3
102
{ACAD_REACTORS
330
5B2
102
}
330
5B2
100
AcDbAssocAction
 90
        1
 90
        0
330
5AA
360
0
 90
        4
 90
        0
 90
        0
100
AcDbAssocNetwork
 90
        0
 90
        1
 90
        1
360
5B4
 90
        0
  0
XRECORD
  5
7CA
102
{ACAD_REACTORS
330
7C9
102
}
330
7C9
100
AcDbXrecord
280
     1
1070
     0
1070
     1
1070
     1
  0
ACDBASSOCNETWORK
  5
577
102
{ACAD_REACTORS
330
576
102
}
330
576
100
AcDbAssocAction
 90
        1
 90
        0
330
5AA
360
0
 90
        3
 90
        0
 90
        0
100
AcDbAssocNetwork
 90
        0
 90
        1
 90
        1
360
578
 90
        0
  0
SPATIAL_FILTER
  5
63E
102
{ACAD_REACTORS
330
63D
102
}
330
63D
100
AcDbFilter
100
AcDbSpatialFilter
 70
     6
 10
202.8178565036742
 20
385.7652405577921
 10
127.235958667251
 20
385.7652405577885
 10
127.235958667251
 20
250.2053195134399
 10
127.7326545448277
 20
249.7086236358628
 10
127.7326545448277
 20
232.6571517732878
 10
202.8178565036744
 20
232.6571517732877
210
0.0
220
0.0
230
1.0
 11
0.0
 21
0.0
 31
0.0
 71
     1
 72
     0
 73
     0
 40
1.0
 40
0.0
 40
0.0
 40
-127.235958667251
 40
0.0
 40
1.0
 40
0.0
 40
-238.6647537024173
 40
0.0
 40
0.0
 40
1.0
 40
0.0
 40
1.0
 40
0.0
 40
0.0
 40
0.0
 40
0.0
 40
1.0
 40
0.0
 40
0.0
 40
0.0
 40
0.0
 40
1.0
 40
0.0
  0
SPATIAL_FILTER
  5
641
102
{ACAD_REACTORS
330
640
102
}
330
640
100
AcDbFilter
100
AcDbSpatialFilter
 70
     6
 10
202.8178565036742
 20
385.7652405577921
 10
127.235958667251
 20
385.7652405577885
 10
127.235958667251
 20
250.2053195134399
 10
127.7326545448277
 20
249.7086236358628
 10
127.7326545448277
 20
232.6571517732878
 10
202.8178565036744
 20
232.6571517732877
210
0.0
220
0.0
230
1.0
 11
0.0
 21
0.0
 31
0.0
 71
     1
 72
     0
 73
     0
 40
1.0
 40
0.0
 40
0.0
 40
-156.5180451037479
 40
0.0
 40
1.0
 40
0.0
 40
-238.6647537024173
 40
0.0
 40
0.0
 40
1.0
 40
0.0
 40
1.0
 40
0.0
 40
0.0
 40
0.0
 40
0.0
 40
1.0
 40
0.0
 40
0.0
 40
0.0
 40
0.0
 40
1.0
 40
0.0
  0
SPATIAL_FILTER
  5
644
102
{ACAD_REACTORS
330
643
102
}
330
643
100
AcDbFilter
100
AcDbSpatialFilter
 70
     6
 10
202.8178565036742
 20
385.7652405577921
 10
127.235958667251
 20
385.7652405577885
 10
127.235958667251
 20
250.2053195134399
 10
127.7326545448277
 20
249.7086236358628
 10
127.7326545448277
 20
232.6571517732878
 10
202.8178565036744
 20
232.6571517732877
210
0.0
220
0.0
230
1.0
 11
0.0
 21
0.0
 31
0.0
 71
     1
 72
     0
 73
     0
 40
1.0
 40
0.0
 40
0.0
 40
-185.8001315402448
 40
0.0
 40
1.0
 40
0.0
 40
-238.6647537024173
 40
0.0
 40
0.0
 40
1.0
 40
0.0
 40
1.0
 40
0.0
 40
0.0
 40
0.0
 40
0.0
 40
1.0
 40
0.0
 40
0.0
 40
0.0
 40
0.0
 40
1.0
 40
0.0
  0
SPATIAL_FILTER
  5
647
102
{ACAD_REACTORS
330
646
102
}
330
646
100
AcDbFilter
100
AcDbSpatialFilter
 70
     6
 10
202.8178565036742
 20
385.7652405577921
 10
127.235958667251
 20
385.7652405577885
 10
127.235958667251
 20
250.2053195134399
 10
127.7326545448277
 20
249.7086236358628
 10
127.7326545448277
 20
232.6571517732878
 10
202.8178565036744
 20
232.6571517732877
210
0.0
220
0.0
230
1.0
 11
0.0
 21
0.0
 31
0.0
 71
     1
 72
     0
 73
     0
 40
1.0
 40
0.0
 40
0.0
 40
-127.235958667251
 40
0.0
 40
1.0
 40
0.0
 40
-268.0848510734916
 40
0.0
 40
0.0
 40
1.0
 40
0.0
 40
1.0
 40
0.0
 40
0.0
 40
0.0
 40
0.0
 40
1.0
 40
0.0
 40
0.0
 40
0.0
 40
0.0
 40
1.0
 40
0.0
  0
SPATIAL_FILTER
  5
64A
102
{ACAD_REACTORS
330
649
102
}
330
649
100
AcDbFilter
100
AcDbSpatialFilter
 70
     6
 10
202.8178565036742
 20
385.7652405577921
 10
127.235958667251
 20
385.7652405577885
 10
127.235958667251
 20
250.2053195134399
 10
127.7326545448277
 20
249.7086236358628
 10
127.7326545448277
 20
232.6571517732878
 10
202.8178565036744
 20
232.6571517732877
210
0.0
220
0.0
230
1.0
 11
0.0
 21
0.0
 31
0.0
 71
     1
 72
     0
 73
     0
 40
1.0
 40
0.0
 40
0.0
 40
-185.8001315402447
 40
0.0
 40
1.0
 40
0.0
 40
-268.0848510734915
 40
0.0
 40
0.0
 40
1.0
 40
0.0
 40
1.0
 40
0.0
 40
0.0
 40
0.0
 40
0.0
 40
1.0
 40
0.0
 40
0.0
 40
0.0
 40
0.0
 40
1.0
 40
0.0
  0
SPATIAL_FILTER
  5
64D
102
{ACAD_REACTORS
330
64C
102
}
330
64C
100
AcDbFilter
100
AcDbSpatialFilter
 70
     6
 10
202.8178565036742
 20
385.7652405577921
 10
127.235958667251
 20
385.7652405577885
 10
127.235958667251
 20
250.2053195134399
 10
127.7326545448277
 20
249.7086236358628
 10
127.7326545448277
 20
232.6571517732878
 10
202.8178565036744
 20
232.6571517732877
210
0.0
220
0.0
230
1.0
 11
0.0
 21
0.0
 31
0.0
 71
     1
 72
     0
 73
     0
 40
1.0
 40
0.0
 40
0.0
 40
-127.235958667251
 40
0.0
 40
1.0
 40
0.0
 40
-297.5049484445658
 40
0.0
 40
0.0
 40
1.0
 40
0.0
 40
1.0
 40
0.0
 40
0.0
 40
0.0
 40
0.0
 40
1.0
 40
0.0
 40
0.0
 40
0.0
 40
0.0
 40
1.0
 40
0.0
  0
SPATIAL_FILTER
  5
650
102
{ACAD_REACTORS
330
64F
102
}
330
64F
100
AcDbFilter
100
AcDbSpatialFilter
 70
     6
 10
202.8178565036742
 20
385.7652405577921
 10
127.235958667251
 20
385.7652405577885
 10
127.235958667251
 20
250.2053195134399
 10
127.7326545448277
 20
249.7086236358628
 10
127.7326545448277
 20
232.6571517732878
 10
202.8178565036744
 20
232.6571517732877
210
0.0
220
0.0
230
1.0
 11
0.0
 21
0.0
 31
0.0
 71
     1
 72
     0
 73
     0
 40
1.0
 40
0.0
 40
0.0
 40
-185.8001315402449
 40
0.0
 40
1.0
 40
0.0
 40
-297.5049484445658
 40
0.0
 40
0.0
 40
1.0
 40
0.0
 40
1.0
 40
0.0
 40
0.0
 40
0.0
 40
0.0
 40
1.0
 40
0.0
 40
0.0
 40
0.0
 40
0.0
 40
1.0
 40
0.0
  0
SPATIAL_FILTER
  5
653
102
{ACAD_REACTORS
330
652
102
}
330
652
100
AcDbFilter
100
AcDbSpatialFilter
 70
     6
 10
202.8178565036742
 20
385.7652405577921
 10
127.235958667251
 20
385.7652405577885
 10
127.235958667251
 20
250.2053195134399
 10
127.7326545448277
 20
249.7086236358628
 10
127.7326545448277
 20
232.6571517732878
 10
202.8178565036744
 20
232.6571517732877
210
0.0
220
0.0
230
1.0
 11
0.0
 21
0.0
 31
0.0
 71
     1
 72
     0
 73
     0
 40
1.0
 40
0.0
 40
0.0
 40
-127.235958667251
 40
0.0
 40
1.0
 40
0.0
 40
-326.92504581564
 40
0.0
 40
0.0
 40
1.0
 40
0.0
 40
1.0
 40
0.0
 40
0.0
 40
0.0
 40
0.0
 40
1.0
 40
0.0
 40
0.0
 40
0.0
 40
0.0
 40
1.0
 40
0.0
  0
SPATIAL_FILTER
  5
656
102
{ACAD_REACTORS
330
655
102
}
330
655
100
AcDbFilter
100
AcDbSpatialFilter
 70
     6
 10
202.8178565036742
 20
385.7652405577921
 10
127.235958667251
 20
385.7652405577885
 10
127.235958667251
 20
250.2053195134399
 10
127.7326545448277
 20
249.7086236358628
 10
127.7326545448277
 20
232.6571517732878
 10
202.8178565036744
 20
232.6571517732877
210
0.0
220
0.0
230
1.0
 11
0.0
 21
0.0
 31
0.0
 71
     1
 72
     0
 73
     0
 40
1.0
 40
0.0
 40
0.0
 40
-185.8001315402448
 40
0.0
 40
1.0
 40
0.0
 40
-326.92504581564
 40
0.0
 40
0.0
 40
1.0
 40
0.0
 40
1.0
 40
0.0
 40
0.0
 40
0.0
 40
0.0
 40
1.0
 40
0.0
 40
0.0
 40
0.0
 40
0.0
 40
1.0
 40
0.0
  0
SPATIAL_FILTER
  5
659
102
{ACAD_REACTORS
330
658
102
}
330
658
100
AcDbFilter
100
AcDbSpatialFilter
 70
     6
 10
202.8178565036742
 20
385.7652405577921
 10
127.235958667251
 20
385.7652405577885
 10
127.235958667251
 20
250.2053195134399
 10
127.7326545448277
 20
249.7086236358628
 10
127.7326545448277
 20
232.6571517732878
 10
202.8178565036744
 20
232.6571517732877
210
0.0
220
0.0
230
1.0
 11
0.0
 21
0.0
 31
0.0
 71
     1
 72
     0
 73
     0
 40
1.0
 40
0.0
 40
0.0
 40
-127.235958667251
 40
0.0
 40
1.0
 40
0.0
 40
-356.3451431867143
 40
0.0
 40
0.0
 40
1.0
 40
0.0
 40
1.0
 40
0.0
 40
0.0
 40
0.0
 40
0.0
 40
1.0
 40
0.0
 40
0.0
 40
0.0
 40
0.0
 40
1.0
 40
0.0
  0
SPATIAL_FILTER
  5
65C
102
{ACAD_REACTORS
330
65B
102
}
330
65B
100
AcDbFilter
100
AcDbSpatialFilter
 70
     6
 10
202.8178565036742
 20
385.7652405577921
 10
127.235958667251
 20
385.7652405577885
 10
127.235958667251
 20
250.2053195134399
 10
127.7326545448277
 20
249.7086236358628
 10
127.7326545448277
 20
232.6571517732878
 10
202.8178565036744
 20
232.6571517732877
210
0.0
220
0.0
230
1.0
 11
0.0
 21
0.0
 31
0.0
 71
     1
 72
     0
 73
     0
 40
1.0
 40
0.0
 40
0.0
 40
-185.8001315402449
 40
0.0
 40
1.0
 40
0.0
 40
-356.3451431867143
 40
0.0
 40
0.0
 40
1.0
 40
0.0
 40
1.0
 40
0.0
 40
0.0
 40
0.0
 40
0.0
 40
1.0
 40
0.0
 40
0.0
 40
0.0
 40
0.0
 40
1.0
 40
0.0
  0
SPATIAL_FILTER
  5
65F
102
{ACAD_REACTORS
330
65E
102
}
330
65E
100
AcDbFilter
100
AcDbSpatialFilter
 70
     6
 10
202.8178565036742
 20
385.7652405577921
 10
127.235958667251
 20
385.7652405577885
 10
127.235958667251
 20
250.2053195134399
 10
127.7326545448277
 20
249.7086236358628
 10
127.7326545448277
 20
232.6571517732878
 10
202.8178565036744
 20
232.6571517732877
210
0.0
220
0.0
230
1.0
 11
0.0
 21
0.0
 31
0.0
 71
     1
 72
     0
 73
     0
 40
1.0
 40
0.0
 40
0.0
 40
-127.235958667251
 40
0.0
 40
1.0
 40
0.0
 40
-385.7652405577885
 40
0.0
 40
0.0
 40
1.0
 40
0.0
 40
1.0
 40
0.0
 40
0.0
 40
0.0
 40
0.0
 40
1.0
 40
0.0
 40
0.0
 40
0.0
 40
0.0
 40
1.0
 40
0.0
  0
SPATIAL_FILTER
  5
662
102
{ACAD_REACTORS
330
661
102
}
330
661
100
AcDbFilter
100
AcDbSpatialFilter
 70
     6
 10
202.8178565036742
 20
385.7652405577921
 10
127.235958667251
 20
385.7652405577885
 10
127.235958667251
 20
250.2053195134399
 10
127.7326545448277
 20
249.7086236358628
 10
127.7326545448277
 20
232.6571517732878
 10
202.8178565036744
 20
232.6571517732877
210
0.0
220
0.0
230
1.0
 11
0.0
 21
0.0
 31
0.0
 71
     1
 72
     0
 73
     0
 40
1.0
 40
0.0
 40
0.0
 40
-156.5180451037479
 40
0.0
 40
1.0
 40
0.0
 40
-385.7652405577885
 40
0.0
 40
0.0
 40
1.0
 40
0.0
 40
1.0
 40
0.0
 40
0.0
 40
0.0
 40
0.0
 40
1.0
 40
0.0
 40
0.0
 40
0.0
 40
0.0
 40
1.0
 40
0.0
  0
SPATIAL_FILTER
  5
665
102
{ACAD_REACTORS
330
664
102
}
330
664
100
AcDbFilter
100
AcDbSpatialFilter
 70
     6
 10
202.8178565036742
 20
385.7652405577921
 10
127.235958667251
 20
385.7652405577885
 10
127.235958667251
 20
250.2053195134399
 10
127.7326545448277
 20
249.7086236358628
 10
127.7326545448277
 20
232.6571517732878
 10
202.8178565036744
 20
232.6571517732877
210
0.0
220
0.0
230
1.0
 11
0.0
 21
0.0
 31
0.0
 71
     1
 72
     0
 73
     0
 40
1.0
 40
0.0
 40
0.0
 40
-185.8001315402449
 40
0.0
 40
1.0
 40
0.0
 40
-385.7652405577885
 40
0.0
 40
0.0
 40
1.0
 40
0.0
 40
1.0
 40
0.0
 40
0.0
 40
0.0
 40
0.0
 40
1.0
 40
0.0
 40
0.0
 40
0.0
 40
0.0
 40
1.0
 40
0.0
  0
DICTIONARY
  5
270
330
200
100
AcDbDictionary
280
     1
281
     1
  3
ACAD_XREC_ROUNDTRIP
360
7C5
  0
DICTIONARY
  5
672
330
59D
100
AcDbDictionary
280
     1
281
     1
  3
ACAD_XREC_ROUNDTRIP
360
7CC
  0
DICTIONARY
  5
775
330
1E
100
AcDbDictionary
280
     1
281
     1
  3
ACAD_XREC_ROUNDTRIP
360
776
  0
DICTIONARY
  5
779
330
26
100
AcDbDictionary
280
     1
281
     1
  3
ACAD_XREC_ROUNDTRIP
360
77A
  0
DICTIONARY
  5
777
330
22
100
AcDbDictionary
280
     1
281
     1
  3
ACAD_XREC_ROUNDTRIP
360
778
  0
DICTIONARY
  5
79D
330
3D
100
AcDbDictionary
280
     1
281
     1
  3
ACAD_XREC_ROUNDTRIP
360
79E
  0
DICTIONARY
  5
79B
330
3C
100
AcDbDictionary
280
     1
281
     1
  3
ACAD_XREC_ROUNDTRIP
360
79C
  0
DICTIONARY
  5
79F
330
3E
100
AcDbDictionary
280
     1
281
     1
  3
ACAD_XREC_ROUNDTRIP
360
7A0
  0
DICTIONARY
  5
7C2
330
1FC
100
AcDbDictionary
280
     1
281
     1
  3
ACAD_XREC_ROUNDTRIP
360
7C3
  0
DICTIONARY
  5
26E
330
1FE
100
AcDbDictionary
280
     1
281
     1
  3
ACAD_XREC_ROUNDTRIP
360
7C4
  0
DICTIONARY
  5
670
330
59C
100
AcDbDictionary
280
     1
281
     1
  3
ACAD_XREC_ROUNDTRIP
360
7CB
  0
DICTIONARY
  5
766
330
1FB
100
AcDbDictionary
280
     1
281
     1
  3
ACAD_ROUNDTRIP_2008_TABLESTYLE_CELLSTYLEMAP
360
767
  3
ACAD_XREC_ROUNDTRIP
360
7C0
  0
DICTIONARY
  5
783
330
2F
100
AcDbDictionary
280
     1
281
     1
  3
ACAD_XREC_ROUNDTRIP
360
784
  0
DICTIONARY
  5
787
330
31
100
AcDbDictionary
280
     1
281
     1
  3
ACAD_XREC_ROUNDTRIP
360
788
  0
DICTIONARY
  5
785
330
30
100
AcDbDictionary
280
     1
281
     1
  3
ACAD_XREC_ROUNDTRIP
360
786
  0
DICTIONARY
  5
789
330
32
100
AcDbDictionary
280
     1
281
     1
  3
ACAD_XREC_ROUNDTRIP
360
78A
  0
DICTIONARY
  5
791
330
36
100
AcDbDictionary
280
     1
281
     1
  3
ACAD_XREC_ROUNDTRIP
360
792
  0
DICTIONARY
  5
799
330
3A
100
AcDbDictionary
280
     1
281
     1
  3
ACAD_XREC_ROUNDTRIP
360
79A
  0
DICTIONARY
  5
78D
330
34
100
AcDbDictionary
280
     1
281
     1
  3
ACAD_XREC_ROUNDTRIP
360
78E
  0
DICTIONARY
  5
78F
330
35
100
AcDbDictionary
280
     1
281
     1
  3
ACAD_XREC_ROUNDTRIP
360
790
  0
DICTIONARY
  5
7BE
330
1F9
100
AcDbDictionary
280
     1
281
     1
  3
ACAD_XREC_ROUNDTRIP
360
7BF
  0
DICTIONARY
  5
797
330
39
100
AcDbDictionary
280
     1
281
     1
  3
ACAD_XREC_ROUNDTRIP
360
798
  0
DICTIONARY
  5
77B
330
2B
100
AcDbDictionary
280
     1
281
     1
  3
ACAD_XREC_ROUNDTRIP
360
77C
  0
DICTIONARY
  5
77D
330
2C
100
AcDbDictionary
280
     1
281
     1
  3
ACAD_XREC_ROUNDTRIP
360
77E
  0
DICTIONARY
  5
77F
330
2D
100
AcDbDictionary
280
     1
281
     1
  3
ACAD_XREC_ROUNDTRIP
360
780
  0
DICTIONARY
  5
781
330
2E
100
AcDbDictionary
280
     1
281
     1
  3
ACAD_XREC_ROUNDTRIP
360
782
  0
DICTIONARY
  5
7AE
330
1F1
100
AcDbDictionary
280
     1
281
     1
  3
ACAD_XREC_ROUNDTRIP
360
7AF
  0
DICTIONARY
  5
7BA
330
1F7
100
AcDbDictionary
280
     1
281
     1
  3
ACAD_XREC_ROUNDTRIP
360
7BB
  0
DICTIONARY
  5
795
330
38
100
AcDbDictionary
280
     1
281
     1
  3
ACAD_XREC_ROUNDTRIP
360
796
  0
DICTIONARY
  5
7BC
330
1F8
100
AcDbDictionary
280
     1
281
     1
  3
ACAD_XREC_ROUNDTRIP
360
7BD
  0
DICTIONARY
  5
78B
330
33
100
AcDbDictionary
280
     1
281
     1
  3
ACAD_XREC_ROUNDTRIP
360
78C
  0
DICTIONARY
  5
7B8
330
1F6
100
AcDbDictionary
280
     1
281
     1
  3
ACAD_XREC_ROUNDTRIP
360
7B9
  0
DICTIONARY
  5
7B6
330
1F5
100
AcDbDictionary
280
     1
281
     1
  3
ACAD_XREC_ROUNDTRIP
360
7B7
  0
DICTIONARY
  5
7B0
330
1F2
100
AcDbDictionary
280
     1
281
     1
  3
ACAD_XREC_ROUNDTRIP
360
7B1
  0
DICTIONARY
  5
7B2
330
1F3
100
AcDbDictionary
280
     1
281
     1
  3
ACAD_XREC_ROUNDTRIP
360
7B3
  0
DICTIONARY
  5
793
330
37
100
AcDbDictionary
280
     1
281
     1
  3
ACAD_XREC_ROUNDTRIP
360
794
  0
DICTIONARY
  5
7AC
330
1F0
100
AcDbDictionary
280
     1
281
     1
  3
ACAD_XREC_ROUNDTRIP
360
7AD
  0
DICTIONARY
  5
7B4
330
1F4
100
AcDbDictionary
280
     1
281
     1
  3
ACAD_XREC_ROUNDTRIP
360
7B5
  0
XRECORD
  5
76C
102
{ACAD_REACTORS
330
773
102
}
330
773
100
AcDbXrecord
280
     1
  1
AcDb_Thumbnail_Schema
102
{ATTRRECORD
341
76D
  2
AcDbDs::TreatedAsObjectData
280
     1
291
     1
102
ATTRRECORD}
102
{ATTRRECORD
341
76E
  2
AcDbDs::Legacy
280
     1
291
     1
102
ATTRRECORD}
  2
AcDbDs::ID
280
    10
 91
        8
102
{ATTRRECORD
341
76F
  2
AcDs:Indexable
280
     1
291
     1
102
ATTRRECORD}
102
{ATTRRECORD
341
770
  2
AcDbDs::HandleAttribute
280
     7
282
     1
102
ATTRRECORD}
  2
Thumbnail_Data
280
    15
 91
        0
  0
XRECORD
  5
76D
102
{ACAD_REACTORS
330
773
102
}
330
773
100
AcDbXrecord
280
     1
  1
AcDbDs::TreatedAsObjectDataSchema
  2
AcDbDs::TreatedAsObjectData
280
     1
 91
        0
  0
XRECORD
  5
76E
102
{ACAD_REACTORS
330
773
102
}
330
773
100
AcDbXrecord
280
     1
  1
AcDbDs::LegacySchema
  2
AcDbDs::Legacy
280
     1
 91
        0
  0
XRECORD
  5
76F
102
{ACAD_REACTORS
330
773
102
}
330
773
100
AcDbXrecord
280
     1
  1
AcDbDs::IndexedPropertySchema
  2
AcDs:Indexable
280
     1
 91
        0
  0
XRECORD
  5
770
102
{ACAD_REACTORS
330
773
102
}
330
773
100
AcDbXrecord
280
     1
  1
AcDbDs::HandleAttributeSchema
  2
AcDbDs::HandleAttribute
280
     7
 91
        1
284
     1
  0
XRECORD
  5
771
102
{ACAD_REACTORS
330
773
102
}
330
773
100
AcDbXrecord
280
     1
  1
AcDb3DSolid_ASM_Data
102
{ATTRRECORD
341
76D
  2
AcDbDs::TreatedAsObjectData
280
     1
291
     1
102
ATTRRECORD}
102
{ATTRRECORD
341
76E
  2
AcDbDs::Legacy
280
     1
291
     1
102
ATTRRECORD}
  2
AcDbDs::ID
280
    10
 91
        8
102
{ATTRRECORD
341
76F
  2
AcDs:Indexable
280
     1
291
     1
102
ATTRRECORD}
102
{ATTRRECORD
341
770
  2
AcDbDs::HandleAttribute
280
     7
282
     1
102
ATTRRECORD}
  2
ASM_Data
280
    15
 91
        0
  0
ACDBASSOC2DCONSTRAINTGROUP
  5
5B4
330
5B3
100
AcDbAssocAction
 90
        1
 90
        0
330
5B3
360
0
 90
        1
 90
        9
 90
        0
 90
        2
 70
     0
 10
206.0739370820675
 20
337.9102368165923
 30
0.0
 10
1.0
 20
0.0
 30
0.0
 10
0.0
 20
1.0
 30
0.0
360
0
 90
        7
360
5B5
360
5B6
360
5D5
360
5D6
360
5F2
360
5F3
360
6D2
 90
       58
 90
       43
  1
AcConstrainedBoundedLine
330
5B4
 90
        1
 70
     1
 90
        2
 90
        3
 90
        5
330
5B5
 90
        0
 10
184.9013468273424
 20
133.7437532213485
 30
0.0
 10
-1.0
 20
0.0
 30
0.0
290
     0
 10
184.9013468273424
 20
133.7437532213485
 30
0.0
 11
-188.2403802586414
 21
133.7437532213485
 31
0.0
  1
AcConstrainedImplicitPoint
330
5B4
 90
        2
 70
     1
 90
        1
 90
        3
330
0
 90
        0
280
     0
 90
       -1
 90
        1
  1
AcPointCurveConstraint
330
5B4
 90
        3
 70
     0
 90
        2
 90
        2
 90
        1
 90
        0
290
     1
290
     1
  1
AcConstrainedImplicitPoint
330
5B4
 90
        4
 70
     1
 90
        2
 90
        5
 90
       11
330
0
 90
        0
280
     1
 90
       -1
 90
        1
  1
AcPointCurveConstraint
330
5B4
 90
        5
 70
     0
 90
        2
 90
        4
 90
        1
 90
        0
290
     1
290
     1
  1
AcConstrainedBoundedLine
330
5B4
 90
        6
 70
     1
 90
        2
 90
        8
 90
       10
330
5B6
 90
        0
 10
-188.2403802586414
 20
-406.3058624174477
 30
0.0
 10
0.0
 20
1.0
 30
0.0
290
     0
 10
-188.2403802586414
 20
-406.3058624174477
 30
0.0
 11
-188.2403802586414
 21
133.7437532213485
 31
0.0
  1
AcConstrainedImplicitPoint
330
5B4
 90
        7
 70
     1
 90
        1
 90
        8
330
0
 90
        0
280
     0
 90
       -1
 90
        6
  1
AcPointCurveConstraint
330
5B4
 90
        8
 70
     0
 90
        2
 90
        7
 90
        6
 90
        0
290
     1
290
     1
  1
AcConstrainedImplicitPoint
330
5B4
 90
        9
 70
     1
 90
        2
 90
       10
 90
       11
330
0
 90
        0
280
     1
 90
       -1
 90
        6
  1
AcPointCurveConstraint
330
5B4
 90
       10
 70
     0
 90
        2
 90
        9
 90
        6
 90
        0
290
     1
290
     1
  1
AcPointCoincidenceConstraint
330
5B4
 90
       11
 70
     0
 90
        2
 90
        4
 90
        9
 90
        0
290
     0
290
     1
  1
AcConstrainedBoundedLine
330
5B4
 90
       26
 70
     1
 90
        3
 90
       28
 90
       30
 90
       33
330
5D5
 90
        0
 10
-78.83797841481643
 20
47.85500374119618
 30
0.0
 10
0.0
 20
-1.0
 30
0.0
290
     0
 10
-78.83797841481643
 20
47.85500374119618
 30
0.0
 11
-78.83797841481644
 21
-105.2530850433045
 31
0.0
  1
AcConstrainedImplicitPoint
330
5B4
 90
       27
 70
     1
 90
        1
 90
       28
330
0
 90
        0
280
     0
 90
       -1
 90
       26
  1
AcPointCurveConstraint
330
5B4
 90
       28
 70
     0
 90
        2
 90
       27
 90
       26
 90
        0
290
     1
290
     1
  1
AcConstrainedImplicitPoint
330
5B4
 90
       29
 70
     1
 90
        1
 90
       30
330
0
 90
        0
280
     1
 90
       -1
 90
       26
  1
AcPointCurveConstraint
330
5B4
 90
       30
 70
     0
 90
        2
 90
       29
 90
       26
 90
        0
290
     1
290
     1
  1
AcConstrainedDatumLine
330
5B4
 90
       32
 70
     0
 90
        0
330
0
 90
        0
 10
0.0
 20
0.0
 30
0.0
 10
0.0
 20
1.0
 30
0.0
  1
AcVerticalConstraint
330
5B4
 90
       33
 70
     0
 90
        1
 90
       26
 90
        0
290
     0
290
     1
 90
       32
  1
AcConstrainedBoundedLine
330
5B4
 90
       34
 70
     1
 90
        3
 90
       36
 90
       38
 90
       40
330
5D6
 90
        0
 10
-78.83797841481644
 20
-105.2530850433045
 30
0.0
 10
1.0
 20
0.0
 30
0.0
290
     0
 10
-78.83797841481644
 20
-105.2530850433045
 30
0.0
 11
-3.256080578393095
 21
-105.2530850433045
 31
0.0
  1
AcConstrainedImplicitPoint
330
5B4
 90
       35
 70
     1
 90
        1
 90
       36
330
0
 90
        0
280
     0
 90
       -1
 90
       34
  1
AcPointCurveConstraint
330
5B4
 90
       36
 70
     0
 90
        2
 90
       35
 90
       34
 90
        0
290
     1
290
     1
  1
AcConstrainedImplicitPoint
330
5B4
 90
       37
 70
     1
 90
        1
 90
       38
330
0
 90
        0
280
     1
 90
       -1
 90
       34
  1
AcPointCurveConstraint
330
5B4
 90
       38
 70
     0
 90
        2
 90
       37
 90
       34
 90
        0
290
     1
290
     1
  1
AcConstrainedDatumLine
330
5B4
 90
       39
 70
     0
 90
        0
330
0
 90
        0
 10
0.0
 20
0.0
 30
0.0
 10
1.0
 20
0.0
 30
0.0
  1
AcHorizontalConstraint
330
5B4
 90
       40
 70
     0
 90
        1
 90
       34
 90
        0
290
     0
290
     1
 90
       39
  1
AcConstrainedBoundedLine
330
5B4
 90
       41
 70
     1
 90
        4
 90
       43
 90
       45
 90
       51
 90
       52
330
5F2
 90
        0
 10
-78.83797841481643
 20
47.85500374119982
 30
0.0
 10
1.0
 20
0.0
 30
0.0
290
     0
 10
-78.83797841481643
 20
47.85500374119982
 30
0.0
 11
-3.256080578393238
 21
47.85500374119982
 31
0.0
  1
AcConstrainedImplicitPoint
330
5B4
 90
       42
 70
     1
 90
        1
 90
       43
330
0
 90
        0
280
     0
 90
       -1
 90
       41
  1
AcPointCurveConstraint
330
5B4
 90
       43
 70
     0
 90
        2
 90
       42
 90
       41
 90
        0
290
     1
290
     1
  1
AcConstrainedImplicitPoint
330
5B4
 90
       44
 70
     1
 90
        1
 90
       45
330
0
 90
        0
280
     1
 90
       -1
 90
       41
  1
AcPointCurveConstraint
330
5B4
 90
       45
 70
     0
 90
        2
 90
       44
 90
       41
 90
        0
290
     1
290
     1
  1
AcConstrainedBoundedLine
330
5B4
 90
       46
 70
     1
 90
        2
 90
       48
 90
       50
330
5F3
 90
        0
 10
-3.256080578393095
 20
-105.2530850433045
 30
0.0
 10
-0.0000000000000009
 20
1.0
 30
0.0
290
     0
 10
-3.256080578393095
 20
-105.2530850433045
 30
0.0
 11
-3.256080578393238
 21
47.85500374119982
 31
0.0
  1
AcConstrainedImplicitPoint
330
5B4
 90
       47
 70
     1
 90
        1
 90
       48
330
0
 90
        0
280
     0
 90
       -1
 90
       46
  1
AcPointCurveConstraint
330
5B4
 90
       48
 70
     0
 90
        2
 90
       47
 90
       46
 90
        0
290
     1
290
     1
  1
AcConstrainedImplicitPoint
330
5B4
 90
       49
 70
     1
 90
        2
 90
       50
 90
       51
330
0
 90
        0
280
     1
 90
       -1
 90
       46
  1
AcPointCurveConstraint
330
5B4
 90
       50
 70
     0
 90
        2
 90
       49
 90
       46
 90
        0
290
     1
290
     1
  1
AcPointCurveConstraint
330
5B4
 90
       51
 70
     0
 90
        2
 90
       41
 90
       49
 90
        0
290
     0
290
     1
  1
AcHorizontalConstraint
330
5B4
 90
       52
 70
     0
 90
        1
 90
       41
 90
        0
290
     0
290
     1
 90
       39
  1
AcConstrainedBoundedLine
330
5B4
 90
       53
 70
     1
 90
        3
 90
       55
 90
       57
 90
       58
330
6D2
 90
        0
 10
-81.58797841482021
 20
-124.4218874056251
 30
0.0
 10
0.0
 20
1.0
 30
0.0
290
     0
 10
-81.58797841482021
 20
-124.4218874056251
 30
0.0
 11
-81.58797841481998
 21
48.19666879768755
 31
0.0
  1
AcConstrainedImplicitPoint
330
5B4
 90
       54
 70
     1
 90
        1
 90
       55
330
0
 90
        0
280
     0
 90
       -1
 90
       53
  1
AcPointCurveConstraint
330
5B4
 90
       55
 70
     0
 90
        2
 90
       54
 90
       53
 90
        0
290
     1
290
     1
  1
AcConstrainedImplicitPoint
330
5B4
 90
       56
 70
     1
 90
        1
 90
       57
330
0
 90
        0
280
     1
 90
       -1
 90
       53
  1
AcPointCurveConstraint
330
5B4
 90
       57
 70
     0
 90
        2
 90
       56
 90
       53
 90
        0
290
     1
290
     1
  1
AcVerticalConstraint
330
5B4
 90
       58
 70
     0
 90
        1
 90
       53
 90
        0
290
     0
290
     1
 90
       32
  0
ACDBASSOC2DCONSTRAINTGROUP
  5
578
330
577
100
AcDbAssocAction
 90
        1
 90
        0
330
577
360
0
 90
        1
 90
       12
 90
        0
 90
        2
 70
     0
 10
0.0
 20
0.0
 30
0.0
 10
1.0
 20
0.0
 30
0.0
 10
0.0
 20
1.0
 30
0.0
360
0
 90
        5
360
579
360
57A
360
57B
360
57C
360
57D
 90
       84
 90
       31
  1
AcConstrainedDatumLine
330
578
 90
       54
 70
     0
 90
        0
330
0
 90
        0
 10
855.2978874735945
 20
53.21674985285563
 30
0.0
 10
1.0
 20
0.0
 30
0.0
  1
AcConstrainedBoundedLine
330
578
 90
       55
 70
     1
 90
        2
 90
       57
 90
       59
330
57B
 90
        0
 10
7721.378786902072
 20
4015.530308442822
 30
0.0
 10
0.7071067811857575
 20
-0.7071067811871217
 30
0.0
290
     0
 10
7721.378786902072
 20
4015.530308442822
 30
0.0
 11
7722.227315039494
 21
4014.681780305398
 31
0.0
  1
AcConstrainedImplicitPoint
330
578
 90
       56
 70
     1
 90
        1
 90
       57
330
0
 90
        0
280
     0
 90
       -1
 90
       55
  1
AcPointCurveConstraint
330
578
 90
       57
 70
     0
 90
        2
 90
       56
 90
       55
 90
        0
290
     1
290
     1
  1
AcConstrainedImplicitPoint
330
578
 90
       58
 70
     1
 90
        2
 90
       59
 90
       65
330
0
 90
        0
280
     1
 90
       -1
 90
       55
  1
AcPointCurveConstraint
330
578
 90
       59
 70
     0
 90
        2
 90
       58
 90
       55
 90
        0
290
     1
290
     1
  1
AcConstrainedBoundedLine
330
578
 90
       60
 70
     1
 90
        2
 90
       62
 90
       64
330
57D
 90
        0
 10
7722.227315039494
 20
4014.681780305398
 30
0.0
 10
0.0
 20
-1.0
 30
0.0
290
     0
 10
7722.227315039494
 20
4014.681780305398
 30
0.0
 11
7722.227315039494
 21
3997.530308442822
 31
0.0
  1
AcConstrainedImplicitPoint
330
578
 90
       61
 70
     1
 90
        2
 90
       62
 90
       65
330
0
 90
        0
280
     0
 90
       -1
 90
       60
  1
AcPointCurveConstraint
330
578
 90
       62
 70
     0
 90
        2
 90
       61
 90
       60
 90
        0
290
     1
290
     1
  1
AcConstrainedImplicitPoint
330
578
 90
       63
 70
     1
 90
        2
 90
       64
 90
       71
330
0
 90
        0
280
     1
 90
       -1
 90
       60
  1
AcPointCurveConstraint
330
578
 90
       64
 70
     0
 90
        2
 90
       63
 90
       60
 90
        0
290
     1
290
     1
  1
AcPointCoincidenceConstraint
330
578
 90
       65
 70
     0
 90
        2
 90
       58
 90
       61
 90
        0
290
     0
290
     1
  1
AcConstrainedBoundedLine
330
578
 90
       66
 70
     1
 90
        3
 90
       68
 90
       70
 90
       72
330
579
 90
        0
 10
7722.227315039494
 20
3997.530308442822
 30
0.0
 10
1.0
 20
0.0
 30
0.0
290
     0
 10
7722.227315039494
 20
3997.530308442822
 30
0.0
 11
7797.578786902072
 21
3997.530308442822
 31
0.0
  1
AcConstrainedImplicitPoint
330
578
 90
       67
 70
     1
 90
        2
 90
       68
 90
       71
330
0
 90
        0
280
     0
 90
       -1
 90
       66
  1
AcPointCurveConstraint
330
578
 90
       68
 70
     0
 90
        2
 90
       67
 90
       66
 90
        0
290
     1
290
     1
  1
AcConstrainedImplicitPoint
330
578
 90
       69
 70
     1
 90
        1
 90
       70
330
0
 90
        0
280
     1
 90
       -1
 90
       66
  1
AcPointCurveConstraint
330
578
 90
       70
 70
     0
 90
        2
 90
       69
 90
       66
 90
        0
290
     1
290
     1
  1
AcPointCoincidenceConstraint
330
578
 90
       71
 70
     0
 90
        2
 90
       67
 90
       63
 90
        0
290
     0
290
     1
  1
AcHorizontalConstraint
330
578
 90
       72
 70
     0
 90
        1
 90
       66
 90
        0
290
     0
290
     1
 90
       54
  1
AcConstrainedBoundedLine
330
578
 90
       73
 70
     1
 90
        3
 90
       75
 90
       77
 90
       84
330
57A
 90
        0
 10
7798.778786902072
 20
3996.330308442824
 30
0.0
 10
-1.0
 20
0.0
 30
0.0
290
     0
 10
7798.778786902072
 20
3996.330308442824
 30
0.0
 11
7727.378786902069
 21
3996.330308442824
 31
0.0
  1
AcConstrainedImplicitPoint
330
578
 90
       74
 70
     1
 90
        1
 90
       75
330
0
 90
        0
280
     0
 90
       -1
 90
       73
  1
AcPointCurveConstraint
330
578
 90
       75
 70
     0
 90
        2
 90
       74
 90
       73
 90
        0
290
     1
290
     1
  1
AcConstrainedImplicitPoint
330
578
 90
       76
 70
     1
 90
        2
 90
       77
 90
       83
330
0
 90
        0
280
     1
 90
       -1
 90
       73
  1
AcPointCurveConstraint
330
578
 90
       77
 70
     0
 90
        2
 90
       76
 90
       73
 90
        0
290
     1
290
     1
  1
AcConstrainedBoundedLine
330
578
 90
       78
 70
     1
 90
        2
 90
       80
 90
       82
330
57C
 90
        0
 10
7727.378786902069
 20
3996.330308442824
 30
0.0
 10
-0.707106781186667
 20
-0.707106781186667
 30
0.0
290
     0
 10
7727.378786902069
 20
3996.330308442824
 30
0.0
 11
7721.378786902072
 21
3990.330308442825
 31
0.0
  1
AcConstrainedImplicitPoint
330
578
 90
       79
 70
     1
 90
        2
 90
       80
 90
       83
330
0
 90
        0
280
     0
 90
       -1
 90
       78
  1
AcPointCurveConstraint
330
578
 90
       80
 70
     0
 90
        2
 90
       79
 90
       78
 90
        0
290
     1
290
     1
  1
AcConstrainedImplicitPoint
330
578
 90
       81
 70
     1
 90
        1
 90
       82
330
0
 90
        0
280
     1
 90
       -1
 90
       78
  1
AcPointCurveConstraint
330
578
 90
       82
 70
     0
 90
        2
 90
       81
 90
       78
 90
        0
290
     1
290
     1
  1
AcPointCoincidenceConstraint
330
578
 90
       83
 70
     0
 90
        2
 90
       76
 90
       79
 90
        0
290
     0
290
     1
  1
AcHorizontalConstraint
330
578
 90
       84
 70
     0
 90
        1
 90
       73
 90
        0
290
     0
290
     1
 90
       54
  0
XRECORD
  5
7C5
102
{ACAD_REACTORS
330
270
102
}
330
270
100
AcDbXrecord
280
     1
102
DISPLAYNAME
  1
Imperial24
102
FLAGS
 90
        0
  0
XRECORD
  5
7CC
102
{ACAD_REACTORS
330
672
102
}
330
672
100
AcDbXrecord
280
     1
102
DISPLAYNAME
  1
Metric50
102
FLAGS
 90
        0
  0
XRECORD
  5
776
102
{ACAD_REACTORS
330
775
102
}
330
775
100
AcDbXrecord
280
     1
102
SHADEPLOT
 70
     0
102
SHADEPLOTRESLEVEL
 70
     2
102
SHADEPLOTCUSTOMDPI
 70
   300
  0
XRECORD
  5
77A
102
{ACAD_REACTORS
330
779
102
}
330
779
100
AcDbXrecord
280
     1
102
SHADEPLOT
 70
     0
102
SHADEPLOTRESLEVEL
 70
     2
102
SHADEPLOTCUSTOMDPI
 70
   300
  0
XRECORD
  5
778
102
{ACAD_REACTORS
330
777
102
}
330
777
100
AcDbXrecord
280
     1
102
SHADEPLOT
 70
     0
102
SHADEPLOTRESLEVEL
 70
     2
102
SHADEPLOTCUSTOMDPI
 70
   300
  0
XRECORD
  5
79E
102
{ACAD_REACTORS
330
79D
102
}
330
79D
100
AcDbXrecord
280
     1
102
MATERIAL
148
0.0
149
0.0
149
0.0
 93
        0
 94
      127
282
     0
 72
     1
 77
     1
171
     1
175
     1
179
     1
273
     0
  0
XRECORD
  5
79C
102
{ACAD_REACTORS
330
79B
102
}
330
79B
100
AcDbXrecord
280
     1
102
MATERIAL
148
0.0
149
0.0
149
0.0
 93
        0
 94
      127
282
     0
 72
     1
 77
     1
171
     1
175
     1
179
     1
273
     0
  0
XRECORD
  5
7A0
102
{ACAD_REACTORS
330
79F
102
}
330
79F
100
AcDbXrecord
280
     1
102
MATERIAL
148
0.0
149
0.0
149
0.0
 93
        0
 94
      127
282
     0
 72
     1
 77
     1
171
     1
175
     1
179
     1
273
     0
  0
XRECORD
  5
7C3
102
{ACAD_REACTORS
330
7C2
102
}
330
7C2
100
AcDbXrecord
280
     1
102
ACAD_ROUNDTRIP_2012_MLEADER_STYLE
298
     1
  0
XRECORD
  5
7C4
102
{ACAD_REACTORS
330
26E
102
}
330
26E
100
AcDbXrecord
280
     1
102
DISPLAYNAME
  1
Imperial24
102
FLAGS
 90
        0
  0
XRECORD
  5
7CB
102
{ACAD_REACTORS
330
670
102
}
330
670
100
AcDbXrecord
280
     1
102
DISPLAYNAME
  1
Metric50
102
FLAGS
 90
        0
  0
CELLSTYLEMAP
  5
767
102
{ACAD_REACTORS
330
766
102
}
330
766
100
AcDbCellStyleMap
 90
        3
300
CELLSTYLE
  1
TABLEFORMAT_BEGIN
 90
        5
170
     1
 91
        0
 92
    32768
 62
   257
 93
        1
300
CONTENTFORMAT
  1
CONTENTFORMAT_BEGIN
 90
        0
 91
        0
 92
      512
 93
        0
300

 40
0.0
140
1.0
 94
        5
 62
     0
340
11
144
0.25
309
CONTENTFORMAT_END
171
     0
 94
        0
309
TABLEFORMAT_END
  1
CELLSTYLE_BEGIN
 90
        1
 91
        1
300
_TITLE
309
CELLSTYLE_END
300
CELLSTYLE
  1
TABLEFORMAT_BEGIN
 90
        5
170
     1
 91
        0
 92
        0
 62
   257
 93
        1
300
CONTENTFORMAT
  1
CONTENTFORMAT_BEGIN
 90
        0
 91
        0
 92
      512
 93
        0
300

 40
0.0
140
1.0
 94
        5
 62
     0
340
11
144
0.18
309
CONTENTFORMAT_END
171
     0
 94
        0
309
TABLEFORMAT_END
  1
CELLSTYLE_BEGIN
 90
        2
 91
        1
300
_HEADER
309
CELLSTYLE_END
300
CELLSTYLE
  1
TABLEFORMAT_BEGIN
 90
        5
170
     1
 91
        0
 92
        0
 62
   257
 93
        1
300
CONTENTFORMAT
  1
CONTENTFORMAT_BEGIN
 90
        0
 91
        0
 92
      512
 93
        0
300

 40
0.0
140
1.0
 94
        2
 62
     0
340
11
144
0.18
309
CONTENTFORMAT_END
171
     0
 94
        0
309
TABLEFORMAT_END
  1
CELLSTYLE_BEGIN
 90
        3
 91
        2
300
_DATA
309
CELLSTYLE_END
  0
XRECORD
  5
7C0
102
{ACAD_REACTORS
330
766
102
}
330
766
100
AcDbXrecord
280
     1
102
ACAD_ROUNDTRIP_PRE2007_TABLESTYLE
 90
      512
 91
        0
  1

 92
      512
 93
        0
  2

 94
      512
 95
        0
  3

  0
XRECORD
  5
784
102
{ACAD_REACTORS
330
783
102
}
330
783
100
AcDbXrecord
280
     1
102
RTVSPost2010Prop28
280
     1
102
RTVSPost2010PropOp28
 70
     1
102
RTVSPost2010Prop29
280
     1
102
RTVSPost2010PropOp29
 70
     1
102
RTVSPost2010Prop30
280
     0
102
RTVSPost2010PropOp30
 70
     1
102
RTVSPost2010Prop31
280
     0
102
RTVSPost2010PropOp31
 70
     1
102
RTVSPost2010Prop32
280
     0
102
RTVSPost2010PropOp32
 70
     1
102
RTVSPost2010Prop33
280
     0
102
RTVSPost2010PropOp33
 70
     1
102
RTVSPost2010Prop34
280
     0
102
RTVSPost2010PropOp34
 70
     1
102
RTVSPost2010Prop35
280
     0
102
RTVSPost2010PropOp35
 70
     1
102
RTVSPost2010Prop36
280
     0
102
RTVSPost2010PropOp36
 70
     1
102
RTVSPost2010Prop37
 90
       50
102
RTVSPost2010PropOp37
 70
     1
102
RTVSPost2010Prop38
140
0.0
102
RTVSPost2010PropOp38
 70
     1
102
RTVSPost2010Prop39
140
1.0
102
RTVSPost2010PropOp39
 70
     1
102
RTVSPost2010Prop40
 90
        0
102
RTVSPost2010PropOp40
 70
     1
102
RTVSPost2010Prop41ColorIndex
 90
       18
102
RTVSPost2010Prop41ColorRGB
 90
        0
102
RTVSPost2010PropOp41
 70
     1
102
RTVSPost2010Prop42
 90
       50
102
RTVSPost2010PropOp42
 70
     1
102
RTVSPost2010Prop43
 90
        3
102
RTVSPost2010PropOp43
 70
     1
102
RTVSPost2010Prop44ColorIndex
 90
        5
102
RTVSPost2010Prop44ColorRGB
 90
      255
102
RTVSPost2010PropOp44
 70
     1
102
RTVSPost2010Prop45
280
     0
102
RTVSPost2010PropOp45
 70
     1
102
RTVSPost2010Prop46
 90
       50
102
RTVSPost2010PropOp46
 70
     1
102
RTVSPost2010Prop47
 90
       50
102
RTVSPost2010PropOp47
 70
     1
102
RTVSPost2010Prop48
 90
       50
102
RTVSPost2010PropOp48
 70
     1
102
RTVSPost2010Prop49
280
     0
102
RTVSPost2010PropOp49
 70
     1
102
RTVSPost2010Prop50
 90
       50
102
RTVSPost2010PropOp50
 70
     1
102
RTVSPost2010Prop51ColorIndex
 90
      256
102
RTVSPost2010Prop51ColorRGB
 90
-16777216
102
RTVSPost2010PropOp51
 70
     0
102
RTVSPost2010Prop52
140
1.0
102
RTVSPost2010PropOp52
 70
     0
102
RTVSPost2010Prop53
 90
        2
102
RTVSPost2010PropOp53
 70
     1
102
RTVSPost2010Prop54
  1
strokes_ogs.tif
102
RTVSPost2010PropOp54
 70
     1
102
RTVSPost2010Prop55
280
     0
102
RTVSPost2010PropOp55
 70
     1
102
RTVSPost2010Prop56
140
1.0
102
RTVSPost2010PropOp56
 70
     1
102
RTVSPost2010Prop57
140
1.0
102
RTVSPost2010PropOp57
 70
     1
102
RTVSPropertyOp0
 70
     1
102
RTVSPropertyOp1
 70
     1
102
RTVSPropertyOp2
 70
     1
102
RTVSPropertyOp3
 70
     1
102
RTVSPropertyOp4
 70
     1
102
RTVSPropertyOp5
 70
     1
102
RTVSPropertyOp6
 70
     1
102
RTVSPropertyOp7
 70
     1
102
RTVSPropertyOp8
 70
     1
102
RTVSPropertyOp9
 70
     1
102
RTVSPropertyOp10
 70
     1
102
RTVSPropertyOp11
 70
     1
102
RTVSPropertyOp12
 70
     1
102
RTVSPropertyOp13
 70
     1
102
RTVSPropertyOp14
 70
     1
102
RTVSPropertyOp15
 70
     1
102
RTVSPropertyOp16
 70
     1
102
RTVSPropertyOp17
 70
     1
102
RTVSPropertyOp18
 70
     1
102
RTVSPropertyOp19
 70
     1
102
RTVSPropertyOp20
 70
     1
102
RTVSPropertyOp21
 70
     1
102
RTVSPropertyOp22
 70
     1
102
RTVSPropertyOp23
 70
     1
102
RTVSPropertyOp24
 70
     1
102
RTVSPropertyOp25
 70
     1
102
RTVSPropertyOp26
 70
     1
102
RTVSPropertyOp27
 70
     1
102
RTVSPropertyOp28
 70
     1
102
RTVSPropertyOp29
 70
     1
102
RTVSPropertyOp30
 70
     1
102
RTVSPropertyOp31
 70
     1
102
RTVSPropertyOp32
 70
     1
102
RTVSPropertyOp33
 70
     1
102
RTVSPropertyOp34
 70
     1
102
RTVSPropertyOp35
 70
     1
102
RTVSPropertyOp36
 70
     1
102
RTVSPropertyOp37
 70
     1
102
RTVSPropertyOp38
 70
     1
102
RTVSPropertyOp39
 70
     1
102
RTVSPropertyOp40
 70
     1
102
RTVSPropertyOp41
 70
     1
102
RTVSPropertyOp42
 70
     1
102
RTVSPropertyOp43
 70
     1
102
RTVSPropertyOp44
 70
     1
102
RTVSPropertyOp45
 70
     1
102
RTVSPropertyOp46
 70
     1
102
RTVSPropertyOp47
 70
     1
102
RTVSPropertyOp48
 70
     1
102
RTVSPropertyOp49
 70
     1
102
RTVSPropertyOp50
 70
     1
102
RTVSPropertyOp51
 70
     0
102
RTVSPropertyOp52
 70
     0
102
RTVSPropertyOp53
 70
     1
102
RTVSPropertyOp54
 70
     1
102
RTVSPropertyOp55
 70
     1
102
RTVSPropertyOp56
 70
     1
102
RTVSPropertyOp57
 70
     1
102
RTVSPropertyOp58
 70
     1
102
RTVSPropertyOp59
 70
     1
102
RTVSPropertyOp60
 70
     1
102
RTVSPropertyOp61
 70
     1
102
RTVSPropertyOp62
 70
     1
  0
XRECORD
  5
788
102
{ACAD_REACTORS
330
787
102
}
330
787
100
AcDbXrecord
280
     1
102
RTVSPost2010Prop28
280
     0
102
RTVSPost2010PropOp28
 70
     1
102
RTVSPost2010Prop29
280
     1
102
RTVSPost2010PropOp29
 70
     1
102
RTVSPost2010Prop30
280
     1
102
RTVSPost2010PropOp30
 70
     1
102
RTVSPost2010Prop31
280
     0
102
RTVSPost2010PropOp31
 70
     1
102
RTVSPost2010Prop32
280
     0
102
RTVSPost2010PropOp32
 70
     1
102
RTVSPost2010Prop33
280
     0
102
RTVSPost2010PropOp33
 70
     1
102
RTVSPost2010Prop34
280
     0
102
RTVSPost2010PropOp34
 70
     1
102
RTVSPost2010Prop35
280
     0
102
RTVSPost2010PropOp35
 70
     1
102
RTVSPost2010Prop36
280
     0
102
RTVSPost2010PropOp36
 70
     1
102
RTVSPost2010Prop37
 90
       50
102
RTVSPost2010PropOp37
 70
     1
102
RTVSPost2010Prop38
140
0.0
102
RTVSPost2010PropOp38
 70
     1
102
RTVSPost2010Prop39
140
1.0
102
RTVSPost2010PropOp39
 70
     1
102
RTVSPost2010Prop40
 90
        0
102
RTVSPost2010PropOp40
 70
     1
102
RTVSPost2010Prop41ColorIndex
 90
       18
102
RTVSPost2010Prop41ColorRGB
 90
        0
102
RTVSPost2010PropOp41
 70
     1
102
RTVSPost2010Prop42
 90
       50
102
RTVSPost2010PropOp42
 70
     1
102
RTVSPost2010Prop43
 90
        3
102
RTVSPost2010PropOp43
 70
     1
102
RTVSPost2010Prop44ColorIndex
 90
        5
102
RTVSPost2010Prop44ColorRGB
 90
      255
102
RTVSPost2010PropOp44
 70
     1
102
RTVSPost2010Prop45
280
     0
102
RTVSPost2010PropOp45
 70
     1
102
RTVSPost2010Prop46
 90
       50
102
RTVSPost2010PropOp46
 70
     1
102
RTVSPost2010Prop47
 90
       50
102
RTVSPost2010PropOp47
 70
     1
102
RTVSPost2010Prop48
 90
       50
102
RTVSPost2010PropOp48
 70
     1
102
RTVSPost2010Prop49
280
     0
102
RTVSPost2010PropOp49
 70
     1
102
RTVSPost2010Prop50
 90
       50
102
RTVSPost2010PropOp50
 70
     1
102
RTVSPost2010Prop51ColorIndex
 90
      256
102
RTVSPost2010Prop51ColorRGB
 90
-16777216
102
RTVSPost2010PropOp51
 70
     0
102
RTVSPost2010Prop52
140
1.0
102
RTVSPost2010PropOp52
 70
     0
102
RTVSPost2010Prop53
 90
        2
102
RTVSPost2010PropOp53
 70
     1
102
RTVSPost2010Prop54
  1
strokes_ogs.tif
102
RTVSPost2010PropOp54
 70
     1
102
RTVSPost2010Prop55
280
     0
102
RTVSPost2010PropOp55
 70
     1
102
RTVSPost2010Prop56
140
1.0
102
RTVSPost2010PropOp56
 70
     1
102
RTVSPost2010Prop57
140
1.0
102
RTVSPost2010PropOp57
 70
     1
102
RTVSPropertyOp0
 70
     1
102
RTVSPropertyOp1
 70
     1
102
RTVSPropertyOp2
 70
     1
102
RTVSPropertyOp3
 70
     1
102
RTVSPropertyOp4
 70
     1
102
RTVSPropertyOp5
 70
     1
102
RTVSPropertyOp6
 70
     1
102
RTVSPropertyOp7
 70
     1
102
RTVSPropertyOp8
 70
     1
102
RTVSPropertyOp9
 70
     1
102
RTVSPropertyOp10
 70
     1
102
RTVSPropertyOp11
 70
     1
102
RTVSPropertyOp12
 70
     1
102
RTVSPropertyOp13
 70
     1
102
RTVSPropertyOp14
 70
     1
102
RTVSPropertyOp15
 70
     1
102
RTVSPropertyOp16
 70
     1
102
RTVSPropertyOp17
 70
     1
102
RTVSPropertyOp18
 70
     1
102
RTVSPropertyOp19
 70
     1
102
RTVSPropertyOp20
 70
     1
102
RTVSPropertyOp21
 70
     1
102
RTVSPropertyOp22
 70
     1
102
RTVSPropertyOp23
 70
     1
102
RTVSPropertyOp24
 70
     1
102
RTVSPropertyOp25
 70
     1
102
RTVSPropertyOp26
 70
     1
102
RTVSPropertyOp27
 70
     1
102
RTVSPropertyOp28
 70
     1
102
RTVSPropertyOp29
 70
     1
102
RTVSPropertyOp30
 70
     1
102
RTVSPropertyOp31
 70
     1
102
RTVSPropertyOp32
 70
     1
102
RTVSPropertyOp33
 70
     1
102
RTVSPropertyOp34
 70
     1
102
RTVSPropertyOp35
 70
     1
102
RTVSPropertyOp36
 70
     1
102
RTVSPropertyOp37
 70
     1
102
RTVSPropertyOp38
 70
     1
102
RTVSPropertyOp39
 70
     1
102
RTVSPropertyOp40
 70
     1
102
RTVSPropertyOp41
 70
     1
102
RTVSPropertyOp42
 70
     1
102
RTVSPropertyOp43
 70
     1
102
RTVSPropertyOp44
 70
     1
102
RTVSPropertyOp45
 70
     1
102
RTVSPropertyOp46
 70
     1
102
RTVSPropertyOp47
 70
     1
102
RTVSPropertyOp48
 70
     1
102
RTVSPropertyOp49
 70
     1
102
RTVSPropertyOp50
 70
     1
102
RTVSPropertyOp51
 70
     0
102
RTVSPropertyOp52
 70
     0
102
RTVSPropertyOp53
 70
     1
102
RTVSPropertyOp54
 70
     1
102
RTVSPropertyOp55
 70
     1
102
RTVSPropertyOp56
 70
     1
102
RTVSPropertyOp57
 70
     1
102
RTVSPropertyOp58
 70
     1
102
RTVSPropertyOp59
 70
     1
102
RTVSPropertyOp60
 70
     1
102
RTVSPropertyOp61
 70
     1
102
RTVSPropertyOp62
 70
     1
  0
XRECORD
  5
786
102
{ACAD_REACTORS
330
785
102
}
330
785
100
AcDbXrecord
280
     1
102
RTVSPost2010Prop28
280
     0
102
RTVSPost2010PropOp28
 70
     1
102
RTVSPost2010Prop29
280
     1
102
RTVSPost2010PropOp29
 70
     1
102
RTVSPost2010Prop30
280
     1
102
RTVSPost2010PropOp30
 70
     1
102
RTVSPost2010Prop31
280
     0
102
RTVSPost2010PropOp31
 70
     1
102
RTVSPost2010Prop32
280
     0
102
RTVSPost2010PropOp32
 70
     1
102
RTVSPost2010Prop33
280
     0
102
RTVSPost2010PropOp33
 70
     1
102
RTVSPost2010Prop34
280
     0
102
RTVSPost2010PropOp34
 70
     1
102
RTVSPost2010Prop35
280
     0
102
RTVSPost2010PropOp35
 70
     1
102
RTVSPost2010Prop36
280
     0
102
RTVSPost2010PropOp36
 70
     1
102
RTVSPost2010Prop37
 90
       50
102
RTVSPost2010PropOp37
 70
     1
102
RTVSPost2010Prop38
140
0.0
102
RTVSPost2010PropOp38
 70
     1
102
RTVSPost2010Prop39
140
1.0
102
RTVSPost2010PropOp39
 70
     1
102
RTVSPost2010Prop40
 90
        0
102
RTVSPost2010PropOp40
 70
     1
102
RTVSPost2010Prop41ColorIndex
 90
       18
102
RTVSPost2010Prop41ColorRGB
 90
        0
102
RTVSPost2010PropOp41
 70
     1
102
RTVSPost2010Prop42
 90
       50
102
RTVSPost2010PropOp42
 70
     1
102
RTVSPost2010Prop43
 90
        3
102
RTVSPost2010PropOp43
 70
     1
102
RTVSPost2010Prop44ColorIndex
 90
        5
102
RTVSPost2010Prop44ColorRGB
 90
      255
102
RTVSPost2010PropOp44
 70
     1
102
RTVSPost2010Prop45
280
     0
102
RTVSPost2010PropOp45
 70
     1
102
RTVSPost2010Prop46
 90
       50
102
RTVSPost2010PropOp46
 70
     1
102
RTVSPost2010Prop47
 90
       50
102
RTVSPost2010PropOp47
 70
     1
102
RTVSPost2010Prop48
 90
       50
102
RTVSPost2010PropOp48
 70
     1
102
RTVSPost2010Prop49
280
     0
102
RTVSPost2010PropOp49
 70
     1
102
RTVSPost2010Prop50
 90
       50
102
RTVSPost2010PropOp50
 70
     1
102
RTVSPost2010Prop51ColorIndex
 90
      256
102
RTVSPost2010Prop51ColorRGB
 90
-16777216
102
RTVSPost2010PropOp51
 70
     0
102
RTVSPost2010Prop52
140
1.0
102
RTVSPost2010PropOp52
 70
     0
102
RTVSPost2010Prop53
 90
        2
102
RTVSPost2010PropOp53
 70
     1
102
RTVSPost2010Prop54
  1
strokes_ogs.tif
102
RTVSPost2010PropOp54
 70
     1
102
RTVSPost2010Prop55
280
     0
102
RTVSPost2010PropOp55
 70
     1
102
RTVSPost2010Prop56
140
1.0
102
RTVSPost2010PropOp56
 70
     1
102
RTVSPost2010Prop57
140
1.0
102
RTVSPost2010PropOp57
 70
     1
102
RTVSPropertyOp0
 70
     1
102
RTVSPropertyOp1
 70
     1
102
RTVSPropertyOp2
 70
     1
102
RTVSPropertyOp3
 70
     1
102
RTVSPropertyOp4
 70
     1
102
RTVSPropertyOp5
 70
     1
102
RTVSPropertyOp6
 70
     1
102
RTVSPropertyOp7
 70
     1
102
RTVSPropertyOp8
 70
     1
102
RTVSPropertyOp9
 70
     1
102
RTVSPropertyOp10
 70
     1
102
RTVSPropertyOp11
 70
     1
102
RTVSPropertyOp12
 70
     1
102
RTVSPropertyOp13
 70
     1
102
RTVSPropertyOp14
 70
     1
102
RTVSPropertyOp15
 70
     1
102
RTVSPropertyOp16
 70
     1
102
RTVSPropertyOp17
 70
     1
102
RTVSPropertyOp18
 70
     1
102
RTVSPropertyOp19
 70
     1
102
RTVSPropertyOp20
 70
     1
102
RTVSPropertyOp21
 70
     1
102
RTVSPropertyOp22
 70
     1
102
RTVSPropertyOp23
 70
     1
102
RTVSPropertyOp24
 70
     1
102
RTVSPropertyOp25
 70
     1
102
RTVSPropertyOp26
 70
     1
102
RTVSPropertyOp27
 70
     1
102
RTVSPropertyOp28
 70
     1
102
RTVSPropertyOp29
 70
     1
102
RTVSPropertyOp30
 70
     1
102
RTVSPropertyOp31
 70
     1
102
RTVSPropertyOp32
 70
     1
102
RTVSPropertyOp33
 70
     1
102
RTVSPropertyOp34
 70
     1
102
RTVSPropertyOp35
 70
     1
102
RTVSPropertyOp36
 70
     1
102
RTVSPropertyOp37
 70
     1
102
RTVSPropertyOp38
 70
     1
102
RTVSPropertyOp39
 70
     1
102
RTVSPropertyOp40
 70
     1
102
RTVSPropertyOp41
 70
     1
102
RTVSPropertyOp42
 70
     1
102
RTVSPropertyOp43
 70
     1
102
RTVSPropertyOp44
 70
     1
102
RTVSPropertyOp45
 70
     1
102
RTVSPropertyOp46
 70
     1
102
RTVSPropertyOp47
 70
     1
102
RTVSPropertyOp48
 70
     1
102
RTVSPropertyOp49
 70
     1
102
RTVSPropertyOp50
 70
     1
102
RTVSPropertyOp51
 70
     0
102
RTVSPropertyOp52
 70
     0
102
RTVSPropertyOp53
 70
     1
102
RTVSPropertyOp54
 70
     1
102
RTVSPropertyOp55
 70
     1
102
RTVSPropertyOp56
 70
     1
102
RTVSPropertyOp57
 70
     1
102
RTVSPropertyOp58
 70
     1
102
RTVSPropertyOp59
 70
     1
102
RTVSPropertyOp60
 70
     1
102
RTVSPropertyOp61
 70
     1
102
RTVSPropertyOp62
 70
     1
  0
XRECORD
  5
78A
102
{ACAD_REACTORS
330
789
102
}
330
789
100
AcDbXrecord
280
     1
102
RTVSPost2010Prop28
280
     0
102
RTVSPost2010PropOp28
 70
     1
102
RTVSPost2010Prop29
280
     1
102
RTVSPost2010PropOp29
 70
     1
102
RTVSPost2010Prop30
280
     1
102
RTVSPost2010PropOp30
 70
     1
102
RTVSPost2010Prop31
280
     0
102
RTVSPost2010PropOp31
 70
     1
102
RTVSPost2010Prop32
280
     0
102
RTVSPost2010PropOp32
 70
     1
102
RTVSPost2010Prop33
280
     0
102
RTVSPost2010PropOp33
 70
     1
102
RTVSPost2010Prop34
280
     0
102
RTVSPost2010PropOp34
 70
     1
102
RTVSPost2010Prop35
280
     0
102
RTVSPost2010PropOp35
 70
     1
102
RTVSPost2010Prop36
280
     0
102
RTVSPost2010PropOp36
 70
     1
102
RTVSPost2010Prop37
 90
       50
102
RTVSPost2010PropOp37
 70
     1
102
RTVSPost2010Prop38
140
0.0
102
RTVSPost2010PropOp38
 70
     1
102
RTVSPost2010Prop39
140
1.0
102
RTVSPost2010PropOp39
 70
     1
102
RTVSPost2010Prop40
 90
        0
102
RTVSPost2010PropOp40
 70
     1
102
RTVSPost2010Prop41ColorIndex
 90
       18
102
RTVSPost2010Prop41ColorRGB
 90
        0
102
RTVSPost2010PropOp41
 70
     1
102
RTVSPost2010Prop42
 90
       50
102
RTVSPost2010PropOp42
 70
     1
102
RTVSPost2010Prop43
 90
        3
102
RTVSPost2010PropOp43
 70
     1
102
RTVSPost2010Prop44ColorIndex
 90
        5
102
RTVSPost2010Prop44ColorRGB
 90
      255
102
RTVSPost2010PropOp44
 70
     1
102
RTVSPost2010Prop45
280
     0
102
RTVSPost2010PropOp45
 70
     1
102
RTVSPost2010Prop46
 90
       50
102
RTVSPost2010PropOp46
 70
     1
102
RTVSPost2010Prop47
 90
       50
102
RTVSPost2010PropOp47
 70
     1
102
RTVSPost2010Prop48
 90
       50
102
RTVSPost2010PropOp48
 70
     1
102
RTVSPost2010Prop49
280
     0
102
RTVSPost2010PropOp49
 70
     1
102
RTVSPost2010Prop50
 90
       50
102
RTVSPost2010PropOp50
 70
     1
102
RTVSPost2010Prop51ColorIndex
 90
      256
102
RTVSPost2010Prop51ColorRGB
 90
-16777216
102
RTVSPost2010PropOp51
 70
     0
102
RTVSPost2010Prop52
140
1.0
102
RTVSPost2010PropOp52
 70
     0
102
RTVSPost2010Prop53
 90
        2
102
RTVSPost2010PropOp53
 70
     1
102
RTVSPost2010Prop54
  1
strokes_ogs.tif
102
RTVSPost2010PropOp54
 70
     1
102
RTVSPost2010Prop55
280
     0
102
RTVSPost2010PropOp55
 70
     1
102
RTVSPost2010Prop56
140
1.0
102
RTVSPost2010PropOp56
 70
     1
102
RTVSPost2010Prop57
140
1.0
102
RTVSPost2010PropOp57
 70
     1
102
RTVSPropertyOp0
 70
     1
102
RTVSPropertyOp1
 70
     1
102
RTVSPropertyOp2
 70
     1
102
RTVSPropertyOp3
 70
     1
102
RTVSPropertyOp4
 70
     1
102
RTVSPropertyOp5
 70
     1
102
RTVSPropertyOp6
 70
     1
102
RTVSPropertyOp7
 70
     1
102
RTVSPropertyOp8
 70
     1
102
RTVSPropertyOp9
 70
     1
102
RTVSPropertyOp10
 70
     1
102
RTVSPropertyOp11
 70
     1
102
RTVSPropertyOp12
 70
     1
102
RTVSPropertyOp13
 70
     1
102
RTVSPropertyOp14
 70
     1
102
RTVSPropertyOp15
 70
     1
102
RTVSPropertyOp16
 70
     1
102
RTVSPropertyOp17
 70
     1
102
RTVSPropertyOp18
 70
     1
102
RTVSPropertyOp19
 70
     1
102
RTVSPropertyOp20
 70
     1
102
RTVSPropertyOp21
 70
     1
102
RTVSPropertyOp22
 70
     1
102
RTVSPropertyOp23
 70
     1
102
RTVSPropertyOp24
 70
     1
102
RTVSPropertyOp25
 70
     1
102
RTVSPropertyOp26
 70
     1
102
RTVSPropertyOp27
 70
     1
102
RTVSPropertyOp28
 70
     1
102
RTVSPropertyOp29
 70
     1
102
RTVSPropertyOp30
 70
     1
102
RTVSPropertyOp31
 70
     1
102
RTVSPropertyOp32
 70
     1
102
RTVSPropertyOp33
 70
     1
102
RTVSPropertyOp34
 70
     1
102
RTVSPropertyOp35
 70
     1
102
RTVSPropertyOp36
 70
     1
102
RTVSPropertyOp37
 70
     1
102
RTVSPropertyOp38
 70
     1
102
RTVSPropertyOp39
 70
     1
102
RTVSPropertyOp40
 70
     1
102
RTVSPropertyOp41
 70
     1
102
RTVSPropertyOp42
 70
     1
102
RTVSPropertyOp43
 70
     1
102
RTVSPropertyOp44
 70
     1
102
RTVSPropertyOp45
 70
     1
102
RTVSPropertyOp46
 70
     1
102
RTVSPropertyOp47
 70
     1
102
RTVSPropertyOp48
 70
     1
102
RTVSPropertyOp49
 70
     1
102
RTVSPropertyOp50
 70
     1
102
RTVSPropertyOp51
 70
     0
102
RTVSPropertyOp52
 70
     0
102
RTVSPropertyOp53
 70
     1
102
RTVSPropertyOp54
 70
     1
102
RTVSPropertyOp55
 70
     1
102
RTVSPropertyOp56
 70
     1
102
RTVSPropertyOp57
 70
     1
102
RTVSPropertyOp58
 70
     1
102
RTVSPropertyOp59
 70
     1
102
RTVSPropertyOp60
 70
     1
102
RTVSPropertyOp61
 70
     1
102
RTVSPropertyOp62
 70
     1
  0
XRECORD
  5
792
102
{ACAD_REACTORS
330
791
102
}
330
791
100
AcDbXrecord
280
     1
102
RTVSPost2010Prop28
280
     0
102
RTVSPost2010PropOp28
 70
     1
102
RTVSPost2010Prop29
280
     1
102
RTVSPost2010PropOp29
 70
     1
102
RTVSPost2010Prop30
280
     1
102
RTVSPost2010PropOp30
 70
     1
102
RTVSPost2010Prop31
280
     0
102
RTVSPost2010PropOp31
 70
     1
102
RTVSPost2010Prop32
280
     0
102
RTVSPost2010PropOp32
 70
     1
102
RTVSPost2010Prop33
280
     0
102
RTVSPost2010PropOp33
 70
     1
102
RTVSPost2010Prop34
280
     0
102
RTVSPost2010PropOp34
 70
     1
102
RTVSPost2010Prop35
280
     0
102
RTVSPost2010PropOp35
 70
     1
102
RTVSPost2010Prop36
280
     0
102
RTVSPost2010PropOp36
 70
     1
102
RTVSPost2010Prop37
 90
       50
102
RTVSPost2010PropOp37
 70
     1
102
RTVSPost2010Prop38
140
0.0
102
RTVSPost2010PropOp38
 70
     1
102
RTVSPost2010Prop39
140
1.0
102
RTVSPost2010PropOp39
 70
     1
102
RTVSPost2010Prop40
 90
        0
102
RTVSPost2010PropOp40
 70
     1
102
RTVSPost2010Prop41ColorIndex
 90
       18
102
RTVSPost2010Prop41ColorRGB
 90
        0
102
RTVSPost2010PropOp41
 70
     1
102
RTVSPost2010Prop42
 90
       50
102
RTVSPost2010PropOp42
 70
     1
102
RTVSPost2010Prop43
 90
        3
102
RTVSPost2010PropOp43
 70
     1
102
RTVSPost2010Prop44ColorIndex
 90
        5
102
RTVSPost2010Prop44ColorRGB
 90
      255
102
RTVSPost2010PropOp44
 70
     1
102
RTVSPost2010Prop45
280
     0
102
RTVSPost2010PropOp45
 70
     1
102
RTVSPost2010Prop46
 90
       50
102
RTVSPost2010PropOp46
 70
     1
102
RTVSPost2010Prop47
 90
       50
102
RTVSPost2010PropOp47
 70
     1
102
RTVSPost2010Prop48
 90
       50
102
RTVSPost2010PropOp48
 70
     1
102
RTVSPost2010Prop49
280
     0
102
RTVSPost2010PropOp49
 70
     1
102
RTVSPost2010Prop50
 90
       50
102
RTVSPost2010PropOp50
 70
     1
102
RTVSPost2010Prop51ColorIndex
 90
      256
102
RTVSPost2010Prop51ColorRGB
 90
-16777216
102
RTVSPost2010PropOp51
 70
     0
102
RTVSPost2010Prop52
140
1.0
102
RTVSPost2010PropOp52
 70
     0
102
RTVSPost2010Prop53
 90
        2
102
RTVSPost2010PropOp53
 70
     1
102
RTVSPost2010Prop54
  1
strokes_ogs.tif
102
RTVSPost2010PropOp54
 70
     1
102
RTVSPost2010Prop55
280
     0
102
RTVSPost2010PropOp55
 70
     1
102
RTVSPost2010Prop56
140
1.0
102
RTVSPost2010PropOp56
 70
     1
102
RTVSPost2010Prop57
140
1.0
102
RTVSPost2010PropOp57
 70
     1
102
RTVSPropertyOp0
 70
     1
102
RTVSPropertyOp1
 70
     1
102
RTVSPropertyOp2
 70
     1
102
RTVSPropertyOp3
 70
     1
102
RTVSPropertyOp4
 70
     1
102
RTVSPropertyOp5
 70
     1
102
RTVSPropertyOp6
 70
     1
102
RTVSPropertyOp7
 70
     1
102
RTVSPropertyOp8
 70
     1
102
RTVSPropertyOp9
 70
     1
102
RTVSPropertyOp10
 70
     1
102
RTVSPropertyOp11
 70
     1
102
RTVSPropertyOp12
 70
     1
102
RTVSPropertyOp13
 70
     1
102
RTVSPropertyOp14
 70
     1
102
RTVSPropertyOp15
 70
     1
102
RTVSPropertyOp16
 70
     1
102
RTVSPropertyOp17
 70
     1
102
RTVSPropertyOp18
 70
     1
102
RTVSPropertyOp19
 70
     1
102
RTVSPropertyOp20
 70
     1
102
RTVSPropertyOp21
 70
     1
102
RTVSPropertyOp22
 70
     1
102
RTVSPropertyOp23
 70
     1
102
RTVSPropertyOp24
 70
     1
102
RTVSPropertyOp25
 70
     1
102
RTVSPropertyOp26
 70
     1
102
RTVSPropertyOp27
 70
     1
102
RTVSPropertyOp28
 70
     1
102
RTVSPropertyOp29
 70
     1
102
RTVSPropertyOp30
 70
     1
102
RTVSPropertyOp31
 70
     1
102
RTVSPropertyOp32
 70
     1
102
RTVSPropertyOp33
 70
     1
102
RTVSPropertyOp34
 70
     1
102
RTVSPropertyOp35
 70
     1
102
RTVSPropertyOp36
 70
     1
102
RTVSPropertyOp37
 70
     1
102
RTVSPropertyOp38
 70
     1
102
RTVSPropertyOp39
 70
     1
102
RTVSPropertyOp40
 70
     1
102
RTVSPropertyOp41
 70
     1
102
RTVSPropertyOp42
 70
     1
102
RTVSPropertyOp43
 70
     1
102
RTVSPropertyOp44
 70
     1
102
RTVSPropertyOp45
 70
     1
102
RTVSPropertyOp46
 70
     1
102
RTVSPropertyOp47
 70
     1
102
RTVSPropertyOp48
 70
     1
102
RTVSPropertyOp49
 70
     1
102
RTVSPropertyOp50
 70
     1
102
RTVSPropertyOp51
 70
     0
102
RTVSPropertyOp52
 70
     0
102
RTVSPropertyOp53
 70
     1
102
RTVSPropertyOp54
 70
     1
102
RTVSPropertyOp55
 70
     1
102
RTVSPropertyOp56
 70
     1
102
RTVSPropertyOp57
 70
     1
102
RTVSPropertyOp58
 70
     1
102
RTVSPropertyOp59
 70
     1
102
RTVSPropertyOp60
 70
     1
102
RTVSPropertyOp61
 70
     1
102
RTVSPropertyOp62
 70
     1
  0
XRECORD
  5
79A
102
{ACAD_REACTORS
330
799
102
}
330
799
100
AcDbXrecord
280
     1
102
RTVSPost2010Prop28
280
     0
102
RTVSPost2010PropOp28
 70
     1
102
RTVSPost2010Prop29
280
     1
102
RTVSPost2010PropOp29
 70
     1
102
RTVSPost2010Prop30
280
     1
102
RTVSPost2010PropOp30
 70
     1
102
RTVSPost2010Prop31
280
     0
102
RTVSPost2010PropOp31
 70
     1
102
RTVSPost2010Prop32
280
     0
102
RTVSPost2010PropOp32
 70
     1
102
RTVSPost2010Prop33
280
     0
102
RTVSPost2010PropOp33
 70
     1
102
RTVSPost2010Prop34
280
     0
102
RTVSPost2010PropOp34
 70
     1
102
RTVSPost2010Prop35
280
     0
102
RTVSPost2010PropOp35
 70
     1
102
RTVSPost2010Prop36
280
     0
102
RTVSPost2010PropOp36
 70
     1
102
RTVSPost2010Prop37
 90
       50
102
RTVSPost2010PropOp37
 70
     1
102
RTVSPost2010Prop38
140
0.0
102
RTVSPost2010PropOp38
 70
     1
102
RTVSPost2010Prop39
140
1.0
102
RTVSPost2010PropOp39
 70
     1
102
RTVSPost2010Prop40
 90
        0
102
RTVSPost2010PropOp40
 70
     1
102
RTVSPost2010Prop41ColorIndex
 90
       18
102
RTVSPost2010Prop41ColorRGB
 90
        0
102
RTVSPost2010PropOp41
 70
     1
102
RTVSPost2010Prop42
 90
       50
102
RTVSPost2010PropOp42
 70
     1
102
RTVSPost2010Prop43
 90
        3
102
RTVSPost2010PropOp43
 70
     1
102
RTVSPost2010Prop44ColorIndex
 90
        5
102
RTVSPost2010Prop44ColorRGB
 90
      255
102
RTVSPost2010PropOp44
 70
     1
102
RTVSPost2010Prop45
280
     0
102
RTVSPost2010PropOp45
 70
     1
102
RTVSPost2010Prop46
 90
       50
102
RTVSPost2010PropOp46
 70
     1
102
RTVSPost2010Prop47
 90
       50
102
RTVSPost2010PropOp47
 70
     1
102
RTVSPost2010Prop48
 90
       50
102
RTVSPost2010PropOp48
 70
     1
102
RTVSPost2010Prop49
280
     0
102
RTVSPost2010PropOp49
 70
     1
102
RTVSPost2010Prop50
 90
       50
102
RTVSPost2010PropOp50
 70
     1
102
RTVSPost2010Prop51ColorIndex
 90
      256
102
RTVSPost2010Prop51ColorRGB
 90
-16777216
102
RTVSPost2010PropOp51
 70
     0
102
RTVSPost2010Prop52
140
1.0
102
RTVSPost2010PropOp52
 70
     0
102
RTVSPost2010Prop53
 90
        2
102
RTVSPost2010PropOp53
 70
     1
102
RTVSPost2010Prop54
  1
strokes_ogs.tif
102
RTVSPost2010PropOp54
 70
     1
102
RTVSPost2010Prop55
280
     0
102
RTVSPost2010PropOp55
 70
     1
102
RTVSPost2010Prop56
140
1.0
102
RTVSPost2010PropOp56
 70
     1
102
RTVSPost2010Prop57
140
1.0
102
RTVSPost2010PropOp57
 70
     1
102
RTVSPropertyOp0
 70
     1
102
RTVSPropertyOp1
 70
     1
102
RTVSPropertyOp2
 70
     1
102
RTVSPropertyOp3
 70
     1
102
RTVSPropertyOp4
 70
     1
102
RTVSPropertyOp5
 70
     1
102
RTVSPropertyOp6
 70
     1
102
RTVSPropertyOp7
 70
     1
102
RTVSPropertyOp8
 70
     1
102
RTVSPropertyOp9
 70
     1
102
RTVSPropertyOp10
 70
     1
102
RTVSPropertyOp11
 70
     1
102
RTVSPropertyOp12
 70
     1
102
RTVSPropertyOp13
 70
     1
102
RTVSPropertyOp14
 70
     1
102
RTVSPropertyOp15
 70
     1
102
RTVSPropertyOp16
 70
     1
102
RTVSPropertyOp17
 70
     1
102
RTVSPropertyOp18
 70
     1
102
RTVSPropertyOp19
 70
     1
102
RTVSPropertyOp20
 70
     1
102
RTVSPropertyOp21
 70
     1
102
RTVSPropertyOp22
 70
     1
102
RTVSPropertyOp23
 70
     1
102
RTVSPropertyOp24
 70
     1
102
RTVSPropertyOp25
 70
     1
102
RTVSPropertyOp26
 70
     1
102
RTVSPropertyOp27
 70
     1
102
RTVSPropertyOp28
 70
     1
102
RTVSPropertyOp29
 70
     1
102
RTVSPropertyOp30
 70
     1
102
RTVSPropertyOp31
 70
     1
102
RTVSPropertyOp32
 70
     1
102
RTVSPropertyOp33
 70
     1
102
RTVSPropertyOp34
 70
     1
102
RTVSPropertyOp35
 70
     1
102
RTVSPropertyOp36
 70
     1
102
RTVSPropertyOp37
 70
     1
102
RTVSPropertyOp38
 70
     1
102
RTVSPropertyOp39
 70
     1
102
RTVSPropertyOp40
 70
     1
102
RTVSPropertyOp41
 70
     1
102
RTVSPropertyOp42
 70
     1
102
RTVSPropertyOp43
 70
     1
102
RTVSPropertyOp44
 70
     1
102
RTVSPropertyOp45
 70
     1
102
RTVSPropertyOp46
 70
     1
102
RTVSPropertyOp47
 70
     1
102
RTVSPropertyOp48
 70
     1
102
RTVSPropertyOp49
 70
     1
102
RTVSPropertyOp50
 70
     1
102
RTVSPropertyOp51
 70
     0
102
RTVSPropertyOp52
 70
     0
102
RTVSPropertyOp53
 70
     1
102
RTVSPropertyOp54
 70
     1
102
RTVSPropertyOp55
 70
     1
102
RTVSPropertyOp56
 70
     1
102
RTVSPropertyOp57
 70
     1
102
RTVSPropertyOp58
 70
     1
102
RTVSPropertyOp59
 70
     1
102
RTVSPropertyOp60
 70
     1
102
RTVSPropertyOp61
 70
     1
102
RTVSPropertyOp62
 70
     1
  0
XRECORD
  5
78E
102
{ACAD_REACTORS
330
78D
102
}
330
78D
100
AcDbXrecord
280
     1
102
RTVSPost2010Prop28
280
     0
102
RTVSPost2010PropOp28
 70
     1
102
RTVSPost2010Prop29
280
     1
102
RTVSPost2010PropOp29
 70
     1
102
RTVSPost2010Prop30
280
     1
102
RTVSPost2010PropOp30
 70
     1
102
RTVSPost2010Prop31
280
     0
102
RTVSPost2010PropOp31
 70
     1
102
RTVSPost2010Prop32
280
     0
102
RTVSPost2010PropOp32
 70
     1
102
RTVSPost2010Prop33
280
     0
102
RTVSPost2010PropOp33
 70
     1
102
RTVSPost2010Prop34
280
     0
102
RTVSPost2010PropOp34
 70
     1
102
RTVSPost2010Prop35
280
     0
102
RTVSPost2010PropOp35
 70
     1
102
RTVSPost2010Prop36
280
     0
102
RTVSPost2010PropOp36
 70
     1
102
RTVSPost2010Prop37
 90
       50
102
RTVSPost2010PropOp37
 70
     1
102
RTVSPost2010Prop38
140
0.0
102
RTVSPost2010PropOp38
 70
     1
102
RTVSPost2010Prop39
140
1.0
102
RTVSPost2010PropOp39
 70
     1
102
RTVSPost2010Prop40
 90
        0
102
RTVSPost2010PropOp40
 70
     1
102
RTVSPost2010Prop41ColorIndex
 90
       18
102
RTVSPost2010Prop41ColorRGB
 90
        0
102
RTVSPost2010PropOp41
 70
     1
102
RTVSPost2010Prop42
 90
       50
102
RTVSPost2010PropOp42
 70
     1
102
RTVSPost2010Prop43
 90
        3
102
RTVSPost2010PropOp43
 70
     1
102
RTVSPost2010Prop44ColorIndex
 90
        5
102
RTVSPost2010Prop44ColorRGB
 90
      255
102
RTVSPost2010PropOp44
 70
     1
102
RTVSPost2010Prop45
280
     0
102
RTVSPost2010PropOp45
 70
     1
102
RTVSPost2010Prop46
 90
       50
102
RTVSPost2010PropOp46
 70
     1
102
RTVSPost2010Prop47
 90
       50
102
RTVSPost2010PropOp47
 70
     1
102
RTVSPost2010Prop48
 90
       50
102
RTVSPost2010PropOp48
 70
     1
102
RTVSPost2010Prop49
280
     0
102
RTVSPost2010PropOp49
 70
     1
102
RTVSPost2010Prop50
 90
       50
102
RTVSPost2010PropOp50
 70
     1
102
RTVSPost2010Prop51ColorIndex
 90
      256
102
RTVSPost2010Prop51ColorRGB
 90
-16777216
102
RTVSPost2010PropOp51
 70
     0
102
RTVSPost2010Prop52
140
1.0
102
RTVSPost2010PropOp52
 70
     0
102
RTVSPost2010Prop53
 90
        2
102
RTVSPost2010PropOp53
 70
     1
102
RTVSPost2010Prop54
  1
strokes_ogs.tif
102
RTVSPost2010PropOp54
 70
     1
102
RTVSPost2010Prop55
280
     0
102
RTVSPost2010PropOp55
 70
     1
102
RTVSPost2010Prop56
140
1.0
102
RTVSPost2010PropOp56
 70
     1
102
RTVSPost2010Prop57
140
1.0
102
RTVSPost2010PropOp57
 70
     1
102
RTVSPropertyOp0
 70
     1
102
RTVSPropertyOp1
 70
     1
102
RTVSPropertyOp2
 70
     1
102
RTVSPropertyOp3
 70
     1
102
RTVSPropertyOp4
 70
     1
102
RTVSPropertyOp5
 70
     1
102
RTVSPropertyOp6
 70
     1
102
RTVSPropertyOp7
 70
     1
102
RTVSPropertyOp8
 70
     1
102
RTVSPropertyOp9
 70
     1
102
RTVSPropertyOp10
 70
     1
102
RTVSPropertyOp11
 70
     1
102
RTVSPropertyOp12
 70
     1
102
RTVSPropertyOp13
 70
     1
102
RTVSPropertyOp14
 70
     1
102
RTVSPropertyOp15
 70
     1
102
RTVSPropertyOp16
 70
     1
102
RTVSPropertyOp17
 70
     1
102
RTVSPropertyOp18
 70
     1
102
RTVSPropertyOp19
 70
     1
102
RTVSPropertyOp20
 70
     1
102
RTVSPropertyOp21
 70
     1
102
RTVSPropertyOp22
 70
     1
102
RTVSPropertyOp23
 70
     1
102
RTVSPropertyOp24
 70
     1
102
RTVSPropertyOp25
 70
     1
102
RTVSPropertyOp26
 70
     1
102
RTVSPropertyOp27
 70
     1
102
RTVSPropertyOp28
 70
     1
102
RTVSPropertyOp29
 70
     1
102
RTVSPropertyOp30
 70
     1
102
RTVSPropertyOp31
 70
     1
102
RTVSPropertyOp32
 70
     1
102
RTVSPropertyOp33
 70
     1
102
RTVSPropertyOp34
 70
     1
102
RTVSPropertyOp35
 70
     1
102
RTVSPropertyOp36
 70
     1
102
RTVSPropertyOp37
 70
     1
102
RTVSPropertyOp38
 70
     1
102
RTVSPropertyOp39
 70
     1
102
RTVSPropertyOp40
 70
     1
102
RTVSPropertyOp41
 70
     1
102
RTVSPropertyOp42
 70
     1
102
RTVSPropertyOp43
 70
     1
102
RTVSPropertyOp44
 70
     1
102
RTVSPropertyOp45
 70
     1
102
RTVSPropertyOp46
 70
     1
102
RTVSPropertyOp47
 70
     1
102
RTVSPropertyOp48
 70
     1
102
RTVSPropertyOp49
 70
     1
102
RTVSPropertyOp50
 70
     1
102
RTVSPropertyOp51
 70
     0
102
RTVSPropertyOp52
 70
     0
102
RTVSPropertyOp53
 70
     1
102
RTVSPropertyOp54
 70
     1
102
RTVSPropertyOp55
 70
     1
102
RTVSPropertyOp56
 70
     1
102
RTVSPropertyOp57
 70
     1
102
RTVSPropertyOp58
 70
     1
102
RTVSPropertyOp59
 70
     1
102
RTVSPropertyOp60
 70
     1
102
RTVSPropertyOp61
 70
     1
102
RTVSPropertyOp62
 70
     1
  0
XRECORD
  5
790
102
{ACAD_REACTORS
330
78F
102
}
330
78F
100
AcDbXrecord
280
     1
102
RTVSPost2010Prop28
280
     0
102
RTVSPost2010PropOp28
 70
     1
102
RTVSPost2010Prop29
280
     1
102
RTVSPost2010PropOp29
 70
     1
102
RTVSPost2010Prop30
280
     1
102
RTVSPost2010PropOp30
 70
     1
102
RTVSPost2010Prop31
280
     0
102
RTVSPost2010PropOp31
 70
     1
102
RTVSPost2010Prop32
280
     0
102
RTVSPost2010PropOp32
 70
     1
102
RTVSPost2010Prop33
280
     0
102
RTVSPost2010PropOp33
 70
     1
102
RTVSPost2010Prop34
280
     0
102
RTVSPost2010PropOp34
 70
     1
102
RTVSPost2010Prop35
280
     0
102
RTVSPost2010PropOp35
 70
     1
102
RTVSPost2010Prop36
280
     0
102
RTVSPost2010PropOp36
 70
     1
102
RTVSPost2010Prop37
 90
       50
102
RTVSPost2010PropOp37
 70
     1
102
RTVSPost2010Prop38
140
0.0
102
RTVSPost2010PropOp38
 70
     1
102
RTVSPost2010Prop39
140
1.0
102
RTVSPost2010PropOp39
 70
     1
102
RTVSPost2010Prop40
 90
        0
102
RTVSPost2010PropOp40
 70
     1
102
RTVSPost2010Prop41ColorIndex
 90
       18
102
RTVSPost2010Prop41ColorRGB
 90
        0
102
RTVSPost2010PropOp41
 70
     1
102
RTVSPost2010Prop42
 90
       50
102
RTVSPost2010PropOp42
 70
     1
102
RTVSPost2010Prop43
 90
        3
102
RTVSPost2010PropOp43
 70
     1
102
RTVSPost2010Prop44ColorIndex
 90
        5
102
RTVSPost2010Prop44ColorRGB
 90
      255
102
RTVSPost2010PropOp44
 70
     1
102
RTVSPost2010Prop45
280
     0
102
RTVSPost2010PropOp45
 70
     1
102
RTVSPost2010Prop46
 90
       50
102
RTVSPost2010PropOp46
 70
     1
102
RTVSPost2010Prop47
 90
       50
102
RTVSPost2010PropOp47
 70
     1
102
RTVSPost2010Prop48
 90
       50
102
RTVSPost2010PropOp48
 70
     1
102
RTVSPost2010Prop49
280
     0
102
RTVSPost2010PropOp49
 70
     1
102
RTVSPost2010Prop50
 90
       50
102
RTVSPost2010PropOp50
 70
     1
102
RTVSPost2010Prop51ColorIndex
 90
      256
102
RTVSPost2010Prop51ColorRGB
 90
-16777216
102
RTVSPost2010PropOp51
 70
     0
102
RTVSPost2010Prop52
140
1.0
102
RTVSPost2010PropOp52
 70
     0
102
RTVSPost2010Prop53
 90
        2
102
RTVSPost2010PropOp53
 70
     1
102
RTVSPost2010Prop54
  1
strokes_ogs.tif
102
RTVSPost2010PropOp54
 70
     1
102
RTVSPost2010Prop55
280
     0
102
RTVSPost2010PropOp55
 70
     1
102
RTVSPost2010Prop56
140
1.0
102
RTVSPost2010PropOp56
 70
     1
102
RTVSPost2010Prop57
140
1.0
102
RTVSPost2010PropOp57
 70
     1
102
RTVSPropertyOp0
 70
     1
102
RTVSPropertyOp1
 70
     1
102
RTVSPropertyOp2
 70
     1
102
RTVSPropertyOp3
 70
     1
102
RTVSPropertyOp4
 70
     1
102
RTVSPropertyOp5
 70
     1
102
RTVSPropertyOp6
 70
     1
102
RTVSPropertyOp7
 70
     1
102
RTVSPropertyOp8
 70
     1
102
RTVSPropertyOp9
 70
     1
102
RTVSPropertyOp10
 70
     1
102
RTVSPropertyOp11
 70
     1
102
RTVSPropertyOp12
 70
     1
102
RTVSPropertyOp13
 70
     1
102
RTVSPropertyOp14
 70
     1
102
RTVSPropertyOp15
 70
     1
102
RTVSPropertyOp16
 70
     1
102
RTVSPropertyOp17
 70
     1
102
RTVSPropertyOp18
 70
     1
102
RTVSPropertyOp19
 70
     1
102
RTVSPropertyOp20
 70
     1
102
RTVSPropertyOp21
 70
     1
102
RTVSPropertyOp22
 70
     1
102
RTVSPropertyOp23
 70
     1
102
RTVSPropertyOp24
 70
     1
102
RTVSPropertyOp25
 70
     1
102
RTVSPropertyOp26
 70
     1
102
RTVSPropertyOp27
 70
     1
102
RTVSPropertyOp28
 70
     1
102
RTVSPropertyOp29
 70
     1
102
RTVSPropertyOp30
 70
     1
102
RTVSPropertyOp31
 70
     1
102
RTVSPropertyOp32
 70
     1
102
RTVSPropertyOp33
 70
     1
102
RTVSPropertyOp34
 70
     1
102
RTVSPropertyOp35
 70
     1
102
RTVSPropertyOp36
 70
     1
102
RTVSPropertyOp37
 70
     1
102
RTVSPropertyOp38
 70
     1
102
RTVSPropertyOp39
 70
     1
102
RTVSPropertyOp40
 70
     1
102
RTVSPropertyOp41
 70
     1
102
RTVSPropertyOp42
 70
     1
102
RTVSPropertyOp43
 70
     1
102
RTVSPropertyOp44
 70
     1
102
RTVSPropertyOp45
 70
     1
102
RTVSPropertyOp46
 70
     1
102
RTVSPropertyOp47
 70
     1
102
RTVSPropertyOp48
 70
     1
102
RTVSPropertyOp49
 70
     1
102
RTVSPropertyOp50
 70
     1
102
RTVSPropertyOp51
 70
     0
102
RTVSPropertyOp52
 70
     0
102
RTVSPropertyOp53
 70
     1
102
RTVSPropertyOp54
 70
     1
102
RTVSPropertyOp55
 70
     1
102
RTVSPropertyOp56
 70
     1
102
RTVSPropertyOp57
 70
     1
102
RTVSPropertyOp58
 70
     1
102
RTVSPropertyOp59
 70
     1
102
RTVSPropertyOp60
 70
     1
102
RTVSPropertyOp61
 70
     1
102
RTVSPropertyOp62
 70
     1
  0
XRECORD
  5
7BF
102
{ACAD_REACTORS
330
7BE
102
}
330
7BE
100
AcDbXrecord
280
     1
102
RTVSPost2010Prop28
280
     0
102
RTVSPost2010PropOp28
 70
     0
102
RTVSPost2010Prop29
280
     1
102
RTVSPost2010PropOp29
 70
     0
102
RTVSPost2010Prop30
280
     1
102
RTVSPost2010PropOp30
 70
     0
102
RTVSPost2010Prop31
280
     0
102
RTVSPost2010PropOp31
 70
     0
102
RTVSPost2010Prop32
280
     0
102
RTVSPost2010PropOp32
 70
     0
102
RTVSPost2010Prop33
280
     0
102
RTVSPost2010PropOp33
 70
     0
102
RTVSPost2010Prop34
280
     0
102
RTVSPost2010PropOp34
 70
     0
102
RTVSPost2010Prop35
280
     0
102
RTVSPost2010PropOp35
 70
     0
102
RTVSPost2010Prop36
280
     0
102
RTVSPost2010PropOp36
 70
     0
102
RTVSPost2010Prop37
 90
       50
102
RTVSPost2010PropOp37
 70
     0
102
RTVSPost2010Prop38
140
0.0
102
RTVSPost2010PropOp38
 70
     0
102
RTVSPost2010Prop39
140
1.0
102
RTVSPost2010PropOp39
 70
     0
102
RTVSPost2010Prop40
 90
        0
102
RTVSPost2010PropOp40
 70
     0
102
RTVSPost2010Prop41ColorIndex
 90
       18
102
RTVSPost2010Prop41ColorRGB
 90
        0
102
RTVSPost2010PropOp41
 70
     0
102
RTVSPost2010Prop42
 90
       50
102
RTVSPost2010PropOp42
 70
     0
102
RTVSPost2010Prop43
 90
        3
102
RTVSPost2010PropOp43
 70
     0
102
RTVSPost2010Prop44ColorIndex
 90
        5
102
RTVSPost2010Prop44ColorRGB
 90
      255
102
RTVSPost2010PropOp44
 70
     0
102
RTVSPost2010Prop45
280
     0
102
RTVSPost2010PropOp45
 70
     0
102
RTVSPost2010Prop46
 90
       50
102
RTVSPost2010PropOp46
 70
     0
102
RTVSPost2010Prop47
 90
       50
102
RTVSPost2010PropOp47
 70
     0
102
RTVSPost2010Prop48
 90
       50
102
RTVSPost2010PropOp48
 70
     0
102
RTVSPost2010Prop49
280
     0
102
RTVSPost2010PropOp49
 70
     0
102
RTVSPost2010Prop50
 90
       50
102
RTVSPost2010PropOp50
 70
     0
102
RTVSPost2010Prop51ColorIndex
 90
      256
102
RTVSPost2010Prop51ColorRGB
 90
-16777216
102
RTVSPost2010PropOp51
 70
     0
102
RTVSPost2010Prop52
140
1.0
102
RTVSPost2010PropOp52
 70
     0
102
RTVSPost2010Prop53
 90
        2
102
RTVSPost2010PropOp53
 70
     0
102
RTVSPost2010Prop54
  1
strokes_ogs.tif
102
RTVSPost2010PropOp54
 70
     0
102
RTVSPost2010Prop55
280
     0
102
RTVSPost2010PropOp55
 70
     0
102
RTVSPost2010Prop56
140
1.0
102
RTVSPost2010PropOp56
 70
     0
102
RTVSPost2010Prop57
140
1.0
102
RTVSPost2010PropOp57
 70
     0
102
RTVSPropertyOp0
 70
     0
102
RTVSPropertyOp1
 70
     0
102
RTVSPropertyOp2
 70
     0
102
RTVSPropertyOp3
 70
     0
102
RTVSPropertyOp4
 70
     0
102
RTVSPropertyOp5
 70
     0
102
RTVSPropertyOp6
 70
     0
102
RTVSPropertyOp7
 70
     0
102
RTVSPropertyOp8
 70
     0
102
RTVSPropertyOp9
 70
     0
102
RTVSPropertyOp10
 70
     0
102
RTVSPropertyOp11
 70
     0
102
RTVSPropertyOp12
 70
     0
102
RTVSPropertyOp13
 70
     0
102
RTVSPropertyOp14
 70
     2
102
RTVSPropertyOp15
 70
     0
102
RTVSPropertyOp16
 70
     0
102
RTVSPropertyOp17
 70
     0
102
RTVSPropertyOp18
 70
     0
102
RTVSPropertyOp19
 70
     0
102
RTVSPropertyOp20
 70
     0
102
RTVSPropertyOp21
 70
     0
102
RTVSPropertyOp22
 70
     0
102
RTVSPropertyOp23
 70
     0
102
RTVSPropertyOp24
 70
     0
102
RTVSPropertyOp25
 70
     0
102
RTVSPropertyOp26
 70
     0
102
RTVSPropertyOp27
 70
     0
102
RTVSPropertyOp28
 70
     0
102
RTVSPropertyOp29
 70
     0
102
RTVSPropertyOp30
 70
     0
102
RTVSPropertyOp31
 70
     0
102
RTVSPropertyOp32
 70
     0
102
RTVSPropertyOp33
 70
     0
102
RTVSPropertyOp34
 70
     0
102
RTVSPropertyOp35
 70
     0
102
RTVSPropertyOp36
 70
     0
102
RTVSPropertyOp37
 70
     0
102
RTVSPropertyOp38
 70
     0
102
RTVSPropertyOp39
 70
     0
102
RTVSPropertyOp40
 70
     0
102
RTVSPropertyOp41
 70
     0
102
RTVSPropertyOp42
 70
     0
102
RTVSPropertyOp43
 70
     0
102
RTVSPropertyOp44
 70
     0
102
RTVSPropertyOp45
 70
     0
102
RTVSPropertyOp46
 70
     0
102
RTVSPropertyOp47
 70
     0
102
RTVSPropertyOp48
 70
     0
102
RTVSPropertyOp49
 70
     0
102
RTVSPropertyOp50
 70
     0
102
RTVSPropertyOp51
 70
     0
102
RTVSPropertyOp52
 70
     0
102
RTVSPropertyOp53
 70
     0
102
RTVSPropertyOp54
 70
     0
102
RTVSPropertyOp55
 70
     0
102
RTVSPropertyOp56
 70
     0
102
RTVSPropertyOp57
 70
     0
102
RTVSPropertyOp58
 70
     1
102
RTVSPropertyOp59
 70
     1
102
RTVSPropertyOp60
 70
     1
102
RTVSPropertyOp61
 70
     1
102
RTVSPropertyOp62
 70
     1
  0
XRECORD
  5
798
102
{ACAD_REACTORS
330
797
102
}
330
797
100
AcDbXrecord
280
     1
102
RTVSPost2010Prop28
280
     0
102
RTVSPost2010PropOp28
 70
     1
102
RTVSPost2010Prop29
280
     1
102
RTVSPost2010PropOp29
 70
     1
102
RTVSPost2010Prop30
280
     1
102
RTVSPost2010PropOp30
 70
     1
102
RTVSPost2010Prop31
280
     0
102
RTVSPost2010PropOp31
 70
     1
102
RTVSPost2010Prop32
280
     0
102
RTVSPost2010PropOp32
 70
     1
102
RTVSPost2010Prop33
280
     0
102
RTVSPost2010PropOp33
 70
     1
102
RTVSPost2010Prop34
280
     0
102
RTVSPost2010PropOp34
 70
     1
102
RTVSPost2010Prop35
280
     0
102
RTVSPost2010PropOp35
 70
     1
102
RTVSPost2010Prop36
280
     0
102
RTVSPost2010PropOp36
 70
     1
102
RTVSPost2010Prop37
 90
       50
102
RTVSPost2010PropOp37
 70
     1
102
RTVSPost2010Prop38
140
0.0
102
RTVSPost2010PropOp38
 70
     1
102
RTVSPost2010Prop39
140
1.0
102
RTVSPost2010PropOp39
 70
     1
102
RTVSPost2010Prop40
 90
        0
102
RTVSPost2010PropOp40
 70
     1
102
RTVSPost2010Prop41ColorIndex
 90
       18
102
RTVSPost2010Prop41ColorRGB
 90
        0
102
RTVSPost2010PropOp41
 70
     1
102
RTVSPost2010Prop42
 90
       50
102
RTVSPost2010PropOp42
 70
     1
102
RTVSPost2010Prop43
 90
        3
102
RTVSPost2010PropOp43
 70
     1
102
RTVSPost2010Prop44ColorIndex
 90
        5
102
RTVSPost2010Prop44ColorRGB
 90
      255
102
RTVSPost2010PropOp44
 70
     1
102
RTVSPost2010Prop45
280
     0
102
RTVSPost2010PropOp45
 70
     1
102
RTVSPost2010Prop46
 90
       50
102
RTVSPost2010PropOp46
 70
     1
102
RTVSPost2010Prop47
 90
       50
102
RTVSPost2010PropOp47
 70
     1
102
RTVSPost2010Prop48
 90
       50
102
RTVSPost2010PropOp48
 70
     1
102
RTVSPost2010Prop49
280
     0
102
RTVSPost2010PropOp49
 70
     1
102
RTVSPost2010Prop50
 90
       50
102
RTVSPost2010PropOp50
 70
     1
102
RTVSPost2010Prop51ColorIndex
 90
      256
102
RTVSPost2010Prop51ColorRGB
 90
-16777216
102
RTVSPost2010PropOp51
 70
     0
102
RTVSPost2010Prop52
140
1.0
102
RTVSPost2010PropOp52
 70
     0
102
RTVSPost2010Prop53
 90
        2
102
RTVSPost2010PropOp53
 70
     1
102
RTVSPost2010Prop54
  1
strokes_ogs.tif
102
RTVSPost2010PropOp54
 70
     1
102
RTVSPost2010Prop55
280
     0
102
RTVSPost2010PropOp55
 70
     1
102
RTVSPost2010Prop56
140
1.0
102
RTVSPost2010PropOp56
 70
     1
102
RTVSPost2010Prop57
140
1.0
102
RTVSPost2010PropOp57
 70
     1
102
RTVSPropertyOp0
 70
     1
102
RTVSPropertyOp1
 70
     1
102
RTVSPropertyOp2
 70
     1
102
RTVSPropertyOp3
 70
     1
102
RTVSPropertyOp4
 70
     1
102
RTVSPropertyOp5
 70
     1
102
RTVSPropertyOp6
 70
     1
102
RTVSPropertyOp7
 70
     1
102
RTVSPropertyOp8
 70
     1
102
RTVSPropertyOp9
 70
     1
102
RTVSPropertyOp10
 70
     1
102
RTVSPropertyOp11
 70
     1
102
RTVSPropertyOp12
 70
     1
102
RTVSPropertyOp13
 70
     1
102
RTVSPropertyOp14
 70
     1
102
RTVSPropertyOp15
 70
     1
102
RTVSPropertyOp16
 70
     1
102
RTVSPropertyOp17
 70
     1
102
RTVSPropertyOp18
 70
     1
102
RTVSPropertyOp19
 70
     1
102
RTVSPropertyOp20
 70
     1
102
RTVSPropertyOp21
 70
     1
102
RTVSPropertyOp22
 70
     1
102
RTVSPropertyOp23
 70
     1
102
RTVSPropertyOp24
 70
     1
102
RTVSPropertyOp25
 70
     1
102
RTVSPropertyOp26
 70
     1
102
RTVSPropertyOp27
 70
     1
102
RTVSPropertyOp28
 70
     1
102
RTVSPropertyOp29
 70
     1
102
RTVSPropertyOp30
 70
     1
102
RTVSPropertyOp31
 70
     1
102
RTVSPropertyOp32
 70
     1
102
RTVSPropertyOp33
 70
     1
102
RTVSPropertyOp34
 70
     1
102
RTVSPropertyOp35
 70
     1
102
RTVSPropertyOp36
 70
     1
102
RTVSPropertyOp37
 70
     1
102
RTVSPropertyOp38
 70
     1
102
RTVSPropertyOp39
 70
     1
102
RTVSPropertyOp40
 70
     1
102
RTVSPropertyOp41
 70
     1
102
RTVSPropertyOp42
 70
     1
102
RTVSPropertyOp43
 70
     1
102
RTVSPropertyOp44
 70
     1
102
RTVSPropertyOp45
 70
     1
102
RTVSPropertyOp46
 70
     1
102
RTVSPropertyOp47
 70
     1
102
RTVSPropertyOp48
 70
     1
102
RTVSPropertyOp49
 70
     1
102
RTVSPropertyOp50
 70
     1
102
RTVSPropertyOp51
 70
     0
102
RTVSPropertyOp52
 70
     0
102
RTVSPropertyOp53
 70
     1
102
RTVSPropertyOp54
 70
     1
102
RTVSPropertyOp55
 70
     1
102
RTVSPropertyOp56
 70
     1
102
RTVSPropertyOp57
 70
     1
102
RTVSPropertyOp58
 70
     1
102
RTVSPropertyOp59
 70
     1
102
RTVSPropertyOp60
 70
     1
102
RTVSPropertyOp61
 70
     1
102
RTVSPropertyOp62
 70
     1
  0
XRECORD
  5
77C
102
{ACAD_REACTORS
330
77B
102
}
330
77B
100
AcDbXrecord
280
     1
102
RTVSPost2010Prop28
280
     0
102
RTVSPost2010PropOp28
 70
     1
102
RTVSPost2010Prop29
280
     1
102
RTVSPost2010PropOp29
 70
     1
102
RTVSPost2010Prop30
280
     1
102
RTVSPost2010PropOp30
 70
     1
102
RTVSPost2010Prop31
280
     0
102
RTVSPost2010PropOp31
 70
     1
102
RTVSPost2010Prop32
280
     0
102
RTVSPost2010PropOp32
 70
     1
102
RTVSPost2010Prop33
280
     0
102
RTVSPost2010PropOp33
 70
     1
102
RTVSPost2010Prop34
280
     0
102
RTVSPost2010PropOp34
 70
     1
102
RTVSPost2010Prop35
280
     0
102
RTVSPost2010PropOp35
 70
     1
102
RTVSPost2010Prop36
280
     0
102
RTVSPost2010PropOp36
 70
     1
102
RTVSPost2010Prop37
 90
       50
102
RTVSPost2010PropOp37
 70
     1
102
RTVSPost2010Prop38
140
0.0
102
RTVSPost2010PropOp38
 70
     1
102
RTVSPost2010Prop39
140
1.0
102
RTVSPost2010PropOp39
 70
     1
102
RTVSPost2010Prop40
 90
        0
102
RTVSPost2010PropOp40
 70
     1
102
RTVSPost2010Prop41ColorIndex
 90
       18
102
RTVSPost2010Prop41ColorRGB
 90
        0
102
RTVSPost2010PropOp41
 70
     1
102
RTVSPost2010Prop42
 90
       50
102
RTVSPost2010PropOp42
 70
     1
102
RTVSPost2010Prop43
 90
        3
102
RTVSPost2010PropOp43
 70
     1
102
RTVSPost2010Prop44ColorIndex
 90
        5
102
RTVSPost2010Prop44ColorRGB
 90
      255
102
RTVSPost2010PropOp44
 70
     1
102
RTVSPost2010Prop45
280
     0
102
RTVSPost2010PropOp45
 70
     1
102
RTVSPost2010Prop46
 90
       50
102
RTVSPost2010PropOp46
 70
     1
102
RTVSPost2010Prop47
 90
       50
102
RTVSPost2010PropOp47
 70
     1
102
RTVSPost2010Prop48
 90
       50
102
RTVSPost2010PropOp48
 70
     1
102
RTVSPost2010Prop49
280
     0
102
RTVSPost2010PropOp49
 70
     1
102
RTVSPost2010Prop50
 90
       50
102
RTVSPost2010PropOp50
 70
     1
102
RTVSPost2010Prop51ColorIndex
 90
      256
102
RTVSPost2010Prop51ColorRGB
 90
-16777216
102
RTVSPost2010PropOp51
 70
     0
102
RTVSPost2010Prop52
140
1.0
102
RTVSPost2010PropOp52
 70
     0
102
RTVSPost2010Prop53
 90
        2
102
RTVSPost2010PropOp53
 70
     1
102
RTVSPost2010Prop54
  1
strokes_ogs.tif
102
RTVSPost2010PropOp54
 70
     1
102
RTVSPost2010Prop55
280
     0
102
RTVSPost2010PropOp55
 70
     1
102
RTVSPost2010Prop56
140
1.0
102
RTVSPost2010PropOp56
 70
     1
102
RTVSPost2010Prop57
140
1.0
102
RTVSPost2010PropOp57
 70
     1
102
RTVSPropertyOp0
 70
     1
102
RTVSPropertyOp1
 70
     1
102
RTVSPropertyOp2
 70
     1
102
RTVSPropertyOp3
 70
     1
102
RTVSPropertyOp4
 70
     1
102
RTVSPropertyOp5
 70
     1
102
RTVSPropertyOp6
 70
     1
102
RTVSPropertyOp7
 70
     1
102
RTVSPropertyOp8
 70
     1
102
RTVSPropertyOp9
 70
     1
102
RTVSPropertyOp10
 70
     1
102
RTVSPropertyOp11
 70
     1
102
RTVSPropertyOp12
 70
     1
102
RTVSPropertyOp13
 70
     1
102
RTVSPropertyOp14
 70
     1
102
RTVSPropertyOp15
 70
     1
102
RTVSPropertyOp16
 70
     1
102
RTVSPropertyOp17
 70
     1
102
RTVSPropertyOp18
 70
     1
102
RTVSPropertyOp19
 70
     1
102
RTVSPropertyOp20
 70
     1
102
RTVSPropertyOp21
 70
     1
102
RTVSPropertyOp22
 70
     1
102
RTVSPropertyOp23
 70
     1
102
RTVSPropertyOp24
 70
     1
102
RTVSPropertyOp25
 70
     1
102
RTVSPropertyOp26
 70
     1
102
RTVSPropertyOp27
 70
     1
102
RTVSPropertyOp28
 70
     1
102
RTVSPropertyOp29
 70
     1
102
RTVSPropertyOp30
 70
     1
102
RTVSPropertyOp31
 70
     1
102
RTVSPropertyOp32
 70
     1
102
RTVSPropertyOp33
 70
     1
102
RTVSPropertyOp34
 70
     1
102
RTVSPropertyOp35
 70
     1
102
RTVSPropertyOp36
 70
     1
102
RTVSPropertyOp37
 70
     1
102
RTVSPropertyOp38
 70
     1
102
RTVSPropertyOp39
 70
     1
102
RTVSPropertyOp40
 70
     1
102
RTVSPropertyOp41
 70
     1
102
RTVSPropertyOp42
 70
     1
102
RTVSPropertyOp43
 70
     1
102
RTVSPropertyOp44
 70
     1
102
RTVSPropertyOp45
 70
     1
102
RTVSPropertyOp46
 70
     1
102
RTVSPropertyOp47
 70
     1
102
RTVSPropertyOp48
 70
     1
102
RTVSPropertyOp49
 70
     1
102
RTVSPropertyOp50
 70
     1
102
RTVSPropertyOp51
 70
     0
102
RTVSPropertyOp52
 70
     0
102
RTVSPropertyOp53
 70
     1
102
RTVSPropertyOp54
 70
     1
102
RTVSPropertyOp55
 70
     1
102
RTVSPropertyOp56
 70
     1
102
RTVSPropertyOp57
 70
     1
102
RTVSPropertyOp58
 70
     1
102
RTVSPropertyOp59
 70
     1
102
RTVSPropertyOp60
 70
     1
102
RTVSPropertyOp61
 70
     1
102
RTVSPropertyOp62
 70
     1
  0
XRECORD
  5
77E
102
{ACAD_REACTORS
330
77D
102
}
330
77D
100
AcDbXrecord
280
     1
102
RTVSPost2010Prop28
280
     0
102
RTVSPost2010PropOp28
 70
     1
102
RTVSPost2010Prop29
280
     1
102
RTVSPost2010PropOp29
 70
     1
102
RTVSPost2010Prop30
280
     1
102
RTVSPost2010PropOp30
 70
     1
102
RTVSPost2010Prop31
280
     0
102
RTVSPost2010PropOp31
 70
     1
102
RTVSPost2010Prop32
280
     0
102
RTVSPost2010PropOp32
 70
     1
102
RTVSPost2010Prop33
280
     0
102
RTVSPost2010PropOp33
 70
     1
102
RTVSPost2010Prop34
280
     0
102
RTVSPost2010PropOp34
 70
     1
102
RTVSPost2010Prop35
280
     0
102
RTVSPost2010PropOp35
 70
     1
102
RTVSPost2010Prop36
280
     0
102
RTVSPost2010PropOp36
 70
     1
102
RTVSPost2010Prop37
 90
       50
102
RTVSPost2010PropOp37
 70
     1
102
RTVSPost2010Prop38
140
0.0
102
RTVSPost2010PropOp38
 70
     1
102
RTVSPost2010Prop39
140
1.0
102
RTVSPost2010PropOp39
 70
     1
102
RTVSPost2010Prop40
 90
        0
102
RTVSPost2010PropOp40
 70
     1
102
RTVSPost2010Prop41ColorIndex
 90
       18
102
RTVSPost2010Prop41ColorRGB
 90
        0
102
RTVSPost2010PropOp41
 70
     1
102
RTVSPost2010Prop42
 90
       50
102
RTVSPost2010PropOp42
 70
     1
102
RTVSPost2010Prop43
 90
        3
102
RTVSPost2010PropOp43
 70
     1
102
RTVSPost2010Prop44ColorIndex
 90
        5
102
RTVSPost2010Prop44ColorRGB
 90
      255
102
RTVSPost2010PropOp44
 70
     1
102
RTVSPost2010Prop45
280
     0
102
RTVSPost2010PropOp45
 70
     1
102
RTVSPost2010Prop46
 90
       50
102
RTVSPost2010PropOp46
 70
     1
102
RTVSPost2010Prop47
 90
       50
102
RTVSPost2010PropOp47
 70
     1
102
RTVSPost2010Prop48
 90
       50
102
RTVSPost2010PropOp48
 70
     1
102
RTVSPost2010Prop49
280
     0
102
RTVSPost2010PropOp49
 70
     1
102
RTVSPost2010Prop50
 90
       50
102
RTVSPost2010PropOp50
 70
     1
102
RTVSPost2010Prop51ColorIndex
 90
      256
102
RTVSPost2010Prop51ColorRGB
 90
-16777216
102
RTVSPost2010PropOp51
 70
     0
102
RTVSPost2010Prop52
140
1.0
102
RTVSPost2010PropOp52
 70
     0
102
RTVSPost2010Prop53
 90
        2
102
RTVSPost2010PropOp53
 70
     1
102
RTVSPost2010Prop54
  1
strokes_ogs.tif
102
RTVSPost2010PropOp54
 70
     1
102
RTVSPost2010Prop55
280
     0
102
RTVSPost2010PropOp55
 70
     1
102
RTVSPost2010Prop56
140
1.0
102
RTVSPost2010PropOp56
 70
     1
102
RTVSPost2010Prop57
140
1.0
102
RTVSPost2010PropOp57
 70
     1
102
RTVSPropertyOp0
 70
     1
102
RTVSPropertyOp1
 70
     1
102
RTVSPropertyOp2
 70
     1
102
RTVSPropertyOp3
 70
     1
102
RTVSPropertyOp4
 70
     1
102
RTVSPropertyOp5
 70
     1
102
RTVSPropertyOp6
 70
     1
102
RTVSPropertyOp7
 70
     1
102
RTVSPropertyOp8
 70
     1
102
RTVSPropertyOp9
 70
     1
102
RTVSPropertyOp10
 70
     1
102
RTVSPropertyOp11
 70
     1
102
RTVSPropertyOp12
 70
     1
102
RTVSPropertyOp13
 70
     1
102
RTVSPropertyOp14
 70
     1
102
RTVSPropertyOp15
 70
     1
102
RTVSPropertyOp16
 70
     1
102
RTVSPropertyOp17
 70
     1
102
RTVSPropertyOp18
 70
     1
102
RTVSPropertyOp19
 70
     1
102
RTVSPropertyOp20
 70
     1
102
RTVSPropertyOp21
 70
     1
102
RTVSPropertyOp22
 70
     1
102
RTVSPropertyOp23
 70
     1
102
RTVSPropertyOp24
 70
     1
102
RTVSPropertyOp25
 70
     1
102
RTVSPropertyOp26
 70
     1
102
RTVSPropertyOp27
 70
     1
102
RTVSPropertyOp28
 70
     1
102
RTVSPropertyOp29
 70
     1
102
RTVSPropertyOp30
 70
     1
102
RTVSPropertyOp31
 70
     1
102
RTVSPropertyOp32
 70
     1
102
RTVSPropertyOp33
 70
     1
102
RTVSPropertyOp34
 70
     1
102
RTVSPropertyOp35
 70
     1
102
RTVSPropertyOp36
 70
     1
102
RTVSPropertyOp37
 70
     1
102
RTVSPropertyOp38
 70
     1
102
RTVSPropertyOp39
 70
     1
102
RTVSPropertyOp40
 70
     1
102
RTVSPropertyOp41
 70
     1
102
RTVSPropertyOp42
 70
     1
102
RTVSPropertyOp43
 70
     1
102
RTVSPropertyOp44
 70
     1
102
RTVSPropertyOp45
 70
     1
102
RTVSPropertyOp46
 70
     1
102
RTVSPropertyOp47
 70
     1
102
RTVSPropertyOp48
 70
     1
102
RTVSPropertyOp49
 70
     1
102
RTVSPropertyOp50
 70
     1
102
RTVSPropertyOp51
 70
     0
102
RTVSPropertyOp52
 70
     0
102
RTVSPropertyOp53
 70
     1
102
RTVSPropertyOp54
 70
     1
102
RTVSPropertyOp55
 70
     1
102
RTVSPropertyOp56
 70
     1
102
RTVSPropertyOp57
 70
     1
102
RTVSPropertyOp58
 70
     1
102
RTVSPropertyOp59
 70
     1
102
RTVSPropertyOp60
 70
     1
102
RTVSPropertyOp61
 70
     1
102
RTVSPropertyOp62
 70
     1
  0
XRECORD
  5
780
102
{ACAD_REACTORS
330
77F
102
}
330
77F
100
AcDbXrecord
280
     1
102
RTVSPost2010Prop28
280
     0
102
RTVSPost2010PropOp28
 70
     1
102
RTVSPost2010Prop29
280
     1
102
RTVSPost2010PropOp29
 70
     1
102
RTVSPost2010Prop30
280
     1
102
RTVSPost2010PropOp30
 70
     1
102
RTVSPost2010Prop31
280
     0
102
RTVSPost2010PropOp31
 70
     1
102
RTVSPost2010Prop32
280
     0
102
RTVSPost2010PropOp32
 70
     1
102
RTVSPost2010Prop33
280
     0
102
RTVSPost2010PropOp33
 70
     1
102
RTVSPost2010Prop34
280
     0
102
RTVSPost2010PropOp34
 70
     1
102
RTVSPost2010Prop35
280
     0
102
RTVSPost2010PropOp35
 70
     1
102
RTVSPost2010Prop36
280
     0
102
RTVSPost2010PropOp36
 70
     1
102
RTVSPost2010Prop37
 90
       50
102
RTVSPost2010PropOp37
 70
     1
102
RTVSPost2010Prop38
140
0.0
102
RTVSPost2010PropOp38
 70
     1
102
RTVSPost2010Prop39
140
1.0
102
RTVSPost2010PropOp39
 70
     1
102
RTVSPost2010Prop40
 90
        0
102
RTVSPost2010PropOp40
 70
     1
102
RTVSPost2010Prop41ColorIndex
 90
       18
102
RTVSPost2010Prop41ColorRGB
 90
        0
102
RTVSPost2010PropOp41
 70
     1
102
RTVSPost2010Prop42
 90
       50
102
RTVSPost2010PropOp42
 70
     1
102
RTVSPost2010Prop43
 90
        3
102
RTVSPost2010PropOp43
 70
     1
102
RTVSPost2010Prop44ColorIndex
 90
        5
102
RTVSPost2010Prop44ColorRGB
 90
      255
102
RTVSPost2010PropOp44
 70
     1
102
RTVSPost2010Prop45
280
     0
102
RTVSPost2010PropOp45
 70
     1
102
RTVSPost2010Prop46
 90
       50
102
RTVSPost2010PropOp46
 70
     1
102
RTVSPost2010Prop47
 90
       50
102
RTVSPost2010PropOp47
 70
     1
102
RTVSPost2010Prop48
 90
       50
102
RTVSPost2010PropOp48
 70
     1
102
RTVSPost2010Prop49
280
     0
102
RTVSPost2010PropOp49
 70
     1
102
RTVSPost2010Prop50
 90
       50
102
RTVSPost2010PropOp50
 70
     1
102
RTVSPost2010Prop51ColorIndex
 90
      256
102
RTVSPost2010Prop51ColorRGB
 90
-16777216
102
RTVSPost2010PropOp51
 70
     0
102
RTVSPost2010Prop52
140
1.0
102
RTVSPost2010PropOp52
 70
     0
102
RTVSPost2010Prop53
 90
        2
102
RTVSPost2010PropOp53
 70
     1
102
RTVSPost2010Prop54
  1
strokes_ogs.tif
102
RTVSPost2010PropOp54
 70
     1
102
RTVSPost2010Prop55
280
     0
102
RTVSPost2010PropOp55
 70
     1
102
RTVSPost2010Prop56
140
1.0
102
RTVSPost2010PropOp56
 70
     1
102
RTVSPost2010Prop57
140
1.0
102
RTVSPost2010PropOp57
 70
     1
102
RTVSPropertyOp0
 70
     1
102
RTVSPropertyOp1
 70
     1
102
RTVSPropertyOp2
 70
     1
102
RTVSPropertyOp3
 70
     1
102
RTVSPropertyOp4
 70
     1
102
RTVSPropertyOp5
 70
     1
102
RTVSPropertyOp6
 70
     1
102
RTVSPropertyOp7
 70
     1
102
RTVSPropertyOp8
 70
     1
102
RTVSPropertyOp9
 70
     1
102
RTVSPropertyOp10
 70
     1
102
RTVSPropertyOp11
 70
     1
102
RTVSPropertyOp12
 70
     1
102
RTVSPropertyOp13
 70
     1
102
RTVSPropertyOp14
 70
     1
102
RTVSPropertyOp15
 70
     1
102
RTVSPropertyOp16
 70
     1
102
RTVSPropertyOp17
 70
     1
102
RTVSPropertyOp18
 70
     1
102
RTVSPropertyOp19
 70
     1
102
RTVSPropertyOp20
 70
     1
102
RTVSPropertyOp21
 70
     1
102
RTVSPropertyOp22
 70
     1
102
RTVSPropertyOp23
 70
     1
102
RTVSPropertyOp24
 70
     1
102
RTVSPropertyOp25
 70
     1
102
RTVSPropertyOp26
 70
     1
102
RTVSPropertyOp27
 70
     1
102
RTVSPropertyOp28
 70
     1
102
RTVSPropertyOp29
 70
     1
102
RTVSPropertyOp30
 70
     1
102
RTVSPropertyOp31
 70
     1
102
RTVSPropertyOp32
 70
     1
102
RTVSPropertyOp33
 70
     1
102
RTVSPropertyOp34
 70
     1
102
RTVSPropertyOp35
 70
     1
102
RTVSPropertyOp36
 70
     1
102
RTVSPropertyOp37
 70
     1
102
RTVSPropertyOp38
 70
     1
102
RTVSPropertyOp39
 70
     1
102
RTVSPropertyOp40
 70
     1
102
RTVSPropertyOp41
 70
     1
102
RTVSPropertyOp42
 70
     1
102
RTVSPropertyOp43
 70
     1
102
RTVSPropertyOp44
 70
     1
102
RTVSPropertyOp45
 70
     1
102
RTVSPropertyOp46
 70
     1
102
RTVSPropertyOp47
 70
     1
102
RTVSPropertyOp48
 70
     1
102
RTVSPropertyOp49
 70
     1
102
RTVSPropertyOp50
 70
     1
102
RTVSPropertyOp51
 70
     0
102
RTVSPropertyOp52
 70
     0
102
RTVSPropertyOp53
 70
     1
102
RTVSPropertyOp54
 70
     1
102
RTVSPropertyOp55
 70
     1
102
RTVSPropertyOp56
 70
     1
102
RTVSPropertyOp57
 70
     1
102
RTVSPropertyOp58
 70
     1
102
RTVSPropertyOp59
 70
     1
102
RTVSPropertyOp60
 70
     1
102
RTVSPropertyOp61
 70
     1
102
RTVSPropertyOp62
 70
     1
  0
XRECORD
  5
782
102
{ACAD_REACTORS
330
781
102
}
330
781
100
AcDbXrecord
280
     1
102
RTVSPost2010Prop28
280
     0
102
RTVSPost2010PropOp28
 70
     1
102
RTVSPost2010Prop29
280
     1
102
RTVSPost2010PropOp29
 70
     1
102
RTVSPost2010Prop30
280
     1
102
RTVSPost2010PropOp30
 70
     1
102
RTVSPost2010Prop31
280
     0
102
RTVSPost2010PropOp31
 70
     1
102
RTVSPost2010Prop32
280
     0
102
RTVSPost2010PropOp32
 70
     1
102
RTVSPost2010Prop33
280
     0
102
RTVSPost2010PropOp33
 70
     1
102
RTVSPost2010Prop34
280
     0
102
RTVSPost2010PropOp34
 70
     1
102
RTVSPost2010Prop35
280
     0
102
RTVSPost2010PropOp35
 70
     1
102
RTVSPost2010Prop36
280
     0
102
RTVSPost2010PropOp36
 70
     1
102
RTVSPost2010Prop37
 90
       50
102
RTVSPost2010PropOp37
 70
     1
102
RTVSPost2010Prop38
140
0.0
102
RTVSPost2010PropOp38
 70
     1
102
RTVSPost2010Prop39
140
1.0
102
RTVSPost2010PropOp39
 70
     1
102
RTVSPost2010Prop40
 90
        0
102
RTVSPost2010PropOp40
 70
     1
102
RTVSPost2010Prop41ColorIndex
 90
       18
102
RTVSPost2010Prop41ColorRGB
 90
        0
102
RTVSPost2010PropOp41
 70
     1
102
RTVSPost2010Prop42
 90
       50
102
RTVSPost2010PropOp42
 70
     1
102
RTVSPost2010Prop43
 90
        3
102
RTVSPost2010PropOp43
 70
     1
102
RTVSPost2010Prop44ColorIndex
 90
        5
102
RTVSPost2010Prop44ColorRGB
 90
      255
102
RTVSPost2010PropOp44
 70
     1
102
RTVSPost2010Prop45
280
     0
102
RTVSPost2010PropOp45
 70
     1
102
RTVSPost2010Prop46
 90
       50
102
RTVSPost2010PropOp46
 70
     1
102
RTVSPost2010Prop47
 90
       50
102
RTVSPost2010PropOp47
 70
     1
102
RTVSPost2010Prop48
 90
       50
102
RTVSPost2010PropOp48
 70
     1
102
RTVSPost2010Prop49
280
     0
102
RTVSPost2010PropOp49
 70
     1
102
RTVSPost2010Prop50
 90
       50
102
RTVSPost2010PropOp50
 70
     1
102
RTVSPost2010Prop51ColorIndex
 90
      256
102
RTVSPost2010Prop51ColorRGB
 90
-16777216
102
RTVSPost2010PropOp51
 70
     0
102
RTVSPost2010Prop52
140
1.0
102
RTVSPost2010PropOp52
 70
     0
102
RTVSPost2010Prop53
 90
        2
102
RTVSPost2010PropOp53
 70
     1
102
RTVSPost2010Prop54
  1
strokes_ogs.tif
102
RTVSPost2010PropOp54
 70
     1
102
RTVSPost2010Prop55
280
     0
102
RTVSPost2010PropOp55
 70
     1
102
RTVSPost2010Prop56
140
1.0
102
RTVSPost2010PropOp56
 70
     1
102
RTVSPost2010Prop57
140
1.0
102
RTVSPost2010PropOp57
 70
     1
102
RTVSPropertyOp0
 70
     1
102
RTVSPropertyOp1
 70
     1
102
RTVSPropertyOp2
 70
     1
102
RTVSPropertyOp3
 70
     1
102
RTVSPropertyOp4
 70
     1
102
RTVSPropertyOp5
 70
     1
102
RTVSPropertyOp6
 70
     1
102
RTVSPropertyOp7
 70
     1
102
RTVSPropertyOp8
 70
     1
102
RTVSPropertyOp9
 70
     1
102
RTVSPropertyOp10
 70
     1
102
RTVSPropertyOp11
 70
     1
102
RTVSPropertyOp12
 70
     1
102
RTVSPropertyOp13
 70
     1
102
RTVSPropertyOp14
 70
     1
102
RTVSPropertyOp15
 70
     1
102
RTVSPropertyOp16
 70
     1
102
RTVSPropertyOp17
 70
     1
102
RTVSPropertyOp18
 70
     1
102
RTVSPropertyOp19
 70
     1
102
RTVSPropertyOp20
 70
     1
102
RTVSPropertyOp21
 70
     1
102
RTVSPropertyOp22
 70
     1
102
RTVSPropertyOp23
 70
     1
102
RTVSPropertyOp24
 70
     1
102
RTVSPropertyOp25
 70
     1
102
RTVSPropertyOp26
 70
     1
102
RTVSPropertyOp27
 70
     1
102
RTVSPropertyOp28
 70
     1
102
RTVSPropertyOp29
 70
     1
102
RTVSPropertyOp30
 70
     1
102
RTVSPropertyOp31
 70
     1
102
RTVSPropertyOp32
 70
     1
102
RTVSPropertyOp33
 70
     1
102
RTVSPropertyOp34
 70
     1
102
RTVSPropertyOp35
 70
     1
102
RTVSPropertyOp36
 70
     1
102
RTVSPropertyOp37
 70
     1
102
RTVSPropertyOp38
 70
     1
102
RTVSPropertyOp39
 70
     1
102
RTVSPropertyOp40
 70
     1
102
RTVSPropertyOp41
 70
     1
102
RTVSPropertyOp42
 70
     1
102
RTVSPropertyOp43
 70
     1
102
RTVSPropertyOp44
 70
     1
102
RTVSPropertyOp45
 70
     1
102
RTVSPropertyOp46
 70
     1
102
RTVSPropertyOp47
 70
     1
102
RTVSPropertyOp48
 70
     1
102
RTVSPropertyOp49
 70
     1
102
RTVSPropertyOp50
 70
     1
102
RTVSPropertyOp51
 70
     0
102
RTVSPropertyOp52
 70
     0
102
RTVSPropertyOp53
 70
     1
102
RTVSPropertyOp54
 70
     1
102
RTVSPropertyOp55
 70
     1
102
RTVSPropertyOp56
 70
     1
102
RTVSPropertyOp57
 70
     1
102
RTVSPropertyOp58
 70
     1
102
RTVSPropertyOp59
 70
     1
102
RTVSPropertyOp60
 70
     1
102
RTVSPropertyOp61
 70
     1
102
RTVSPropertyOp62
 70
     1
  0
XRECORD
  5
7AF
102
{ACAD_REACTORS
330
7AE
102
}
330
7AE
100
AcDbXrecord
280
     1
102
RTVSPost2010Prop28
280
     0
102
RTVSPost2010PropOp28
 70
     1
102
RTVSPost2010Prop29
280
     1
102
RTVSPost2010PropOp29
 70
     1
102
RTVSPost2010Prop30
280
     1
102
RTVSPost2010PropOp30
 70
     1
102
RTVSPost2010Prop31
280
     0
102
RTVSPost2010PropOp31
 70
     1
102
RTVSPost2010Prop32
280
     0
102
RTVSPost2010PropOp32
 70
     1
102
RTVSPost2010Prop33
280
     0
102
RTVSPost2010PropOp33
 70
     1
102
RTVSPost2010Prop34
280
     0
102
RTVSPost2010PropOp34
 70
     1
102
RTVSPost2010Prop35
280
     0
102
RTVSPost2010PropOp35
 70
     1
102
RTVSPost2010Prop36
280
     0
102
RTVSPost2010PropOp36
 70
     1
102
RTVSPost2010Prop37
 90
       50
102
RTVSPost2010PropOp37
 70
     1
102
RTVSPost2010Prop38
140
0.0
102
RTVSPost2010PropOp38
 70
     1
102
RTVSPost2010Prop39
140
1.0
102
RTVSPost2010PropOp39
 70
     1
102
RTVSPost2010Prop40
 90
        0
102
RTVSPost2010PropOp40
 70
     1
102
RTVSPost2010Prop41ColorIndex
 90
       18
102
RTVSPost2010Prop41ColorRGB
 90
        0
102
RTVSPost2010PropOp41
 70
     1
102
RTVSPost2010Prop42
 90
       50
102
RTVSPost2010PropOp42
 70
     1
102
RTVSPost2010Prop43
 90
        3
102
RTVSPost2010PropOp43
 70
     1
102
RTVSPost2010Prop44ColorIndex
 90
        5
102
RTVSPost2010Prop44ColorRGB
 90
      255
102
RTVSPost2010PropOp44
 70
     1
102
RTVSPost2010Prop45
280
     0
102
RTVSPost2010PropOp45
 70
     1
102
RTVSPost2010Prop46
 90
       50
102
RTVSPost2010PropOp46
 70
     1
102
RTVSPost2010Prop47
 90
       50
102
RTVSPost2010PropOp47
 70
     1
102
RTVSPost2010Prop48
 90
       50
102
RTVSPost2010PropOp48
 70
     1
102
RTVSPost2010Prop49
280
     0
102
RTVSPost2010PropOp49
 70
     1
102
RTVSPost2010Prop50
 90
       50
102
RTVSPost2010PropOp50
 70
     1
102
RTVSPost2010Prop51ColorIndex
 90
      256
102
RTVSPost2010Prop51ColorRGB
 90
-16777216
102
RTVSPost2010PropOp51
 70
     0
102
RTVSPost2010Prop52
140
1.0
102
RTVSPost2010PropOp52
 70
     0
102
RTVSPost2010Prop53
 90
        2
102
RTVSPost2010PropOp53
 70
     1
102
RTVSPost2010Prop54
  1
strokes_ogs.tif
102
RTVSPost2010PropOp54
 70
     1
102
RTVSPost2010Prop55
280
     0
102
RTVSPost2010PropOp55
 70
     1
102
RTVSPost2010Prop56
140
1.0
102
RTVSPost2010PropOp56
 70
     1
102
RTVSPost2010Prop57
140
1.0
102
RTVSPost2010PropOp57
 70
     1
102
RTVSPropertyOp0
 70
     1
102
RTVSPropertyOp1
 70
     1
102
RTVSPropertyOp2
 70
     1
102
RTVSPropertyOp3
 70
     1
102
RTVSPropertyOp4
 70
     1
102
RTVSPropertyOp5
 70
     1
102
RTVSPropertyOp6
 70
     1
102
RTVSPropertyOp7
 70
     1
102
RTVSPropertyOp8
 70
     1
102
RTVSPropertyOp9
 70
     1
102
RTVSPropertyOp10
 70
     1
102
RTVSPropertyOp11
 70
     1
102
RTVSPropertyOp12
 70
     1
102
RTVSPropertyOp13
 70
     1
102
RTVSPropertyOp14
 70
     1
102
RTVSPropertyOp15
 70
     1
102
RTVSPropertyOp16
 70
     1
102
RTVSPropertyOp17
 70
     1
102
RTVSPropertyOp18
 70
     1
102
RTVSPropertyOp19
 70
     1
102
RTVSPropertyOp20
 70
     1
102
RTVSPropertyOp21
 70
     1
102
RTVSPropertyOp22
 70
     1
102
RTVSPropertyOp23
 70
     1
102
RTVSPropertyOp24
 70
     1
102
RTVSPropertyOp25
 70
     1
102
RTVSPropertyOp26
 70
     1
102
RTVSPropertyOp27
 70
     1
102
RTVSPropertyOp28
 70
     1
102
RTVSPropertyOp29
 70
     1
102
RTVSPropertyOp30
 70
     1
102
RTVSPropertyOp31
 70
     1
102
RTVSPropertyOp32
 70
     1
102
RTVSPropertyOp33
 70
     1
102
RTVSPropertyOp34
 70
     1
102
RTVSPropertyOp35
 70
     1
102
RTVSPropertyOp36
 70
     1
102
RTVSPropertyOp37
 70
     1
102
RTVSPropertyOp38
 70
     1
102
RTVSPropertyOp39
 70
     1
102
RTVSPropertyOp40
 70
     1
102
RTVSPropertyOp41
 70
     1
102
RTVSPropertyOp42
 70
     1
102
RTVSPropertyOp43
 70
     1
102
RTVSPropertyOp44
 70
     1
102
RTVSPropertyOp45
 70
     1
102
RTVSPropertyOp46
 70
     1
102
RTVSPropertyOp47
 70
     1
102
RTVSPropertyOp48
 70
     1
102
RTVSPropertyOp49
 70
     1
102
RTVSPropertyOp50
 70
     1
102
RTVSPropertyOp51
 70
     0
102
RTVSPropertyOp52
 70
     0
102
RTVSPropertyOp53
 70
     1
102
RTVSPropertyOp54
 70
     1
102
RTVSPropertyOp55
 70
     1
102
RTVSPropertyOp56
 70
     1
102
RTVSPropertyOp57
 70
     1
102
RTVSPropertyOp58
 70
     1
102
RTVSPropertyOp59
 70
     1
102
RTVSPropertyOp60
 70
     1
102
RTVSPropertyOp61
 70
     1
102
RTVSPropertyOp62
 70
     1
  0
XRECORD
  5
7BB
102
{ACAD_REACTORS
330
7BA
102
}
330
7BA
100
AcDbXrecord
280
     1
102
RTVSPost2010Prop28
280
     0
102
RTVSPost2010PropOp28
 70
     0
102
RTVSPost2010Prop29
280
     1
102
RTVSPost2010PropOp29
 70
     0
102
RTVSPost2010Prop30
280
     1
102
RTVSPost2010PropOp30
 70
     0
102
RTVSPost2010Prop31
280
     0
102
RTVSPost2010PropOp31
 70
     0
102
RTVSPost2010Prop32
280
     0
102
RTVSPost2010PropOp32
 70
     0
102
RTVSPost2010Prop33
280
     0
102
RTVSPost2010PropOp33
 70
     0
102
RTVSPost2010Prop34
280
     0
102
RTVSPost2010PropOp34
 70
     0
102
RTVSPost2010Prop35
280
     0
102
RTVSPost2010PropOp35
 70
     0
102
RTVSPost2010Prop36
280
     0
102
RTVSPost2010PropOp36
 70
     0
102
RTVSPost2010Prop37
 90
       50
102
RTVSPost2010PropOp37
 70
     0
102
RTVSPost2010Prop38
140
0.0
102
RTVSPost2010PropOp38
 70
     0
102
RTVSPost2010Prop39
140
1.0
102
RTVSPost2010PropOp39
 70
     0
102
RTVSPost2010Prop40
 90
        0
102
RTVSPost2010PropOp40
 70
     0
102
RTVSPost2010Prop41ColorIndex
 90
       18
102
RTVSPost2010Prop41ColorRGB
 90
        0
102
RTVSPost2010PropOp41
 70
     0
102
RTVSPost2010Prop42
 90
       50
102
RTVSPost2010PropOp42
 70
     0
102
RTVSPost2010Prop43
 90
        3
102
RTVSPost2010PropOp43
 70
     0
102
RTVSPost2010Prop44ColorIndex
 90
        5
102
RTVSPost2010Prop44ColorRGB
 90
      255
102
RTVSPost2010PropOp44
 70
     0
102
RTVSPost2010Prop45
280
     0
102
RTVSPost2010PropOp45
 70
     0
102
RTVSPost2010Prop46
 90
       50
102
RTVSPost2010PropOp46
 70
     0
102
RTVSPost2010Prop47
 90
       50
102
RTVSPost2010PropOp47
 70
     0
102
RTVSPost2010Prop48
 90
       50
102
RTVSPost2010PropOp48
 70
     0
102
RTVSPost2010Prop49
280
     0
102
RTVSPost2010PropOp49
 70
     0
102
RTVSPost2010Prop50
 90
       50
102
RTVSPost2010PropOp50
 70
     0
102
RTVSPost2010Prop51ColorIndex
 90
      256
102
RTVSPost2010Prop51ColorRGB
 90
-16777216
102
RTVSPost2010PropOp51
 70
     0
102
RTVSPost2010Prop52
140
1.0
102
RTVSPost2010PropOp52
 70
     0
102
RTVSPost2010Prop53
 90
        2
102
RTVSPost2010PropOp53
 70
     0
102
RTVSPost2010Prop54
  1
strokes_ogs.tif
102
RTVSPost2010PropOp54
 70
     0
102
RTVSPost2010Prop55
280
     0
102
RTVSPost2010PropOp55
 70
     0
102
RTVSPost2010Prop56
140
1.0
102
RTVSPost2010PropOp56
 70
     0
102
RTVSPost2010Prop57
140
1.0
102
RTVSPost2010PropOp57
 70
     0
102
RTVSPropertyOp0
 70
     0
102
RTVSPropertyOp1
 70
     0
102
RTVSPropertyOp2
 70
     0
102
RTVSPropertyOp3
 70
     0
102
RTVSPropertyOp4
 70
     0
102
RTVSPropertyOp5
 70
     0
102
RTVSPropertyOp6
 70
     0
102
RTVSPropertyOp7
 70
     0
102
RTVSPropertyOp8
 70
     0
102
RTVSPropertyOp9
 70
     0
102
RTVSPropertyOp10
 70
     0
102
RTVSPropertyOp11
 70
     0
102
RTVSPropertyOp12
 70
     0
102
RTVSPropertyOp13
 70
     0
102
RTVSPropertyOp14
 70
     2
102
RTVSPropertyOp15
 70
     0
102
RTVSPropertyOp16
 70
     0
102
RTVSPropertyOp17
 70
     0
102
RTVSPropertyOp18
 70
     0
102
RTVSPropertyOp19
 70
     0
102
RTVSPropertyOp20
 70
     0
102
RTVSPropertyOp21
 70
     0
102
RTVSPropertyOp22
 70
     0
102
RTVSPropertyOp23
 70
     0
102
RTVSPropertyOp24
 70
     0
102
RTVSPropertyOp25
 70
     0
102
RTVSPropertyOp26
 70
     0
102
RTVSPropertyOp27
 70
     0
102
RTVSPropertyOp28
 70
     0
102
RTVSPropertyOp29
 70
     0
102
RTVSPropertyOp30
 70
     0
102
RTVSPropertyOp31
 70
     0
102
RTVSPropertyOp32
 70
     0
102
RTVSPropertyOp33
 70
     0
102
RTVSPropertyOp34
 70
     0
102
RTVSPropertyOp35
 70
     0
102
RTVSPropertyOp36
 70
     0
102
RTVSPropertyOp37
 70
     0
102
RTVSPropertyOp38
 70
     0
102
RTVSPropertyOp39
 70
     0
102
RTVSPropertyOp40
 70
     0
102
RTVSPropertyOp41
 70
     0
102
RTVSPropertyOp42
 70
     0
102
RTVSPropertyOp43
 70
     0
102
RTVSPropertyOp44
 70
     0
102
RTVSPropertyOp45
 70
     0
102
RTVSPropertyOp46
 70
     0
102
RTVSPropertyOp47
 70
     0
102
RTVSPropertyOp48
 70
     0
102
RTVSPropertyOp49
 70
     0
102
RTVSPropertyOp50
 70
     0
102
RTVSPropertyOp51
 70
     0
102
RTVSPropertyOp52
 70
     0
102
RTVSPropertyOp53
 70
     0
102
RTVSPropertyOp54
 70
     0
102
RTVSPropertyOp55
 70
     0
102
RTVSPropertyOp56
 70
     0
102
RTVSPropertyOp57
 70
     0
102
RTVSPropertyOp58
 70
     1
102
RTVSPropertyOp59
 70
     1
102
RTVSPropertyOp60
 70
     1
102
RTVSPropertyOp61
 70
     1
102
RTVSPropertyOp62
 70
     1
  0
XRECORD
  5
796
102
{ACAD_REACTORS
330
795
102
}
330
795
100
AcDbXrecord
280
     1
102
RTVSPost2010Prop28
280
     0
102
RTVSPost2010PropOp28
 70
     1
102
RTVSPost2010Prop29
280
     1
102
RTVSPost2010PropOp29
 70
     1
102
RTVSPost2010Prop30
280
     1
102
RTVSPost2010PropOp30
 70
     1
102
RTVSPost2010Prop31
280
     0
102
RTVSPost2010PropOp31
 70
     1
102
RTVSPost2010Prop32
280
     0
102
RTVSPost2010PropOp32
 70
     1
102
RTVSPost2010Prop33
280
     0
102
RTVSPost2010PropOp33
 70
     1
102
RTVSPost2010Prop34
280
     0
102
RTVSPost2010PropOp34
 70
     1
102
RTVSPost2010Prop35
280
     0
102
RTVSPost2010PropOp35
 70
     1
102
RTVSPost2010Prop36
280
     0
102
RTVSPost2010PropOp36
 70
     1
102
RTVSPost2010Prop37
 90
       50
102
RTVSPost2010PropOp37
 70
     1
102
RTVSPost2010Prop38
140
0.0
102
RTVSPost2010PropOp38
 70
     1
102
RTVSPost2010Prop39
140
1.0
102
RTVSPost2010PropOp39
 70
     1
102
RTVSPost2010Prop40
 90
        0
102
RTVSPost2010PropOp40
 70
     1
102
RTVSPost2010Prop41ColorIndex
 90
       18
102
RTVSPost2010Prop41ColorRGB
 90
        0
102
RTVSPost2010PropOp41
 70
     1
102
RTVSPost2010Prop42
 90
       50
102
RTVSPost2010PropOp42
 70
     1
102
RTVSPost2010Prop43
 90
        3
102
RTVSPost2010PropOp43
 70
     1
102
RTVSPost2010Prop44ColorIndex
 90
        5
102
RTVSPost2010Prop44ColorRGB
 90
      255
102
RTVSPost2010PropOp44
 70
     1
102
RTVSPost2010Prop45
280
     0
102
RTVSPost2010PropOp45
 70
     1
102
RTVSPost2010Prop46
 90
       50
102
RTVSPost2010PropOp46
 70
     1
102
RTVSPost2010Prop47
 90
       50
102
RTVSPost2010PropOp47
 70
     1
102
RTVSPost2010Prop48
 90
       50
102
RTVSPost2010PropOp48
 70
     1
102
RTVSPost2010Prop49
280
     0
102
RTVSPost2010PropOp49
 70
     1
102
RTVSPost2010Prop50
 90
       50
102
RTVSPost2010PropOp50
 70
     1
102
RTVSPost2010Prop51ColorIndex
 90
      256
102
RTVSPost2010Prop51ColorRGB
 90
-16777216
102
RTVSPost2010PropOp51
 70
     0
102
RTVSPost2010Prop52
140
1.0
102
RTVSPost2010PropOp52
 70
     0
102
RTVSPost2010Prop53
 90
        2
102
RTVSPost2010PropOp53
 70
     1
102
RTVSPost2010Prop54
  1
strokes_ogs.tif
102
RTVSPost2010PropOp54
 70
     1
102
RTVSPost2010Prop55
280
     0
102
RTVSPost2010PropOp55
 70
     1
102
RTVSPost2010Prop56
140
1.0
102
RTVSPost2010PropOp56
 70
     1
102
RTVSPost2010Prop57
140
1.0
102
RTVSPost2010PropOp57
 70
     1
102
RTVSPropertyOp0
 70
     1
102
RTVSPropertyOp1
 70
     1
102
RTVSPropertyOp2
 70
     1
102
RTVSPropertyOp3
 70
     1
102
RTVSPropertyOp4
 70
     1
102
RTVSPropertyOp5
 70
     1
102
RTVSPropertyOp6
 70
     1
102
RTVSPropertyOp7
 70
     1
102
RTVSPropertyOp8
 70
     1
102
RTVSPropertyOp9
 70
     1
102
RTVSPropertyOp10
 70
     1
102
RTVSPropertyOp11
 70
     1
102
RTVSPropertyOp12
 70
     1
102
RTVSPropertyOp13
 70
     1
102
RTVSPropertyOp14
 70
     1
102
RTVSPropertyOp15
 70
     1
102
RTVSPropertyOp16
 70
     1
102
RTVSPropertyOp17
 70
     1
102
RTVSPropertyOp18
 70
     1
102
RTVSPropertyOp19
 70
     1
102
RTVSPropertyOp20
 70
     1
102
RTVSPropertyOp21
 70
     1
102
RTVSPropertyOp22
 70
     1
102
RTVSPropertyOp23
 70
     1
102
RTVSPropertyOp24
 70
     1
102
RTVSPropertyOp25
 70
     1
102
RTVSPropertyOp26
 70
     1
102
RTVSPropertyOp27
 70
     1
102
RTVSPropertyOp28
 70
     1
102
RTVSPropertyOp29
 70
     1
102
RTVSPropertyOp30
 70
     1
102
RTVSPropertyOp31
 70
     1
102
RTVSPropertyOp32
 70
     1
102
RTVSPropertyOp33
 70
     1
102
RTVSPropertyOp34
 70
     1
102
RTVSPropertyOp35
 70
     1
102
RTVSPropertyOp36
 70
     1
102
RTVSPropertyOp37
 70
     1
102
RTVSPropertyOp38
 70
     1
102
RTVSPropertyOp39
 70
     1
102
RTVSPropertyOp40
 70
     1
102
RTVSPropertyOp41
 70
     1
102
RTVSPropertyOp42
 70
     1
102
RTVSPropertyOp43
 70
     1
102
RTVSPropertyOp44
 70
     1
102
RTVSPropertyOp45
 70
     1
102
RTVSPropertyOp46
 70
     1
102
RTVSPropertyOp47
 70
     1
102
RTVSPropertyOp48
 70
     1
102
RTVSPropertyOp49
 70
     1
102
RTVSPropertyOp50
 70
     1
102
RTVSPropertyOp51
 70
     0
102
RTVSPropertyOp52
 70
     0
102
RTVSPropertyOp53
 70
     1
102
RTVSPropertyOp54
 70
     1
102
RTVSPropertyOp55
 70
     1
102
RTVSPropertyOp56
 70
     1
102
RTVSPropertyOp57
 70
     1
102
RTVSPropertyOp58
 70
     1
102
RTVSPropertyOp59
 70
     1
102
RTVSPropertyOp60
 70
     1
102
RTVSPropertyOp61
 70
     1
102
RTVSPropertyOp62
 70
     1
  0
XRECORD
  5
7BD
102
{ACAD_REACTORS
330
7BC
102
}
330
7BC
100
AcDbXrecord
280
     1
102
RTVSPost2010Prop28
280
     0
102
RTVSPost2010PropOp28
 70
     0
102
RTVSPost2010Prop29
280
     1
102
RTVSPost2010PropOp29
 70
     0
102
RTVSPost2010Prop30
280
     1
102
RTVSPost2010PropOp30
 70
     0
102
RTVSPost2010Prop31
280
     0
102
RTVSPost2010PropOp31
 70
     0
102
RTVSPost2010Prop32
280
     0
102
RTVSPost2010PropOp32
 70
     0
102
RTVSPost2010Prop33
280
     0
102
RTVSPost2010PropOp33
 70
     0
102
RTVSPost2010Prop34
280
     0
102
RTVSPost2010PropOp34
 70
     0
102
RTVSPost2010Prop35
280
     0
102
RTVSPost2010PropOp35
 70
     0
102
RTVSPost2010Prop36
280
     0
102
RTVSPost2010PropOp36
 70
     0
102
RTVSPost2010Prop37
 90
       50
102
RTVSPost2010PropOp37
 70
     0
102
RTVSPost2010Prop38
140
0.0
102
RTVSPost2010PropOp38
 70
     0
102
RTVSPost2010Prop39
140
1.0
102
RTVSPost2010PropOp39
 70
     0
102
RTVSPost2010Prop40
 90
        0
102
RTVSPost2010PropOp40
 70
     0
102
RTVSPost2010Prop41ColorIndex
 90
       18
102
RTVSPost2010Prop41ColorRGB
 90
        0
102
RTVSPost2010PropOp41
 70
     0
102
RTVSPost2010Prop42
 90
       50
102
RTVSPost2010PropOp42
 70
     0
102
RTVSPost2010Prop43
 90
        3
102
RTVSPost2010PropOp43
 70
     0
102
RTVSPost2010Prop44ColorIndex
 90
        5
102
RTVSPost2010Prop44ColorRGB
 90
      255
102
RTVSPost2010PropOp44
 70
     0
102
RTVSPost2010Prop45
280
     0
102
RTVSPost2010PropOp45
 70
     0
102
RTVSPost2010Prop46
 90
       50
102
RTVSPost2010PropOp46
 70
     0
102
RTVSPost2010Prop47
 90
       50
102
RTVSPost2010PropOp47
 70
     0
102
RTVSPost2010Prop48
 90
       50
102
RTVSPost2010PropOp48
 70
     0
102
RTVSPost2010Prop49
280
     0
102
RTVSPost2010PropOp49
 70
     0
102
RTVSPost2010Prop50
 90
       50
102
RTVSPost2010PropOp50
 70
     0
102
RTVSPost2010Prop51ColorIndex
 90
      256
102
RTVSPost2010Prop51ColorRGB
 90
-16777216
102
RTVSPost2010PropOp51
 70
     0
102
RTVSPost2010Prop52
140
1.0
102
RTVSPost2010PropOp52
 70
     0
102
RTVSPost2010Prop53
 90
        2
102
RTVSPost2010PropOp53
 70
     0
102
RTVSPost2010Prop54
  1
strokes_ogs.tif
102
RTVSPost2010PropOp54
 70
     0
102
RTVSPost2010Prop55
280
     0
102
RTVSPost2010PropOp55
 70
     0
102
RTVSPost2010Prop56
140
1.0
102
RTVSPost2010PropOp56
 70
     0
102
RTVSPost2010Prop57
140
1.0
102
RTVSPost2010PropOp57
 70
     0
102
RTVSPropertyOp0
 70
     0
102
RTVSPropertyOp1
 70
     0
102
RTVSPropertyOp2
 70
     0
102
RTVSPropertyOp3
 70
     0
102
RTVSPropertyOp4
 70
     0
102
RTVSPropertyOp5
 70
     0
102
RTVSPropertyOp6
 70
     0
102
RTVSPropertyOp7
 70
     0
102
RTVSPropertyOp8
 70
     0
102
RTVSPropertyOp9
 70
     0
102
RTVSPropertyOp10
 70
     0
102
RTVSPropertyOp11
 70
     0
102
RTVSPropertyOp12
 70
     0
102
RTVSPropertyOp13
 70
     0
102
RTVSPropertyOp14
 70
     2
102
RTVSPropertyOp15
 70
     0
102
RTVSPropertyOp16
 70
     0
102
RTVSPropertyOp17
 70
     0
102
RTVSPropertyOp18
 70
     0
102
RTVSPropertyOp19
 70
     0
102
RTVSPropertyOp20
 70
     0
102
RTVSPropertyOp21
 70
     0
102
RTVSPropertyOp22
 70
     0
102
RTVSPropertyOp23
 70
     0
102
RTVSPropertyOp24
 70
     0
102
RTVSPropertyOp25
 70
     0
102
RTVSPropertyOp26
 70
     0
102
RTVSPropertyOp27
 70
     0
102
RTVSPropertyOp28
 70
     0
102
RTVSPropertyOp29
 70
     0
102
RTVSPropertyOp30
 70
     0
102
RTVSPropertyOp31
 70
     0
102
RTVSPropertyOp32
 70
     0
102
RTVSPropertyOp33
 70
     0
102
RTVSPropertyOp34
 70
     0
102
RTVSPropertyOp35
 70
     0
102
RTVSPropertyOp36
 70
     0
102
RTVSPropertyOp37
 70
     0
102
RTVSPropertyOp38
 70
     0
102
RTVSPropertyOp39
 70
     0
102
RTVSPropertyOp40
 70
     0
102
RTVSPropertyOp41
 70
     0
102
RTVSPropertyOp42
 70
     0
102
RTVSPropertyOp43
 70
     0
102
RTVSPropertyOp44
 70
     0
102
RTVSPropertyOp45
 70
     0
102
RTVSPropertyOp46
 70
     0
102
RTVSPropertyOp47
 70
     0
102
RTVSPropertyOp48
 70
     0
102
RTVSPropertyOp49
 70
     0
102
RTVSPropertyOp50
 70
     0
102
RTVSPropertyOp51
 70
     0
102
RTVSPropertyOp52
 70
     0
102
RTVSPropertyOp53
 70
     0
102
RTVSPropertyOp54
 70
     0
102
RTVSPropertyOp55
 70
     0
102
RTVSPropertyOp56
 70
     0
102
RTVSPropertyOp57
 70
     0
102
RTVSPropertyOp58
 70
     1
102
RTVSPropertyOp59
 70
     1
102
RTVSPropertyOp60
 70
     1
102
RTVSPropertyOp61
 70
     1
102
RTVSPropertyOp62
 70
     1
  0
XRECORD
  5
78C
102
{ACAD_REACTORS
330
78B
102
}
330
78B
100
AcDbXrecord
280
     1
102
RTVSPost2010Prop28
280
     0
102
RTVSPost2010PropOp28
 70
     1
102
RTVSPost2010Prop29
280
     1
102
RTVSPost2010PropOp29
 70
     1
102
RTVSPost2010Prop30
280
     1
102
RTVSPost2010PropOp30
 70
     1
102
RTVSPost2010Prop31
280
     0
102
RTVSPost2010PropOp31
 70
     1
102
RTVSPost2010Prop32
280
     0
102
RTVSPost2010PropOp32
 70
     1
102
RTVSPost2010Prop33
280
     0
102
RTVSPost2010PropOp33
 70
     1
102
RTVSPost2010Prop34
280
     0
102
RTVSPost2010PropOp34
 70
     1
102
RTVSPost2010Prop35
280
     0
102
RTVSPost2010PropOp35
 70
     1
102
RTVSPost2010Prop36
280
     0
102
RTVSPost2010PropOp36
 70
     1
102
RTVSPost2010Prop37
 90
       50
102
RTVSPost2010PropOp37
 70
     1
102
RTVSPost2010Prop38
140
0.0
102
RTVSPost2010PropOp38
 70
     1
102
RTVSPost2010Prop39
140
1.0
102
RTVSPost2010PropOp39
 70
     1
102
RTVSPost2010Prop40
 90
        0
102
RTVSPost2010PropOp40
 70
     1
102
RTVSPost2010Prop41ColorIndex
 90
       18
102
RTVSPost2010Prop41ColorRGB
 90
        0
102
RTVSPost2010PropOp41
 70
     1
102
RTVSPost2010Prop42
 90
       50
102
RTVSPost2010PropOp42
 70
     1
102
RTVSPost2010Prop43
 90
        3
102
RTVSPost2010PropOp43
 70
     1
102
RTVSPost2010Prop44ColorIndex
 90
        5
102
RTVSPost2010Prop44ColorRGB
 90
      255
102
RTVSPost2010PropOp44
 70
     1
102
RTVSPost2010Prop45
280
     0
102
RTVSPost2010PropOp45
 70
     1
102
RTVSPost2010Prop46
 90
       50
102
RTVSPost2010PropOp46
 70
     1
102
RTVSPost2010Prop47
 90
       50
102
RTVSPost2010PropOp47
 70
     1
102
RTVSPost2010Prop48
 90
       50
102
RTVSPost2010PropOp48
 70
     1
102
RTVSPost2010Prop49
280
     0
102
RTVSPost2010PropOp49
 70
     1
102
RTVSPost2010Prop50
 90
       50
102
RTVSPost2010PropOp50
 70
     1
102
RTVSPost2010Prop51ColorIndex
 90
      256
102
RTVSPost2010Prop51ColorRGB
 90
-16777216
102
RTVSPost2010PropOp51
 70
     0
102
RTVSPost2010Prop52
140
1.0
102
RTVSPost2010PropOp52
 70
     0
102
RTVSPost2010Prop53
 90
        2
102
RTVSPost2010PropOp53
 70
     1
102
RTVSPost2010Prop54
  1
strokes_ogs.tif
102
RTVSPost2010PropOp54
 70
     1
102
RTVSPost2010Prop55
280
     0
102
RTVSPost2010PropOp55
 70
     1
102
RTVSPost2010Prop56
140
1.0
102
RTVSPost2010PropOp56
 70
     1
102
RTVSPost2010Prop57
140
1.0
102
RTVSPost2010PropOp57
 70
     1
102
RTVSPropertyOp0
 70
     1
102
RTVSPropertyOp1
 70
     1
102
RTVSPropertyOp2
 70
     1
102
RTVSPropertyOp3
 70
     1
102
RTVSPropertyOp4
 70
     1
102
RTVSPropertyOp5
 70
     1
102
RTVSPropertyOp6
 70
     1
102
RTVSPropertyOp7
 70
     1
102
RTVSPropertyOp8
 70
     1
102
RTVSPropertyOp9
 70
     1
102
RTVSPropertyOp10
 70
     1
102
RTVSPropertyOp11
 70
     1
102
RTVSPropertyOp12
 70
     1
102
RTVSPropertyOp13
 70
     1
102
RTVSPropertyOp14
 70
     1
102
RTVSPropertyOp15
 70
     1
102
RTVSPropertyOp16
 70
     1
102
RTVSPropertyOp17
 70
     1
102
RTVSPropertyOp18
 70
     1
102
RTVSPropertyOp19
 70
     1
102
RTVSPropertyOp20
 70
     1
102
RTVSPropertyOp21
 70
     1
102
RTVSPropertyOp22
 70
     1
102
RTVSPropertyOp23
 70
     1
102
RTVSPropertyOp24
 70
     1
102
RTVSPropertyOp25
 70
     1
102
RTVSPropertyOp26
 70
     1
102
RTVSPropertyOp27
 70
     1
102
RTVSPropertyOp28
 70
     1
102
RTVSPropertyOp29
 70
     1
102
RTVSPropertyOp30
 70
     1
102
RTVSPropertyOp31
 70
     1
102
RTVSPropertyOp32
 70
     1
102
RTVSPropertyOp33
 70
     1
102
RTVSPropertyOp34
 70
     1
102
RTVSPropertyOp35
 70
     1
102
RTVSPropertyOp36
 70
     1
102
RTVSPropertyOp37
 70
     1
102
RTVSPropertyOp38
 70
     1
102
RTVSPropertyOp39
 70
     1
102
RTVSPropertyOp40
 70
     1
102
RTVSPropertyOp41
 70
     1
102
RTVSPropertyOp42
 70
     1
102
RTVSPropertyOp43
 70
     1
102
RTVSPropertyOp44
 70
     1
102
RTVSPropertyOp45
 70
     1
102
RTVSPropertyOp46
 70
     1
102
RTVSPropertyOp47
 70
     1
102
RTVSPropertyOp48
 70
     1
102
RTVSPropertyOp49
 70
     1
102
RTVSPropertyOp50
 70
     1
102
RTVSPropertyOp51
 70
     0
102
RTVSPropertyOp52
 70
     0
102
RTVSPropertyOp53
 70
     1
102
RTVSPropertyOp54
 70
     1
102
RTVSPropertyOp55
 70
     1
102
RTVSPropertyOp56
 70
     1
102
RTVSPropertyOp57
 70
     1
102
RTVSPropertyOp58
 70
     1
102
RTVSPropertyOp59
 70
     1
102
RTVSPropertyOp60
 70
     1
102
RTVSPropertyOp61
 70
     1
102
RTVSPropertyOp62
 70
     1
  0
XRECORD
  5
7B9
102
{ACAD_REACTORS
330
7B8
102
}
330
7B8
100
AcDbXrecord
280
     1
102
RTVSPost2010Prop28
280
     0
102
RTVSPost2010PropOp28
 70
     1
102
RTVSPost2010Prop29
280
     1
102
RTVSPost2010PropOp29
 70
     1
102
RTVSPost2010Prop30
280
     1
102
RTVSPost2010PropOp30
 70
     1
102
RTVSPost2010Prop31
280
     0
102
RTVSPost2010PropOp31
 70
     1
102
RTVSPost2010Prop32
280
     0
102
RTVSPost2010PropOp32
 70
     1
102
RTVSPost2010Prop33
280
     0
102
RTVSPost2010PropOp33
 70
     1
102
RTVSPost2010Prop34
280
     0
102
RTVSPost2010PropOp34
 70
     1
102
RTVSPost2010Prop35
280
     0
102
RTVSPost2010PropOp35
 70
     1
102
RTVSPost2010Prop36
280
     0
102
RTVSPost2010PropOp36
 70
     1
102
RTVSPost2010Prop37
 90
       50
102
RTVSPost2010PropOp37
 70
     1
102
RTVSPost2010Prop38
140
0.0
102
RTVSPost2010PropOp38
 70
     1
102
RTVSPost2010Prop39
140
1.0
102
RTVSPost2010PropOp39
 70
     1
102
RTVSPost2010Prop40
 90
        0
102
RTVSPost2010PropOp40
 70
     1
102
RTVSPost2010Prop41ColorIndex
 90
       18
102
RTVSPost2010Prop41ColorRGB
 90
        0
102
RTVSPost2010PropOp41
 70
     1
102
RTVSPost2010Prop42
 90
       50
102
RTVSPost2010PropOp42
 70
     1
102
RTVSPost2010Prop43
 90
        3
102
RTVSPost2010PropOp43
 70
     1
102
RTVSPost2010Prop44ColorIndex
 90
        5
102
RTVSPost2010Prop44ColorRGB
 90
      255
102
RTVSPost2010PropOp44
 70
     1
102
RTVSPost2010Prop45
280
     0
102
RTVSPost2010PropOp45
 70
     1
102
RTVSPost2010Prop46
 90
       50
102
RTVSPost2010PropOp46
 70
     1
102
RTVSPost2010Prop47
 90
       50
102
RTVSPost2010PropOp47
 70
     1
102
RTVSPost2010Prop48
 90
       50
102
RTVSPost2010PropOp48
 70
     1
102
RTVSPost2010Prop49
280
     0
102
RTVSPost2010PropOp49
 70
     1
102
RTVSPost2010Prop50
 90
       50
102
RTVSPost2010PropOp50
 70
     1
102
RTVSPost2010Prop51ColorIndex
 90
      256
102
RTVSPost2010Prop51ColorRGB
 90
-16777216
102
RTVSPost2010PropOp51
 70
     0
102
RTVSPost2010Prop52
140
1.0
102
RTVSPost2010PropOp52
 70
     0
102
RTVSPost2010Prop53
 90
        2
102
RTVSPost2010PropOp53
 70
     1
102
RTVSPost2010Prop54
  1
strokes_ogs.tif
102
RTVSPost2010PropOp54
 70
     1
102
RTVSPost2010Prop55
280
     0
102
RTVSPost2010PropOp55
 70
     1
102
RTVSPost2010Prop56
140
1.0
102
RTVSPost2010PropOp56
 70
     1
102
RTVSPost2010Prop57
140
1.0
102
RTVSPost2010PropOp57
 70
     1
102
RTVSPropertyOp0
 70
     1
102
RTVSPropertyOp1
 70
     1
102
RTVSPropertyOp2
 70
     1
102
RTVSPropertyOp3
 70
     1
102
RTVSPropertyOp4
 70
     1
102
RTVSPropertyOp5
 70
     1
102
RTVSPropertyOp6
 70
     1
102
RTVSPropertyOp7
 70
     1
102
RTVSPropertyOp8
 70
     1
102
RTVSPropertyOp9
 70
     1
102
RTVSPropertyOp10
 70
     1
102
RTVSPropertyOp11
 70
     1
102
RTVSPropertyOp12
 70
     1
102
RTVSPropertyOp13
 70
     1
102
RTVSPropertyOp14
 70
     1
102
RTVSPropertyOp15
 70
     1
102
RTVSPropertyOp16
 70
     1
102
RTVSPropertyOp17
 70
     1
102
RTVSPropertyOp18
 70
     1
102
RTVSPropertyOp19
 70
     1
102
RTVSPropertyOp20
 70
     1
102
RTVSPropertyOp21
 70
     1
102
RTVSPropertyOp22
 70
     1
102
RTVSPropertyOp23
 70
     1
102
RTVSPropertyOp24
 70
     1
102
RTVSPropertyOp25
 70
     1
102
RTVSPropertyOp26
 70
     1
102
RTVSPropertyOp27
 70
     1
102
RTVSPropertyOp28
 70
     1
102
RTVSPropertyOp29
 70
     1
102
RTVSPropertyOp30
 70
     1
102
RTVSPropertyOp31
 70
     1
102
RTVSPropertyOp32
 70
     1
102
RTVSPropertyOp33
 70
     1
102
RTVSPropertyOp34
 70
     1
102
RTVSPropertyOp35
 70
     1
102
RTVSPropertyOp36
 70
     1
102
RTVSPropertyOp37
 70
     1
102
RTVSPropertyOp38
 70
     1
102
RTVSPropertyOp39
 70
     1
102
RTVSPropertyOp40
 70
     1
102
RTVSPropertyOp41
 70
     1
102
RTVSPropertyOp42
 70
     1
102
RTVSPropertyOp43
 70
     1
102
RTVSPropertyOp44
 70
     1
102
RTVSPropertyOp45
 70
     1
102
RTVSPropertyOp46
 70
     1
102
RTVSPropertyOp47
 70
     1
102
RTVSPropertyOp48
 70
     1
102
RTVSPropertyOp49
 70
     1
102
RTVSPropertyOp50
 70
     1
102
RTVSPropertyOp51
 70
     0
102
RTVSPropertyOp52
 70
     0
102
RTVSPropertyOp53
 70
     1
102
RTVSPropertyOp54
 70
     1
102
RTVSPropertyOp55
 70
     1
102
RTVSPropertyOp56
 70
     1
102
RTVSPropertyOp57
 70
     1
102
RTVSPropertyOp58
 70
     1
102
RTVSPropertyOp59
 70
     1
102
RTVSPropertyOp60
 70
     1
102
RTVSPropertyOp61
 70
     1
102
RTVSPropertyOp62
 70
     1
  0
XRECORD
  5
7B7
102
{ACAD_REACTORS
330
7B6
102
}
330
7B6
100
AcDbXrecord
280
     1
102
RTVSPost2010Prop28
280
     0
102
RTVSPost2010PropOp28
 70
     1
102
RTVSPost2010Prop29
280
     1
102
RTVSPost2010PropOp29
 70
     1
102
RTVSPost2010Prop30
280
     1
102
RTVSPost2010PropOp30
 70
     1
102
RTVSPost2010Prop31
280
     0
102
RTVSPost2010PropOp31
 70
     1
102
RTVSPost2010Prop32
280
     0
102
RTVSPost2010PropOp32
 70
     1
102
RTVSPost2010Prop33
280
     0
102
RTVSPost2010PropOp33
 70
     1
102
RTVSPost2010Prop34
280
     0
102
RTVSPost2010PropOp34
 70
     1
102
RTVSPost2010Prop35
280
     0
102
RTVSPost2010PropOp35
 70
     1
102
RTVSPost2010Prop36
280
     0
102
RTVSPost2010PropOp36
 70
     1
102
RTVSPost2010Prop37
 90
       50
102
RTVSPost2010PropOp37
 70
     1
102
RTVSPost2010Prop38
140
0.0
102
RTVSPost2010PropOp38
 70
     1
102
RTVSPost2010Prop39
140
1.0
102
RTVSPost2010PropOp39
 70
     1
102
RTVSPost2010Prop40
 90
        0
102
RTVSPost2010PropOp40
 70
     1
102
RTVSPost2010Prop41ColorIndex
 90
       18
102
RTVSPost2010Prop41ColorRGB
 90
        0
102
RTVSPost2010PropOp41
 70
     1
102
RTVSPost2010Prop42
 90
       50
102
RTVSPost2010PropOp42
 70
     1
102
RTVSPost2010Prop43
 90
        3
102
RTVSPost2010PropOp43
 70
     1
102
RTVSPost2010Prop44ColorIndex
 90
        5
102
RTVSPost2010Prop44ColorRGB
 90
      255
102
RTVSPost2010PropOp44
 70
     1
102
RTVSPost2010Prop45
280
     0
102
RTVSPost2010PropOp45
 70
     1
102
RTVSPost2010Prop46
 90
       50
102
RTVSPost2010PropOp46
 70
     1
102
RTVSPost2010Prop47
 90
       50
102
RTVSPost2010PropOp47
 70
     1
102
RTVSPost2010Prop48
 90
       50
102
RTVSPost2010PropOp48
 70
     1
102
RTVSPost2010Prop49
280
     0
102
RTVSPost2010PropOp49
 70
     1
102
RTVSPost2010Prop50
 90
       50
102
RTVSPost2010PropOp50
 70
     1
102
RTVSPost2010Prop51ColorIndex
 90
      256
102
RTVSPost2010Prop51ColorRGB
 90
-16777216
102
RTVSPost2010PropOp51
 70
     0
102
RTVSPost2010Prop52
140
1.0
102
RTVSPost2010PropOp52
 70
     0
102
RTVSPost2010Prop53
 90
        2
102
RTVSPost2010PropOp53
 70
     1
102
RTVSPost2010Prop54
  1
strokes_ogs.tif
102
RTVSPost2010PropOp54
 70
     1
102
RTVSPost2010Prop55
280
     0
102
RTVSPost2010PropOp55
 70
     1
102
RTVSPost2010Prop56
140
1.0
102
RTVSPost2010PropOp56
 70
     1
102
RTVSPost2010Prop57
140
1.0
102
RTVSPost2010PropOp57
 70
     1
102
RTVSPropertyOp0
 70
     1
102
RTVSPropertyOp1
 70
     1
102
RTVSPropertyOp2
 70
     1
102
RTVSPropertyOp3
 70
     1
102
RTVSPropertyOp4
 70
     1
102
RTVSPropertyOp5
 70
     1
102
RTVSPropertyOp6
 70
     1
102
RTVSPropertyOp7
 70
     1
102
RTVSPropertyOp8
 70
     1
102
RTVSPropertyOp9
 70
     1
102
RTVSPropertyOp10
 70
     1
102
RTVSPropertyOp11
 70
     1
102
RTVSPropertyOp12
 70
     1
102
RTVSPropertyOp13
 70
     1
102
RTVSPropertyOp14
 70
     1
102
RTVSPropertyOp15
 70
     1
102
RTVSPropertyOp16
 70
     1
102
RTVSPropertyOp17
 70
     1
102
RTVSPropertyOp18
 70
     1
102
RTVSPropertyOp19
 70
     1
102
RTVSPropertyOp20
 70
     1
102
RTVSPropertyOp21
 70
     1
102
RTVSPropertyOp22
 70
     1
102
RTVSPropertyOp23
 70
     1
102
RTVSPropertyOp24
 70
     1
102
RTVSPropertyOp25
 70
     1
102
RTVSPropertyOp26
 70
     1
102
RTVSPropertyOp27
 70
     1
102
RTVSPropertyOp28
 70
     1
102
RTVSPropertyOp29
 70
     1
102
RTVSPropertyOp30
 70
     1
102
RTVSPropertyOp31
 70
     1
102
RTVSPropertyOp32
 70
     1
102
RTVSPropertyOp33
 70
     1
102
RTVSPropertyOp34
 70
     1
102
RTVSPropertyOp35
 70
     1
102
RTVSPropertyOp36
 70
     1
102
RTVSPropertyOp37
 70
     1
102
RTVSPropertyOp38
 70
     1
102
RTVSPropertyOp39
 70
     1
102
RTVSPropertyOp40
 70
     1
102
RTVSPropertyOp41
 70
     1
102
RTVSPropertyOp42
 70
     1
102
RTVSPropertyOp43
 70
     1
102
RTVSPropertyOp44
 70
     1
102
RTVSPropertyOp45
 70
     1
102
RTVSPropertyOp46
 70
     1
102
RTVSPropertyOp47
 70
     1
102
RTVSPropertyOp48
 70
     1
102
RTVSPropertyOp49
 70
     1
102
RTVSPropertyOp50
 70
     1
102
RTVSPropertyOp51
 70
     0
102
RTVSPropertyOp52
 70
     0
102
RTVSPropertyOp53
 70
     1
102
RTVSPropertyOp54
 70
     1
102
RTVSPropertyOp55
 70
     1
102
RTVSPropertyOp56
 70
     1
102
RTVSPropertyOp57
 70
     1
102
RTVSPropertyOp58
 70
     1
102
RTVSPropertyOp59
 70
     1
102
RTVSPropertyOp60
 70
     1
102
RTVSPropertyOp61
 70
     1
102
RTVSPropertyOp62
 70
     1
  0
XRECORD
  5
7B1
102
{ACAD_REACTORS
330
7B0
102
}
330
7B0
100
AcDbXrecord
280
     1
102
RTVSPost2010Prop28
280
     0
102
RTVSPost2010PropOp28
 70
     1
102
RTVSPost2010Prop29
280
     1
102
RTVSPost2010PropOp29
 70
     1
102
RTVSPost2010Prop30
280
     1
102
RTVSPost2010PropOp30
 70
     1
102
RTVSPost2010Prop31
280
     0
102
RTVSPost2010PropOp31
 70
     1
102
RTVSPost2010Prop32
280
     0
102
RTVSPost2010PropOp32
 70
     1
102
RTVSPost2010Prop33
280
     0
102
RTVSPost2010PropOp33
 70
     1
102
RTVSPost2010Prop34
280
     0
102
RTVSPost2010PropOp34
 70
     1
102
RTVSPost2010Prop35
280
     0
102
RTVSPost2010PropOp35
 70
     1
102
RTVSPost2010Prop36
280
     0
102
RTVSPost2010PropOp36
 70
     1
102
RTVSPost2010Prop37
 90
       50
102
RTVSPost2010PropOp37
 70
     1
102
RTVSPost2010Prop38
140
0.0
102
RTVSPost2010PropOp38
 70
     1
102
RTVSPost2010Prop39
140
1.0
102
RTVSPost2010PropOp39
 70
     1
102
RTVSPost2010Prop40
 90
        0
102
RTVSPost2010PropOp40
 70
     1
102
RTVSPost2010Prop41ColorIndex
 90
       18
102
RTVSPost2010Prop41ColorRGB
 90
        0
102
RTVSPost2010PropOp41
 70
     1
102
RTVSPost2010Prop42
 90
       50
102
RTVSPost2010PropOp42
 70
     1
102
RTVSPost2010Prop43
 90
        3
102
RTVSPost2010PropOp43
 70
     1
102
RTVSPost2010Prop44ColorIndex
 90
        5
102
RTVSPost2010Prop44ColorRGB
 90
      255
102
RTVSPost2010PropOp44
 70
     1
102
RTVSPost2010Prop45
280
     0
102
RTVSPost2010PropOp45
 70
     1
102
RTVSPost2010Prop46
 90
       50
102
RTVSPost2010PropOp46
 70
     1
102
RTVSPost2010Prop47
 90
       50
102
RTVSPost2010PropOp47
 70
     1
102
RTVSPost2010Prop48
 90
       50
102
RTVSPost2010PropOp48
 70
     1
102
RTVSPost2010Prop49
280
     0
102
RTVSPost2010PropOp49
 70
     1
102
RTVSPost2010Prop50
 90
       50
102
RTVSPost2010PropOp50
 70
     1
102
RTVSPost2010Prop51ColorIndex
 90
      256
102
RTVSPost2010Prop51ColorRGB
 90
-16777216
102
RTVSPost2010PropOp51
 70
     0
102
RTVSPost2010Prop52
140
1.0
102
RTVSPost2010PropOp52
 70
     0
102
RTVSPost2010Prop53
 90
        2
102
RTVSPost2010PropOp53
 70
     1
102
RTVSPost2010Prop54
  1
strokes_ogs.tif
102
RTVSPost2010PropOp54
 70
     1
102
RTVSPost2010Prop55
280
     0
102
RTVSPost2010PropOp55
 70
     1
102
RTVSPost2010Prop56
140
1.0
102
RTVSPost2010PropOp56
 70
     1
102
RTVSPost2010Prop57
140
1.0
102
RTVSPost2010PropOp57
 70
     1
102
RTVSPropertyOp0
 70
     1
102
RTVSPropertyOp1
 70
     1
102
RTVSPropertyOp2
 70
     1
102
RTVSPropertyOp3
 70
     1
102
RTVSPropertyOp4
 70
     1
102
RTVSPropertyOp5
 70
     1
102
RTVSPropertyOp6
 70
     1
102
RTVSPropertyOp7
 70
     1
102
RTVSPropertyOp8
 70
     1
102
RTVSPropertyOp9
 70
     1
102
RTVSPropertyOp10
 70
     1
102
RTVSPropertyOp11
 70
     1
102
RTVSPropertyOp12
 70
     1
102
RTVSPropertyOp13
 70
     1
102
RTVSPropertyOp14
 70
     1
102
RTVSPropertyOp15
 70
     1
102
RTVSPropertyOp16
 70
     1
102
RTVSPropertyOp17
 70
     1
102
RTVSPropertyOp18
 70
     1
102
RTVSPropertyOp19
 70
     1
102
RTVSPropertyOp20
 70
     1
102
RTVSPropertyOp21
 70
     1
102
RTVSPropertyOp22
 70
     1
102
RTVSPropertyOp23
 70
     1
102
RTVSPropertyOp24
 70
     1
102
RTVSPropertyOp25
 70
     1
102
RTVSPropertyOp26
 70
     1
102
RTVSPropertyOp27
 70
     1
102
RTVSPropertyOp28
 70
     1
102
RTVSPropertyOp29
 70
     1
102
RTVSPropertyOp30
 70
     1
102
RTVSPropertyOp31
 70
     1
102
RTVSPropertyOp32
 70
     1
102
RTVSPropertyOp33
 70
     1
102
RTVSPropertyOp34
 70
     1
102
RTVSPropertyOp35
 70
     1
102
RTVSPropertyOp36
 70
     1
102
RTVSPropertyOp37
 70
     1
102
RTVSPropertyOp38
 70
     1
102
RTVSPropertyOp39
 70
     1
102
RTVSPropertyOp40
 70
     1
102
RTVSPropertyOp41
 70
     1
102
RTVSPropertyOp42
 70
     1
102
RTVSPropertyOp43
 70
     1
102
RTVSPropertyOp44
 70
     1
102
RTVSPropertyOp45
 70
     1
102
RTVSPropertyOp46
 70
     1
102
RTVSPropertyOp47
 70
     1
102
RTVSPropertyOp48
 70
     1
102
RTVSPropertyOp49
 70
     1
102
RTVSPropertyOp50
 70
     1
102
RTVSPropertyOp51
 70
     0
102
RTVSPropertyOp52
 70
     0
102
RTVSPropertyOp53
 70
     1
102
RTVSPropertyOp54
 70
     1
102
RTVSPropertyOp55
 70
     1
102
RTVSPropertyOp56
 70
     1
102
RTVSPropertyOp57
 70
     1
102
RTVSPropertyOp58
 70
     1
102
RTVSPropertyOp59
 70
     1
102
RTVSPropertyOp60
 70
     1
102
RTVSPropertyOp61
 70
     1
102
RTVSPropertyOp62
 70
     1
  0
XRECORD
  5
7B3
102
{ACAD_REACTORS
330
7B2
102
}
330
7B2
100
AcDbXrecord
280
     1
102
RTVSPost2010Prop28
280
     0
102
RTVSPost2010PropOp28
 70
     1
102
RTVSPost2010Prop29
280
     1
102
RTVSPost2010PropOp29
 70
     1
102
RTVSPost2010Prop30
280
     1
102
RTVSPost2010PropOp30
 70
     1
102
RTVSPost2010Prop31
280
     0
102
RTVSPost2010PropOp31
 70
     1
102
RTVSPost2010Prop32
280
     0
102
RTVSPost2010PropOp32
 70
     1
102
RTVSPost2010Prop33
280
     0
102
RTVSPost2010PropOp33
 70
     1
102
RTVSPost2010Prop34
280
     0
102
RTVSPost2010PropOp34
 70
     1
102
RTVSPost2010Prop35
280
     0
102
RTVSPost2010PropOp35
 70
     1
102
RTVSPost2010Prop36
280
     0
102
RTVSPost2010PropOp36
 70
     1
102
RTVSPost2010Prop37
 90
       50
102
RTVSPost2010PropOp37
 70
     1
102
RTVSPost2010Prop38
140
0.0
102
RTVSPost2010PropOp38
 70
     1
102
RTVSPost2010Prop39
140
1.0
102
RTVSPost2010PropOp39
 70
     1
102
RTVSPost2010Prop40
 90
        0
102
RTVSPost2010PropOp40
 70
     1
102
RTVSPost2010Prop41ColorIndex
 90
       18
102
RTVSPost2010Prop41ColorRGB
 90
        0
102
RTVSPost2010PropOp41
 70
     1
102
RTVSPost2010Prop42
 90
       50
102
RTVSPost2010PropOp42
 70
     1
102
RTVSPost2010Prop43
 90
        3
102
RTVSPost2010PropOp43
 70
     1
102
RTVSPost2010Prop44ColorIndex
 90
        5
102
RTVSPost2010Prop44ColorRGB
 90
      255
102
RTVSPost2010PropOp44
 70
     1
102
RTVSPost2010Prop45
280
     0
102
RTVSPost2010PropOp45
 70
     1
102
RTVSPost2010Prop46
 90
       50
102
RTVSPost2010PropOp46
 70
     1
102
RTVSPost2010Prop47
 90
       50
102
RTVSPost2010PropOp47
 70
     1
102
RTVSPost2010Prop48
 90
       50
102
RTVSPost2010PropOp48
 70
     1
102
RTVSPost2010Prop49
280
     0
102
RTVSPost2010PropOp49
 70
     1
102
RTVSPost2010Prop50
 90
       50
102
RTVSPost2010PropOp50
 70
     1
102
RTVSPost2010Prop51ColorIndex
 90
      256
102
RTVSPost2010Prop51ColorRGB
 90
-16777216
102
RTVSPost2010PropOp51
 70
     0
102
RTVSPost2010Prop52
140
1.0
102
RTVSPost2010PropOp52
 70
     0
102
RTVSPost2010Prop53
 90
        2
102
RTVSPost2010PropOp53
 70
     1
102
RTVSPost2010Prop54
  1
strokes_ogs.tif
102
RTVSPost2010PropOp54
 70
     1
102
RTVSPost2010Prop55
280
     0
102
RTVSPost2010PropOp55
 70
     1
102
RTVSPost2010Prop56
140
1.0
102
RTVSPost2010PropOp56
 70
     1
102
RTVSPost2010Prop57
140
1.0
102
RTVSPost2010PropOp57
 70
     1
102
RTVSPropertyOp0
 70
     1
102
RTVSPropertyOp1
 70
     1
102
RTVSPropertyOp2
 70
     1
102
RTVSPropertyOp3
 70
     1
102
RTVSPropertyOp4
 70
     1
102
RTVSPropertyOp5
 70
     1
102
RTVSPropertyOp6
 70
     1
102
RTVSPropertyOp7
 70
     1
102
RTVSPropertyOp8
 70
     1
102
RTVSPropertyOp9
 70
     1
102
RTVSPropertyOp10
 70
     1
102
RTVSPropertyOp11
 70
     1
102
RTVSPropertyOp12
 70
     1
102
RTVSPropertyOp13
 70
     1
102
RTVSPropertyOp14
 70
     1
102
RTVSPropertyOp15
 70
     1
102
RTVSPropertyOp16
 70
     1
102
RTVSPropertyOp17
 70
     1
102
RTVSPropertyOp18
 70
     1
102
RTVSPropertyOp19
 70
     1
102
RTVSPropertyOp20
 70
     1
102
RTVSPropertyOp21
 70
     1
102
RTVSPropertyOp22
 70
     1
102
RTVSPropertyOp23
 70
     1
102
RTVSPropertyOp24
 70
     1
102
RTVSPropertyOp25
 70
     1
102
RTVSPropertyOp26
 70
     1
102
RTVSPropertyOp27
 70
     1
102
RTVSPropertyOp28
 70
     1
102
RTVSPropertyOp29
 70
     1
102
RTVSPropertyOp30
 70
     1
102
RTVSPropertyOp31
 70
     1
102
RTVSPropertyOp32
 70
     1
102
RTVSPropertyOp33
 70
     1
102
RTVSPropertyOp34
 70
     1
102
RTVSPropertyOp35
 70
     1
102
RTVSPropertyOp36
 70
     1
102
RTVSPropertyOp37
 70
     1
102
RTVSPropertyOp38
 70
     1
102
RTVSPropertyOp39
 70
     1
102
RTVSPropertyOp40
 70
     1
102
RTVSPropertyOp41
 70
     1
102
RTVSPropertyOp42
 70
     1
102
RTVSPropertyOp43
 70
     1
102
RTVSPropertyOp44
 70
     1
102
RTVSPropertyOp45
 70
     1
102
RTVSPropertyOp46
 70
     1
102
RTVSPropertyOp47
 70
     1
102
RTVSPropertyOp48
 70
     1
102
RTVSPropertyOp49
 70
     1
102
RTVSPropertyOp50
 70
     1
102
RTVSPropertyOp51
 70
     0
102
RTVSPropertyOp52
 70
     0
102
RTVSPropertyOp53
 70
     1
102
RTVSPropertyOp54
 70
     1
102
RTVSPropertyOp55
 70
     1
102
RTVSPropertyOp56
 70
     1
102
RTVSPropertyOp57
 70
     1
102
RTVSPropertyOp58
 70
     1
102
RTVSPropertyOp59
 70
     1
102
RTVSPropertyOp60
 70
     1
102
RTVSPropertyOp61
 70
     1
102
RTVSPropertyOp62
 70
     1
  0
XRECORD
  5
794
102
{ACAD_REACTORS
330
793
102
}
330
793
100
AcDbXrecord
280
     1
102
RTVSPost2010Prop28
280
     0
102
RTVSPost2010PropOp28
 70
     1
102
RTVSPost2010Prop29
280
     1
102
RTVSPost2010PropOp29
 70
     1
102
RTVSPost2010Prop30
280
     1
102
RTVSPost2010PropOp30
 70
     1
102
RTVSPost2010Prop31
280
     0
102
RTVSPost2010PropOp31
 70
     1
102
RTVSPost2010Prop32
280
     0
102
RTVSPost2010PropOp32
 70
     1
102
RTVSPost2010Prop33
280
     0
102
RTVSPost2010PropOp33
 70
     1
102
RTVSPost2010Prop34
280
     0
102
RTVSPost2010PropOp34
 70
     1
102
RTVSPost2010Prop35
280
     0
102
RTVSPost2010PropOp35
 70
     1
102
RTVSPost2010Prop36
280
     0
102
RTVSPost2010PropOp36
 70
     1
102
RTVSPost2010Prop37
 90
       50
102
RTVSPost2010PropOp37
 70
     1
102
RTVSPost2010Prop38
140
0.0
102
RTVSPost2010PropOp38
 70
     1
102
RTVSPost2010Prop39
140
1.0
102
RTVSPost2010PropOp39
 70
     1
102
RTVSPost2010Prop40
 90
        0
102
RTVSPost2010PropOp40
 70
     1
102
RTVSPost2010Prop41ColorIndex
 90
       18
102
RTVSPost2010Prop41ColorRGB
 90
        0
102
RTVSPost2010PropOp41
 70
     1
102
RTVSPost2010Prop42
 90
       50
102
RTVSPost2010PropOp42
 70
     1
102
RTVSPost2010Prop43
 90
        3
102
RTVSPost2010PropOp43
 70
     1
102
RTVSPost2010Prop44ColorIndex
 90
        5
102
RTVSPost2010Prop44ColorRGB
 90
      255
102
RTVSPost2010PropOp44
 70
     1
102
RTVSPost2010Prop45
280
     0
102
RTVSPost2010PropOp45
 70
     1
102
RTVSPost2010Prop46
 90
       50
102
RTVSPost2010PropOp46
 70
     1
102
RTVSPost2010Prop47
 90
       50
102
RTVSPost2010PropOp47
 70
     1
102
RTVSPost2010Prop48
 90
       50
102
RTVSPost2010PropOp48
 70
     1
102
RTVSPost2010Prop49
280
     0
102
RTVSPost2010PropOp49
 70
     1
102
RTVSPost2010Prop50
 90
       50
102
RTVSPost2010PropOp50
 70
     1
102
RTVSPost2010Prop51ColorIndex
 90
      256
102
RTVSPost2010Prop51ColorRGB
 90
-16777216
102
RTVSPost2010PropOp51
 70
     0
102
RTVSPost2010Prop52
140
1.0
102
RTVSPost2010PropOp52
 70
     0
102
RTVSPost2010Prop53
 90
        2
102
RTVSPost2010PropOp53
 70
     1
102
RTVSPost2010Prop54
  1
strokes_ogs.tif
102
RTVSPost2010PropOp54
 70
     1
102
RTVSPost2010Prop55
280
     0
102
RTVSPost2010PropOp55
 70
     1
102
RTVSPost2010Prop56
140
1.0
102
RTVSPost2010PropOp56
 70
     1
102
RTVSPost2010Prop57
140
1.0
102
RTVSPost2010PropOp57
 70
     1
102
RTVSPropertyOp0
 70
     1
102
RTVSPropertyOp1
 70
     1
102
RTVSPropertyOp2
 70
     1
102
RTVSPropertyOp3
 70
     1
102
RTVSPropertyOp4
 70
     1
102
RTVSPropertyOp5
 70
     1
102
RTVSPropertyOp6
 70
     1
102
RTVSPropertyOp7
 70
     1
102
RTVSPropertyOp8
 70
     1
102
RTVSPropertyOp9
 70
     1
102
RTVSPropertyOp10
 70
     1
102
RTVSPropertyOp11
 70
     1
102
RTVSPropertyOp12
 70
     1
102
RTVSPropertyOp13
 70
     1
102
RTVSPropertyOp14
 70
     1
102
RTVSPropertyOp15
 70
     1
102
RTVSPropertyOp16
 70
     1
102
RTVSPropertyOp17
 70
     1
102
RTVSPropertyOp18
 70
     1
102
RTVSPropertyOp19
 70
     1
102
RTVSPropertyOp20
 70
     1
102
RTVSPropertyOp21
 70
     1
102
RTVSPropertyOp22
 70
     1
102
RTVSPropertyOp23
 70
     1
102
RTVSPropertyOp24
 70
     1
102
RTVSPropertyOp25
 70
     1
102
RTVSPropertyOp26
 70
     1
102
RTVSPropertyOp27
 70
     1
102
RTVSPropertyOp28
 70
     1
102
RTVSPropertyOp29
 70
     1
102
RTVSPropertyOp30
 70
     1
102
RTVSPropertyOp31
 70
     1
102
RTVSPropertyOp32
 70
     1
102
RTVSPropertyOp33
 70
     1
102
RTVSPropertyOp34
 70
     1
102
RTVSPropertyOp35
 70
     1
102
RTVSPropertyOp36
 70
     1
102
RTVSPropertyOp37
 70
     1
102
RTVSPropertyOp38
 70
     1
102
RTVSPropertyOp39
 70
     1
102
RTVSPropertyOp40
 70
     1
102
RTVSPropertyOp41
 70
     1
102
RTVSPropertyOp42
 70
     1
102
RTVSPropertyOp43
 70
     1
102
RTVSPropertyOp44
 70
     1
102
RTVSPropertyOp45
 70
     1
102
RTVSPropertyOp46
 70
     1
102
RTVSPropertyOp47
 70
     1
102
RTVSPropertyOp48
 70
     1
102
RTVSPropertyOp49
 70
     1
102
RTVSPropertyOp50
 70
     1
102
RTVSPropertyOp51
 70
     0
102
RTVSPropertyOp52
 70
     0
102
RTVSPropertyOp53
 70
     1
102
RTVSPropertyOp54
 70
     1
102
RTVSPropertyOp55
 70
     1
102
RTVSPropertyOp56
 70
     1
102
RTVSPropertyOp57
 70
     1
102
RTVSPropertyOp58
 70
     1
102
RTVSPropertyOp59
 70
     1
102
RTVSPropertyOp60
 70
     1
102
RTVSPropertyOp61
 70
     1
102
RTVSPropertyOp62
 70
     1
  0
XRECORD
  5
7AD
102
{ACAD_REACTORS
330
7AC
102
}
330
7AC
100
AcDbXrecord
280
     1
102
RTVSPost2010Prop28
280
     0
102
RTVSPost2010PropOp28
 70
     1
102
RTVSPost2010Prop29
280
     1
102
RTVSPost2010PropOp29
 70
     1
102
RTVSPost2010Prop30
280
     1
102
RTVSPost2010PropOp30
 70
     1
102
RTVSPost2010Prop31
280
     0
102
RTVSPost2010PropOp31
 70
     1
102
RTVSPost2010Prop32
280
     0
102
RTVSPost2010PropOp32
 70
     1
102
RTVSPost2010Prop33
280
     0
102
RTVSPost2010PropOp33
 70
     1
102
RTVSPost2010Prop34
280
     0
102
RTVSPost2010PropOp34
 70
     1
102
RTVSPost2010Prop35
280
     0
102
RTVSPost2010PropOp35
 70
     1
102
RTVSPost2010Prop36
280
     0
102
RTVSPost2010PropOp36
 70
     1
102
RTVSPost2010Prop37
 90
       50
102
RTVSPost2010PropOp37
 70
     1
102
RTVSPost2010Prop38
140
0.0
102
RTVSPost2010PropOp38
 70
     1
102
RTVSPost2010Prop39
140
1.0
102
RTVSPost2010PropOp39
 70
     1
102
RTVSPost2010Prop40
 90
        0
102
RTVSPost2010PropOp40
 70
     1
102
RTVSPost2010Prop41ColorIndex
 90
       18
102
RTVSPost2010Prop41ColorRGB
 90
        0
102
RTVSPost2010PropOp41
 70
     1
102
RTVSPost2010Prop42
 90
       50
102
RTVSPost2010PropOp42
 70
     1
102
RTVSPost2010Prop43
 90
        3
102
RTVSPost2010PropOp43
 70
     1
102
RTVSPost2010Prop44ColorIndex
 90
        5
102
RTVSPost2010Prop44ColorRGB
 90
      255
102
RTVSPost2010PropOp44
 70
     1
102
RTVSPost2010Prop45
280
     0
102
RTVSPost2010PropOp45
 70
     1
102
RTVSPost2010Prop46
 90
       50
102
RTVSPost2010PropOp46
 70
     1
102
RTVSPost2010Prop47
 90
       50
102
RTVSPost2010PropOp47
 70
     1
102
RTVSPost2010Prop48
 90
       50
102
RTVSPost2010PropOp48
 70
     1
102
RTVSPost2010Prop49
280
     0
102
RTVSPost2010PropOp49
 70
     1
102
RTVSPost2010Prop50
 90
       50
102
RTVSPost2010PropOp50
 70
     1
102
RTVSPost2010Prop51ColorIndex
 90
      256
102
RTVSPost2010Prop51ColorRGB
 90
-16777216
102
RTVSPost2010PropOp51
 70
     0
102
RTVSPost2010Prop52
140
1.0
102
RTVSPost2010PropOp52
 70
     0
102
RTVSPost2010Prop53
 90
        2
102
RTVSPost2010PropOp53
 70
     1
102
RTVSPost2010Prop54
  1
strokes_ogs.tif
102
RTVSPost2010PropOp54
 70
     1
102
RTVSPost2010Prop55
280
     0
102
RTVSPost2010PropOp55
 70
     1
102
RTVSPost2010Prop56
140
1.0
102
RTVSPost2010PropOp56
 70
     1
102
RTVSPost2010Prop57
140
1.0
102
RTVSPost2010PropOp57
 70
     1
102
RTVSPropertyOp0
 70
     1
102
RTVSPropertyOp1
 70
     1
102
RTVSPropertyOp2
 70
     1
102
RTVSPropertyOp3
 70
     1
102
RTVSPropertyOp4
 70
     1
102
RTVSPropertyOp5
 70
     1
102
RTVSPropertyOp6
 70
     1
102
RTVSPropertyOp7
 70
     1
102
RTVSPropertyOp8
 70
     1
102
RTVSPropertyOp9
 70
     1
102
RTVSPropertyOp10
 70
     1
102
RTVSPropertyOp11
 70
     1
102
RTVSPropertyOp12
 70
     1
102
RTVSPropertyOp13
 70
     1
102
RTVSPropertyOp14
 70
     1
102
RTVSPropertyOp15
 70
     1
102
RTVSPropertyOp16
 70
     1
102
RTVSPropertyOp17
 70
     1
102
RTVSPropertyOp18
 70
     1
102
RTVSPropertyOp19
 70
     1
102
RTVSPropertyOp20
 70
     1
102
RTVSPropertyOp21
 70
     1
102
RTVSPropertyOp22
 70
     1
102
RTVSPropertyOp23
 70
     1
102
RTVSPropertyOp24
 70
     1
102
RTVSPropertyOp25
 70
     1
102
RTVSPropertyOp26
 70
     1
102
RTVSPropertyOp27
 70
     1
102
RTVSPropertyOp28
 70
     1
102
RTVSPropertyOp29
 70
     1
102
RTVSPropertyOp30
 70
     1
102
RTVSPropertyOp31
 70
     1
102
RTVSPropertyOp32
 70
     1
102
RTVSPropertyOp33
 70
     1
102
RTVSPropertyOp34
 70
     1
102
RTVSPropertyOp35
 70
     1
102
RTVSPropertyOp36
 70
     1
102
RTVSPropertyOp37
 70
     1
102
RTVSPropertyOp38
 70
     1
102
RTVSPropertyOp39
 70
     1
102
RTVSPropertyOp40
 70
     1
102
RTVSPropertyOp41
 70
     1
102
RTVSPropertyOp42
 70
     1
102
RTVSPropertyOp43
 70
     1
102
RTVSPropertyOp44
 70
     1
102
RTVSPropertyOp45
 70
     1
102
RTVSPropertyOp46
 70
     1
102
RTVSPropertyOp47
 70
     1
102
RTVSPropertyOp48
 70
     1
102
RTVSPropertyOp49
 70
     1
102
RTVSPropertyOp50
 70
     1
102
RTVSPropertyOp51
 70
     0
102
RTVSPropertyOp52
 70
     0
102
RTVSPropertyOp53
 70
     1
102
RTVSPropertyOp54
 70
     1
102
RTVSPropertyOp55
 70
     1
102
RTVSPropertyOp56
 70
     1
102
RTVSPropertyOp57
 70
     1
102
RTVSPropertyOp58
 70
     1
102
RTVSPropertyOp59
 70
     1
102
RTVSPropertyOp60
 70
     1
102
RTVSPropertyOp61
 70
     1
102
RTVSPropertyOp62
 70
     1
  0
XRECORD
  5
7B5
102
{ACAD_REACTORS
330
7B4
102
}
330
7B4
100
AcDbXrecord
280
     1
102
RTVSPost2010Prop28
280
     0
102
RTVSPost2010PropOp28
 70
     1
102
RTVSPost2010Prop29
280
     1
102
RTVSPost2010PropOp29
 70
     1
102
RTVSPost2010Prop30
280
     1
102
RTVSPost2010PropOp30
 70
     1
102
RTVSPost2010Prop31
280
     0
102
RTVSPost2010PropOp31
 70
     1
102
RTVSPost2010Prop32
280
     0
102
RTVSPost2010PropOp32
 70
     1
102
RTVSPost2010Prop33
280
     0
102
RTVSPost2010PropOp33
 70
     1
102
RTVSPost2010Prop34
280
     0
102
RTVSPost2010PropOp34
 70
     1
102
RTVSPost2010Prop35
280
     0
102
RTVSPost2010PropOp35
 70
     1
102
RTVSPost2010Prop36
280
     0
102
RTVSPost2010PropOp36
 70
     1
102
RTVSPost2010Prop37
 90
       50
102
RTVSPost2010PropOp37
 70
     1
102
RTVSPost2010Prop38
140
0.0
102
RTVSPost2010PropOp38
 70
     1
102
RTVSPost2010Prop39
140
1.0
102
RTVSPost2010PropOp39
 70
     1
102
RTVSPost2010Prop40
 90
        0
102
RTVSPost2010PropOp40
 70
     1
102
RTVSPost2010Prop41ColorIndex
 90
       18
102
RTVSPost2010Prop41ColorRGB
 90
        0
102
RTVSPost2010PropOp41
 70
     1
102
RTVSPost2010Prop42
 90
       50
102
RTVSPost2010PropOp42
 70
     1
102
RTVSPost2010Prop43
 90
        3
102
RTVSPost2010PropOp43
 70
     1
102
RTVSPost2010Prop44ColorIndex
 90
        5
102
RTVSPost2010Prop44ColorRGB
 90
      255
102
RTVSPost2010PropOp44
 70
     1
102
RTVSPost2010Prop45
280
     0
102
RTVSPost2010PropOp45
 70
     1
102
RTVSPost2010Prop46
 90
       50
102
RTVSPost2010PropOp46
 70
     1
102
RTVSPost2010Prop47
 90
       50
102
RTVSPost2010PropOp47
 70
     1
102
RTVSPost2010Prop48
 90
       50
102
RTVSPost2010PropOp48
 70
     1
102
RTVSPost2010Prop49
280
     0
102
RTVSPost2010PropOp49
 70
     1
102
RTVSPost2010Prop50
 90
       50
102
RTVSPost2010PropOp50
 70
     1
102
RTVSPost2010Prop51ColorIndex
 90
      256
102
RTVSPost2010Prop51ColorRGB
 90
-16777216
102
RTVSPost2010PropOp51
 70
     0
102
RTVSPost2010Prop52
140
1.0
102
RTVSPost2010PropOp52
 70
     0
102
RTVSPost2010Prop53
 90
        2
102
RTVSPost2010PropOp53
 70
     1
102
RTVSPost2010Prop54
  1
strokes_ogs.tif
102
RTVSPost2010PropOp54
 70
     1
102
RTVSPost2010Prop55
280
     0
102
RTVSPost2010PropOp55
 70
     1
102
RTVSPost2010Prop56
140
1.0
102
RTVSPost2010PropOp56
 70
     1
102
RTVSPost2010Prop57
140
1.0
102
RTVSPost2010PropOp57
 70
     1
102
RTVSPropertyOp0
 70
     1
102
RTVSPropertyOp1
 70
     1
102
RTVSPropertyOp2
 70
     1
102
RTVSPropertyOp3
 70
     1
102
RTVSPropertyOp4
 70
     1
102
RTVSPropertyOp5
 70
     1
102
RTVSPropertyOp6
 70
     1
102
RTVSPropertyOp7
 70
     1
102
RTVSPropertyOp8
 70
     1
102
RTVSPropertyOp9
 70
     1
102
RTVSPropertyOp10
 70
     1
102
RTVSPropertyOp11
 70
     1
102
RTVSPropertyOp12
 70
     1
102
RTVSPropertyOp13
 70
     1
102
RTVSPropertyOp14
 70
     1
102
RTVSPropertyOp15
 70
     1
102
RTVSPropertyOp16
 70
     1
102
RTVSPropertyOp17
 70
     1
102
RTVSPropertyOp18
 70
     1
102
RTVSPropertyOp19
 70
     1
102
RTVSPropertyOp20
 70
     1
102
RTVSPropertyOp21
 70
     1
102
RTVSPropertyOp22
 70
     1
102
RTVSPropertyOp23
 70
     1
102
RTVSPropertyOp24
 70
     1
102
RTVSPropertyOp25
 70
     1
102
RTVSPropertyOp26
 70
     1
102
RTVSPropertyOp27
 70
     1
102
RTVSPropertyOp28
 70
     1
102
RTVSPropertyOp29
 70
     1
102
RTVSPropertyOp30
 70
     1
102
RTVSPropertyOp31
 70
     1
102
RTVSPropertyOp32
 70
     1
102
RTVSPropertyOp33
 70
     1
102
RTVSPropertyOp34
 70
     1
102
RTVSPropertyOp35
 70
     1
102
RTVSPropertyOp36
 70
     1
102
RTVSPropertyOp37
 70
     1
102
RTVSPropertyOp38
 70
     1
102
RTVSPropertyOp39
 70
     1
102
RTVSPropertyOp40
 70
     1
102
RTVSPropertyOp41
 70
     1
102
RTVSPropertyOp42
 70
     1
102
RTVSPropertyOp43
 70
     1
102
RTVSPropertyOp44
 70
     1
102
RTVSPropertyOp45
 70
     1
102
RTVSPropertyOp46
 70
     1
102
RTVSPropertyOp47
 70
     1
102
RTVSPropertyOp48
 70
     1
102
RTVSPropertyOp49
 70
     1
102
RTVSPropertyOp50
 70
     1
102
RTVSPropertyOp51
 70
     0
102
RTVSPropertyOp52
 70
     0
102
RTVSPropertyOp53
 70
     1
102
RTVSPropertyOp54
 70
     1
102
RTVSPropertyOp55
 70
     1
102
RTVSPropertyOp56
 70
     1
102
RTVSPropertyOp57
 70
     1
102
RTVSPropertyOp58
 70
     1
102
RTVSPropertyOp59
 70
     1
102
RTVSPropertyOp60
 70
     1
102
RTVSPropertyOp61
 70
     1
102
RTVSPropertyOp62
 70
     1
  0
ACDBASSOCGEOMDEPENDENCY
  5
5B5
330
5B4
100
AcDbAssocDependency
 90
        2
 90
        0
290
     1
290
     1
290
     1
290
     1
 90
   -10000
330
238
290
     0
330
0
330
0
360
0
 90
        1
100
AcDbAssocGeomDependency
 90
        0
290
     1
  1
AcDbAssocSingleEdgePersSubentId
290
     0
  0
ACDBASSOCGEOMDEPENDENCY
  5
5B6
330
5B4
100
AcDbAssocDependency
 90
        2
 90
        0
290
     1
290
     1
290
     1
290
     1
 90
   -10000
330
237
290
     0
330
0
330
0
360
0
 90
        2
100
AcDbAssocGeomDependency
 90
        0
290
     1
  1
AcDbAssocSingleEdgePersSubentId
290
     0
  0
ACDBASSOCGEOMDEPENDENCY
  5
5D5
330
5B4
100
AcDbAssocDependency
 90
        2
 90
        0
290
     1
290
     1
290
     1
290
     1
 90
   -10000
330
5CD
290
     0
330
0
330
0
360
0
 90
        5
100
AcDbAssocGeomDependency
 90
        0
290
     1
  1
AcDbAssocSingleEdgePersSubentId
290
     0
  0
ACDBASSOCGEOMDEPENDENCY
  5
5D6
330
5B4
100
AcDbAssocDependency
 90
        2
 90
        0
290
     1
290
     1
290
     1
290
     1
 90
   -10000
330
5D0
290
     0
330
0
330
0
360
0
 90
        6
100
AcDbAssocGeomDependency
 90
        0
290
     1
  1
AcDbAssocSingleEdgePersSubentId
290
     0
  0
ACDBASSOCGEOMDEPENDENCY
  5
5F2
330
5B4
100
AcDbAssocDependency
 90
        2
 90
        0
290
     1
290
     1
290
     1
290
     1
 90
   -10000
330
5F0
290
     0
330
0
330
0
360
0
 90
        7
100
AcDbAssocGeomDependency
 90
        0
290
     1
  1
AcDbAssocSingleEdgePersSubentId
290
     0
  0
ACDBASSOCGEOMDEPENDENCY
  5
5F3
330
5B4
100
AcDbAssocDependency
 90
        2
 90
        0
290
     1
290
     1
290
     1
290
     1
 90
   -10000
330
5D1
290
     0
330
0
330
0
360
0
 90
        8
100
AcDbAssocGeomDependency
 90
        0
290
     1
  1
AcDbAssocSingleEdgePersSubentId
290
     0
  0
ACDBASSOCGEOMDEPENDENCY
  5
6D2
330
5B4
100
AcDbAssocDependency
 90
        2
 90
        0
290
     1
290
     1
290
     1
290
     1
 90
   -10000
330
175
290
     0
330
0
330
0
360
0
 90
        9
100
AcDbAssocGeomDependency
 90
        0
290
     1
  1
AcDbAssocSingleEdgePersSubentId
290
     0
  0
ACDBASSOCGEOMDEPENDENCY
  5
579
330
578
100
AcDbAssocDependency
 90
        2
 90
        0
290
     1
290
     1
290
     1
290
     1
 90
   -10000
330
58B
290
     0
330
0
330
0
360
0
 90
        8
100
AcDbAssocGeomDependency
 90
        0
290
     1
  1
AcDbAssocSingleEdgePersSubentId
290
     0
  0
ACDBASSOCGEOMDEPENDENCY
  5
57A
330
578
100
AcDbAssocDependency
 90
        2
 90
        0
290
     1
290
     1
290
     1
290
     1
 90
   -10000
330
593
290
     0
330
0
330
0
360
0
 90
       12
100
AcDbAssocGeomDependency
 90
        0
290
     1
  1
AcDbAssocSingleEdgePersSubentId
290
     0
  0
ACDBASSOCGEOMDEPENDENCY
  5
57B
330
578
100
AcDbAssocDependency
 90
        2
 90
        0
290
     1
290
     1
290
     1
290
     1
 90
   -10000
330
589
290
     0
330
0
330
0
360
0
 90
        9
100
AcDbAssocGeomDependency
 90
        0
290
     1
  1
AcDbAssocSingleEdgePersSubentId
290
     0
  0
ACDBASSOCGEOMDEPENDENCY
  5
57C
330
578
100
AcDbAssocDependency
 90
        2
 90
        0
290
     1
290
     1
290
     1
290
     1
 90
   -10000
330
582
290
     0
330
0
330
0
360
0
 90
       10
100
AcDbAssocGeomDependency
 90
        0
290
     1
  1
AcDbAssocSingleEdgePersSubentId
290
     0
  0
ACDBASSOCGEOMDEPENDENCY
  5
57D
330
578
100
AcDbAssocDependency
 90
        2
 90
        0
290
     1
290
     1
290
     1
290
     1
 90
   -10000
330
58A
290
     0
330
0
330
0
360
0
 90
       11
100
AcDbAssocGeomDependency
 90
        0
290
     1
  1
AcDbAssocSingleEdgePersSubentId
290
     0
  0
ENDSEC
  0
EOF
