999
DXF file: 159-80-50p_gully.dxf
999
Pro/ENGINEER 2006320 by Parametric Technology Corporation
  0
SECTION
  2
HEADER
  9
$EXTMAX
 10
420.0
 20
297.0
 30
0.0
  9
$EXTMIN
 10
0.0
 20
0.0
 30
0.0
  9
$LIMMIN
 10
0.0
 20
0.0
  9
$LIMMAX
 10
420.0
 20
297.0
  9
$VIEWCTR
 10
210.0
 20
148.5
  9
$VIEWSIZE
 40
297.0
  9
$CLAYER
  8
0
  9
$LTSCALE
 40
23.1
  9
$CELTYPE
  6
BYLAYER
  9
$DIMSCALE
 40
1.0
  9
$DIMASZ
 40
3.0
  9
$DIMEXO
 40
2.625
  9
$DIMDLI
 40
15.96
  9
$DIMEXE
 40
7.56
  9
$DIMCEN
 40
3.78
  9
$DIMLFAC
 40
1.0
  9
$DIMBLK
  1
_FILLED
  9
$DIMTXT
 40
3.0
  9
$PDMODE
 70
3
  9
$PDSIZE
 40
0.3125
  0
ENDSEC
  0
SECTION
  2
TABLES
  0
TABLE
  2
LTYPE
 70
6
  0
LTYPE
  2
BYBLOCK
 70
0
  3

 72
65
 73
0
 40
0.0
  0
LTYPE
  2
BYLAYER
 70
0
  3

 72
65
 73
0
 40
0.0
  0
LTYPE
  2
CONTINUOUS
 70
64
  3
Solid line
 72
65
 73
0
 40
0.0
  0
LTYPE
  2
CENTER
 70
64
  3
____ _ ____ _ ____ _ ____ _ ____ _ ____ _ ____
 72
65
 73
4
 40
0.6
 49
0.375
 49
-0.075
 49
0.075
 49
-0.075
  0
LTYPE
  2
HIDDEN
 70
64
  3
- - - - - - - - - - - - - - - - - - - -
 72
65
 73
2
 40
0.2
 49
0.1
 49
-0.1
  0
LTYPE
  2
PHANTOM
 70
64
  3
_____ _ _ _____ _ _ _____ _ _ _____
 72
65
 73
6
 40
0.8
 49
0.45
 49
-0.05
 49
0.1
 49
-0.05
 49
0.1
 49
-0.05
  0
LTYPE
  2
DOT
 70
64
  3
. . . . . . . . . . . . . . . . . . . .
 72
65
 73
2
 40
0.2
 49
0.1
 49
-0.1
  0
LTYPE
  2
DASHED
 70
64
  3
- - - - - - - - - - - - - - - - - - - -
 72
65
 73
2
 40
0.2
 49
0.1
 49
-0.1
  0
ENDTAB
  0
TABLE
  2
LAYER
 70
36
  0
LAYER
  2
0
 70
0
 62
7
  6
CONTINUOUS
  0
LAYER
  2
DEFAULT_1
 70
0
 62
7
  6
CENTER
  0
LAYER
  2
DEFAULT_2
 70
0
 62
8
  6
HIDDEN
  0
LAYER
  2
DEFAULT_3
 70
0
 62
7
  6
PHANTOM
  0
LAYER
  2
_2D_DELETED_OBJS
 70
0
 62
7
  6
CONTINUOUS
  0
LAYER
  2
01___PRT_ALL_DTM_PLN
 70
0
 62
7
  6
CONTINUOUS
  0
LAYER
  2
01___PRT_DEF_DTM_PLN
 70
0
 62
7
  6
CONTINUOUS
  0
LAYER
  2
02___PRT_ALL_AXES
 70
0
 62
7
  6
CONTINUOUS
  0
LAYER
  2
03___PRT_ALL_CURVES
 70
0
 62
7
  6
CONTINUOUS
  0
LAYER
  2
04___PRT_ALL_DTM_PNT
 70
0
 62
7
  6
CONTINUOUS
  0
LAYER
  2
05___PRT_ALL_DTM_CSYS
 70
0
 62
7
  6
CONTINUOUS
  0
LAYER
  2
05___PRT_DEF_DTM_CSYS
 70
0
 62
7
  6
CONTINUOUS
  0
LAYER
  2
06___PRT_ALL_SURFS
 70
0
 62
7
  6
CONTINUOUS
  0
LAYER
  2
CURVES
 70
0
 62
7
  6
CONTINUOUS
  0
ENDTAB
  0
TABLE
  2
STYLE
 70
1
  0
STYLE
  2
STANDARD
 70
0
 40
0.0
 41
0.6
 50
0.0
 71
0
 42
0.2
  3
txt
  4

  0
ENDTAB
  0
ENDSEC
  0
SECTION
  2
BLOCKS
  0
BLOCK
  8
0
 62
7
  6
CONTINUOUS
  2
*D0
 70
65
 10
0.0
 20
0.0
  0
TEXT
  8
0
 62
7
  6
CONTINUOUS
 10
220.7798599588
 20
25.31658898
  7
STANDARD
 40
3.0
  1
193
 41
0.6
 72
0
  0
LINE
  8
0
 62
7
  6
CONTINUOUS
 10
126.9798599588
 20
119.905056662
 11
126.9798599588
 21
23.81658898
  0
LINE
  8
0
 62
7
  6
CONTINUOUS
 10
319.9798599588
 20
138.905056662
 11
319.9798599588
 21
23.81658898
  0
LINE
  8
0
 62
7
  6
CONTINUOUS
 10
126.9798599588
 20
26.81658898
 11
219.2798599588
 21
26.81658898
  0
LINE
  8
0
 62
7
  6
CONTINUOUS
 10
319.9798599588
 20
26.81658898
 11
227.6798599588
 21
26.81658898
  0
INSERT
  8
0
 62
7
  6
CONTINUOUS
  2
_FILLED
 10
126.9798599588
 20
26.81658898
 41
3.0
 42
3.0
 43
3.0
 50
180.0
  0
INSERT
  8
0
 62
7
  6
CONTINUOUS
  2
_FILLED
 10
319.9798599588
 20
26.81658898
 41
3.0
 42
3.0
 43
3.0
  0
ENDBLK
  8
0
  6
BYBLOCK
 62
0
  0
BLOCK
  8
0
 62
7
  6
CONTINUOUS
  2
*D1
 70
65
 10
0.0
 20
0.0
  0
TEXT
  8
0
 62
7
  6
CONTINUOUS
 10
197.2902158994
 20
15.1705380165
  7
STANDARD
 40
3.0
  1
240
 41
0.6
 72
0
  0
LINE
  8
0
 62
7
  6
CONTINUOUS
 10
319.9798599588
 20
138.905056662
 11
319.9798599588
 21
13.6705380165
  0
LINE
  8
0
 62
7
  6
CONTINUOUS
 10
80.0005718401
 20
194.2946257556
 11
80.0005718401
 21
13.6705380165
  0
LINE
  8
0
 62
7
  6
CONTINUOUS
 10
319.9798599588
 20
16.6705380165
 11
204.1902158994
 21
16.6705380165
  0
LINE
  8
0
 62
7
  6
CONTINUOUS
 10
80.0005718401
 20
16.6705380165
 11
195.7902158994
 21
16.6705380165
  0
INSERT
  8
0
 62
7
  6
CONTINUOUS
  2
_FILLED
 10
319.9798599588
 20
16.6705380165
 41
3.0
 42
3.0
 43
3.0
  0
INSERT
  8
0
 62
7
  6
CONTINUOUS
  2
_FILLED
 10
80.0005718401
 20
16.6705380165
 41
3.0
 42
3.0
 43
3.0
 50
180.0
  0
ENDBLK
  8
0
  6
BYBLOCK
 62
0
  0
BLOCK
  8
0
 62
7
  6
CONTINUOUS
  2
*D2
 70
65
 10
0.0
 20
0.0
  0
TEXT
  8
0
 62
7
  6
CONTINUOUS
 10
336.5084587797
 20
112.1554581484
  7
STANDARD
 40
3.0
  1
151
 41
0.6
 72
0
  0
LINE
  8
0
 62
7
  6
CONTINUOUS
 10
199.0008505191
 20
37.9058596348
 11
342.2084587797
 21
37.9058596348
  0
LINE
  8
0
 62
7
  6
CONTINUOUS
 10
321.4798599588
 20
189.405056662
 11
342.2084587797
 21
189.405056662
  0
LINE
  8
0
 62
7
  6
CONTINUOUS
 10
339.2084587797
 20
37.9058596348
 11
339.2084587797
 21
110.6554581484
  0
LINE
  8
0
 62
7
  6
CONTINUOUS
 10
339.2084587797
 20
189.405056662
 11
339.2084587797
 21
116.6554581484
  0
INSERT
  8
0
 62
7
  6
CONTINUOUS
  2
_FILLED
 10
339.2084587797
 20
37.9058596348
 41
3.0
 42
3.0
 43
3.0
 50
270.0
  0
INSERT
  8
0
 62
7
  6
CONTINUOUS
  2
_FILLED
 10
339.2084587797
 20
189.405056662
 41
3.0
 42
3.0
 43
3.0
 50
90.0
  0
ENDBLK
  8
0
  6
BYBLOCK
 62
0
  0
BLOCK
  8
0
 62
7
  6
CONTINUOUS
  2
*D3
 70
65
 10
0.0
 20
0.0
  0
TEXT
  8
0
 62
7
  6
CONTINUOUS
 10
49.3312425387
 20
145.8316629193
  7
STANDARD
 40
3.0
  1
219
 41
0.6
 72
0
  0
LINE
  8
0
 62
7
  6
CONTINUOUS
 10
159.4798868009
 20
37.9058596348
 11
49.0312425387
 21
37.9058596348
  0
LINE
  8
0
 62
7
  6
CONTINUOUS
 10
76.3717025412
 20
256.7574662038
 11
49.0312425387
 21
256.7574662038
  0
LINE
  8
0
 62
7
  6
CONTINUOUS
 10
52.0312425387
 20
37.9058596348
 11
52.0312425387
 21
144.3316629193
  0
LINE
  8
0
 62
7
  6
CONTINUOUS
 10
52.0312425387
 20
256.7574662038
 11
52.0312425387
 21
150.3316629193
  0
INSERT
  8
0
 62
7
  6
CONTINUOUS
  2
_FILLED
 10
52.0312425387
 20
37.9058596348
 41
3.0
 42
3.0
 43
3.0
 50
270.0
  0
INSERT
  8
0
 62
7
  6
CONTINUOUS
  2
_FILLED
 10
52.0312425387
 20
256.7574662038
 41
3.0
 42
3.0
 43
3.0
 50
90.0
  0
ENDBLK
  8
0
  6
BYBLOCK
 62
0
  0
BLOCK
  8
0
 62
7
  6
CONTINUOUS
  2
*D4
 70
65
 10
0.0
 20
0.0
  0
TEXT
  8
0
 62
7
  6
CONTINUOUS
 10
194.0302191608
 20
254.2588094096
  7
STANDARD
 40
3.0
  1
88%%d
 41
0.6222222222
 72
0
  0
LINE
  8
0
 62
7
  6
CONTINUOUS
 10
193.8610510656
 20
230.289312406
 11
210.9490770936
 21
230.886039424
  0
LINE
  8
0
 62
7
  6
CONTINUOUS
 10
171.4798599588
 20
248.5865040858
 11
171.4798599588
 21
269.0010193615
  0
ARC
  8
0
 62
7
  6
CONTINUOUS
 10
171.4798599588
 20
229.5077439904
 40
36.4932753711
 50
2.0
 51
39.5783558583
  0
ARC
  8
0
 62
7
  6
CONTINUOUS
 10
171.4798599588
 20
229.5077439904
 40
36.4932753711
 50
53.2780587499
 51
90.0
  0
SOLID
  8
0
 62
7
  6
CONTINUOUS
 10
206.9752595094
 20
233.7157261562
 11
207.9509046125
 21
230.7813409339
 12
208.4709284497
 22
233.8296314727
 13
208.4709284497
 23
233.8296314727
  0
SOLID
  8
0
 62
7
  6
CONTINUOUS
 10
174.5081449911
 20
266.6271102198
 11
171.4798599588
 21
266.0010193615
 12
174.4465071559
 22
265.1283771624
 13
174.4465071559
 23
265.1283771624
  0
ENDBLK
  8
0
  6
BYBLOCK
 62
0
  0
BLOCK
  8
0
 62
7
  6
CONTINUOUS
  2
*D5
 70
65
 10
0.0
 20
0.0
  0
TEXT
  8
0
 62
7
  6
CONTINUOUS
 10
273.6798599588
 20
225.3679136874
  7
STANDARD
 40
3.0
  1
89
 41
0.6
 72
0
  0
LINE
  8
0
 62
7
  6
CONTINUOUS
 10
230.9798599588
 20
190.905056662
 11
230.9798599588
 21
229.8679136874
  0
LINE
  8
0
 62
7
  6
CONTINUOUS
 10
319.9798599588
 20
190.905056662
 11
319.9798599588
 21
229.8679136874
  0
LINE
  8
0
 62
7
  6
CONTINUOUS
 10
230.9798599588
 20
226.8679136874
 11
272.1798599588
 21
226.8679136874
  0
LINE
  8
0
 62
7
  6
CONTINUOUS
 10
319.9798599588
 20
226.8679136874
 11
278.7798599588
 21
226.8679136874
  0
INSERT
  8
0
 62
7
  6
CONTINUOUS
  2
_FILLED
 10
230.9798599588
 20
226.8679136874
 41
3.0
 42
3.0
 43
3.0
 50
180.0
  0
INSERT
  8
0
 62
7
  6
CONTINUOUS
  2
_FILLED
 10
319.9798599588
 20
226.8679136874
 41
3.0
 42
3.0
 43
3.0
  0
ENDBLK
  8
0
  6
BYBLOCK
 62
0
  0
BLOCK
  8
0
 62
7
  6
CONTINUOUS
  2
*D6
 70
65
 10
0.0
 20
0.0
  0
TEXT
  8
0
 62
7
  6
CONTINUOUS
 10
59.9995098432
 20
224.1776217662
  7
STANDARD
 40
3.0
  1
61
 41
0.6
 72
0
  0
LINE
  8
0
 62
7
  6
CONTINUOUS
 10
76.3726163007
 20
256.7051169587
 11
57.7369027127
 21
256.0543435002
  0
LINE
  8
0
 62
7
  6
CONTINUOUS
 10
78.5014855996
 20
195.7422765106
 11
59.8657720116
 21
195.0915030521
  0
LINE
  8
0
 62
7
  6
CONTINUOUS
 10
60.7350751938
 20
256.1590419903
 11
61.6947475347
 21
228.6776217662
  0
LINE
  8
0
 62
7
  6
CONTINUOUS
 10
62.8639444926
 20
195.1962015422
 11
61.9042721517
 21
222.6776217662
  0
INSERT
  8
0
 62
7
  6
CONTINUOUS
  2
_FILLED
 10
60.7350751938
 20
256.1590419903
 41
3.0
 42
3.0
 43
3.0
 50
92.0
  0
INSERT
  8
0
 62
7
  6
CONTINUOUS
  2
_FILLED
 10
62.8639444926
 20
195.1962015422
 41
3.0
 42
3.0
 43
3.0
 50
272.0
  0
ENDBLK
  8
0
  6
BYBLOCK
 62
0
  0
BLOCK
  8
0
  2
_FILLED
 70
64
 10
0.0
 20
0.0
  0
SOLID
  8
0
  6
BYBLOCK
 62
0
 10
0.0
 20
0.0
 11
-1.0
 21
0.25
 12
-1.0
 22
-0.25
 13
-1.0
 23
-0.25
  0
ENDBLK
  8
0
  6
BYBLOCK
 62
0
  0
ENDSEC
  0
SECTION
  2
ENTITIES
  0
DIMENSION
  8
0
 62
7
  6
CONTINUOUS
  2
*D0
 10
319.9798599588
 20
26.81658898
 11
223.4798599588
 21
26.81658898
 70
128
 13
126.9798599588
 23
119.905056662
 14
319.9798599588
 24
138.905056662
  0
DIMENSION
  8
0
 62
7
  6
CONTINUOUS
  2
*D1
 10
80.0005718401
 20
16.6705380165
 11
199.9902158994
 21
16.6705380165
 70
128
 13
319.9798599588
 23
138.905056662
 14
80.0005718401
 24
194.2946257556
 50
180.0
  0
DIMENSION
  8
0
 62
7
  6
CONTINUOUS
  2
*D2
 10
339.2084587797
 20
189.405056662
 11
339.2084587797
 21
113.6554581484
 70
128
 13
199.0008505191
 23
37.9058596348
 14
321.4798599588
 24
189.405056662
 50
90.0
  0
DIMENSION
  8
0
 62
7
  6
CONTINUOUS
  2
*D3
 10
52.0312425387
 20
256.7574662038
 11
52.0312425387
 21
147.3316629193
 70
128
 13
159.4798868009
 23
37.9058596348
 14
76.3717025412
 24
256.7574662038
 50
90.0
  0
DIMENSION
  8
0
 62
7
  6
CONTINUOUS
  2
*D4
 10
171.4798599588
 20
248.5865040858
 11
196.8302191608
 21
255.7588094096
 70
130
 13
193.8610510656
 23
230.289312406
 14
210.9490770936
 24
230.886039424
 15
171.4798599588
 25
269.0010193615
 16
196.8302191608
 26
255.7588094096
  0
DIMENSION
  8
0
 62
7
  6
CONTINUOUS
  2
*D5
 10
319.9798599588
 20
226.8679136874
 11
275.4798599588
 21
226.8679136874
 70
128
 13
230.9798599588
 23
190.905056662
 14
319.9798599588
 24
190.905056662
  0
DIMENSION
  8
0
 62
7
  6
CONTINUOUS
  2
*D6
 10
62.8639444926
 20
195.1962015422
 11
61.7995098432
 21
225.6776217662
 70
128
 13
76.3726163007
 23
256.7051169587
 14
78.5014855996
 24
195.7422765106
 50
272.0
  0
LINE
  8
0
 62
7
  6
CONTINUOUS
 10
0.0
 20
0.0
 11
0.0
 21
297.0
  0
LINE
  8
0
 62
7
  6
CONTINUOUS
 10
0.0
 20
0.0
 11
420.0
 21
0.0
  0
LINE
  8
0
 62
7
  6
CONTINUOUS
 10
0.0
 20
297.0
 11
420.0
 21
297.0
  0
LINE
  8
0
 62
7
  6
CONTINUOUS
 10
420.0
 20
0.0
 11
420.0
 21
297.0
  0
LINE
  8
0
 62
7
  6
CONTINUOUS
 10
82.8163074313
 20
258.4310499278
 11
82.4416950759
 21
256.9170538597
  0
LINE
  8
0
 62
7
  6
CONTINUOUS
 10
99.8059514906
 20
259.0243413718
 11
99.4313391353
 21
257.5103453036
  0
LINE
  8
0
 62
7
  6
CONTINUOUS
 10
87.5687368558
 20
196.0589119016
 11
87.0486568743
 21
194.539835992
  0
LINE
  8
02___PRT_ALL_AXES
 62
7
  6
CONTINUOUS
 10
80.0005718401
 20
195.7946257556
 11
77.8717025412
 21
256.7574662038
  0
LINE
  8
0
 62
7
  6
CONTINUOUS
 10
84.5705643748
 20
195.9542134115
 11
82.4416950759
 21
256.9170538597
  0
LINE
  8
0
 62
7
  6
CONTINUOUS
 10
85.0498752203
 20
194.4700369986
 11
82.8163074313
 21
258.4310499278
  0
LINE
  8
0
 62
7
  6
CONTINUOUS
 10
87.0486568743
 20
194.539835992
 11
84.8150890853
 21
258.5008489212
  0
LINE
  8
0
 62
7
  6
CONTINUOUS
 10
87.5687368558
 20
196.0589119016
 11
85.439867557
 21
257.0217523498
  0
POLYLINE
  8
0
 62
7
  6
CONTINUOUS
 66
1
 70
0
  0
VERTEX
  8
0
 62
7
  6
CONTINUOUS
 10
217.8767051112
 20
40.00374379
  0
VERTEX
  8
0
 62
7
  6
CONTINUOUS
 10
222.8885023716
 20
41.1821975098
  0
VERTEX
  8
0
 62
7
  6
CONTINUOUS
 10
227.833004854
 20
42.6170353523
  0
VERTEX
  8
0
 62
7
  6
CONTINUOUS
 10
232.6971062277
 20
44.3044540045
  0
SEQEND
  0
LINE
  8
0
 62
7
  6
CONTINUOUS
 10
212.8107881221
 20
39.0847813349
 11
217.8766181131
 21
40.0037261072
  0
LINE
  8
0
 62
7
  6
CONTINUOUS
 10
207.7045082509
 20
38.4277957182
 11
212.8108977803
 21
39.0847979113
  0
LINE
  8
0
 62
7
  6
CONTINUOUS
 10
202.5710719654
 20
38.0344787239
 11
207.7043758754
 21
38.427782544
  0
POLYLINE
  8
0
 62
7
  6
CONTINUOUS
 66
1
 70
0
  0
VERTEX
  8
0
 62
7
  6
CONTINUOUS
 10
197.5008505191
 20
37.9058612336
  0
VERTEX
  8
0
 62
7
  6
CONTINUOUS
 10
203.3596596125
 20
38.0776369484
  0
VERTEX
  8
0
 62
7
  6
CONTINUOUS
 10
209.1983404696
 20
38.5923741013
  0
VERTEX
  8
0
 62
7
  6
CONTINUOUS
 10
214.9968342074
 20
39.448304273
  0
VERTEX
  8
0
 62
7
  6
CONTINUOUS
 10
220.735219999
 20
40.6424868602
  0
VERTEX
  8
0
 62
7
  6
CONTINUOUS
 10
226.3937835153
 20
42.1708191779
  0
VERTEX
  8
0
 62
7
  6
CONTINUOUS
 10
231.9530846541
 20
44.0280505558
  0
SEQEND
  0
LINE
  8
0
 62
7
  6
CONTINUOUS
 10
197.5008475965
 20
37.9058605105
 11
202.5709169923
 21
38.0344712537
  0
LINE
  8
0
 62
7
  6
CONTINUOUS
 10
160.9798868009
 20
37.9058596348
 11
197.5008505191
 21
37.9058596348
  0
LINE
  8
0
 62
7
  6
CONTINUOUS
 10
158.9082942983
 20
37.9774670198
 11
160.9798643589
 21
37.9058582242
  0
LINE
  8
0
 62
7
  6
CONTINUOUS
 10
158.6260872811
 20
37.9983394314
 11
160.9798599588
 21
37.9058594514
  0
LINE
  8
0
 62
7
  6
CONTINUOUS
 10
156.7714630505
 20
38.2025020634
 11
158.9072835032
 21
37.9775734692
  0
LINE
  8
0
 62
7
  6
CONTINUOUS
 10
104.5583809152
 20
196.6522033456
 11
104.0383009336
 21
195.133127436
  0
LINE
  8
0
 62
7
  6
CONTINUOUS
 10
101.5602084341
 20
196.5475048555
 11
99.4313391353
 21
257.5103453036
  0
LINE
  8
0
 62
7
  6
CONTINUOUS
 10
102.0395192796
 20
195.0633284426
 11
99.8059514906
 21
259.0243413718
  0
LINE
  8
0
 62
7
  6
CONTINUOUS
 10
104.0383009336
 20
195.133127436
 11
101.8047331447
 21
259.0941403652
  0
LINE
  8
0
 62
7
  6
CONTINUOUS
 10
104.5583809152
 20
196.6522033456
 11
102.4295116163
 21
257.6150437937
  0
LINE
  8
0
 62
7
  6
CONTINUOUS
 10
85.0498752203
 20
194.4700369986
 11
84.5705643748
 21
195.9542134115
  0
LINE
  8
0
 62
7
  6
CONTINUOUS
 10
131.0511441386
 20
65.838981941
 11
131.2758082653
 21
63.7024584139
  0
LINE
  8
0
 62
9
  6
CONTINUOUS
 10
110.8515998329
 20
257.909149595
 11
112.9804691317
 21
196.9463091468
  0
LINE
  8
0
 62
7
  6
CONTINUOUS
 10
111.8858901566
 20
256.9446582647
 11
113.944960462
 21
197.9805994705
  0
POLYLINE
  8
0
 62
9
  6
CONTINUOUS
 66
1
 70
0
  0
VERTEX
  8
0
 62
9
  6
CONTINUOUS
 10
180.9462986896
 20
65.4946349404
  0
VERTEX
  8
0
 62
9
  6
CONTINUOUS
 10
180.9577668413
 20
65.4861100648
  0
VERTEX
  8
0
 62
9
  6
CONTINUOUS
 10
180.9662158967
 20
65.4747342307
  0
SEQEND
  0
LINE
  8
0
 62
7
  6
CONTINUOUS
 10
102.0395192796
 20
195.0633284426
 11
101.5602084341
 21
196.5475048555
  0
POLYLINE
  8
0
 62
7
  6
CONTINUOUS
 66
1
 70
0
  0
VERTEX
  8
0
 62
7
  6
CONTINUOUS
 10
131.2758443663
 20
63.7021150985
  0
VERTEX
  8
0
 62
7
  6
CONTINUOUS
 10
131.6529159533
 20
61.5868120248
  0
VERTEX
  8
0
 62
7
  6
CONTINUOUS
 10
132.1804246523
 20
59.5039234938
  0
VERTEX
  8
0
 62
7
  6
CONTINUOUS
 10
132.8556645255
 20
57.4641340034
  0
VERTEX
  8
0
 62
7
  6
CONTINUOUS
 10
133.6751718261
 20
55.477906968
  0
VERTEX
  8
0
 62
7
  6
CONTINUOUS
 10
134.6347427652
 20
53.5554310455
  0
VERTEX
  8
0
 62
7
  6
CONTINUOUS
 10
135.7294550757
 20
51.7065678732
  0
VERTEX
  8
0
 62
7
  6
CONTINUOUS
 10
136.9536932617
 20
49.9408014814
  0
VERTEX
  8
0
 62
7
  6
CONTINUOUS
 10
138.3011774035
 20
48.267189643
  0
VERTEX
  8
0
 62
7
  6
CONTINUOUS
 10
139.7649953715
 20
46.6943174104
  0
VERTEX
  8
0
 62
7
  6
CONTINUOUS
 10
141.3376382841
 20
45.2302530752
  0
VERTEX
  8
0
 62
7
  6
CONTINUOUS
 10
143.011039033
 20
43.8825067761
  0
VERTEX
  8
0
 62
7
  6
CONTINUOUS
 10
144.7766136595
 20
42.6579919815
  0
VERTEX
  8
0
 62
7
  6
CONTINUOUS
 10
146.6253053837
 20
41.5629900287
  0
VERTEX
  8
0
 62
7
  6
CONTINUOUS
 10
148.5476310478
 20
40.6031179076
  0
VERTEX
  8
0
 62
7
  6
CONTINUOUS
 10
150.5337297618
 20
39.7832994411
  0
VERTEX
  8
0
 62
7
  6
CONTINUOUS
 10
152.5734134921
 20
39.1077400196
  0
VERTEX
  8
0
 62
7
  6
CONTINUOUS
 10
154.6562192995
 20
38.5799050302
  0
VERTEX
  8
0
 62
7
  6
CONTINUOUS
 10
156.7714630505
 20
38.2025020634
  0
SEQEND
  0
POLYLINE
  8
0
 62
7
  6
CONTINUOUS
 66
1
 70
0
  0
VERTEX
  8
0
 62
7
  6
CONTINUOUS
 10
131.117755783
 20
65.0327521673
  0
VERTEX
  8
0
 62
7
  6
CONTINUOUS
 10
131.3492096579
 20
63.2128252479
  0
VERTEX
  8
0
 62
7
  6
CONTINUOUS
 10
131.8087623732
 20
60.9024982365
  0
VERTEX
  8
0
 62
7
  6
CONTINUOUS
 10
132.4481646044
 20
58.6353492821
  0
VERTEX
  8
0
 62
7
  6
CONTINUOUS
 10
133.263474223
 20
56.425356113
  0
VERTEX
  8
0
 62
7
  6
CONTINUOUS
 10
134.2496645731
 20
54.2861440726
  0
VERTEX
  8
0
 62
7
  6
CONTINUOUS
 10
135.4006554617
 20
52.2309021149
  0
VERTEX
  8
0
 62
7
  6
CONTINUOUS
 10
136.7093506458
 20
50.2723014902
  0
VERTEX
  8
0
 62
7
  6
CONTINUOUS
 10
138.1676815824
 20
48.4224176221
  0
VERTEX
  8
0
 62
7
  6
CONTINUOUS
 10
139.7666571746
 20
46.6926556593
  0
VERTEX
  8
0
 62
7
  6
CONTINUOUS
 10
141.4964192039
 20
45.0936801585
  0
VERTEX
  8
0
 62
7
  6
CONTINUOUS
 10
143.3463031101
 20
43.6353493338
  0
VERTEX
  8
0
 62
7
  6
CONTINUOUS
 10
145.3049037415
 20
42.3266542783
  0
VERTEX
  8
0
 62
7
  6
CONTINUOUS
 10
147.3601456716
 20
41.1756635302
  0
VERTEX
  8
0
 62
7
  6
CONTINUOUS
 10
149.4993576482
 20
40.1894733279
  0
VERTEX
  8
0
 62
7
  6
CONTINUOUS
 10
151.709350716
 20
39.3741638598
  0
VERTEX
  8
0
 62
7
  6
CONTINUOUS
 10
153.9764995308
 20
38.7347617772
  0
VERTEX
  8
0
 62
7
  6
CONTINUOUS
 10
156.2868263641
 20
38.2752092038
  0
VERTEX
  8
0
 62
7
  6
CONTINUOUS
 10
158.6260872811
 20
37.9983394314
  0
SEQEND
  0
LINE
  8
0
 62
7
  6
CONTINUOUS
 10
131.1177564169
 20
65.0327522282
 11
131.2758082653
 21
63.7024584139
  0
POLYLINE
  8
0
 62
7
  6
CONTINUOUS
 66
1
 70
0
  0
VERTEX
  8
0
 62
7
  6
CONTINUOUS
 10
130.9798596578
 20
67.9058593094
  0
VERTEX
  8
0
 62
7
  6
CONTINUOUS
 10
131.0723397542
 20
65.5520863804
  0
VERTEX
  8
0
 62
7
  6
CONTINUOUS
 10
131.117755783
 20
65.0327521673
  0
SEQEND
  0
LINE
  8
0
 62
7
  6
CONTINUOUS
 10
130.9798596577
 20
67.905860661
 11
131.0511441386
 21
65.838981941
  0
LINE
  8
02___PRT_ALL_AXES
 62
7
  6
CONTINUOUS
 10
126.9798599588
 20
167.405056662
 11
126.9798599588
 21
121.405056662
  0
LINE
  8
0
 62
7
  6
CONTINUOUS
 10
130.4798599588
 20
171.405056662
 11
130.4798599588
 21
167.405056662
  0
LINE
  8
02___PRT_ALL_AXES
 62
7
  6
CONTINUOUS
 10
130.9798599588
 20
119.0956555852
 11
130.9798599588
 21
67.9058595439
  0
LINE
  8
0
 62
9
  6
CONTINUOUS
 10
130.9798599589
 20
67.9058593132
 11
133.5748396313
 21
68.2468918611
  0
LINE
  8
0
 62
9
  6
CONTINUOUS
 10
133.5748396313
 20
68.2468918611
 11
136.0151646943
 21
68.5645817486
  0
LINE
  8
0
 62
9
  6
CONTINUOUS
 10
136.0151646943
 20
68.5645817486
 11
139.1933612077
 21
68.9741110219
  0
POLYLINE
  8
0
 62
9
  6
CONTINUOUS
 66
1
 70
0
  0
VERTEX
  8
0
 62
9
  6
CONTINUOUS
 10
147.4778547156
 20
70.0260484302
  0
VERTEX
  8
0
 62
9
  6
CONTINUOUS
 10
149.587628513
 20
70.2951856271
  0
VERTEX
  8
0
 62
9
  6
CONTINUOUS
 10
151.4021644722
 20
70.5311529165
  0
VERTEX
  8
0
 62
9
  6
CONTINUOUS
 10
152.9048832042
 20
70.7332826788
  0
VERTEX
  8
0
 62
9
  6
CONTINUOUS
 10
154.163329753
 20
70.9115068682
  0
VERTEX
  8
0
 62
9
  6
CONTINUOUS
 10
155.2615836973
 20
71.0786397766
  0
VERTEX
  8
0
 62
9
  6
CONTINUOUS
 10
156.2807676246
 20
71.2481771642
  0
VERTEX
  8
0
 62
9
  6
CONTINUOUS
 10
157.3453071461
 20
71.4432602778
  0
VERTEX
  8
0
 62
9
  6
CONTINUOUS
 10
158.5307545789
 20
71.6835175754
  0
VERTEX
  8
0
 62
9
  6
CONTINUOUS
 10
159.8329042029
 20
71.9718436791
  0
VERTEX
  8
0
 62
9
  6
CONTINUOUS
 10
161.2088154035
 20
72.3004593287
  0
VERTEX
  8
0
 62
9
  6
CONTINUOUS
 10
162.5879654706
 20
72.6586339812
  0
VERTEX
  8
0
 62
9
  6
CONTINUOUS
 10
163.8753307569
 20
73.0074825311
  0
VERTEX
  8
0
 62
9
  6
CONTINUOUS
 10
165.0477595976
 20
73.3440387395
  0
VERTEX
  8
0
 62
9
  6
CONTINUOUS
 10
166.1208170311
 20
73.6619070297
  0
VERTEX
  8
0
 62
9
  6
CONTINUOUS
 10
167.111276599
 20
73.9653893821
  0
VERTEX
  8
0
 62
9
  6
CONTINUOUS
 10
168.0361992248
 20
74.2567650004
  0
VERTEX
  8
0
 62
9
  6
CONTINUOUS
 10
168.9148131224
 20
74.5403263689
  0
VERTEX
  8
0
 62
9
  6
CONTINUOUS
 10
169.7673886526
 20
74.8217982537
  0
VERTEX
  8
0
 62
9
  6
CONTINUOUS
 10
170.6151228599
 20
75.1075928875
  0
VERTEX
  8
0
 62
9
  6
CONTINUOUS
 10
171.4798599588
 20
75.405056662
  0
SEQEND
  0
POLYLINE
  8
0
 62
9
  6
CONTINUOUS
 66
1
 70
0
  0
VERTEX
  8
0
 62
9
  6
CONTINUOUS
 10
139.1933612077
 20
68.9741110219
  0
VERTEX
  8
0
 62
9
  6
CONTINUOUS
 10
143.0460899097
 20
69.4649719766
  0
VERTEX
  8
0
 62
9
  6
CONTINUOUS
 10
147.4778547156
 20
70.0260484302
  0
SEQEND
  0
POLYLINE
  8
0
 62
9
  6
CONTINUOUS
 66
1
 70
0
  0
VERTEX
  8
0
 62
9
  6
CONTINUOUS
 10
181.1667540611
 20
65.2743752736
  0
VERTEX
  8
0
 62
9
  6
CONTINUOUS
 10
182.1202499141
 20
64.4039804112
  0
VERTEX
  8
0
 62
9
  6
CONTINUOUS
 10
183.0245795566
 20
63.5840257324
  0
VERTEX
  8
0
 62
9
  6
CONTINUOUS
 10
183.9381417636
 20
62.7753441692
  0
VERTEX
  8
0
 62
9
  6
CONTINUOUS
 10
184.8932336004
 20
61.9531019277
  0
VERTEX
  8
0
 62
9
  6
CONTINUOUS
 10
185.9246468945
 20
61.0946599092
  0
VERTEX
  8
0
 62
9
  6
CONTINUOUS
 10
187.0646732613
 20
60.1752849763
  0
VERTEX
  8
0
 62
9
  6
CONTINUOUS
 10
188.3516420969
 20
59.1743889789
  0
VERTEX
  8
0
 62
9
  6
CONTINUOUS
 10
189.8285152706
 20
58.0836869725
  0
VERTEX
  8
0
 62
9
  6
CONTINUOUS
 10
191.5182830693
 20
56.8939207936
  0
VERTEX
  8
0
 62
9
  6
CONTINUOUS
 10
193.4561771297
 20
55.6203180831
  0
VERTEX
  8
0
 62
9
  6
CONTINUOUS
 10
195.686908588
 20
54.2614177284
  0
VERTEX
  8
0
 62
9
  6
CONTINUOUS
 10
198.2867069936
 20
52.8212210067
  0
VERTEX
  8
0
 62
9
  6
CONTINUOUS
 10
201.2525106062
 20
51.3570880226
  0
VERTEX
  8
0
 62
9
  6
CONTINUOUS
 10
204.5553288761
 20
49.9446155326
  0
VERTEX
  8
0
 62
9
  6
CONTINUOUS
 10
208.0824122175
 20
48.6709388039
  0
VERTEX
  8
0
 62
9
  6
CONTINUOUS
 10
211.6087260305
 20
47.6304987563
  0
VERTEX
  8
0
 62
9
  6
CONTINUOUS
 10
215.1347606416
 20
46.810566489
  0
VERTEX
  8
0
 62
9
  6
CONTINUOUS
 10
218.6267104205
 20
46.2054353062
  0
VERTEX
  8
0
 62
9
  6
CONTINUOUS
 10
222.0176000678
 20
45.8071313718
  0
VERTEX
  8
0
 62
9
  6
CONTINUOUS
 10
225.2386402743
 20
45.5959778292
  0
VERTEX
  8
0
 62
9
  6
CONTINUOUS
 10
228.1607313293
 20
45.5417359576
  0
VERTEX
  8
0
 62
9
  6
CONTINUOUS
 10
230.5831207567
 20
45.5935327564
  0
VERTEX
  8
0
 62
9
  6
CONTINUOUS
 10
232.4788283402
 20
45.6947408297
  0
VERTEX
  8
0
 62
9
  6
CONTINUOUS
 10
233.9192932573
 20
45.8076603024
  0
VERTEX
  8
0
 62
9
  6
CONTINUOUS
 10
235.0071772225
 20
45.9129667276
  0
VERTEX
  8
0
 62
9
  6
CONTINUOUS
 10
235.8307458208
 20
46.0054816625
  0
VERTEX
  8
0
 62
9
  6
CONTINUOUS
 10
236.4344770925
 20
46.0786784217
  0
VERTEX
  8
0
 62
9
  6
CONTINUOUS
 10
236.868761139
 20
46.1348545354
  0
VERTEX
  8
0
 62
9
  6
CONTINUOUS
 10
237.1716866472
 20
46.1781919345
  0
VERTEX
  8
0
 62
9
  6
CONTINUOUS
 10
237.3341935532
 20
46.1982483814
  0
VERTEX
  8
0
 62
9
  6
CONTINUOUS
 10
237.3940251341
 20
46.2077983527
  0
SEQEND
  0
POLYLINE
  8
0
 62
9
  6
CONTINUOUS
 66
1
 70
0
  0
VERTEX
  8
0
 62
9
  6
CONTINUOUS
 10
180.9662158967
 20
65.4747342307
  0
VERTEX
  8
0
 62
9
  6
CONTINUOUS
 10
181.0660912059
 20
65.3740263869
  0
VERTEX
  8
0
 62
9
  6
CONTINUOUS
 10
181.1667540611
 20
65.2743752736
  0
SEQEND
  0
LINE
  8
0
 62
9
  6
CONTINUOUS
 10
181.166818862
 20
65.2744100593
 11
182.5044746384
 21
63.8349449877
  0
POLYLINE
  8
0
 62
9
  6
CONTINUOUS
 66
1
 70
0
  0
VERTEX
  8
0
 62
9
  6
CONTINUOUS
 10
171.4798598821
 20
75.4050565944
  0
VERTEX
  8
0
 62
9
  6
CONTINUOUS
 10
173.909801779
 20
72.7694777028
  0
VERTEX
  8
0
 62
9
  6
CONTINUOUS
 10
176.3064291439
 20
70.2356565201
  0
VERTEX
  8
0
 62
9
  6
CONTINUOUS
 10
178.6564180876
 20
67.8092002718
  0
VERTEX
  8
0
 62
9
  6
CONTINUOUS
 10
180.9462986896
 20
65.4946349404
  0
SEQEND
  0
POLYLINE
  8
0
 62
9
  6
CONTINUOUS
 66
1
 70
0
  0
VERTEX
  8
0
 62
9
  6
CONTINUOUS
 10
182.5044746384
 20
63.8349449877
  0
VERTEX
  8
0
 62
9
  6
CONTINUOUS
 10
183.1409091297
 20
63.1429185546
  0
VERTEX
  8
0
 62
9
  6
CONTINUOUS
 10
183.7767203585
 20
62.4452656943
  0
VERTEX
  8
0
 62
9
  6
CONTINUOUS
 10
184.4316562944
 20
61.720886004
  0
VERTEX
  8
0
 62
9
  6
CONTINUOUS
 10
185.1184088769
 20
60.9455923494
  0
VERTEX
  8
0
 62
9
  6
CONTINUOUS
 10
185.8496601081
 20
60.1021517376
  0
VERTEX
  8
0
 62
9
  6
CONTINUOUS
 10
186.6374935453
 20
59.1816390952
  0
VERTEX
  8
0
 62
9
  6
CONTINUOUS
 10
187.4727861766
 20
58.1679107443
  0
VERTEX
  8
0
 62
9
  6
CONTINUOUS
 10
188.3558666897
 20
57.0653557956
  0
VERTEX
  8
0
 62
9
  6
CONTINUOUS
 10
189.2806638828
 20
55.8597832166
  0
VERTEX
  8
0
 62
9
  6
CONTINUOUS
 10
190.2489607506
 20
54.5288197159
  0
VERTEX
  8
0
 62
9
  6
CONTINUOUS
 10
191.2302014414
 20
53.0931891375
  0
VERTEX
  8
0
 62
9
  6
CONTINUOUS
 10
192.1877080386
 20
51.5811096223
  0
VERTEX
  8
0
 62
9
  6
CONTINUOUS
 10
193.0789862168
 20
50.0436877869
  0
VERTEX
  8
0
 62
9
  6
CONTINUOUS
 10
193.8572982345
 20
48.5684635329
  0
VERTEX
  8
0
 62
9
  6
CONTINUOUS
 10
194.5402273446
 20
47.1374277185
  0
VERTEX
  8
0
 62
9
  6
CONTINUOUS
 10
195.1380768257
 20
45.7472246379
  0
VERTEX
  8
0
 62
9
  6
CONTINUOUS
 10
195.6565954053
 20
44.4074607212
  0
VERTEX
  8
0
 62
9
  6
CONTINUOUS
 10
196.1020072177
 20
43.1293705752
  0
VERTEX
  8
0
 62
9
  6
CONTINUOUS
 10
196.472991653
 20
41.9517928739
  0
VERTEX
  8
0
 62
9
  6
CONTINUOUS
 10
196.7606375654
 20
40.9514559339
  0
VERTEX
  8
0
 62
9
  6
CONTINUOUS
 10
196.9753790088
 20
40.1456181226
  0
VERTEX
  8
0
 62
9
  6
CONTINUOUS
 10
197.1334785707
 20
39.5154927934
  0
VERTEX
  8
0
 62
9
  6
CONTINUOUS
 10
197.2504877893
 20
39.0262304225
  0
VERTEX
  8
0
 62
9
  6
CONTINUOUS
 10
197.3377366786
 20
38.6482355038
  0
SEQEND
  0
POLYLINE
  8
0
 62
7
  6
CONTINUOUS
 66
1
 70
0
  0
VERTEX
  8
0
 62
7
  6
CONTINUOUS
 10
135.8004988616
 20
175.5311164072
  0
VERTEX
  8
0
 62
7
  6
CONTINUOUS
 10
135.807703695
 20
175.4443559491
  0
VERTEX
  8
0
 62
7
  6
CONTINUOUS
 10
135.8010795998
 20
175.2836543912
  0
VERTEX
  8
0
 62
7
  6
CONTINUOUS
 10
135.7687781114
 20
175.1260938346
  0
VERTEX
  8
0
 62
7
  6
CONTINUOUS
 10
135.7116348173
 20
174.975749626
  0
VERTEX
  8
0
 62
7
  6
CONTINUOUS
 10
135.6311275992
 20
174.8365105398
  0
VERTEX
  8
0
 62
7
  6
CONTINUOUS
 10
135.5293384629
 20
174.7119783015
  0
VERTEX
  8
0
 62
7
  6
CONTINUOUS
 10
135.4089006902
 20
174.6053751971
  0
VERTEX
  8
0
 62
7
  6
CONTINUOUS
 10
135.2729323202
 20
174.5194605217
  0
VERTEX
  8
0
 62
7
  6
CONTINUOUS
 10
135.1249543152
 20
174.4564568459
  0
VERTEX
  8
0
 62
7
  6
CONTINUOUS
 10
134.9687983933
 20
174.4179919226
  0
VERTEX
  8
0
 62
7
  6
CONTINUOUS
 10
134.8085079448
 20
174.4050566609
  0
SEQEND
  0
LINE
  8
02___PRT_ALL_AXES
 62
7
  6
CONTINUOUS
 10
126.9798599588
 20
121.405056662
 11
130.9798599588
 21
119.0956555852
  0
LINE
  8
0
 62
7
  6
CONTINUOUS
 10
85.439867557
 20
257.0217523498
 11
84.8150890853
 21
258.5008489212
  0
LINE
  8
0
 62
7
  6
CONTINUOUS
 10
102.4295116163
 20
257.6150437937
 11
101.8047331447
 21
259.0941403652
  0
LINE
  8
02___PRT_ALL_AXES
 62
7
  6
CENTER
 10
171.4798599588
 20
31.905056662
 11
171.4798599588
 21
257.9978932584
  0
LINE
  8
0
 62
7
  6
CONTINUOUS
 10
130.9798599588
 20
119.0956555852
 11
209.0491773381
 21
119.0956555852
  0
LINE
  8
0
 62
7
  6
CONTINUOUS
 10
126.9798599588
 20
121.405056662
 11
213.3222615651
 21
121.405056662
  0
POLYLINE
  8
0
 62
9
  6
CONTINUOUS
 66
1
 70
0
  0
VERTEX
  8
0
 62
9
  6
CONTINUOUS
 10
197.3377366786
 20
38.6482355038
  0
VERTEX
  8
0
 62
9
  6
CONTINUOUS
 10
197.4466789621
 20
38.1574663528
  0
VERTEX
  8
0
 62
9
  6
CONTINUOUS
 10
197.4776144655
 20
38.0152336688
  0
VERTEX
  8
0
 62
9
  6
CONTINUOUS
 10
197.4949733821
 20
37.9323871096
  0
VERTEX
  8
0
 62
9
  6
CONTINUOUS
 10
197.5008496021
 20
37.9058588522
  0
SEQEND
  0
LINE
  8
0
 62
7
  6
CONTINUOUS
 10
234.0813728935
 20
140.405056662
 11
319.9798599588
 21
140.405056662
  0
POLYLINE
  8
0
 62
7
  6
CONTINUOUS
 66
1
 70
0
  0
VERTEX
  8
0
 62
7
  6
CONTINUOUS
 10
234.0813728935
 20
140.405056662
  0
VERTEX
  8
0
 62
7
  6
CONTINUOUS
 10
233.145585708
 20
140.8810938401
  0
VERTEX
  8
0
 62
7
  6
CONTINUOUS
 10
232.3719554669
 20
141.2676819396
  0
VERTEX
  8
0
 62
7
  6
CONTINUOUS
 10
231.765088682
 20
141.566872292
  0
VERTEX
  8
0
 62
7
  6
CONTINUOUS
 10
230.9798599588
 20
141.9490800091
  0
SEQEND
  0
POLYLINE
  8
0
 62
7
  6
CONTINUOUS
 66
1
 70
0
  0
VERTEX
  8
0
 62
7
  6
CONTINUOUS
 10
206.7361875312
 20
175.2698599914
  0
VERTEX
  8
0
 62
7
  6
CONTINUOUS
 10
205.9153696465
 20
180.2841224553
  0
VERTEX
  8
0
 62
7
  6
CONTINUOUS
 10
204.8000431221
 20
185.3607067846
  0
VERTEX
  8
0
 62
7
  6
CONTINUOUS
 10
203.4117983024
 20
190.3576907088
  0
VERTEX
  8
0
 62
7
  6
CONTINUOUS
 10
201.7558029421
 20
195.2603675802
  0
VERTEX
  8
0
 62
7
  6
CONTINUOUS
 10
199.8380200208
 20
200.0543486198
  0
VERTEX
  8
0
 62
7
  6
CONTINUOUS
 10
197.6651890002
 20
204.7256055941
  0
VERTEX
  8
0
 62
7
  6
CONTINUOUS
 10
195.244806055
 20
209.2605104042
  0
VERTEX
  8
0
 62
7
  6
CONTINUOUS
 10
192.5851006562
 20
213.6458772989
  0
VERTEX
  8
0
 62
7
  6
CONTINUOUS
 10
189.6950090405
 20
217.8690043566
  0
VERTEX
  8
0
 62
7
  6
CONTINUOUS
 10
186.5841479905
 20
221.9177094186
  0
VERTEX
  8
0
 62
7
  6
CONTINUOUS
 10
183.2627852769
 20
225.7803671942
  0
VERTEX
  8
0
 62
7
  6
CONTINUOUS
 10
179.7418048196
 20
229.4459478542
  0
VERTEX
  8
0
 62
7
  6
CONTINUOUS
 10
176.0326744762
 20
232.9040477911
  0
VERTEX
  8
0
 62
7
  6
CONTINUOUS
 10
172.1474123959
 20
236.1449193787
  0
VERTEX
  8
0
 62
7
  6
CONTINUOUS
 10
168.0985486095
 20
239.1595018788
  0
VERTEX
  8
0
 62
7
  6
CONTINUOUS
 10
163.8990855548
 20
241.9394492014
  0
VERTEX
  8
0
 62
7
  6
CONTINUOUS
 10
159.5624599174
 20
244.4771536636
  0
VERTEX
  8
0
 62
7
  6
CONTINUOUS
 10
155.1024998829
 20
246.7657699782
  0
VERTEX
  8
0
 62
7
  6
CONTINUOUS
 10
150.5333782162
 20
248.7992376048
  0
VERTEX
  8
0
 62
7
  6
CONTINUOUS
 10
145.8695722195
 20
250.572296384
  0
VERTEX
  8
0
 62
7
  6
CONTINUOUS
 10
141.1258198828
 20
252.080502129
  0
VERTEX
  8
0
 62
7
  6
CONTINUOUS
 10
136.3170713348
 20
253.3202409626
  0
VERTEX
  8
0
 62
7
  6
CONTINUOUS
 10
131.458443222
 20
254.2887394911
  0
VERTEX
  8
0
 62
7
  6
CONTINUOUS
 10
126.5651736999
 20
254.9840725828
  0
VERTEX
  8
0
 62
7
  6
CONTINUOUS
 10
121.6525722551
 20
255.4051694956
  0
VERTEX
  8
0
 62
7
  6
CONTINUOUS
 10
116.7359700447
 20
255.5518164491
  0
VERTEX
  8
0
 62
7
  6
CONTINUOUS
 10
111.9387688125
 20
255.4304116801
  0
SEQEND
  0
LINE
  8
0
 62
7
  6
CONTINUOUS
 10
212.4798599588
 20
171.405056662
 11
212.4798599588
 21
167.405056662
  0
LINE
  8
02___PRT_ALL_AXES
 62
7
  6
CONTINUOUS
 10
215.9798599588
 20
167.405056662
 11
215.9798599588
 21
126.6369191811
  0
LINE
  8
02___PRT_ALL_AXES
 62
7
  6
CONTINUOUS
 10
126.9798599588
 20
167.405056662
 11
215.9798599588
 21
167.405056662
  0
LINE
  8
0
 62
9
  6
CONTINUOUS
 10
212.4798599588
 20
171.405056662
 11
130.4798599588
 21
171.405056662
  0
LINE
  8
02___PRT_ALL_AXES
 62
7
  6
CONTINUOUS
 10
230.9798599588
 20
189.405056662
 11
230.9798599588
 21
141.9490800091
  0
POLYLINE
  8
0
 62
7
  6
CONTINUOUS
 66
1
 70
0
  0
VERTEX
  8
0
 62
7
  6
CONTINUOUS
 10
215.9798599588
 20
126.6369191811
  0
VERTEX
  8
0
 62
7
  6
CONTINUOUS
 10
215.670079825
 20
126.002946575
  0
VERTEX
  8
0
 62
7
  6
CONTINUOUS
 10
215.4185845541
 20
125.4933720929
  0
VERTEX
  8
0
 62
7
  6
CONTINUOUS
 10
215.0757596494
 20
124.8058419332
  0
VERTEX
  8
0
 62
7
  6
CONTINUOUS
 10
214.6260714667
 20
123.9158552004
  0
VERTEX
  8
0
 62
7
  6
CONTINUOUS
 10
214.0504723579
 20
122.7951886801
  0
VERTEX
  8
0
 62
7
  6
CONTINUOUS
 10
213.3222615651
 20
121.405056662
  0
SEQEND
  0
POLYLINE
  8
0
 62
7
  6
CONTINUOUS
 66
1
 70
0
  0
VERTEX
  8
0
 62
7
  6
CONTINUOUS
 10
209.0491773381
 20
119.0956555852
  0
VERTEX
  8
0
 62
7
  6
CONTINUOUS
 10
208.04888079
 20
117.5076641271
  0
VERTEX
  8
0
 62
7
  6
CONTINUOUS
 10
206.8468321191
 20
115.6546783997
  0
VERTEX
  8
0
 62
7
  6
CONTINUOUS
 10
205.5162951286
 20
113.6678641766
  0
VERTEX
  8
0
 62
7
  6
CONTINUOUS
 10
204.1468151399
 20
111.6870054047
  0
VERTEX
  8
0
 62
7
  6
CONTINUOUS
 10
202.6396614767
 20
109.5752941463
  0
VERTEX
  8
0
 62
7
  6
CONTINUOUS
 10
200.8606121798
 20
107.1659890564
  0
VERTEX
  8
0
 62
7
  6
CONTINUOUS
 10
198.7937400216
 20
104.4687841494
  0
VERTEX
  8
0
 62
7
  6
CONTINUOUS
 10
196.4814409521
 20
101.5671114294
  0
VERTEX
  8
0
 62
7
  6
CONTINUOUS
 10
193.9894829737
 20
98.5616813843
  0
VERTEX
  8
0
 62
7
  6
CONTINUOUS
 10
191.1625419118
 20
95.2876848949
  0
VERTEX
  8
0
 62
7
  6
CONTINUOUS
 10
188.068016385
 20
91.8497660061
  0
VERTEX
  8
0
 62
7
  6
CONTINUOUS
 10
184.8096385465
 20
88.3755447584
  0
VERTEX
  8
0
 62
7
  6
CONTINUOUS
 10
181.4969627999
 20
84.9793289348
  0
VERTEX
  8
0
 62
7
  6
CONTINUOUS
 10
178.170025957
 20
81.6915582773
  0
VERTEX
  8
0
 62
7
  6
CONTINUOUS
 10
174.830756307
 20
78.5030681214
  0
VERTEX
  8
0
 62
7
  6
CONTINUOUS
 10
171.4798599588
 20
75.405056662
  0
SEQEND
  0
POLYLINE
  8
0
 62
7
  6
CONTINUOUS
 66
1
 70
0
  0
VERTEX
  8
0
 62
7
  6
CONTINUOUS
 10
213.3222615651
 20
121.405056662
  0
VERTEX
  8
0
 62
7
  6
CONTINUOUS
 10
211.8409627122
 20
120.5873717401
  0
VERTEX
  8
0
 62
7
  6
CONTINUOUS
 10
210.4156147191
 20
119.8174262179
  0
VERTEX
  8
0
 62
7
  6
CONTINUOUS
 10
209.0491773381
 20
119.0956555852
  0
SEQEND
  0
LINE
  8
0
 62
7
  6
CONTINUOUS
 10
209.4798599588
 20
174.405056662
 11
133.4798599588
 21
174.405056662
  0
LINE
  8
0
 62
9
  6
CONTINUOUS
 10
167.5290160739
 20
175.3297402794
 11
206.7361875312
 21
175.2698599914
  0
LINE
  8
0
 62
9
  6
CONTINUOUS
 10
160.2576466953
 20
175.3519823802
 11
167.5290160739
 21
175.3297402794
  0
LINE
  8
0
 62
9
  6
CONTINUOUS
 10
155.6540510236
 20
175.3700531781
 11
160.2576466953
 21
175.3519823802
  0
LINE
  8
0
 62
9
  6
CONTINUOUS
 10
151.3544455407
 20
175.3908618506
 11
155.6540510236
 21
175.3700531781
  0
LINE
  8
0
 62
9
  6
CONTINUOUS
 10
147.4434457057
 20
175.4143307466
 11
151.3544455407
 21
175.3908618506
  0
LINE
  8
0
 62
9
  6
CONTINUOUS
 10
143.9981474091
 20
175.4399200634
 11
147.4434457057
 21
175.4143307466
  0
LINE
  8
0
 62
9
  6
CONTINUOUS
 10
141.0916038117
 20
175.466322012
 11
143.9981474091
 21
175.4399200634
  0
LINE
  8
0
 62
9
  6
CONTINUOUS
 10
137.8656117041
 20
175.5026697003
 11
141.0916038117
 21
175.466322012
  0
LINE
  8
0
 62
9
  6
CONTINUOUS
 10
135.8004988601
 20
175.5311164071
 11
137.8656117041
 21
175.5026697003
  0
POLYLINE
  8
0
 62
7
  6
CONTINUOUS
 66
1
 70
0
  0
VERTEX
  8
0
 62
7
  6
CONTINUOUS
 10
207.7265643984
 20
174.4050567588
  0
VERTEX
  8
0
 62
7
  6
CONTINUOUS
 10
207.5597249967
 20
174.4191474559
  0
VERTEX
  8
0
 62
7
  6
CONTINUOUS
 10
207.3975751149
 20
174.4608770779
  0
VERTEX
  8
0
 62
7
  6
CONTINUOUS
 10
207.2446603311
 20
174.529075866
  0
VERTEX
  8
0
 62
7
  6
CONTINUOUS
 10
207.1052675484
 20
174.6218319754
  0
VERTEX
  8
0
 62
7
  6
CONTINUOUS
 10
206.9833045692
 20
174.7365450936
  0
VERTEX
  8
0
 62
7
  6
CONTINUOUS
 10
206.8821905539
 20
174.8699993436
  0
VERTEX
  8
0
 62
7
  6
CONTINUOUS
 10
206.8047601689
 20
175.0184534412
  0
VERTEX
  8
0
 62
7
  6
CONTINUOUS
 10
206.7531841146
 20
175.1777455834
  0
VERTEX
  8
0
 62
7
  6
CONTINUOUS
 10
206.73618753
 20
175.2698599914
  0
SEQEND
  0
POLYLINE
  8
0
 62
7
  6
CONTINUOUS
 66
1
 70
0
  0
VERTEX
  8
0
 62
7
  6
CONTINUOUS
 10
113.9121901241
 20
198.919019168
  0
VERTEX
  8
0
 62
7
  6
CONTINUOUS
 10
115.9126724322
 20
198.3650433898
  0
VERTEX
  8
0
 62
7
  6
CONTINUOUS
 10
117.9733098949
 20
197.6380909979
  0
VERTEX
  8
0
 62
7
  6
CONTINUOUS
 10
119.9594144562
 20
196.7738821292
  0
VERTEX
  8
0
 62
7
  6
CONTINUOUS
 10
121.8617118282
 20
195.7789380898
  0
VERTEX
  8
0
 62
7
  6
CONTINUOUS
 10
123.6714226877
 20
194.6604422458
  0
VERTEX
  8
0
 62
7
  6
CONTINUOUS
 10
125.3803466288
 20
193.4261866595
  0
VERTEX
  8
0
 62
7
  6
CONTINUOUS
 10
126.9808932951
 20
192.0845381572
  0
VERTEX
  8
0
 62
7
  6
CONTINUOUS
 10
128.4661222205
 20
190.6443990325
  0
VERTEX
  8
0
 62
7
  6
CONTINUOUS
 10
129.8298385863
 20
189.1150975302
  0
VERTEX
  8
0
 62
7
  6
CONTINUOUS
 10
131.0665594065
 20
187.506390367
  0
VERTEX
  8
0
 62
7
  6
CONTINUOUS
 10
132.1715536083
 20
185.8284065935
  0
VERTEX
  8
0
 62
7
  6
CONTINUOUS
 10
133.1408800414
 20
184.0915789175
  0
VERTEX
  8
0
 62
7
  6
CONTINUOUS
 10
133.9713952961
 20
182.3066173658
  0
VERTEX
  8
0
 62
7
  6
CONTINUOUS
 10
134.6608168538
 20
180.4843547462
  0
VERTEX
  8
0
 62
7
  6
CONTINUOUS
 10
135.207697779
 20
178.6357358248
  0
VERTEX
  8
0
 62
7
  6
CONTINUOUS
 10
135.6114281299
 20
176.7717851756
  0
VERTEX
  8
0
 62
7
  6
CONTINUOUS
 10
135.8004988601
 20
175.5311164071
  0
SEQEND
  0
POLYLINE
  8
0
 62
9
  6
CONTINUOUS
 66
1
 70
0
  0
VERTEX
  8
0
 62
9
  6
CONTINUOUS
 10
161.224064451
 20
38.2143056455
  0
VERTEX
  8
0
 62
9
  6
CONTINUOUS
 10
161.4119909592
 20
38.4568365906
  0
VERTEX
  8
0
 62
9
  6
CONTINUOUS
 10
161.6526756161
 20
38.7732015646
  0
VERTEX
  8
0
 62
9
  6
CONTINUOUS
 10
161.9439805471
 20
39.166603066
  0
VERTEX
  8
0
 62
9
  6
CONTINUOUS
 10
162.2853279517
 20
39.6432852879
  0
VERTEX
  8
0
 62
9
  6
CONTINUOUS
 10
162.6743474495
 20
40.2098789169
  0
VERTEX
  8
0
 62
9
  6
CONTINUOUS
 10
163.1093720025
 20
40.8776318403
  0
VERTEX
  8
0
 62
9
  6
CONTINUOUS
 10
163.5887188588
 20
41.6633288982
  0
VERTEX
  8
0
 62
9
  6
CONTINUOUS
 10
164.1084355425
 20
42.588969067
  0
VERTEX
  8
0
 62
9
  6
CONTINUOUS
 10
164.6688804215
 20
43.6998694418
  0
VERTEX
  8
0
 62
9
  6
CONTINUOUS
 10
165.2576432306
 20
45.0468140514
  0
VERTEX
  8
0
 62
9
  6
CONTINUOUS
 10
165.8039237904
 20
46.5483864044
  0
VERTEX
  8
0
 62
9
  6
CONTINUOUS
 10
166.273332421
 20
48.1531501958
  0
VERTEX
  8
0
 62
9
  6
CONTINUOUS
 10
166.6622203695
 20
49.8457239732
  0
VERTEX
  8
0
 62
9
  6
CONTINUOUS
 10
166.9887366891
 20
51.6630629021
  0
VERTEX
  8
0
 62
9
  6
CONTINUOUS
 10
167.2743754694
 20
53.6386599074
  0
VERTEX
  8
0
 62
9
  6
CONTINUOUS
 10
167.5392164286
 20
55.7362416689
  0
VERTEX
  8
0
 62
9
  6
CONTINUOUS
 10
167.8158518743
 20
57.9556751342
  0
VERTEX
  8
0
 62
9
  6
CONTINUOUS
 10
168.1242088377
 20
60.2194083991
  0
VERTEX
  8
0
 62
9
  6
CONTINUOUS
 10
168.4609715169
 20
62.3948817923
  0
VERTEX
  8
0
 62
9
  6
CONTINUOUS
 10
168.8160365761
 20
64.4133402434
  0
VERTEX
  8
0
 62
9
  6
CONTINUOUS
 10
169.1757062412
 20
66.2286651093
  0
VERTEX
  8
0
 62
9
  6
CONTINUOUS
 10
169.5075077717
 20
67.7749919717
  0
VERTEX
  8
0
 62
9
  6
CONTINUOUS
 10
169.8126425603
 20
69.0966201272
  0
VERTEX
  8
0
 62
9
  6
CONTINUOUS
 10
170.0903899583
 20
70.2444157605
  0
VERTEX
  8
0
 62
9
  6
CONTINUOUS
 10
170.3472232409
 20
71.2613547663
  0
VERTEX
  8
0
 62
9
  6
CONTINUOUS
 10
170.5870929817
 20
72.1810332548
  0
VERTEX
  8
0
 62
9
  6
CONTINUOUS
 10
170.8148386198
 20
73.0307647499
  0
VERTEX
  8
0
 62
9
  6
CONTINUOUS
 10
171.0358840195
 20
73.8358350891
  0
VERTEX
  8
0
 62
9
  6
CONTINUOUS
 10
171.2556688266
 20
74.6199022727
  0
VERTEX
  8
0
 62
9
  6
CONTINUOUS
 10
171.4798599684
 20
75.4050566959
  0
SEQEND
  0
POLYLINE
  8
0
 62
9
  6
CONTINUOUS
 66
1
 70
0
  0
VERTEX
  8
0
 62
9
  6
CONTINUOUS
 10
160.9798902258
 20
37.9058588537
  0
VERTEX
  8
0
 62
9
  6
CONTINUOUS
 10
161.0073685878
 20
37.9403439144
  0
VERTEX
  8
0
 62
9
  6
CONTINUOUS
 10
161.224064451
 20
38.2143056455
  0
SEQEND
  0
LINE
  8
02___PRT_ALL_AXES
 62
7
  6
CONTINUOUS
 10
230.9798599588
 20
189.405056662
 11
319.9798599588
 21
189.405056662
  0
LINE
  8
0
 62
7
  6
CONTINUOUS
 10
104.0383009336
 20
195.133127436
 11
102.0395192796
 21
195.0633284426
  0
LINE
  8
0
 62
7
  6
CONTINUOUS
 10
87.0486568743
 20
194.539835992
 11
85.0498752203
 21
194.4700369986
  0
LINE
  8
02___PRT_ALL_AXES
 62
7
  6
CONTINUOUS
 10
112.9804691317
 20
196.9463091468
 11
104.5583809152
 21
196.6522033456
  0
LINE
  8
02___PRT_ALL_AXES
 62
7
  6
CONTINUOUS
 10
101.5602084341
 20
196.5475048555
 11
87.5687368558
 21
196.0589119016
  0
LINE
  8
02___PRT_ALL_AXES
 62
7
  6
CONTINUOUS
 10
84.5705643748
 20
195.9542134115
 11
80.0005718401
 21
195.7946257556
  0
LINE
  8
02___PRT_ALL_AXES
 62
7
  6
CENTER
 10
275.4798599588
 20
137.905056662
 11
275.4798599588
 21
191.905056662
  0
LINE
  8
02___PRT_ALL_AXES
 62
7
  6
CENTER
 10
76.4376601231
 20
226.188797238
 11
205.0181551351
 21
230.6789270654
  0
LINE
  8
0
 62
7
  6
CONTINUOUS
 10
235.960632792
 20
45.5974387859
 11
237.3940242649
 21
46.2078003507
  0
LINE
  8
0
 62
7
  6
CONTINUOUS
 10
234.3668134213
 20
44.9494170552
 11
235.960632792
 21
45.5974387859
  0
LINE
  8
0
 62
7
  6
CONTINUOUS
 10
232.6971062277
 20
44.3044540045
 11
235.9606330436
 21
45.5974384039
  0
LINE
  8
0
 62
7
  6
CONTINUOUS
 10
232.6970851205
 20
44.3044465396
 11
234.3668134213
 21
44.9494170552
  0
LINE
  8
0
 62
7
  6
CONTINUOUS
 10
231.9530846541
 20
44.0280505558
 11
234.3668134213
 21
44.9494170552
  0
LINE
  8
02___PRT_ALL_AXES
 62
7
  6
CONTINUOUS
 10
319.9798599588
 20
189.405056662
 11
319.9798599588
 21
140.405056662
  0
LINE
  8
02___PRT_ALL_AXES
 62
7
  6
CONTINUOUS
 10
110.8515998329
 20
257.909149595
 11
102.4295116163
 21
257.6150437937
  0
LINE
  8
02___PRT_ALL_AXES
 62
7
  6
CONTINUOUS
 10
99.4313391353
 20
257.5103453036
 11
85.439867557
 21
257.0217523498
  0
LINE
  8
02___PRT_ALL_AXES
 62
7
  6
CONTINUOUS
 10
82.4416950759
 20
256.9170538597
 11
77.8717025412
 21
256.7574662038
  0
LINE
  8
0
 62
7
  6
CONTINUOUS
 10
101.8047331447
 20
259.0941403652
 11
99.8059514906
 21
259.0243413718
  0
LINE
  8
0
 62
7
  6
CONTINUOUS
 10
84.8150890853
 20
258.5008489212
 11
82.8163074313
 21
258.4310499278
  0
ARC
  8
0
 62
7
  6
CONTINUOUS
 10
180.9451748394
 20
175.9605528529
 40
141.5
 50
293.5114173696
 51
345.4469920466
  0
ARC
  8
0
 62
7
  6
CONTINUOUS
 10
180.9451748394
 20
175.9605528529
 40
60.5
 50
305.3862616252
 51
325.7937839572
  0
ARC
  8
0
 62
7
  6
CONTINUOUS
 10
209.4798599588
 20
171.405056662
 40
3.0
 50
0.0
 51
90.0
  0
ARC
  8
0
 62
7
  6
CONTINUOUS
 10
133.4798599588
 20
171.405056662
 40
3.0
 50
90.0
 51
180.0
  0
ARC
  8
0
 62
7
  6
CONTINUOUS
 10
112.945569635
 20
197.9456999738
 40
1.0
 50
272.0
 51
2.0
  0
ARC
  8
0
 62
7
  6
CONTINUOUS
 10
110.8864993296
 20
256.909758768
 40
1.0
 50
2.0
 51
92.0
  0
ENDSEC
  0
EOF
