  0
SECTION
  2
HEADER
  9
$ACADVER
  1
AC1018
  9
$ACADMAINTVER
 70
     0
  9
$DWGCODEPAGE
  3
ANSI_1252
  9
$INSBASE
 10
0.0
 20
0.0
 30
0.0
  9
$EXTMIN
 10
1.000000000000000E+20
 20
1.000000000000000E+20
 30
1.000000000000000E+20
  9
$EXTMAX
 10
-1.000000000000000E+20
 20
-1.000000000000000E+20
 30
-1.000000000000000E+20
  9
$LIMMIN
 10
0.0
 20
0.0
  9
$LIMMAX
 10
12.0
 20
9.0
  9
$ORTHOMODE
 70
     0
  9
$REGENMODE
 70
     1
  9
$FILLMODE
 70
     1
  9
$QTEXTMODE
 70
     0
  9
$MIRRTEXT
 70
     1
  9
$LTSCALE
 40
1.0
  9
$ATTMODE
 70
     1
  9
$TEXTSIZE
 40
0.2
  9
$TRACEWID
 40
0.05
  9
$TEXTSTYLE
  7
Standard
  9
$CLAYER
  8
0
  9
$CELTYPE
  6
ByLayer
  9
$CECOLOR
 62
   256
  9
$CELTSCALE
 40
1.0
  9
$DISPSILH
 70
     0
  9
$DIMSCALE
 40
1.0
  9
$DIMASZ
 40
0.18
  9
$DIMEXO
 40
0.0625
  9
$DIMDLI
 40
0.38
  9
$DIMRND
 40
0.0
  9
$DIMDLE
 40
0.0
  9
$DIMEXE
 40
0.18
  9
$DIMTP
 40
0.0
  9
$DIMTM
 40
0.0
  9
$DIMTXT
 40
0.18
  9
$DIMCEN
 40
0.09
  9
$DIMTSZ
 40
0.0
  9
$DIMTOL
 70
     0
  9
$DIMLIM
 70
     0
  9
$DIMTIH
 70
     1
  9
$DIMTOH
 70
     1
  9
$DIMSE1
 70
     0
  9
$DIMSE2
 70
     0
  9
$DIMTAD
 70
     0
  9
$DIMZIN
 70
     0
  9
$DIMBLK
  1

  9
$DIMASO
 70
     1
  9
$DIMSHO
 70
     1
  9
$DIMPOST
  1

  9
$DIMAPOST
  1

  9
$DIMALT
 70
     0
  9
$DIMALTD
 70
     2
  9
$DIMALTF
 40
25.4
  9
$DIMLFAC
 40
1.0
  9
$DIMTOFL
 70
     0
  9
$DIMTVP
 40
0.0
  9
$DIMTIX
 70
     0
  9
$DIMSOXD
 70
     0
  9
$DIMSAH
 70
     0
  9
$DIMBLK1
  1

  9
$DIMBLK2
  1

  9
$DIMSTYLE
  2
Standard
  9
$DIMCLRD
 70
     0
  9
$DIMCLRE
 70
     0
  9
$DIMCLRT
 70
     0
  9
$DIMTFAC
 40
1.0
  9
$DIMGAP
 40
0.09
  9
$DIMJUST
 70
     0
  9
$DIMSD1
 70
     0
  9
$DIMSD2
 70
     0
  9
$DIMTOLJ
 70
     1
  9
$DIMTZIN
 70
     0
  9
$DIMALTZ
 70
     0
  9
$DIMALTTZ
 70
     0
  9
$DIMUPT
 70
     0
  9
$DIMDEC
 70
     4
  9
$DIMTDEC
 70
     4
  9
$DIMALTU
 70
     2
  9
$DIMALTTD
 70
     2
  9
$DIMTXSTY
  7
Standard
  9
$DIMAUNIT
 70
     0
  9
$DIMADEC
 70
     0
  9
$DIMALTRND
 40
0.0
  9
$DIMAZIN
 70
     0
  9
$DIMDSEP
 70
    46
  9
$DIMATFIT
 70
     3
  9
$DIMFRAC
 70
     0
  9
$DIMLDRBLK
  1

  9
$DIMLUNIT
 70
     2
  9
$DIMLWD
 70
    -2
  9
$DIMLWE
 70
    -2
  9
$DIMTMOVE
 70
     0
  9
$LUNITS
 70
     2
  9
$LUPREC
 70
     4
  9
$SKETCHINC
 40
0.1
  9
$FILLETRAD
 40
0.5
  9
$AUNITS
 70
     0
  9
$AUPREC
 70
     0
  9
$MENU
  1
.
  9
$ELEVATION
 40
0.0
  9
$PELEVATION
 40
0.0
  9
$THICKNESS
 40
0.0
  9
$LIMCHECK
 70
     0
  9
$CHAMFERA
 40
0.5
  9
$CHAMFERB
 40
0.5
  9
$CHAMFERC
 40
1.0
  9
$CHAMFERD
 40
0.0
  9
$SKPOLY
 70
     0
  9
$TDCREATE
 40
2454694.537538947
  9
$TDUCREATE
 40
2454694.037538947
  9
$TDUPDATE
 40
2454694.537538958
  9
$TDUUPDATE
 40
2454694.037538958
  9
$TDINDWG
 40
0.0000000116
  9
$TDUSRTIMER
 40
0.0000000116
  9
$USRTIMER
 70
     1
  9
$ANGBASE
 50
0.0
  9
$ANGDIR
 70
     0
  9
$PDMODE
 70
     0
  9
$PDSIZE
 40
0.0
  9
$PLINEWID
 40
0.0
  9
$SPLFRAME
 70
     0
  9
$SPLINETYPE
 70
     6
  9
$SPLINESEGS
 70
     8
  9
$HANDSEED
  5
B8
  9
$SURFTAB1
 70
     6
  9
$SURFTAB2
 70
     6
  9
$SURFTYPE
 70
     6
  9
$SURFU
 70
     6
  9
$SURFV
 70
     6
  9
$UCSBASE
  2

  9
$UCSNAME
  2

  9
$UCSORG
 10
0.0
 20
0.0
 30
0.0
  9
$UCSXDIR
 10
1.0
 20
0.0
 30
0.0
  9
$UCSYDIR
 10
0.0
 20
1.0
 30
0.0
  9
$UCSORTHOREF
  2

  9
$UCSORTHOVIEW
 70
     0
  9
$UCSORGTOP
 10
0.0
 20
0.0
 30
0.0
  9
$UCSORGBOTTOM
 10
0.0
 20
0.0
 30
0.0
  9
$UCSORGLEFT
 10
0.0
 20
0.0
 30
0.0
  9
$UCSORGRIGHT
 10
0.0
 20
0.0
 30
0.0
  9
$UCSORGFRONT
 10
0.0
 20
0.0
 30
0.0
  9
$UCSORGBACK
 10
0.0
 20
0.0
 30
0.0
  9
$PUCSBASE
  2

  9
$PUCSNAME
  2

  9
$PUCSORG
 10
0.0
 20
0.0
 30
0.0
  9
$PUCSXDIR
 10
1.0
 20
0.0
 30
0.0
  9
$PUCSYDIR
 10
0.0
 20
1.0
 30
0.0
  9
$PUCSORTHOREF
  2

  9
$PUCSORTHOVIEW
 70
     0
  9
$PUCSORGTOP
 10
0.0
 20
0.0
 30
0.0
  9
$PUCSORGBOTTOM
 10
0.0
 20
0.0
 30
0.0
  9
$PUCSORGLEFT
 10
0.0
 20
0.0
 30
0.0
  9
$PUCSORGRIGHT
 10
0.0
 20
0.0
 30
0.0
  9
$PUCSORGFRONT
 10
0.0
 20
0.0
 30
0.0
  9
$PUCSORGBACK
 10
0.0
 20
0.0
 30
0.0
  9
$USERI1
 70
     0
  9
$USERI2
 70
     0
  9
$USERI3
 70
     0
  9
$USERI4
 70
     0
  9
$USERI5
 70
     0
  9
$USERR1
 40
0.0
  9
$USERR2
 40
0.0
  9
$USERR3
 40
0.0
  9
$USERR4
 40
0.0
  9
$USERR5
 40
0.0
  9
$WORLDVIEW
 70
     1
  9
$SHADEDGE
 70
     3
  9
$SHADEDIF
 70
    70
  9
$TILEMODE
 70
     1
  9
$MAXACTVP
 70
    64
  9
$PINSBASE
 10
0.0
 20
0.0
 30
0.0
  9
$PLIMCHECK
 70
     0
  9
$PEXTMIN
 10
1.000000000000000E+20
 20
1.000000000000000E+20
 30
1.000000000000000E+20
  9
$PEXTMAX
 10
-1.000000000000000E+20
 20
-1.000000000000000E+20
 30
-1.000000000000000E+20
  9
$PLIMMIN
 10
0.0
 20
0.0
  9
$PLIMMAX
 10
12.0
 20
9.0
  9
$UNITMODE
 70
     0
  9
$VISRETAIN
 70
     1
  9
$PLINEGEN
 70
     0
  9
$PSLTSCALE
 70
     1
  9
$TREEDEPTH
 70
  3020
  9
$CMLSTYLE
  2
Standard
  9
$CMLJUST
 70
     0
  9
$CMLSCALE
 40
1.0
  9
$PROXYGRAPHICS
 70
     1
  9
$MEASUREMENT
 70
     0
  9
$CELWEIGHT
370
    -1
  9
$ENDCAPS
280
     0
  9
$JOINSTYLE
280
     0
  9
$LWDISPLAY
290
     1
  9
$INSUNITS
 70
     0
  9
$HYPERLINKBASE
  1

  9
$STYLESHEET
  1

  9
$XEDIT
290
     1
  9
$CEPSNTYPE
380
     0
  9
$PSTYLEMODE
290
     1
  9
$FINGERPRINTGUID
  2
{BF40FFAB-C6CC-4FF6-AB36-A07DDFC0A00C}
  9
$VERSIONGUID
  2
{FAEB1C32-E019-11D5-929B-00C0DF256EC4}
  9
$EXTNAMES
290
     1
  9
$PSVPSCALE
 40
0.0
  9
$OLESTARTUP
290
     0
  9
$SORTENTS
280
   127
  9
$INDEXCTL
280
     0
  9
$HIDETEXT
280
     1
  9
$XCLIPFRAME
290
     0
  9
$HALOGAP
280
     0
  9
$OBSCOLOR
 70
   257
  9
$OBSLTYPE
280
     0
  9
$INTERSECTIONDISPLAY
280
     0
  9
$INTERSECTIONCOLOR
 70
   257
  9
$DIMASSOC
280
     2
  9
$PROJECTNAME
  1

  0
ENDSEC
  0
SECTION
  2
CLASSES
  0
CLASS
  1
ACDBDICTIONARYWDFLT
  2
AcDbDictionaryWithDefault
  3
ObjectDBX Classes
 90
        0
 91
        3
280
     0
281
     0
  0
CLASS
  1
VISUALSTYLE
  2
AcDbVisualStyle
  3
ObjectDBX Classes
 90
     4095
 91
        3
280
     0
281
     0
  0
ENDSEC
  0
SECTION
  2
TABLES
  0
TABLE
  2
VPORT
  5
8
330
0
100
AcDbSymbolTable
 70
     1
  0
VPORT
  5
29
330
8
100
AcDbSymbolTableRecord
100
AcDbViewportTableRecord
  2
*Active
 70
     0
 10
0.0
 20
0.0
 11
1.0
 21
1.0
 12
0.0
 22
0.0
 13
0.0
 23
0.0
 14
0.5
 24
0.5
 15
0.5
 25
0.5
 16
0.0
 26
0.0
 36
1.0
 17
8067.535137464942
 27
1676.50492293095
 37
0.0
 40
451.6576085186848
 41
0.8332022801342455
 42
50.0
 43
0.0
 44
0.0
 50
0.0
 51
0.0
 71
     0
 72
   100
 73
     1
 74
     3
 75
     0
 76
     0
 77
     0
 78
     0
281
     0
 65
     1
110
0.0
120
0.0
130
0.0
111
1.0
121
0.0
131
0.0
112
0.0
122
1.0
132
0.0
 79
     0
146
0.0
  0
ENDTAB
  0
TABLE
  2
LTYPE
  5
5
330
0
100
AcDbSymbolTable
 70
     2
  0
LTYPE
  5
14
330
5
100
AcDbSymbolTableRecord
100
AcDbLinetypeTableRecord
  2
ByBlock
 70
     0
  3

 72
    65
 73
     0
 40
0.0
  0
LTYPE
  5
15
330
5
100
AcDbSymbolTableRecord
100
AcDbLinetypeTableRecord
  2
ByLayer
 70
     0
  3

 72
    65
 73
     0
 40
0.0
  0
LTYPE
  5
16
330
5
100
AcDbSymbolTableRecord
100
AcDbLinetypeTableRecord
  2
Continuous
 70
     0
  3
Solid line
 72
    65
 73
     0
 40
0.0
  0
LTYPE
  5
74
330
5
100
AcDbSymbolTableRecord
100
AcDbLinetypeTableRecord
  2
Hidden
 70
     0
  3
- - - - - 
 72
    65
 73
     2
 40
4.938889980316163
 49
2.822222709655762
 74
     0
 49
-2.1166672706604
 74
     0
  0
ENDTAB
  0
TABLE
  2
LAYER
  5
2
330
0
100
AcDbSymbolTable
 70
     4
  0
LAYER
  5
10
330
2
100
AcDbSymbolTableRecord
100
AcDbLayerTableRecord
  2
0
 70
     0
 62
     7
  6
Continuous
370
    -3
390
F
  0
LAYER
  5
3B
330
2
100
AcDbSymbolTableRecord
100
AcDbLayerTableRecord
  2
Specialized_Fills
 70
     0
 62
     7
  6
Continuous
370
    -3
390
F
  0
LAYER
  5
5C
330
2
100
AcDbSymbolTableRecord
100
AcDbLayerTableRecord
  2
Specialized_Text
 70
     0
 62
     7
  6
Continuous
370
    -3
390
F
  0
LAYER
  5
5E
330
2
100
AcDbSymbolTableRecord
100
AcDbLayerTableRecord
  2
Specialized_Lines
 70
     0
 62
     7
  6
Continuous
370
    -3
390
F
  0
ENDTAB
  0
TABLE
  2
STYLE
  5
3
330
0
100
AcDbSymbolTable
 70
     3
  0
STYLE
  5
11
330
3
100
AcDbSymbolTableRecord
100
AcDbTextStyleTableRecord
  2
Standard
 70
     0
 40
0.0
 41
1.0
 50
0.0
 71
     0
 42
0.2
  3
txt
  4
BIGFONT.SHX
  0
STYLE
  5
86
330
3
100
AcDbSymbolTableRecord
100
AcDbTextStyleTableRecord
  2
GENERATED_STYLE_1
 70
     0
 40
0.0
 41
1.0
 50
0.0
 71
     0
 42
0.2
  3
ARIAL.TTF
  4

1001
ACAD
1000
Arial
1071
       34
  0
STYLE
  5
8F
330
3
100
AcDbSymbolTableRecord
100
AcDbTextStyleTableRecord
  2
GENERATED_STYLE_2
 70
     0
 40
0.0
 41
1.0
 50
0.0
 71
     0
 42
0.2
  3

  4

1001
ACAD
1000
Arial Unicode MS
1071
       34
  0
ENDTAB
  0
TABLE
  2
VIEW
  5
6
330
0
100
AcDbSymbolTable
 70
     0
  0
ENDTAB
  0
TABLE
  2
UCS
  5
7
330
0
100
AcDbSymbolTable
 70
     0
  0
ENDTAB
  0
TABLE
  2
APPID
  5
9
330
0
100
AcDbSymbolTable
 70
     1
  0
APPID
  5
12
330
9
100
AcDbSymbolTableRecord
100
AcDbRegAppTableRecord
  2
ACAD
 70
     0
  0
ENDTAB
  0
TABLE
  2
DIMSTYLE
  5
A
330
0
100
AcDbSymbolTable
 70
     3
100
AcDbDimStyleTable
  0
DIMSTYLE
105
27
330
A
100
AcDbSymbolTableRecord
100
AcDbDimStyleTableRecord
  2
Standard
 70
     0
340
11
  0
DIMSTYLE
105
89
102
{ACAD_REACTORS
330
88
102
}
330
A
100
AcDbSymbolTableRecord
100
AcDbDimStyleTableRecord
  2
GENERATED_STYLE__1
 70
     0
 41
3.8
 42
0.0
 77
     1
140
4.400000095367432
172
     1
176
     7
177
     7
178
     7
179
     2
271
     0
340
8F
342
8A
343
8A
344
8A
  0
DIMSTYLE
105
92
330
A
100
AcDbSymbolTableRecord
100
AcDbDimStyleTableRecord
  2
GENERATED_STYLE__2
 70
     0
 41
7.295999999999999
172
     1
340
0
341
93
  0
ENDTAB
  0
TABLE
  2
BLOCK_RECORD
  5
1
330
0
100
AcDbSymbolTable
 70
     6
  0
BLOCK_RECORD
  5
1F
330
1
100
AcDbSymbolTableRecord
100
AcDbBlockTableRecord
  2
*Model_Space
340
22
  0
BLOCK_RECORD
  5
1B
330
1
100
AcDbSymbolTableRecord
100
AcDbBlockTableRecord
  2
*Paper_Space
340
1E
  0
BLOCK_RECORD
  5
23
330
1
100
AcDbSymbolTableRecord
100
AcDbBlockTableRecord
  2
*Paper_Space0
340
26
  0
BLOCK_RECORD
  5
46
330
1
100
AcDbSymbolTableRecord
100
AcDbBlockTableRecord
  2
*X1
340
0
102
{BLKREFS
331
5B
102
}
  0
BLOCK_RECORD
  5
7C
330
1
100
AcDbSymbolTableRecord
100
AcDbBlockTableRecord
  2
*D2
340
0
  0
BLOCK_RECORD
  5
8A
330
1
100
AcDbSymbolTableRecord
100
AcDbBlockTableRecord
  2
ARROWHEAD_6
340
0
  0
BLOCK_RECORD
  5
93
330
1
100
AcDbSymbolTableRecord
100
AcDbBlockTableRecord
  2
ARROWHEAD_5
340
0
  0
BLOCK_RECORD
  5
B2
330
1
100
AcDbSymbolTableRecord
100
AcDbBlockTableRecord
  2
Untitled _STORY_MARKER
340
0
  0
ENDTAB
  0
ENDSEC
  0
SECTION
  2
BLOCKS
  0
BLOCK
  5
20
330
1F
100
AcDbEntity
  8
0
100
AcDbBlockBegin
  2
*Model_Space
 70
     0
 71
     0
 10
0.0
 20
0.0
 30
0.0
  3
*Model_Space
  1

  0
ENDBLK
  5
21
330
1F
100
AcDbEntity
  8
0
100
AcDbBlockEnd
  0
BLOCK
  5
1C
330
1B
100
AcDbEntity
 67
     1
  8
0
100
AcDbBlockBegin
  2
*Paper_Space
 70
     0
 71
     0
 10
0.0
 20
0.0
 30
0.0
  3
*Paper_Space
  1

  0
ENDBLK
  5
1D
330
1B
100
AcDbEntity
 67
     1
  8
0
100
AcDbBlockEnd
  0
BLOCK
  5
24
330
23
100
AcDbEntity
  8
0
100
AcDbBlockBegin
  2
*Paper_Space0
 70
     0
 71
     0
 10
0.0
 20
0.0
 30
0.0
  3
*Paper_Space0
  1

  0
ENDBLK
  5
25
330
23
100
AcDbEntity
  8
0
100
AcDbBlockEnd
  0
BLOCK
  5
47
330
46
100
AcDbEntity
  8
0
100
AcDbBlockBegin
  2
*X1
 70
     1
 71
     0
 10
0.0
 20
0.0
 30
0.0
  3
*X1
  1

  0
LINE
  5
49
330
46
100
AcDbEntity
  8
Specialized_Fills
  6
Continuous
 62
     9
370
    20
100
AcDbLine
 10
7978.054362824778
 20
1709.207516542123
 30
0.0
 11
7985.401425203495
 21
1717.963404526973
 31
0.0
  0
LINE
  5
4A
330
46
100
AcDbEntity
  8
Specialized_Fills
  6
Continuous
 62
     9
370
    20
100
AcDbLine
 10
7978.054020961592
 20
1709.207447096144
 30
0.0
 11
7987.163225280943
 21
1708.410494984459
 31
0.0
  0
LINE
  5
4B
330
46
100
AcDbEntity
  8
Specialized_Fills
  6
Continuous
 62
     9
370
    20
100
AcDbLine
 10
7987.163816909024
 20
1708.409204173627
 30
0.0
 11
7985.401750073415
 21
1717.96205277846
 31
0.0
  0
LINE
  5
4C
330
46
100
AcDbEntity
  8
Specialized_Fills
  6
Continuous
 62
     9
370
    20
100
AcDbLine
 10
7923.868704180925
 20
1685.714060006899
 30
0.0
 11
7934.539528455789
 21
1689.810205670202
 31
0.0
  0
LINE
  5
4D
330
46
100
AcDbEntity
  8
Specialized_Fills
  6
Continuous
 62
     9
370
    20
100
AcDbLine
 10
7923.868664652477
 20
1685.713972808619
 30
0.0
 11
7931.449384215921
 21
1680.600712899283
 31
0.0
  0
LINE
  5
4E
330
46
100
AcDbEntity
  8
Specialized_Fills
  6
Continuous
 62
     9
370
    20
100
AcDbLine
 10
7931.449407344645
 20
1680.6007666769
 30
0.0
 11
7934.539517575651
 21
1689.810164852689
 31
0.0
  0
POINT
  5
4F
330
46
100
AcDbEntity
  8
Specialized_Fills
  6
Continuous
 62
     9
370
    20
100
AcDbPoint
 10
7940.417931740398
 20
1736.349181681654
 30
0.0
  0
POINT
  5
50
330
46
100
AcDbEntity
  8
Specialized_Fills
  6
Continuous
 62
     9
370
    20
100
AcDbPoint
 10
7938.564769790043
 20
1685.616158357762
 30
0.0
  0
POINT
  5
51
330
46
100
AcDbEntity
  8
Specialized_Fills
  6
Continuous
 62
     9
370
    20
100
AcDbPoint
 10
7918.481155100563
 20
1741.515819056245
 30
0.0
  0
POINT
  5
52
330
46
100
AcDbEntity
  8
Specialized_Fills
  6
Continuous
 62
     9
370
    20
100
AcDbPoint
 10
7974.637635002716
 20
1694.078800274666
 30
0.0
  0
POINT
  5
53
330
46
100
AcDbEntity
  8
Specialized_Fills
  6
Continuous
 62
     9
370
    20
100
AcDbPoint
 10
7969.299407137317
 20
1762.168244218037
 30
0.0
  0
POINT
  5
54
330
46
100
AcDbEntity
  8
Specialized_Fills
  6
Continuous
 62
     9
370
    20
100
AcDbPoint
 10
7920.078264122665
 20
1745.134375535627
 30
0.0
  0
POINT
  5
55
330
46
100
AcDbEntity
  8
Specialized_Fills
  6
Continuous
 62
     9
370
    20
100
AcDbPoint
 10
7938.979534969212
 20
1684.701742887827
 30
0.0
  0
POINT
  5
56
330
46
100
AcDbEntity
  8
Specialized_Fills
  6
Continuous
 62
     9
370
    20
100
AcDbPoint
 10
7915.400755771953
 20
1735.143557423126
 30
0.0
  0
LINE
  5
57
330
46
100
AcDbEntity
  8
Specialized_Fills
  6
Continuous
 62
     9
370
    20
100
AcDbLine
 10
7939.899095763248
 20
1753.707716829212
 30
0.0
 11
7950.569920038111
 21
1757.803862492515
 31
0.0
  0
LINE
  5
58
330
46
100
AcDbEntity
  8
Specialized_Fills
  6
Continuous
 62
     9
370
    20
100
AcDbLine
 10
7939.8990562348
 20
1753.707629630932
 30
0.0
 11
7947.479775798243
 21
1748.594369721596
 31
0.0
  0
LINE
  5
59
330
46
100
AcDbEntity
  8
Specialized_Fills
  6
Continuous
 62
     9
370
    20
100
AcDbLine
 10
7947.479798926966
 20
1748.594423499213
 30
0.0
 11
7950.569909157973
 21
1757.803821675002
 31
0.0
  0
ENDBLK
  5
48
330
46
100
AcDbEntity
  8
0
100
AcDbBlockEnd
  0
BLOCK
  5
7D
330
7C
100
AcDbEntity
  8
0
100
AcDbBlockBegin
  2
*D2
 70
     1
 71
     0
 10
0.0
 20
0.0
 30
0.0
  3
*D2
  1

  0
LINE
  5
7F
330
7C
100
AcDbEntity
  8
Specialized_Lines
  6
Continuous
100
AcDbLine
 10
8034.229838828399
 20
1570.328365984558
 30
0.0
 11
8037.229838828399
 21
1570.328365984558
 31
0.0
  0
LINE
  5
80
330
7C
100
AcDbEntity
  8
Specialized_Lines
  6
Continuous
100
AcDbLine
 10
8037.229838828399
 20
1570.328365984558
 30
0.0
 11
8062.423961930067
 21
1570.328365984558
 31
0.0
  0
LINE
  5
81
330
7C
100
AcDbEntity
  8
Specialized_Lines
  6
Continuous
 62
    30
420
 16742400
370
    20
100
AcDbLine
 10
8039.2298388284
 20
1572.328365984558
 30
0.0
 11
8035.229838828398
 21
1568.328365984558
 31
0.0
  0
LINE
  5
82
330
7C
100
AcDbEntity
  8
Specialized_Lines
  6
Continuous
 62
    30
420
 16742400
370
    20
100
AcDbLine
 10
8060.423961930066
 20
1568.328365984558
 30
0.0
 11
8064.423961930068
 21
1572.328365984558
 31
0.0
  0
LINE
  5
83
330
7C
100
AcDbEntity
  8
Specialized_Lines
  6
Continuous
100
AcDbLine
 10
8062.423961930067
 20
1570.328365984558
 30
0.0
 11
8065.423961930067
 21
1570.328365984558
 31
0.0
  0
LINE
  5
84
330
7C
100
AcDbEntity
  8
Specialized_Lines
  6
Continuous
100
AcDbLine
 10
8037.229838828399
 20
1566.578365984558
 30
0.0
 11
8037.229838828399
 21
1574.078365984558
 31
0.0
  0
LINE
  5
85
330
7C
100
AcDbEntity
  8
Specialized_Lines
  6
Continuous
100
AcDbLine
 10
8062.423961930067
 20
1566.578365984558
 30
0.0
 11
8062.423961930067
 21
1574.078365984558
 31
0.0
  0
MTEXT
  5
87
330
7C
100
AcDbEntity
  8
Specialized_Lines
100
AcDbMText
 10
8031.990754519793
 20
1582.533378104463
 30
0.0
 40
4.400000095367433
 41
0.0
 71
     1
 72
     1
  1
{25mm rebate}
  7
GENERATED_STYLE_1
 73
     1
 44
1.0
  0
ENDBLK
  5
7E
330
7C
100
AcDbEntity
  8
0
100
AcDbBlockEnd
  0
BLOCK
  5
8B
330
8A
100
AcDbEntity
  8
0
100
AcDbBlockBegin
  2
ARROWHEAD_6
 70
     0
 71
     0
 10
0.0
 20
0.0
 30
0.0
  3
ARROWHEAD_6
  1

  0
LINE
  5
8D
330
8A
100
AcDbEntity
  8
0
  6
Continuous
 62
     0
370
     0
100
AcDbLine
 10
-0.5
 20
-0.5
 30
0.0
 11
0.5
 21
0.5
 31
0.0
  0
LINE
  5
8E
330
8A
100
AcDbEntity
  8
0
  6
Continuous
 62
     0
370
     0
100
AcDbLine
 10
0.0
 20
0.0
 30
0.0
 11
-1.0
 21
0.0
 31
0.0
  0
ENDBLK
  5
8C
330
8A
100
AcDbEntity
  8
0
100
AcDbBlockEnd
  0
BLOCK
  5
94
330
93
100
AcDbEntity
  8
0
100
AcDbBlockBegin
  2
ARROWHEAD_5
 70
     0
 71
     0
 10
0.0
 20
0.0
 30
0.0
  3
ARROWHEAD_5
  1

  0
SOLID
  5
96
330
93
100
AcDbEntity
  8
0
  6
Continuous
 62
     0
370
     0
100
AcDbTrace
 10
-1.0
 20
0.2679
 30
0.0
 11
0.0
 21
0.0
 31
0.0
 12
-1.0
 22
-0.2679
 32
0.0
 13
-1.0
 23
0.2679
 33
0.0
  0
LINE
  5
97
330
93
100
AcDbEntity
  8
0
  6
Continuous
 62
     0
370
     0
100
AcDbLine
 10
0.0
 20
0.0
 30
0.0
 11
-1.0
 21
0.0
 31
0.0
  0
ENDBLK
  5
95
330
93
100
AcDbEntity
  8
0
100
AcDbBlockEnd
  0
BLOCK
  5
B3
330
B2
100
AcDbEntity
  8
0
100
AcDbBlockBegin
  2
Untitled _STORY_MARKER
 70
     0
 71
     0
 10
0.0
 20
0.0
 30
0.0
  3
Untitled _STORY_MARKER
  1

  0
ENDBLK
  5
B4
330
B2
100
AcDbEntity
  8
0
100
AcDbBlockEnd
  0
ENDSEC
  0
SECTION
  2
ENTITIES
  0
HATCH
  5
3C
330
1F
100
AcDbEntity
  8
Specialized_Fills
  6
Continuous
 62
   254
420
 14671839
370
    13
100
AcDbHatch
 10
0.0
 20
0.0
 30
0.0
210
0.0
220
0.0
230
1.0
  2
SOLID
 70
     1
 71
     0
 91
        1
 92
        2
 72
     0
 73
     1
 93
       10
 10
7991.385674546543
 20
1654.167833197608
 10
7913.346233615109
 20
1654.167833197608
 10
7913.346233615109
 20
1614.167833197609
 10
8062.423961930065
 20
1614.167833197609
 10
8062.423961930067
 20
1678.667833197601
 10
8037.229838828399
 20
1678.667833197601
 10
8037.096233615108
 20
1814.32925385673
 10
7913.346233615109
 20
1814.329253856732
 10
7913.346233615109
 20
1774.329253856731
 10
7991.385674546543
 20
1774.329253856731
 97
        0
 75
     0
 76
     1
 98
        0
  0
HATCH
  5
3D
330
1F
100
AcDbEntity
  8
Specialized_Fills
  6
Continuous
 62
   255
370
    13
100
AcDbHatch
 10
0.0
 20
0.0
 30
0.0
210
0.0
220
0.0
230
1.0
  2
SOLID
 70
     1
 71
     1
 91
        1
 92
        2
 72
     0
 73
     1
 93
        4
 10
8037.096233615108
 20
1816.135969628429
 10
7913.34623361511
 20
1816.135969628429
 10
7913.34623361511
 20
1866.135969628433
 10
8037.096233615108
 20
1866.135969628433
 97
        1
330
3F
 75
     0
 76
     1
 98
        0
  0
HATCH
  5
3E
330
1F
100
AcDbEntity
  8
Specialized_Fills
  6
Continuous
 62
    30
420
 16742400
370
    20
100
AcDbHatch
 10
0.0
 20
0.0
 30
0.0
210
0.0
220
0.0
230
1.0
  2
EZI_PANEL_3
 70
     0
 71
     1
 91
        1
 92
        2
 72
     0
 73
     1
 93
        4
 10
8037.096233615108
 20
1816.135969628429
 10
7913.34623361511
 20
1816.135969628429
 10
7913.34623361511
 20
1866.135969628433
 10
8037.096233615108
 20
1866.135969628433
 97
        1
330
3F
 75
     0
 76
     2
 52
0.0
 41
1.0
 77
     0
 78
     2
 53
0.0
 43
0.0
 44
0.0
 45
0.0
 46
3.464101615137754
 79
     2
 49
0.0
 49
-2.0
 53
0.0
 43
1.0
 44
1.732050776481628
 45
0.0
 46
3.464101615137754
 79
     2
 49
0.0
 49
-2.0
 98
        0
  0
LWPOLYLINE
  5
3F
102
{ACAD_REACTORS
330
3E
330
3D
102
}
330
1F
100
AcDbEntity
  8
Specialized_Fills
  6
Continuous
100
AcDbPolyline
 90
        4
 70
   129
 43
0.0
 10
8037.096233615108
 20
1816.135969628429
 10
7913.34623361511
 20
1816.135969628429
 10
7913.34623361511
 20
1866.135969628433
 10
8037.096233615108
 20
1866.135969628433
  0
HATCH
  5
40
330
1F
100
AcDbEntity
  8
Specialized_Fills
  6
Continuous
 62
   254
420
 14671839
370
    13
100
AcDbHatch
 10
0.0
 20
0.0
 30
0.0
210
0.0
220
0.0
230
1.0
  2
SOLID
 70
     1
 71
     1
 91
        1
 92
        2
 72
     0
 73
     1
 93
        8
 10
8068.326714974574
 20
1601.078628240733
 10
8087.326714891896
 20
1601.078628240733
 10
8087.326714891896
 20
1636.199267184847
 10
8068.326714974574
 20
1636.199267184847
 10
8068.326714974574
 20
1613.788429657402
 10
8073.54907676169
 20
1613.788429657402
 10
8073.54907676169
 20
1603.788429976359
 10
8068.326714974574
 20
1603.788429976359
 97
        1
330
41
 75
     0
 76
     1
 98
        0
  0
LWPOLYLINE
  5
41
102
{ACAD_REACTORS
330
40
102
}
330
1F
100
AcDbEntity
  8
Specialized_Fills
  6
Continuous
100
AcDbPolyline
 90
        8
 70
   129
 43
0.0
 10
8068.326714974574
 20
1601.078628240733
 10
8087.326714891896
 20
1601.078628240733
 10
8087.326714891896
 20
1636.199267184847
 10
8068.326714974574
 20
1636.199267184847
 10
8068.326714974574
 20
1613.788429657402
 10
8073.54907676169
 20
1613.788429657402
 10
8073.54907676169
 20
1603.788429976359
 10
8068.326714974574
 20
1603.788429976359
  0
HATCH
  5
42
330
1F
100
AcDbEntity
  8
Specialized_Fills
  6
Continuous
 62
     7
420
 15724527
370
     0
100
AcDbHatch
 10
0.0
 20
0.0
 30
0.0
210
0.0
220
0.0
230
1.0
  2
SOLID
 70
     1
 71
     1
 91
        1
 92
        2
 72
     0
 73
     1
 93
        4
 10
7913.346233615109
 20
1613.78842989618
 10
7913.346233615109
 20
1603.788429896132
 10
8073.557682554097
 20
1603.788429896132
 10
8073.557682554097
 20
1613.78842989618
 97
        1
330
43
 75
     0
 76
     1
 98
        0
  0
LWPOLYLINE
  5
43
102
{ACAD_REACTORS
330
42
102
}
330
1F
100
AcDbEntity
  8
Specialized_Fills
  6
Continuous
100
AcDbPolyline
 90
        4
 70
   129
 43
0.0
 10
7913.346233615109
 20
1613.78842989618
 10
7913.346233615109
 20
1603.788429896132
 10
8073.557682554097
 20
1603.788429896132
 10
8073.557682554097
 20
1613.78842989618
  0
HATCH
  5
44
330
1F
100
AcDbEntity
  8
Specialized_Fills
  6
Continuous
100
AcDbHatch
 10
0.0
 20
0.0
 30
0.0
210
0.0
220
0.0
230
1.0
  2
LINE
 70
     0
 71
     1
 91
        1
 92
        2
 72
     1
 73
     1
 93
        4
 10
8043.183942894373
 20
1691.044945882296
 42
0.8504170066082489
 10
8039.128721102733
 20
1691.042431918887
 42
0.0
 10
8039.131128222486
 20
1687.159557393497
 42
1.111741203225596
 10
8043.183942894377
 20
1687.159557393497
 42
0.0
 97
        1
330
45
 75
     0
 76
     2
 52
0.0
 41
1.0
 77
     0
 78
     1
 53
0.0
 43
0.0
 44
0.0
 45
0.0
 46
2.0
 79
     0
 98
        0
  0
LWPOLYLINE
  5
45
102
{ACAD_REACTORS
330
44
102
}
330
1F
100
AcDbEntity
  8
Specialized_Fills
  6
Continuous
100
AcDbPolyline
 90
        4
 70
   129
 43
0.0
 10
8043.183942894373
 20
1691.044945882296
 42
0.8504170066082489
 10
8039.128721102733
 20
1691.042431918887
 10
8039.131128222486
 20
1687.159557393497
 42
1.111741203225596
 10
8043.183942894377
 20
1687.159557393497
  0
HATCH
  5
5A
330
1F
100
AcDbEntity
  8
Specialized_Fills
  6
Continuous
 62
   255
370
    13
100
AcDbHatch
 10
0.0
 20
0.0
 30
0.0
210
0.0
220
0.0
230
1.0
  2
SOLID
 70
     1
 71
     0
 91
        1
 92
        2
 72
     0
 73
     1
 93
        9
 10
7991.385674546543
 20
1654.167833197608
 10
7991.385674546543
 20
1774.329253856731
 10
7913.346233615109
 20
1774.329253856731
 10
7913.346233615109
 20
1760.816590428272
 10
7898.216572144728
 20
1751.920496273923
 10
7913.346233615109
 20
1751.920496273923
 10
7928.475895085489
 20
1751.920496273923
 10
7913.34623361511
 20
1743.024402119575
 10
7913.346233615109
 20
1654.167833197608
 97
        0
 75
     0
 76
     1
 98
        0
  0
INSERT
  5
5B
330
1F
100
AcDbEntity
  8
Specialized_Fills
  6
Continuous
 62
     9
370
    20
100
AcDbBlockReference
  2
*X1
 10
0.0
 20
0.0
 30
0.0
  0
LINE
  5
5D
330
1F
100
AcDbEntity
  8
Specialized_Text
  6
Continuous
 62
   251
420
  6250335
370
    13
100
AcDbLine
 10
7883.813085382062
 20
1473.01865522988
 30
0.0
 11
8219.274008954208
 21
1473.018655229879
 31
0.0
  0
LINE
  5
5F
330
1F
100
AcDbEntity
  8
Specialized_Lines
  6
Continuous
100
AcDbLine
 10
7913.346233615109
 20
1743.024402119575
 30
0.0
 11
7913.346233615109
 21
1584.354345561826
 31
0.0
  0
LINE
  5
60
330
1F
100
AcDbEntity
  8
Specialized_Lines
  6
Continuous
100
AcDbLine
 10
7913.346233615109
 20
1886.390079100809
 30
0.0
 11
7913.346233615109
 21
1760.816590428272
 31
0.0
  0
LINE
  5
61
330
1F
100
AcDbEntity
  8
Specialized_Lines
  6
Continuous
100
AcDbLine
 10
8087.326714891896
 20
1601.078628240733
 30
0.0
 11
8068.32671489189
 21
1636.199267184847
 31
0.0
  0
LINE
  5
62
330
1F
100
AcDbEntity
  8
Specialized_Lines
  6
Continuous
 62
   251
420
  6250335
370
    13
100
AcDbLine
 10
8088.647445111737
 20
1632.941612744053
 30
0.0
 11
8134.320432961941
 21
1632.941612744054
 31
0.0
  0
LINE
  5
63
330
1F
100
AcDbEntity
  8
Specialized_Lines
  6
Continuous
 62
   251
420
  6250335
370
    13
100
AcDbLine
 10
8066.869384725081
 20
1692.699267184846
 30
0.0
 11
8134.320432961941
 21
1692.699267184843
 31
0.0
  0
LINE
  5
64
330
1F
100
AcDbEntity
  8
Specialized_Lines
  6
Continuous
 62
   251
420
  6250335
370
    13
100
AcDbLine
 10
8083.026237974574
 20
1685.699267184846
 30
0.0
 11
8134.320432961941
 21
1685.699267184846
 31
0.0
  0
LINE
  5
65
330
1F
100
AcDbEntity
  8
Specialized_Lines
  6
Continuous
 62
   251
420
  6250335
370
    13
100
AcDbLine
 10
8099.183367794072
 20
1654.199267184845
 30
0.0
 11
8134.320432961939
 21
1654.199267184845
 31
0.0
  0
LINE
  5
66
330
1F
100
AcDbEntity
  8
Specialized_Lines
  6
Continuous
 62
   251
420
  6250335
370
    13
100
AcDbLine
 10
8099.183367794072
 20
1650.699267184846
 30
0.0
 11
8134.320432961939
 21
1650.699267184846
 31
0.0
  0
LINE
  5
67
330
1F
100
AcDbEntity
  8
Specialized_Lines
  6
Continuous
 62
   251
420
  6250335
370
    13
100
AcDbLine
 10
8088.225098897789
 20
1637.395189440243
 30
0.0
 11
8134.320432961941
 21
1637.395189440243
 31
0.0
  0
LINE
  5
68
330
1F
100
AcDbEntity
  8
Specialized_Lines
  6
Continuous
 62
   251
420
  6250335
370
    13
100
AcDbLine
 10
8087.326714891896
 20
1601.078628240732
 30
0.0
 11
8134.320432961941
 21
1601.078628240732
 31
0.0
  0
LINE
  5
69
330
1F
100
AcDbEntity
  8
Specialized_Lines
  6
Continuous
 62
   251
420
  6250335
370
    13
100
AcDbLine
 10
8040.798074298209
 20
1869.239203375744
 30
0.0
 11
8134.320432961941
 21
1869.239203375744
 31
0.0
  0
LINE
  5
6A
330
1F
100
AcDbEntity
  8
Specialized_Lines
  6
Continuous
100
AcDbLine
 10
8134.320432961941
 20
1743.024402119575
 30
0.0
 11
8134.320432961941
 21
1584.354345561826
 31
0.0
  0
LINE
  5
6B
330
1F
100
AcDbEntity
  8
Specialized_Lines
  6
Continuous
100
AcDbLine
 10
8134.320432961941
 20
1886.390079100809
 30
0.0
 11
8134.320432961941
 21
1760.816590428272
 31
0.0
  0
LINE
  5
6C
330
1F
100
AcDbEntity
  8
Specialized_Lines
  6
Continuous
100
AcDbLine
 10
8134.320432961941
 20
1660.740798855438
 30
0.0
 11
8089.576237974285
 21
1660.740798855438
 31
0.0
  0
LINE
  5
6D
330
1F
100
AcDbEntity
  8
Specialized_Lines
  6
Continuous
100
AcDbLine
 10
8134.320432961941
 20
1654.740798855466
 30
0.0
 11
8089.576237974285
 21
1654.740798855466
 31
0.0
  0
LINE
  5
6E
330
1F
100
AcDbEntity
  8
Specialized_Lines
  6
Continuous
 62
     9
370
    20
100
AcDbLine
 10
8134.320432961941
 20
1655.740798855442
 30
0.0
 11
8089.576237974285
 21
1655.740798855442
 31
0.0
  0
LINE
  5
6F
330
1F
100
AcDbEntity
  8
Specialized_Lines
  6
Continuous
 62
     9
370
    20
100
AcDbLine
 10
8134.320432961941
 20
1656.740798855418
 30
0.0
 11
8089.576237974285
 21
1656.740798855418
 31
0.0
  0
LINE
  5
70
330
1F
100
AcDbEntity
  8
Specialized_Lines
  6
Continuous
 62
     9
370
    20
100
AcDbLine
 10
8134.320432961941
 20
1657.740798855452
 30
0.0
 11
8089.576237974285
 21
1657.740798855452
 31
0.0
  0
LINE
  5
71
330
1F
100
AcDbEntity
  8
Specialized_Lines
  6
Continuous
 62
     9
370
    20
100
AcDbLine
 10
8134.320432961941
 20
1658.740798855428
 30
0.0
 11
8089.576237974285
 21
1658.740798855428
 31
0.0
  0
LINE
  5
72
330
1F
100
AcDbEntity
  8
Specialized_Lines
  6
Continuous
 62
     9
370
    20
100
AcDbLine
 10
8134.320432961941
 20
1659.740798855461
 30
0.0
 11
8089.576237974285
 21
1659.740798855461
 31
0.0
  0
LWPOLYLINE
  5
73
330
1F
100
AcDbEntity
  8
Specialized_Lines
  6
Continuous
100
AcDbPolyline
 90
        3
 70
   128
 43
0.0
 10
8043.433076154565
 20
1689.177725149393
 10
8043.433076154563
 20
1870.391592814386
 10
7913.346233615109
 20
1870.391592814385
  0
LWPOLYLINE
  5
75
330
1F
100
AcDbEntity
  8
Specialized_Lines
  6
Hidden
100
AcDbPolyline
 90
        3
 70
   128
 43
0.0
 10
8041.15568811916
 20
1693.465804766676
 10
8041.15568811916
 20
1868.434719954728
 10
7913.346233615109
 20
1868.434719954728
  0
LWPOLYLINE
  5
76
330
1F
100
AcDbEntity
  8
Specialized_Lines
  6
Continuous
100
AcDbPolyline
 90
       10
 70
   129
 43
0.0
 10
7991.385674546543
 20
1654.167833197608
 10
7913.346233615109
 20
1654.167833197608
 10
7913.346233615109
 20
1614.167833197609
 10
8062.423961930065
 20
1614.167833197609
 10
8062.423961930067
 20
1678.667833197601
 10
8037.229838828399
 20
1678.667833197601
 10
8037.096233615108
 20
1814.32925385673
 10
7913.346233615109
 20
1814.329253856732
 10
7913.346233615109
 20
1774.329253856731
 10
7991.385674546543
 20
1774.329253856731
  0
LWPOLYLINE
  5
77
330
1F
100
AcDbEntity
  8
Specialized_Lines
  6
Continuous
100
AcDbPolyline
 90
       32
 70
   129
 43
0.0
 10
8082.028690027492
 20
1671.115321969032
 42
0.2727724127359798
 10
8081.241303147989
 20
1670.65123698596
 10
8080.923664774323
 20
1670.968875359624
 42
0.1989123673796701
 10
8080.57011138373
 20
1671.115321969032
 10
8080.299400705611
 20
1671.115321969032
 42
0.6681786379193188
 10
8080.107979349373
 20
1670.653189934677
 10
8081.687268671255
 20
1669.073900612794
 42
0.6681786379194078
 10
8082.028690027492
 20
1669.215321969031
 10
8082.028690027492
 20
1670.215321969031
 10
8083.828690027493
 20
1670.215321969031
 10
8096.645138288553
 20
1667.95543603807
 10
8101.033283114419
 20
1662.43878609797
 10
8100.394865212475
 20
1661.863942318456
 42
0.6913661932105742
 10
8100.530897170497
 20
1661.51532019227
 10
8102.628759386921
 20
1661.515320192403
 42
0.6335369672704523
 10
8102.786858329907
 20
1661.840601698232
 10
8084.264372875312
 20
1685.12657928735
 42
0.2285713999288997
 10
8083.873068796885
 20
1685.315321969031
 10
8083.528690027492
 20
1685.315321969031
 42
0.4142135623731784
 10
8083.328690027492
 20
1685.115321969032
 10
8083.328690027492
 20
1684.871113728572
 42
0.1695861875687451
 10
8083.437385949066
 20
1684.559856410254
 10
8084.331728821315
 20
1683.435513325526
 10
8082.561602426075
 20
1681.665386930285
 10
8081.158697493155
 20
1682.475354470955
 42
0.9999999999998533
 10
8080.758697493155
 20
1681.782534147927
 10
8082.195708874449
 20
1680.952875240107
 42
0.3394542588633155
 10
8083.282104977517
 20
1681.095902000446
 10
8084.903234807767
 20
1682.717031830694
 10
8095.799611218958
 20
1669.018409247952
 10
8083.984973407895
 20
1671.101648943128
 42
0.0436609487024195
 10
8083.828690027493
 20
1671.115321969032
  0
LWPOLYLINE
  5
78
330
1F
100
AcDbEntity
  8
Specialized_Lines
  6
Continuous
100
AcDbPolyline
 90
       91
 70
   129
 43
0.0
 10
8048.833076154566
 20
1683.19922618485
 42
0.414213562373095
 10
8049.433076154566
 20
1683.79922618485
 42
0.414213562373102
 10
8048.833076154566
 20
1684.399226184851
 10
8044.633076154564
 20
1684.399226184851
 10
8044.633076154564
 20
1691.499226184852
 10
8066.469861725082
 20
1691.499226184852
 42
-0.1989123673796598
 10
8068.449760712406
 20
1690.679125172174
 10
8073.106614961897
 20
1686.02227092268
 42
0.1494188041786777
 10
8075.790720418667
 20
1684.59488986522
 10
8078.040590048502
 20
1668.208787957126
 42
0.3747899436168836
 10
8079.427577172241
 20
1666.999226184852
 10
8081.726714974575
 20
1666.999226184852
 10
8081.726714974575
 20
1637.39922618485
 10
8068.326714974574
 20
1637.39922618485
 10
8068.326714974574
 20
1639.79922618485
 42
0.414213562373095
 10
8067.726714974576
 20
1640.39922618485
 42
0.414213562373095
 10
8067.126714974575
 20
1639.79922618485
 10
8067.126714974575
 20
1632.282069184849
 42
0.1994953901194283
 10
8067.185611193341
 20
1632.140330965158
 10
8067.526714974576
 20
1631.799226184851
 10
8067.526714974576
 20
1628.599226184851
 10
8067.185293618339
 20
1628.257804828613
 42
0.1989123673797102
 10
8067.126714974575
 20
1628.116383472375
 10
8067.126714974575
 20
1626.79922618485
 42
0.9999999999999999
 10
8068.326714974574
 20
1626.79922618485
 10
8068.326714974574
 20
1636.199226184851
 10
8077.826751776053
 20
1636.199226184851
 10
8078.226751776054
 20
1636.59922618485
 10
8078.626751776053
 20
1636.199226184851
 10
8081.726714974575
 20
1636.199226184851
 42
0.3718832980523272
 10
8082.913833537898
 20
1637.22387078398
 42
-0.6059274979908934
 10
8083.248733374639
 20
1637.340309533879
 42
0.1910043624983056
 10
8086.126714974575
 20
1636.199267184849
 10
8087.726237974575
 20
1636.199267184849
 10
8087.726237974577
 20
1632.899547433565
 42
0.4145886432917875
 10
8087.926237810626
 20
1632.69929134633
 42
0.4142134464432531
 10
8088.926237974576
 20
1633.699291346331
 10
8088.926237974576
 20
1636.199267184849
 42
0.414213562373095
 10
8087.726237974575
 20
1637.39926718485
 10
8086.126714974575
 20
1637.39926718485
 42
-0.4142135623730992
 10
8083.126714974575
 20
1640.39926718485
 10
8083.126714974575
 20
1647.699226184851
 42
-0.4142135623730978
 10
8086.126714974575
 20
1650.699226184851
 10
8101.626714974575
 20
1650.699226184851
 42
0.414213562373095
 10
8102.126714974575
 20
1651.19922618485
 10
8102.126714974575
 20
1653.699226184851
 42
0.414213562373095
 10
8101.626714974575
 20
1654.19922618485
 10
8100.476714974576
 20
1654.19922618485
 42
0.414213562373095
 10
8100.026714974575
 20
1653.749226184851
 42
0.4142135623730765
 10
8100.476714974576
 20
1653.29922618485
 10
8101.126714974576
 20
1653.29922618485
 10
8101.126714974576
 20
1651.79922618485
 10
8095.726714974577
 20
1651.79922618485
 10
8095.726714974577
 20
1653.29922618485
 10
8096.376714974574
 20
1653.29922618485
 42
0.414213562373095
 10
8096.826714974575
 20
1653.749226184851
 42
0.4142135623730765
 10
8096.376714974574
 20
1654.19922618485
 10
8095.226714974576
 20
1654.19922618485
 42
0.414213562373095
 10
8094.726714974575
 20
1653.699226184851
 10
8094.726714974575
 20
1651.899226184852
 10
8087.026673960475
 20
1651.899226184852
 42
0.5009125790252209
 10
8086.225799910018
 20
1651.898057233555
 42
0.1404257888372542
 10
8083.987333131495
 20
1651.313509700223
 42
0.1928075209396724
 10
8083.126714974575
 20
1651.899226342704
 10
8083.126714974575
 20
1668.860749841291
 42
0.1989123673796423
 10
8082.687375146354
 20
1669.92141001307
 10
8082.268136330812
 20
1670.340648828613
 42
0.6681786379194047
 10
8081.926714974575
 20
1670.199227472376
 10
8081.926714974575
 20
1668.399226184851
 10
8079.426714974576
 20
1668.399226184851
 10
8077.226757974575
 20
1684.49922618485
 10
8081.926714974575
 20
1684.49922618485
 10
8081.926714974575
 20
1683.19922618485
 10
8081.826714974575
 20
1683.19922618485
 42
0.414213562373095
 10
8081.626714974575
 20
1682.99922618485
 10
8081.626714974575
 20
1682.699269897327
 42
0.1989123673796841
 10
8081.685293618339
 20
1682.557848541088
 10
8082.285294118337
 20
1681.957848041088
 42
0.4142135623730508
 10
8082.568136830813
 20
1681.957848041088
 10
8083.068136330812
 20
1682.457847541089
 42
0.1989123673796372
 10
8083.126714974575
 20
1682.599268897327
 10
8083.126714974575
 20
1685.19922618485
 42
0.414213562373095
 10
8082.626714974575
 20
1685.699226184851
 10
8076.783570224068
 20
1685.699226184851
 42
-0.1989123673796624
 10
8073.955143099322
 20
1686.870799060105
 10
8069.298288849829
 20
1691.527653309597
 42
0.1989123673796631
 10
8066.469861725082
 20
1692.699226184851
 10
8044.633076154564
 20
1692.699226184851
 42
0.414213562373088
 10
8043.433076154565
 20
1691.499226184852
 10
8043.433076154565
 20
1684.399226184851
 42
0.4142135623730953
 10
8044.633076154564
 20
1683.19922618485
  0
LWPOLYLINE
  5
79
330
1F
100
AcDbEntity
  8
Specialized_Lines
  6
Continuous
100
AcDbPolyline
 90
        3
 70
   128
 43
0.0
 10
8039.713781801517
 20
1719.260626057429
 10
8039.713781801517
 20
1867.095806945489
 10
7986.719190483948
 20
1867.095806945489
  0
LWPOLYLINE
  5
7A
330
1F
100
AcDbEntity
  8
Specialized_Lines
  6
Continuous
100
AcDbPolyline
 90
        5
 70
   128
 43
0.0
 10
8064.185648974767
 20
1613.78842989618
 10
8064.185648974767
 20
1680.521368030584
 10
8038.701886065272
 20
1680.521368030584
 10
8038.701886065272
 20
1815.078262069977
 10
7986.719190483948
 20
1815.078262069977
  0
ELLIPSE
  5
7B
330
1F
100
AcDbEntity
  8
Specialized_Lines
  6
Continuous
100
AcDbEllipse
 10
8066.29032354455
 20
1618.699509114985
 30
0.0
 11
2.104674569781535
 21
0.0
 31
0.0
210
0.0
220
0.0
230
1.0
 40
0.9995629503247404
 41
0.0
 42
6.283185307179586
  0
DIMENSION
  5
88
330
1F
100
AcDbEntity
  8
Specialized_Lines
  6
Continuous
100
AcDbDimension
  2
*D2
 10
8062.423961930067
 20
1570.328365984558
 30
0.0
 11
8049.81203090606
 21
1580.333378056779
 31
0.0
 70
    32
  1
\A1;25mm rebate
 71
     5
 42
-1.0
  3
GENERATED_STYLE__1
100
AcDbAlignedDimension
 13
8037.229838828399
 23
1678.667833197601
 33
0.0
 14
8062.423961930067
 24
1678.667833197601
 34
0.0
100
AcDbRotatedDimension
  0
MTEXT
  5
90
102
{ACAD_REACTORS
330
91
102
}
330
1F
100
AcDbEntity
  8
Specialized_Text
  6
Continuous
100
AcDbMText
 10
8155.554379257956
 20
1615.249072649156
 30
0.0
 40
4.399999999999999
 41
85.88824513185152
 71
     4
 72
     1
  1
{air seal to be installed by builder}
  7
GENERATED_STYLE_1
 73
     1
 44
1.0
  0
LEADER
  5
91
330
1F
100
AcDbEntity
  8
Specialized_Text
  6
Continuous
 62
   251
420
  6250335
370
    13
100
AcDbLeader
  3
GENERATED_STYLE__2
 73
     0
 74
     0
 40
11.80373333333333
 41
69.07560000000001
 76
     2
 10
8068.394998114332
 20
1618.699509114985
 30
0.0
 10
8155.464379257955
 20
1615.249072649156
 30
0.0
340
90
  0
MTEXT
  5
98
102
{ACAD_REACTORS
330
99
102
}
330
1F
100
AcDbEntity
  8
Specialized_Text
  6
Continuous
100
AcDbMText
 10
8155.554379257956
 20
1635.49930598353
 30
0.0
 40
4.399999999999999
 41
70.80256101314932
 71
     4
 72
     1
  1
{selected aluminium joinery}
  7
GENERATED_STYLE_1
 73
     1
 44
1.0
  0
LEADER
  5
99
330
1F
100
AcDbEntity
  8
Specialized_Text
  6
Continuous
 62
   251
420
  6250335
370
    13
100
AcDbLeader
  3
GENERATED_STYLE__2
 73
     0
 74
     0
 40
13.02253333333333
 41
54.0804
 76
     3
 10
8099.183367794072
 20
1650.699267184847
 30
0.0
 10
8140.758917567611
 20
1635.49930598353
 30
0.0
 10
8155.464379257955
 20
1635.49930598353
 30
0.0
340
98
  0
MTEXT
  5
9A
102
{ACAD_REACTORS
330
9B
102
}
330
1F
100
AcDbEntity
  8
Specialized_Text
  6
Continuous
100
AcDbMText
 10
8155.554379257956
 20
1682.774743152183
 30
0.0
 40
4.399999999999999
 41
94.734176251281
 71
     4
 72
     1
  3
{Specialized Construction Products Tankit Waterproofing membrane to be installed to all reveals and sills prior to the joinery being placed in the penetration. Tankit to be applied a minimum of 2 coats thick and 100mm down wall as per the manufactur
  1
ers specification}
  7
GENERATED_STYLE_1
 73
     1
 44
0.936693318497625
  0
LEADER
  5
9B
330
1F
100
AcDbEntity
  8
Specialized_Text
  6
Continuous
 62
   251
420
  6250335
370
    13
100
AcDbLeader
  3
GENERATED_STYLE__2
 73
     0
 74
     0
 40
54.00387013262117
 41
96.4524
 76
     2
 10
8039.131024850285
 20
1683.125134099691
 30
0.0
 10
8155.464379257955
 20
1682.774743152183
 30
0.0
340
9A
  0
MTEXT
  5
9C
102
{ACAD_REACTORS
330
9D
102
}
330
1F
100
AcDbEntity
  8
Specialized_Text
  6
Continuous
100
AcDbMText
 10
8155.554379257956
 20
1745.374828294716
 30
0.0
 40
4.400000000000001
 41
94.734176251281
 71
     4
 72
     1
  1
{5mm bead of MS sealant must extend down jambs and across entire sill}
  7
GENERATED_STYLE_1
 73
     1
 44
0.9380089764616593
  0
LEADER
  5
9D
330
1F
100
AcDbEntity
  8
Specialized_Text
  6
Continuous
 62
   251
420
  6250335
370
    13
100
AcDbLeader
  3
GENERATED_STYLE__2
 73
     0
 74
     0
 40
18.29802805954367
 41
86.13880000000002
 76
     3
 10
8042.465396056407
 20
1692.297061715297
 30
0.0
 10
8129.168237597389
 20
1745.374828294716
 30
0.0
 10
8155.464379257955
 20
1745.374828294716
 30
0.0
340
9C
  0
MTEXT
  5
9E
102
{ACAD_REACTORS
330
9F
102
}
330
1F
100
AcDbEntity
  8
Specialized_Text
  6
Continuous
100
AcDbMText
 10
8155.554379257956
 20
1796.666208657227
 30
0.0
 40
4.399999999999999
 41
94.734176251281
 71
     4
 72
     1
  1
{Specialized Construction Products Tankit waterproofing membrane incorporating one layer of 300gms chopped strand mat to be applied 100mm across jamb and a minimum of 100mm down the surface of the EPS prior to plastering}
  7
GENERATED_STYLE_1
 73
     1
 44
0.9353211269202427
  0
LEADER
  5
9F
330
1F
100
AcDbEntity
  8
Specialized_Text
  6
Continuous
 62
   251
420
  6250335
370
    13
100
AcDbLeader
  3
GENERATED_STYLE__2
 73
     0
 74
     0
 40
54.06862293520776
 41
94.95200000000001
 76
     2
 10
8039.154901804543
 20
1797.049027262085
 30
0.0
 10
8155.464379257955
 20
1796.666208657227
 30
0.0
340
9E
  0
MTEXT
  5
A0
102
{ACAD_REACTORS
330
A1
102
}
330
1F
100
AcDbEntity
  8
Specialized_Text
  6
Continuous
100
AcDbMText
 10
8155.554379257956
 20
1888.75669500959
 30
0.0
 40
4.4
 41
94.734176251281
 71
     4
 72
     1
  1
{reinforcing mesh and selected Specialized Construction Products Finish}
  7
GENERATED_STYLE_1
 73
     1
 44
0.9332737546451579
  0
LEADER
  5
A1
330
1F
100
AcDbEntity
  8
Specialized_Text
  6
Continuous
 62
   251
420
  6250335
370
    13
100
AcDbLeader
  3
GENERATED_STYLE__2
 73
     0
 74
     0
 40
18.2980328218239
 41
94.95200000000001
 76
     3
 10
8019.166363037776
 20
1869.239203375744
 30
0.0
 10
8133.433285561901
 20
1888.75669500959
 30
0.0
 10
8155.464379257955
 20
1888.75669500959
 30
0.0
340
A0
  0
MTEXT
  5
A2
102
{ACAD_REACTORS
330
A3
102
}
330
1F
100
AcDbEntity
  8
Specialized_Text
  6
Continuous
100
AcDbMText
 10
8155.554379257956
 20
1846.813550729455
 30
0.0
 40
4.399999999999999
 41
94.734176251281
 71
     4
 72
     1
  1
{50mm EPS or 50mm  CAVITECLAD permapanel}
  7
GENERATED_STYLE_1
 73
     1
 44
0.9214222291716692
  0
LEADER
  5
A3
330
1F
100
AcDbEntity
  8
Specialized_Text
  6
Continuous
 62
   251
420
  6250335
370
    13
100
AcDbLeader
  3
GENERATED_STYLE__2
 73
     0
 74
     0
 40
12.51961873000094
 41
71.96199999999997
 76
     2
 10
8026.606282924969
 20
1847.164783356829
 30
0.0
 10
8155.464379257955
 20
1846.813550729455
 30
0.0
340
A2
  0
MTEXT
  5
A4
330
1F
100
AcDbEntity
  8
Specialized_Text
  6
Continuous
100
AcDbMText
 10
7883.063495671929
 20
1455.104134441399
 30
0.0
 40
12.0
 41
0.0
 71
     7
 72
     1
  1
{04A WINDOW JAMB DETAIL\P\C30;\H0.416667x;scale 1:2\P\H1.600000x;CAVITECLAD}
  7
GENERATED_STYLE_1
 73
     1
 44
0.8064808060422619
  0
LINE
  5
A5
330
1F
100
AcDbEntity
  8
Specialized_Lines
  6
Continuous
100
AcDbLine
 10
7913.346233615109
 20
1751.920496273923
 30
0.0
 11
7928.475895085489
 21
1751.920496273923
 31
0.0
  0
LINE
  5
A6
330
1F
100
AcDbEntity
  8
Specialized_Lines
  6
Continuous
100
AcDbLine
 10
7913.346233615109
 20
1751.920496273923
 30
0.0
 11
7898.216572144728
 21
1751.920496273923
 31
0.0
  0
LINE
  5
A7
330
1F
100
AcDbEntity
  8
Specialized_Lines
  6
Continuous
100
AcDbLine
 10
7898.216572144728
 20
1751.920496273923
 30
0.0
 11
7913.346233615109
 21
1760.816590428272
 31
0.0
  0
LINE
  5
A8
330
1F
100
AcDbEntity
  8
Specialized_Lines
  6
Continuous
100
AcDbLine
 10
7928.475895085489
 20
1751.920496273923
 30
0.0
 11
7913.346233615109
 21
1743.024402119575
 31
0.0
  0
LINE
  5
A9
330
1F
100
AcDbEntity
  8
Specialized_Lines
  6
Continuous
100
AcDbLine
 10
7913.346233615109
 20
1743.024402119575
 30
0.0
 11
7913.346233615109
 21
1584.354345561826
 31
0.0
  0
LINE
  5
AA
330
1F
100
AcDbEntity
  8
Specialized_Lines
  6
Continuous
100
AcDbLine
 10
7913.346233615109
 20
1886.390079100809
 30
0.0
 11
7913.346233615109
 21
1760.816590428272
 31
0.0
  0
LINE
  5
AB
330
1F
100
AcDbEntity
  8
Specialized_Lines
  6
Continuous
100
AcDbLine
 10
8134.320432961941
 20
1751.920496273923
 30
0.0
 11
8149.45009443232
 21
1751.920496273923
 31
0.0
  0
LINE
  5
AC
330
1F
100
AcDbEntity
  8
Specialized_Lines
  6
Continuous
100
AcDbLine
 10
8134.320432961941
 20
1751.920496273923
 30
0.0
 11
8119.19077149156
 21
1751.920496273923
 31
0.0
  0
LINE
  5
AD
330
1F
100
AcDbEntity
  8
Specialized_Lines
  6
Continuous
100
AcDbLine
 10
8119.19077149156
 20
1751.920496273923
 30
0.0
 11
8134.320432961941
 21
1760.816590428272
 31
0.0
  0
LINE
  5
AE
330
1F
100
AcDbEntity
  8
Specialized_Lines
  6
Continuous
100
AcDbLine
 10
8149.45009443232
 20
1751.920496273923
 30
0.0
 11
8134.320432961941
 21
1743.024402119575
 31
0.0
  0
LINE
  5
AF
330
1F
100
AcDbEntity
  8
Specialized_Lines
  6
Continuous
100
AcDbLine
 10
8134.320432961941
 20
1743.024402119575
 30
0.0
 11
8134.320432961941
 21
1584.354345561826
 31
0.0
  0
LINE
  5
B0
330
1F
100
AcDbEntity
  8
Specialized_Lines
  6
Continuous
100
AcDbLine
 10
8134.320432961941
 20
1886.390079100809
 30
0.0
 11
8134.320432961941
 21
1760.816590428272
 31
0.0
  0
LINE
  5
B1
330
1F
100
AcDbEntity
  8
Specialized_Lines
  6
Continuous
100
AcDbLine
 10
8089.576237974285
 20
1660.740798855438
 30
0.0
 11
8089.576237974285
 21
1654.740798855466
 31
0.0
  0
ENDSEC
  0
SECTION
  2
OBJECTS
  0
DICTIONARY
  5
C
330
0
100
AcDbDictionary
281
     1
  3
ACAD_GROUP
350
D
  3
ACAD_LAYOUT
350
1A
  3
ACAD_MLINESTYLE
350
17
  3
ACAD_PLOTSETTINGS
350
19
  3
ACAD_PLOTSTYLENAME
350
E
  3
ACAD_TABLESTYLE
350
B7
  3
ACAD_VISUALSTYLE
350
2A
  3
WATERMARKS
350
B5
  0
DICTIONARY
  5
D
102
{ACAD_REACTORS
330
C
102
}
330
C
100
AcDbDictionary
281
     1
  0
DICTIONARY
  5
1A
102
{ACAD_REACTORS
330
C
102
}
330
C
100
AcDbDictionary
281
     1
  3
Layout1
350
1E
  3
Layout2
350
26
  3
Model
350
22
  0
DICTIONARY
  5
17
102
{ACAD_REACTORS
330
C
102
}
330
C
100
AcDbDictionary
281
     1
  3
Standard
350
18
  0
DICTIONARY
  5
19
102
{ACAD_REACTORS
330
C
102
}
330
C
100
AcDbDictionary
281
     1
  0
ACDBDICTIONARYWDFLT
  5
E
102
{ACAD_REACTORS
330
C
102
}
330
C
100
AcDbDictionary
281
     1
  3
Normal
350
F
100
AcDbDictionaryWithDefault
340
F
  0
DICTIONARY
  5
B7
102
{ACAD_REACTORS
330
C
102
}
330
C
100
AcDbDictionary
281
     1
  0
DICTIONARY
  5
2A
102
{ACAD_REACTORS
330
C
102
}
330
C
100
AcDbDictionary
281
     1
  3
2dWireframe
350
2F
  3
3D Hidden
350
31
  3
3dWireframe
350
30
  3
Basic
350
32
  3
Brighten
350
36
  3
ColorChange
350
3A
  3
Conceptual
350
34
  3
Dim
350
35
  3
Facepattern
350
39
  3
Flat
350
2B
  3
FlatWithEdges
350
2C
  3
Gouraud
350
2D
  3
GouraudWithEdges
350
2E
  3
Linepattern
350
38
  3
Realistic
350
33
  3
Thicken
350
37
  0
DICTIONARY
  5
B5
102
{ACAD_REACTORS
330
C
102
}
330
C
100
AcDbDictionary
281
     1
  3
AC_WATERMARK
350
B6
  0
LAYOUT
  5
1E
102
{ACAD_REACTORS
330
1A
102
}
330
1A
100
AcDbPlotSettings
  1

  2
none_device
  4

  6

 40
0.0
 41
0.0
 42
0.0
 43
0.0
 44
0.0
 45
0.0
 46
0.0
 47
0.0
 48
0.0
 49
0.0
140
0.0
141
0.0
142
1.0
143
1.0
 70
   688
 72
     0
 73
     0
 74
     5
  7

 75
    16
 76
     0
 77
     2
 78
   300
147
1.0
148
0.0
149
0.0
100
AcDbLayout
  1
Layout1
 70
     1
 71
     1
 10
0.0
 20
0.0
 11
12.0
 21
9.0
 12
0.0
 22
0.0
 32
0.0
 14
1.000000000000000E+20
 24
1.000000000000000E+20
 34
1.000000000000000E+20
 15
-1.000000000000000E+20
 25
-1.000000000000000E+20
 35
-1.000000000000000E+20
146
0.0
 13
0.0
 23
0.0
 33
0.0
 16
1.0
 26
0.0
 36
0.0
 17
0.0
 27
1.0
 37
0.0
 76
     0
330
1B
  0
LAYOUT
  5
26
102
{ACAD_REACTORS
330
1A
102
}
330
1A
100
AcDbPlotSettings
  1

  2
none_device
  4

  6

 40
0.0
 41
0.0
 42
0.0
 43
0.0
 44
0.0
 45
0.0
 46
0.0
 47
0.0
 48
0.0
 49
0.0
140
0.0
141
0.0
142
1.0
143
1.0
 70
   688
 72
     0
 73
     0
 74
     5
  7

 75
    16
 76
     0
 77
     2
 78
   300
147
1.0
148
0.0
149
0.0
100
AcDbLayout
  1
Layout2
 70
     1
 71
     2
 10
0.0
 20
0.0
 11
0.0
 21
0.0
 12
0.0
 22
0.0
 32
0.0
 14
0.0
 24
0.0
 34
0.0
 15
0.0
 25
0.0
 35
0.0
146
0.0
 13
0.0
 23
0.0
 33
0.0
 16
1.0
 26
0.0
 36
0.0
 17
0.0
 27
1.0
 37
0.0
 76
     0
330
23
  0
LAYOUT
  5
22
102
{ACAD_REACTORS
330
1A
102
}
330
1A
100
AcDbPlotSettings
  1

  2
none_device
  4

  6

 40
0.0
 41
0.0
 42
0.0
 43
0.0
 44
0.0
 45
0.0
 46
0.0
 47
0.0
 48
0.0
 49
0.0
140
0.0
141
0.0
142
1.0
143
1.0
 70
  1712
 72
     0
 73
     0
 74
     0
  7

 75
     0
 76
     0
 77
     2
 78
   300
147
1.0
148
0.0
149
0.0
100
AcDbLayout
  1
Model
 70
     1
 71
     0
 10
0.0
 20
0.0
 11
12.0
 21
9.0
 12
0.0
 22
0.0
 32
0.0
 14
1.000000000000000E+20
 24
1.000000000000000E+20
 34
1.000000000000000E+20
 15
-1.000000000000000E+20
 25
-1.000000000000000E+20
 35
-1.000000000000000E+20
146
0.0
 13
0.0
 23
0.0
 33
0.0
 16
1.0
 26
0.0
 36
0.0
 17
0.0
 27
1.0
 37
0.0
 76
     0
330
1F
331
29
  0
MLINESTYLE
  5
18
102
{ACAD_REACTORS
330
17
102
}
330
17
100
AcDbMlineStyle
  2
Standard
 70
     0
  3

 62
   256
 51
90.0
 52
90.0
 71
     2
 49
0.5
 62
   256
  6
BYLAYER
 49
-0.5
 62
   256
  6
BYLAYER
  0
ACDBPLACEHOLDER
  5
F
102
{ACAD_REACTORS
330
E
102
}
330
E
  0
VISUALSTYLE
  5
2F
102
{ACAD_REACTORS
330
2A
102
}
330
2A
100
AcDbVisualStyle
  2
2dWireframe
 70
     4
 71
     0
 72
     2
 73
     0
 90
        0
 40
-0.6
 41
-30.0
 62
     5
 63
     7
421
 16777215
 74
     1
 91
        4
 64
     7
 65
   257
 75
     1
175
     1
 42
1.0
 92
        0
 66
   257
 43
1.0
 76
     1
 77
     6
 78
     2
 67
     7
 79
     5
170
     0
171
     0
290
     0
174
     0
 93
        1
 44
0.0
173
     0
291
     0
 45
0.0
1001
ACAD
1000
AcDbSavedByObjectVersion
1070
     0
  0
VISUALSTYLE
  5
31
102
{ACAD_REACTORS
330
2A
102
}
330
2A
100
AcDbVisualStyle
  2
3D Hidden
 70
     6
 71
     1
 72
     2
 73
     2
 90
        0
 40
-0.6
 41
-30.0
 62
     5
 63
     7
421
 16777215
 74
     2
 91
        2
 64
     7
 65
   257
 75
     2
175
     1
 42
40.0
 92
        0
 66
   257
 43
1.0
 76
     1
 77
     6
 78
     2
 67
     7
 79
     3
170
     0
171
     0
290
     0
174
     0
 93
        1
 44
0.0
173
     0
291
     0
 45
0.0
1001
ACAD
1000
AcDbSavedByObjectVersion
1070
     0
  0
VISUALSTYLE
  5
30
102
{ACAD_REACTORS
330
2A
102
}
330
2A
100
AcDbVisualStyle
  2
3dWireframe
 70
     5
 71
     0
 72
     2
 73
     0
 90
        0
 40
-0.6
 41
-30.0
 62
     5
 63
     7
421
 16777215
 74
     1
 91
        4
 64
     7
 65
   257
 75
     1
175
     1
 42
1.0
 92
        0
 66
   257
 43
1.0
 76
     1
 77
     6
 78
     2
 67
     7
 79
     5
170
     0
171
     0
290
     0
174
     0
 93
        1
 44
0.0
173
     0
291
     0
 45
0.0
1001
ACAD
1000
AcDbSavedByObjectVersion
1070
     0
  0
VISUALSTYLE
  5
32
102
{ACAD_REACTORS
330
2A
102
}
330
2A
100
AcDbVisualStyle
  2
Basic
 70
     7
 71
     1
 72
     0
 73
     1
 90
        0
 40
-0.6
 41
-30.0
 62
     5
 63
     7
421
 16777215
 74
     0
 91
        4
 64
     7
 65
   257
 75
     1
175
     1
 42
1.0
 92
        8
 66
     7
 43
1.0
 76
     1
 77
     6
 78
     2
 67
     7
 79
     5
170
     0
171
     0
290
     0
174
     0
 93
        1
 44
0.0
173
     0
291
     1
 45
0.0
1001
ACAD
1000
AcDbSavedByObjectVersion
1070
     0
  0
VISUALSTYLE
  5
36
102
{ACAD_REACTORS
330
2A
102
}
330
2A
100
AcDbVisualStyle
  2
Brighten
 70
    12
 71
     2
 72
     2
 73
     0
 90
        0
 40
-0.6
 41
-30.0
 62
     5
 63
     7
421
 16777215
 74
     1
 91
        4
 64
     7
 65
   257
 75
     1
175
     1
 42
1.0
 92
        8
 66
     7
 43
1.0
 76
     1
 77
     6
 78
     2
 67
     7
 79
     5
170
     0
171
     0
290
     0
174
     0
 93
        1
 44
50.0
173
     0
291
     1
 45
0.0
1001
ACAD
1000
AcDbSavedByObjectVersion
1070
     0
  0
VISUALSTYLE
  5
3A
102
{ACAD_REACTORS
330
2A
102
}
330
2A
100
AcDbVisualStyle
  2
ColorChange
 70
    16
 71
     2
 72
     2
 73
     3
 90
        0
 40
-0.6
 41
-30.0
 62
     5
 63
     8
421
  8421504
 74
     1
 91
        4
 64
     7
 65
   257
 75
     1
175
     1
 42
1.0
 92
        8
 66
     8
424
  8421504
 43
1.0
 76
     1
 77
     6
 78
     2
 67
     7
 79
     5
170
     0
171
     0
290
     0
174
     0
 93
        1
 44
0.0
173
     0
291
     1
 45
0.0
1001
ACAD
1000
AcDbSavedByObjectVersion
1070
     0
  0
VISUALSTYLE
  5
34
102
{ACAD_REACTORS
330
2A
102
}
330
2A
100
AcDbVisualStyle
  2
Conceptual
 70
     9
 71
     3
 72
     2
 73
     0
 90
        0
 40
-0.6
 41
-30.0
 62
     5
 63
     7
421
 16777215
 74
     2
 91
        2
 64
     7
 65
   257
 75
     1
175
     1
 42
40.0
 92
        8
 66
     7
 43
1.0
 76
     1
 77
     6
 78
     2
 67
     7
 79
     3
170
     0
171
     0
290
     0
174
     0
 93
        1
 44
0.0
173
     0
291
     0
 45
0.0
1001
ACAD
1000
AcDbSavedByObjectVersion
1070
     0
  0
VISUALSTYLE
  5
35
102
{ACAD_REACTORS
330
2A
102
}
330
2A
100
AcDbVisualStyle
  2
Dim
 70
    11
 71
     2
 72
     2
 73
     0
 90
        0
 40
-0.6
 41
-30.0
 62
     5
 63
     7
421
 16777215
 74
     1
 91
        4
 64
     7
 65
   257
 75
     1
175
     1
 42
1.0
 92
        8
 66
     7
 43
1.0
 76
     1
 77
     6
 78
     2
 67
     7
 79
     5
170
     0
171
     0
290
     0
174
     0
 93
        1
 44
-50.0
173
     0
291
     1
 45
0.0
1001
ACAD
1000
AcDbSavedByObjectVersion
1070
     0
  0
VISUALSTYLE
  5
39
102
{ACAD_REACTORS
330
2A
102
}
330
2A
100
AcDbVisualStyle
  2
Facepattern
 70
    15
 71
     2
 72
     2
 73
     0
 90
        0
 40
-0.6
 41
-30.0
 62
     5
 63
     7
421
 16777215
 74
     1
 91
        4
 64
     7
 65
   257
 75
     1
175
     1
 42
1.0
 92
        8
 66
     7
 43
1.0
 76
     1
 77
     6
 78
     2
 67
     7
 79
     5
170
     0
171
     0
290
     0
174
     0
 93
        1
 44
0.0
173
     0
291
     1
 45
0.0
1001
ACAD
1000
AcDbSavedByObjectVersion
1070
     0
  0
VISUALSTYLE
  5
2B
102
{ACAD_REACTORS
330
2A
102
}
330
2A
100
AcDbVisualStyle
  2
Flat
 70
     0
 71
     2
 72
     1
 73
     1
 90
        2
 40
-0.6
 41
30.0
 62
     5
 63
     7
421
 16777215
 74
     0
 91
        4
 64
     7
 65
   257
 75
     1
175
     1
 42
1.0
 92
        8
 66
     7
 43
1.0
 76
     1
 77
     6
 78
     2
 67
     7
 79
     5
170
     0
171
     0
290
     0
174
     0
 93
       13
 44
0.0
173
     0
291
     1
 45
0.0
1001
ACAD
1000
AcDbSavedByObjectVersion
1070
     0
  0
VISUALSTYLE
  5
2C
102
{ACAD_REACTORS
330
2A
102
}
330
2A
100
AcDbVisualStyle
  2
FlatWithEdges
 70
     1
 71
     2
 72
     1
 73
     1
 90
        2
 40
-0.6
 41
30.0
 62
     5
 63
     7
421
 16777215
 74
     1
 91
        4
 64
     7
 65
   257
 75
     1
175
     1
 42
1.0
 92
        0
 66
   257
 43
1.0
 76
     1
 77
     6
 78
     2
 67
     7
 79
     5
170
     0
171
     0
290
     0
174
     0
 93
       13
 44
0.0
173
     0
291
     1
 45
0.0
1001
ACAD
1000
AcDbSavedByObjectVersion
1070
     0
  0
VISUALSTYLE
  5
2D
102
{ACAD_REACTORS
330
2A
102
}
330
2A
100
AcDbVisualStyle
  2
Gouraud
 70
     2
 71
     2
 72
     2
 73
     1
 90
        2
 40
-0.6
 41
30.0
 62
     5
 63
     7
421
 16777215
 74
     0
 91
        4
 64
     7
 65
   257
 75
     1
175
     1
 42
1.0
 92
        0
 66
     7
 43
1.0
 76
     1
 77
     6
 78
     2
 67
     7
 79
     5
170
     0
171
     0
290
     0
174
     0
 93
       13
 44
0.0
173
     0
291
     1
 45
0.0
1001
ACAD
1000
AcDbSavedByObjectVersion
1070
     0
  0
VISUALSTYLE
  5
2E
102
{ACAD_REACTORS
330
2A
102
}
330
2A
100
AcDbVisualStyle
  2
GouraudWithEdges
 70
     3
 71
     2
 72
     2
 73
     1
 90
        2
 40
-0.6
 41
30.0
 62
     5
 63
     7
421
 16777215
 74
     1
 91
        4
 64
     7
 65
   257
 75
     1
175
     1
 42
1.0
 92
        0
 66
   257
 43
1.0
 76
     1
 77
     6
 78
     2
 67
     7
 79
     5
170
     0
171
     0
290
     0
174
     0
 93
       13
 44
0.0
173
     0
291
     1
 45
0.0
1001
ACAD
1000
AcDbSavedByObjectVersion
1070
     0
  0
VISUALSTYLE
  5
38
102
{ACAD_REACTORS
330
2A
102
}
330
2A
100
AcDbVisualStyle
  2
Linepattern
 70
    14
 71
     2
 72
     2
 73
     0
 90
        0
 40
-0.6
 41
-30.0
 62
     5
 63
     7
421
 16777215
 74
     1
 91
        4
 64
     7
 65
   257
 75
     7
175
     7
 42
1.0
 92
        8
 66
     7
 43
1.0
 76
     1
 77
     6
 78
     2
 67
     7
 79
     5
170
     0
171
     0
290
     0
174
     0
 93
        1
 44
0.0
173
     0
291
     1
 45
0.0
1001
ACAD
1000
AcDbSavedByObjectVersion
1070
     0
  0
VISUALSTYLE
  5
33
102
{ACAD_REACTORS
330
2A
102
}
330
2A
100
AcDbVisualStyle
  2
Realistic
 70
     8
 71
     2
 72
     2
 73
     0
 90
        0
 40
-0.6
 41
-30.0
 62
     5
 63
     7
421
 16777215
 74
     1
 91
        0
 64
     7
 65
   257
 75
     1
175
     1
 42
1.0
 92
        8
 66
     8
424
  7895160
 43
1.0
 76
     1
 77
     6
 78
     2
 67
     7
 79
     5
170
     0
171
     0
290
     0
174
     0
 93
       13
 44
0.0
173
     0
291
     0
 45
0.0
1001
ACAD
1000
AcDbSavedByObjectVersion
1070
     0
  0
VISUALSTYLE
  5
37
102
{ACAD_REACTORS
330
2A
102
}
330
2A
100
AcDbVisualStyle
  2
Thicken
 70
    13
 71
     2
 72
     2
 73
     0
 90
        0
 40
-0.6
 41
-30.0
 62
     5
 63
     7
421
 16777215
 74
     1
 91
        4
 64
     7
 65
   257
 75
     1
175
     1
 42
1.0
 92
       12
 66
     7
 43
1.0
 76
     1
 77
     6
 78
     2
 67
     7
 79
     5
170
     0
171
     0
290
     0
174
     0
 93
        1
 44
0.0
173
     0
291
     1
 45
0.0
1001
ACAD
1000
AcDbSavedByObjectVersion
1070
     0
  0
XRECORD
  5
B6
102
{ACAD_REACTORS
330
B5
102
}
330
B5
100
AcDbXrecord
280
     1
1000
This DWG file was created in ArchiCAD(TM)®
  0
ENDSEC
  0
EOF
