  0
SECTION
  2
HEADER
  9
$ACADVER
  1
AC1009
  9
$INSBASE
 10
0.0
 20
0.0
 30
0.0
  9
$EXTMIN
 10
-200.2024556616644
 20
-120.15165196245739
 30
0.0
  9
$EXTMAX
 10
129.34809295167969
 20
209.08049036593241
 30
0.0
  9
$LIMMIN
 10
0.0
 20
0.0
  9
$LIMMAX
 10
420.0
 20
297.0
  9
$ORTHOMODE
 70
     0
  9
$REGENMODE
 70
     1
  9
$FILLMODE
 70
     1
  9
$QTEXTMODE
 70
     0
  9
$MIRRTEXT
 70
     0
  9
$DRAGMODE
 70
     2
  9
$LTSCALE
 40
1.0
  9
$OSMODE
 70
     0
  9
$ATTMODE
 70
     1
  9
$TEXTSIZE
 40
35.0
  9
$TRACEWID
 40
1.0
  9
$TEXTSTYLE
  7
SPECI
  9
$CLAYER
  8
0
  9
$CELTYPE
  6
CONTINUOUS
  9
$CECOLOR
 62
   256
  9
$DIMSCALE
 40
2.0
  9
$DIMASZ
 40
2.5
  9
$DIMEXO
 40
1.8
  9
$DIMDLI
 40
5.0
  9
$DIMRND
 40
0.0
  9
$DIMDLE
 40
1.8
  9
$DIMEXE
 40
1.8
  9
$DIMTP
 40
0.0
  9
$DIMTM
 40
0.0
  9
$DIMTXT
 40
2.2000000000000002
  9
$DIMCEN
 40
1.8
  9
$DIMTSZ
 40
0.0
  9
$DIMTOL
 70
     0
  9
$DIMLIM
 70
     0
  9
$DIMTIH
 70
     0
  9
$DIMTOH
 70
     0
  9
$DIMSE1
 70
     0
  9
$DIMSE2
 70
     0
  9
$DIMTAD
 70
     1
  9
$DIMZIN
 70
     0
  9
$DIMBLK
  1
SPECI_TICK
  9
$DIMASO
 70
     1
  9
$DIMSHO
 70
     1
  9
$DIMPOST
  1

  9
$DIMAPOST
  1

  9
$DIMALT
 70
     0
  9
$DIMALTD
 70
     2
  9
$DIMALTF
 40
0.0394
  9
$DIMLFAC
 40
1.0
  9
$DIMTOFL
 70
     0
  9
$DIMTVP
 40
0.0
  9
$DIMTIX
 70
     0
  9
$DIMSOXD
 70
     0
  9
$DIMSAH
 70
     0
  9
$DIMBLK1
  1

  9
$DIMBLK2
  1

  9
$DIMSTYLE
  2
1_TO_2
  9
$DIMCLRD
 70
   256
  9
$DIMCLRE
 70
   256
  9
$DIMCLRT
 70
   256
  9
$DIMTFAC
 40
1.0
  9
$DIMGAP
 40
1.0
  9
$LUNITS
 70
     2
  9
$LUPREC
 70
     4
  9
$SKETCHINC
 40
1.0
  9
$FILLETRAD
 40
0.0
  9
$AUNITS
 70
     0
  9
$AUPREC
 70
     0
  9
$MENU
  1
.
  9
$ELEVATION
 40
0.0
  9
$PELEVATION
 40
0.0
  9
$THICKNESS
 40
0.0
  9
$LIMCHECK
 70
     0
  9
$BLIPMODE
 70
     0
  9
$CHAMFERA
 40
0.0
  9
$CHAMFERB
 40
0.0
  9
$SKPOLY
 70
     0
  9
$TDCREATE
 40
2455476.4658664241
  9
$TDUPDATE
 40
2455623.5608616322
  9
$TDINDWG
 40
0.6987565856
  9
$TDUSRTIMER
 40
0.6987560417000001
  9
$USRTIMER
 70
     1
  9
$ANGBASE
 50
0.0
  9
$ANGDIR
 70
     0
  9
$PDMODE
 70
     0
  9
$PDSIZE
 40
0.0
  9
$PLINEWID
 40
0.0
  9
$COORDS
 70
     2
  9
$SPLFRAME
 70
     0
  9
$SPLINETYPE
 70
     6
  9
$SPLINESEGS
 70
     8
  9
$ATTDIA
 70
     0
  9
$ATTREQ
 70
     0
  9
$HANDLING
 70
     1
  9
$HANDSEED
  5
4841
  9
$SURFTAB1
 70
     6
  9
$SURFTAB2
 70
     6
  9
$SURFTYPE
 70
     6
  9
$SURFU
 70
     6
  9
$SURFV
 70
     6
  9
$UCSNAME
  2

  9
$UCSORG
 10
0.0
 20
0.0
 30
0.0
  9
$UCSXDIR
 10
1.0
 20
0.0
 30
0.0
  9
$UCSYDIR
 10
0.0
 20
1.0
 30
0.0
  9
$PUCSNAME
  2

  9
$PUCSORG
 10
0.0
 20
0.0
 30
0.0
  9
$PUCSXDIR
 10
1.0
 20
0.0
 30
0.0
  9
$PUCSYDIR
 10
0.0
 20
1.0
 30
0.0
  9
$USERI1
 70
     0
  9
$USERI2
 70
     0
  9
$USERI3
 70
     0
  9
$USERI4
 70
     0
  9
$USERI5
 70
     0
  9
$USERR1
 40
0.0
  9
$USERR2
 40
0.0
  9
$USERR3
 40
0.0
  9
$USERR4
 40
0.0
  9
$USERR5
 40
0.0
  9
$WORLDVIEW
 70
     1
  9
$SHADEDGE
 70
     3
  9
$SHADEDIF
 70
    70
  9
$TILEMODE
 70
     1
  9
$MAXACTVP
 70
    64
  9
$PLIMCHECK
 70
     0
  9
$PEXTMIN
 10
28.687182617187489
 20
19.99191756248473
 30
0.0
  9
$PEXTMAX
 10
258.18464355468751
 20
179.92725806236271
 30
0.0
  9
$PLIMMIN
 10
-5.027069091796875
 20
-5.027082920074462
  9
$PLIMMAX
 10
291.89892578125
 20
204.94624471664429
  9
$UNITMODE
 70
     0
  9
$VISRETAIN
 70
     1
  9
$PLINEGEN
 70
     0
  9
$PSLTSCALE
 70
     1
  0
ENDSEC
  0
SECTION
  2
TABLES
  0
TABLE
  2
VPORT
 70
     1
  0
VPORT
  2
*ACTIVE
 70
     0
 10
0.0
 20
0.0
 11
1.0
 21
1.0
 12
111.26567747868749
 22
88.417809275327954
 13
0.0
 23
0.0
 14
10.0
 24
10.0
 15
10.0
 25
10.0
 16
0.0
 26
0.0
 36
1.0
 17
0.0
 27
0.0
 37
0.0
 40
427.18669387274417
 41
1.451149425287356
 42
50.0
 43
0.0
 44
0.0
 50
0.0
 51
0.0
 71
     0
 72
  1000
 73
     1
 74
     3
 75
     0
 76
     0
 77
     0
 78
     0
  0
ENDTAB
  0
TABLE
  2
LTYPE
 70
     2
  0
LTYPE
  2
CONTINUOUS
 70
     0
  3
Solid line
 72
    65
 73
     0
 40
0.0
  0
ENDTAB
  0
TABLE
  2
LAYER
 70
    23
  0
LAYER
  2
0
 70
     0
 62
     7
  6
CONTINUOUS
  0
LAYER
  2
DEFPOINTS
 70
     0
 62
     7
  6
CONTINUOUS
  0
LAYER
  2
_ANNOTATE_COL
 70
     0
 62
     7
  6
CONTINUOUS
  0
ENDTAB
  0
TABLE
  2
STYLE
 70
     5
  0
STYLE
  2
STANDARD
 70
     0
 40
0.0
 41
1.0
 50
0.0
 71
     0
 42
2.5
  3
txt
  4

  0
STYLE
  2
SPECI
 70
     0
 40
0.0
 41
1.0
 50
0.0
 71
     0
 42
35.0
  3
txt
  4

  0
ENDTAB
  0
TABLE
  2
VIEW
 70
     1
  0
ENDTAB
  0
TABLE
  2
UCS
 70
     0
  0
ENDTAB
  0
TABLE
  2
APPID
 70
    29
  0
APPID
  2
ACAD
 70
     0
  0
APPID
  2
ACAD_PSEXT
 70
     0
  0
APPID
  2
ACADANNOPO
 70
     0
  0
APPID
  2
ACADANNOTATIVE
 70
     0
  0
APPID
  2
ACAD_DSTYLE_DIMJAG
 70
     0
  0
APPID
  2
ACAD_DSTYLE_DIMTALN
 70
     0
  0
APPID
  2
ACAD_MLEADERVER
 70
     0
  0
APPID
  2
ACAD_EXEMPT_FROM_CAD_STANDARDS
 70
     0
  0
APPID
  2
ACAUTHENVIRON
 70
     0
  0
APPID
  2
ACDBDYNAMICBLOCKTRUENAME
 70
     0
  0
APPID
  2
ACDBDYNAMICBLOCKGUID
 70
     0
  0
APPID
  2
ACAD_DSTYLE_DIMEXT_ENABLED
 70
     0
  0
APPID
  2
ACAD_DSTYLE_DIMEXT_LENGTH
 70
     0
  0
APPID
  2
PE_URL
 70
     0
  0
APPID
  2
ACAECLAYERSTANDARD
 70
     0
  0
APPID
  2
DCO15
 70
     0
  0
APPID
  2
ACADANNOAV
 70
     0
  0
APPID
  2
URBANX
 70
     0
  0
APPID
  2
ACAD_DSTYLE_DIMTEXT_FILL
 70
     0
  0
APPID
  2
ACAD_DSTYLE_DIM_LINETYPE
 70
     0
  0
APPID
  2
ACAD_DSTYLE_DIM_EXT1_LINETYPE
 70
     0
  0
APPID
  2
ACAD_DSTYLE_DIM_EXT2_LINETYPE
 70
     0
  0
APPID
  2
ACAD_DSTYLE_DIMJOGGED_JOGA
 70
     0
  0
APPID
  2
ACAD_DSTYLE_DIMARC_LENGTH_
 70
     0
  0
APPID
  2
ACDBATTR
 70
     0
  0
APPID
  2
GRADIENTCOLOR1ACI
 70
     0
  0
APPID
  2
GRADIENTCOLOR2ACI
 70
     0
  0
APPID
  2
ACCMTRANSPARENCY
 70
     0
  0
APPID
  2
ACAD_NAV_VCDISPLAY
 70
     0
  0
ENDTAB
  0
TABLE
  2
DIMSTYLE
 70
     3
  0
DIMSTYLE
  2
1_TO_2_LEADER
 70
     0
  3

  4

  5
SPECI_TICK
  6

  7

 40
2.0
 41
3.5
 42
1.8
 43
5.0
 44
1.8
 45
0.0
 46
1.8
 47
0.0
 48
0.0
140
2.2000000000000002
141
1.8
142
0.0
143
0.0394
144
1.0
145
0.0
146
1.0
147
1.0
 71
     0
 72
     0
 73
     0
 74
     0
 75
     0
 76
     0
 77
     0
 78
     0
170
     0
171
     2
172
     1
173
     0
174
     1
175
     0
176
     0
177
     0
178
     0
  0
DIMSTYLE
  2
1_TO_2
 70
     0
  3

  4

  5
SPECI_TICK
  6

  7

 40
2.0
 41
2.5
 42
1.8
 43
5.0
 44
1.8
 45
0.0
 46
1.8
 47
0.0
 48
0.0
140
2.2000000000000002
141
1.8
142
0.0
143
0.0394
144
1.0
145
0.0
146
1.0
147
1.0
 71
     0
 72
     0
 73
     0
 74
     0
 75
     0
 76
     0
 77
     1
 78
     0
170
     0
171
     2
172
     0
173
     0
174
     0
175
     0
176
   256
177
   256
178
   256
  0
DIMSTYLE
  2
ISO-25
 70
     0
  3

  4

  5

  6

  7

 40
1.0
 41
2.5
 42
0.625
 43
3.75
 44
1.25
 45
0.0
 46
0.0
 47
0.0
 48
0.0
140
2.5
141
2.5
142
0.0
143
0.03937007874016
144
1.0
145
0.0
146
1.0
147
0.625
 71
     0
 72
     0
 73
     0
 74
     0
 75
     0
 76
     0
 77
     1
 78
     8
170
     0
171
     3
172
     1
173
     0
174
     0
175
     0
176
     0
177
     0
178
     0
  0
ENDTAB
  0
ENDSEC
  0
SECTION
  2
BLOCKS
  0
BLOCK
  8
0
  2
$MODEL_SPACE
 70
     0
 10
0.0
 20
0.0
 30
0.0
  3
$MODEL_SPACE
  1

  0
ENDBLK
  5
21
  8
0
  0
BLOCK
 67
     1
  8
0
  2
$PAPER_SPACE
 70
     0
 10
0.0
 20
0.0
 30
0.0
  3
$PAPER_SPACE
  1

  0
ENDBLK
  5
418E
 67
     1
  8
0
  0
BLOCK
  8
0
  2
*D8
 70
     1
 10
0.0
 20
0.0
 30
0.0
  3
*D8
  1

  0
LINE
  5
41E8
  8
0
 10
115.74809295167969
 20
-0.1749999999990493
 30
0.0
 11
129.34809295167969
 21
-0.1749999999990531
 31
0.0
  0
LINE
  5
41E9
  8
0
 10
115.74809295167969
 20
-8.1749999999996188
 30
0.0
 11
129.34809295167969
 21
-8.1749999999996223
 31
0.0
  0
LINE
  5
41EA
  8
0
 10
125.74809295167969
 20
4.825000000000947
 30
0.0
 11
125.74809295167969
 21
9.8250000000009479
 31
0.0
  0
LINE
  5
41EB
  8
0
 10
125.74809295167969
 20
-13.174999999999621
 30
0.0
 11
125.74809295167969
 21
-18.174999999999621
 31
0.0
  0
INSERT
  5
41EC
  8
0
  6
CONTINUOUS
  2
*U39
 10
0.0
 20
0.0
 30
0.0
  0
INSERT
  5
41ED
  8
0
  2
SPECI_TICK
 10
125.74809295167969
 20
-0.1749999999990521
 30
0.0
 41
5.0
 42
5.0
 43
5.0
 50
270.0
  0
INSERT
  5
41EE
  8
0
  2
SPECI_TICK
 10
125.74809295167969
 20
-8.1749999999996223
 30
0.0
 41
5.0
 42
5.0
 43
5.0
 50
90.0
  0
POINT
  5
41EF
  8
DEFPOINTS
 62
     0
 10
100.7250000160434
 20
-0.174999999999045
 30
0.0
  0
POINT
  5
41F0
  8
DEFPOINTS
 62
     0
 10
92.725000016043253
 20
-8.1749999999996135
 30
0.0
  0
POINT
  5
41F1
  8
DEFPOINTS
 62
     0
 10
125.74809295167969
 20
-8.1749999999996223
 30
0.0
  0
ENDBLK
  5
2903
  8
0
  0
BLOCK
  8
0
  2
*D9
 70
     1
 10
0.0
 20
0.0
 30
0.0
  3
*D9
  1

  0
LINE
  5
41DF
  8
0
 62
     0
 10
2.5341267584514569
 20
57.866624436389543
 30
0.0
 11
-11.065873241548539
 21
57.866624436389543
 31
0.0
  0
LINE
  5
41E0
  8
0
 62
     0
 10
2.5341267584514511
 20
22.86662443638955
 30
0.0
 11
-11.06587324154855
 21
22.86662443638955
 31
0.0
  0
LINE
  5
41E1
  8
0
 62
     0
 10
-7.4658732415485423
 20
50.866624436389543
 30
0.0
 11
-7.4658732415485467
 21
29.86662443638955
 31
0.0
  0
INSERT
  5
41E2
  8
0
  6
CONTINUOUS
  2
*U38
 10
0.0
 20
0.0
 30
0.0
  0
INSERT
  5
41E3
  8
0
 62
     0
  2
SPECI_TICK
 10
-7.4658732415485414
 20
57.866624436389543
 30
0.0
 41
7.0
 42
7.0
 43
7.0
 50
90.0
  0
INSERT
  5
41E4
  8
0
 62
     0
  2
SPECI_TICK
 10
-7.4658732415485476
 20
22.86662443638955
 30
0.0
 41
7.0
 42
7.0
 43
7.0
 50
270.0
  0
POINT
  5
41E5
  8
DEFPOINTS
 62
     0
 10
8.2267052224118444
 20
57.866624436389543
 30
0.0
  0
POINT
  5
41E6
  8
DEFPOINTS
 62
     0
 10
8.2267052224118444
 20
22.866624436389539
 30
0.0
  0
POINT
  5
41E7
  8
DEFPOINTS
 62
     0
 10
-7.4658732415485476
 20
22.86662443638955
 30
0.0
  0
ENDBLK
  5
2B7F
  8
0
  0
BLOCK
  8
0
  2
SPECI01
 70
     0
 10
0.0
 20
0.0
 30
0.0
  3
SPECI01
  1

  0
SOLID
  5
3B0F
  8
_ANNOTATE_COL
 10
0.0
 20
0.0
 30
0.0
 11
-0.9999709122285354
 21
0.2678922073860255
 31
0.0
 12
-0.9999709122285354
 22
-0.2831466751683926
 32
0.0
 13
-0.9999709122285354
 23
-0.2831466751683926
 33
0.0
  0
ENDBLK
  5
3B12
  8
0
  0
BLOCK
  8
0
  2
SPECI_TICK
 70
     0
 10
0.0
 20
0.0
 30
0.0
  3
SPECI_TICK
  1

  0
POLYLINE
  5
3BCD
  8
_ANNOTATE_COL
  6
BYBLOCK
 66
     1
 10
0.0
 20
0.0
 30
0.0
 40
0.05
 41
0.05
  0
VERTEX
  5
45DE
  8
_ANNOTATE_COL
  6
BYBLOCK
 10
-0.5
 20
-0.5
 30
0.0
  0
VERTEX
  5
45DF
  8
_ANNOTATE_COL
  6
BYBLOCK
 10
0.5
 20
0.5
 30
0.0
  0
SEQEND
  5
45E0
  8
_ANNOTATE_COL
  6
BYBLOCK
  0
POLYLINE
  5
3BCE
  8
0
  6
CONTINUOUS
 66
     1
 10
0.0
 20
0.0
 30
0.0
  0
VERTEX
  5
45E1
  8
0
  6
CONTINUOUS
 10
0.0
 20
0.0
 30
0.0
  0
VERTEX
  5
45E2
  8
0
  6
CONTINUOUS
 10
-1.0
 20
0.0000000000000001
 30
0.0
  0
SEQEND
  5
45E3
  8
0
  6
CONTINUOUS
  0
ENDBLK
  5
3BD2
  8
0
  0
BLOCK
  8
0
  2
*X13
 70
     1
 10
0.0
 20
0.0
 30
0.0
  3
*X13
  1

  0
LINE
  5
42EA
  8
0
  6
CONTINUOUS
 62
     0
 10
-35.847353590925337
 20
-11.584649152895659
 30
0.0
 11
-34.277088928428022
 21
-10.01438449039834
 31
0.0
  0
LINE
  5
42EB
  8
0
  6
CONTINUOUS
 62
     0
 10
-37.437704438033379
 20
-13.175000000003701
 30
0.0
 11
-36.699122967984941
 21
-12.43641852995526
 31
0.0
  0
LINE
  5
42EC
  8
0
  6
CONTINUOUS
 62
     0
 10
-37.895999969654397
 20
-9.14316747109015
 30
0.0
 11
-34.280054627032989
 21
-5.5272221284687362
 31
0.0
  0
LINE
  5
42ED
  8
0
  6
CONTINUOUS
 62
     0
 10
-41.927832498567952
 20
-13.175000000003701
 30
0.0
 11
-38.747769346714072
 21
-9.9949368481498198
 31
0.0
  0
LINE
  5
42EE
  8
0
  6
CONTINUOUS
 62
     0
 10
-39.07499998395415
 20
-5.8320394248553171
 30
0.0
 11
-37.893339434018714
 21
-4.650378874919876
 31
0.0
  0
LINE
  5
42EF
  8
0
  6
CONTINUOUS
 62
     0
 10
-36.25930240990548
 20
-3.016341850806652
 30
0.0
 11
-34.283020325637963
 21
-1.0400597665391269
 31
0.0
  0
LINE
  5
42F0
  8
0
  6
CONTINUOUS
 62
     0
 10
-46.417960559102532
 20
-13.175000000003701
 30
0.0
 11
-40.263607861845173
 21
-7.0206473027463447
 31
0.0
  0
LINE
  5
42F1
  8
0
  6
CONTINUOUS
 62
     0
 10
-39.074999983958449
 20
-1.3419113643250511
 30
0.0
 11
-34.285986024242931
 21
3.447102595390481
 31
0.0
  0
LINE
  5
42F2
  8
0
  6
CONTINUOUS
 62
     0
 10
-50.908088619637113
 20
-13.175000000003701
 30
0.0
 11
-40.274999983956327
 21
-2.5419113643229312
 31
0.0
  0
LINE
  5
42F3
  8
0
  6
CONTINUOUS
 62
     0
 10
-38.9539440744229
 20
3.2692726057450789
 30
0.0
 11
-35.470195398646318
 21
6.7530212815216606
 31
0.0
  0
LINE
  5
42F4
  8
0
  6
CONTINUOUS
 62
     0
 10
-55.398216680171679
 20
-13.175000000003701
 30
0.0
 11
-40.274999983957912
 21
1.9482166962100671
 31
0.0
  0
LINE
  5
42F5
  8
0
  6
CONTINUOUS
 62
     0
 10
-39.0749999839596
 20
7.6383447567429572
 30
0.0
 11
-36.088344740706788
 21
10.62499999999577
 31
0.0
  0
LINE
  5
42F6
  8
0
  6
CONTINUOUS
 62
     0
 10
-34.88834474070682
 20
11.82499999999574
 30
0.0
 11
-34.291917421452872
 21
12.421427319249689
 31
0.0
  0
LINE
  5
42F7
  8
0
  6
CONTINUOUS
 62
     0
 10
-59.888344740706259
 20
-13.175000000003701
 30
0.0
 11
-40.274999983959482
 21
6.4383447567430672
 31
0.0
  0
LINE
  5
42F8
  8
0
  6
CONTINUOUS
 62
     0
 10
-64.378472801240832
 20
-13.175000000003701
 30
0.0
 11
-34.294883120057833
 21
16.908589681179301
 31
0.0
  0
LINE
  5
42F9
  8
0
  6
CONTINUOUS
 62
     0
 10
-68.868600861775406
 20
-13.17500000000369
 30
0.0
 11
-35.657725048924597
 21
20.03587581284712
 31
0.0
  0
LINE
  5
42FA
  8
0
  6
CONTINUOUS
 62
     0
 10
-73.358728922309993
 20
-13.175000000003701
 30
0.0
 11
-40.577948533340198
 21
19.605780388966082
 31
0.0
  0
LINE
  5
42FB
  8
0
  6
CONTINUOUS
 62
     0
 10
-77.848856982844566
 20
-13.175000000003701
 30
0.0
 11
-46.80154877570294
 21
17.87230820713792
 31
0.0
  0
LINE
  5
42FC
  8
0
  6
CONTINUOUS
 62
     0
 10
-82.338985043379125
 20
-13.17500000000369
 30
0.0
 11
-50.711548637651461
 21
18.452436405723979
 31
0.0
  0
LINE
  5
42FD
  8
0
  6
CONTINUOUS
 62
     0
 10
-86.829113103913727
 20
-13.175000000003701
 30
0.0
 11
-55.146082065238907
 21
18.50803103867111
 31
0.0
  0
LINE
  5
42FE
  8
0
  6
CONTINUOUS
 62
     0
 10
-91.3192411644483
 20
-13.175000000003701
 30
0.0
 11
-60.61577937823639
 21
17.528461786208201
 31
0.0
  0
LINE
  5
42FF
  8
0
  6
CONTINUOUS
 62
     0
 10
-95.809369224982859
 20
-13.175000000003701
 30
0.0
 11
-66.440479551884323
 21
16.193889673094851
 31
0.0
  0
LINE
  5
4300
  8
0
  6
CONTINUOUS
 62
     0
 10
-100.2994972855174
 20
-13.175000000003701
 30
0.0
 11
-70.331912308443478
 21
16.79258497707027
 31
0.0
  0
LINE
  5
4301
  8
0
  6
CONTINUOUS
 62
     0
 10
-104.2749999839567
 20
-12.660374637908451
 30
0.0
 11
-76.178407434982716
 21
15.43621791106561
 31
0.0
  0
LINE
  5
4302
  8
0
  6
CONTINUOUS
 62
     0
 10
-104.2749999839567
 20
-8.1702465773738737
 30
0.0
 11
-81.010560349818206
 21
15.09419305676469
 31
0.0
  0
LINE
  5
4303
  8
0
  6
CONTINUOUS
 62
     0
 10
-104.2749999839567
 20
-3.6801185168392929
 30
0.0
 11
-86.381196942139397
 21
14.21368452497809
 31
0.0
  0
LINE
  5
4304
  8
0
  6
CONTINUOUS
 62
     0
 10
-104.2749999839567
 20
0.8100095436952798
 30
0.0
 11
-90.925930245289365
 21
14.159079282362701
 31
0.0
  0
LINE
  5
4305
  8
0
  6
CONTINUOUS
 62
     0
 10
-104.2749999839568
 20
5.3001376042298558
 30
0.0
 11
-95.874559767256684
 21
13.70057782092994
 31
0.0
  0
LINE
  5
4306
  8
0
  6
CONTINUOUS
 62
     0
 10
-104.2749999839568
 20
9.7902656647644282
 30
0.0
 11
-99.941648341217174
 21
14.123617307504039
 31
0.0
  0
ENDBLK
  5
4308
  8
0
  0
BLOCK
  8
0
  2
*X14
 70
     1
 10
0.0
 20
0.0
 30
0.0
  3
*X14
  1

  0
LINE
  5
4310
  8
0
  6
CONTINUOUS
 62
     0
 10
-34.625660180930623
 20
-117.4041745430027
 30
0.0
 11
-34.274999983956747
 21
-117.0535143460289
 31
0.0
  0
LINE
  5
4311
  8
0
  6
CONTINUOUS
 62
     0
 10
-39.115788241465197
 20
-117.4041745430027
 30
0.0
 11
-34.274999983956747
 21
-112.5633862854943
 31
0.0
  0
LINE
  5
4312
  8
0
  6
CONTINUOUS
 62
     0
 10
-43.60591630199977
 20
-117.4041745430027
 30
0.0
 11
-35.37674175900073
 21
-109.17500000000371
 31
0.0
  0
LINE
  5
4313
  8
0
  6
CONTINUOUS
 62
     0
 10
-48.09604436253435
 20
-117.4041745430027
 30
0.0
 11
-39.86686981953531
 21
-109.17500000000371
 31
0.0
  0
LINE
  5
4314
  8
0
  6
CONTINUOUS
 62
     0
 10
-52.586172423068923
 20
-117.4041745430027
 30
0.0
 11
-44.356997880069883
 21
-109.17500000000371
 31
0.0
  0
LINE
  5
4315
  8
0
  6
CONTINUOUS
 62
     0
 10
-57.076300483603497
 20
-117.4041745430027
 30
0.0
 11
-48.84712594060445
 21
-109.17500000000371
 31
0.0
  0
LINE
  5
4316
  8
0
  6
CONTINUOUS
 62
     0
 10
-61.56642854413807
 20
-117.4041745430027
 30
0.0
 11
-53.33725400113903
 21
-109.17500000000371
 31
0.0
  0
LINE
  5
4317
  8
0
  6
CONTINUOUS
 62
     0
 10
-66.05655660467265
 20
-117.4041745430027
 30
0.0
 11
-57.827382061673603
 21
-109.17500000000371
 31
0.0
  0
LINE
  5
4318
  8
0
  6
CONTINUOUS
 62
     0
 10
-70.546684665207223
 20
-117.4041745430027
 30
0.0
 11
-62.317510122208191
 21
-109.17500000000371
 31
0.0
  0
LINE
  5
4319
  8
0
  6
CONTINUOUS
 62
     0
 10
-75.036812725741811
 20
-117.4041745430027
 30
0.0
 11
-66.80763818274275
 21
-109.17500000000371
 31
0.0
  0
LINE
  5
431A
  8
0
  6
CONTINUOUS
 62
     0
 10
-79.526940786276384
 20
-117.4041745430027
 30
0.0
 11
-71.297766243277323
 21
-109.17500000000371
 31
0.0
  0
LINE
  5
431B
  8
0
  6
CONTINUOUS
 62
     0
 10
-84.017068846810943
 20
-117.4041745430027
 30
0.0
 11
-75.78789430381191
 21
-109.17500000000371
 31
0.0
  0
LINE
  5
431C
  8
0
  6
CONTINUOUS
 62
     0
 10
-88.507196907345531
 20
-117.4041745430027
 30
0.0
 11
-80.278022364346498
 21
-109.17500000000371
 31
0.0
  0
LINE
  5
431D
  8
0
  6
CONTINUOUS
 62
     0
 10
-92.997324967880104
 20
-117.4041745430027
 30
0.0
 11
-84.768150424881071
 21
-109.17500000000371
 31
0.0
  0
LINE
  5
431E
  8
0
  6
CONTINUOUS
 62
     0
 10
-97.487453028414677
 20
-117.4041745430027
 30
0.0
 11
-89.258278485415644
 21
-109.17500000000371
 31
0.0
  0
LINE
  5
431F
  8
0
  6
CONTINUOUS
 62
     0
 10
-101.97758108894919
 20
-117.4041745430027
 30
0.0
 11
-93.748406545950218
 21
-109.17500000000371
 31
0.0
  0
LINE
  5
4320
  8
0
  6
CONTINUOUS
 62
     0
 10
-104.2749999839567
 20
-115.2114653774757
 30
0.0
 11
-98.238534606484791
 21
-109.17500000000371
 31
0.0
  0
LINE
  5
4321
  8
0
  6
CONTINUOUS
 62
     0
 10
-104.2749999839567
 20
-110.7213373169411
 30
0.0
 11
-102.72866266701929
 21
-109.17500000000371
 31
0.0
  0
ENDBLK
  5
4323
  8
0
  0
BLOCK
  8
0
  2
*X15
 70
     1
 10
0.0
 20
0.0
 30
0.0
  3
*X15
  1

  0
LINE
  5
434D
  8
0
  6
CONTINUOUS
 62
     0
 10
-34.369562102358671
 20
203.18482794002031
 30
0.0
 11
-34.275062441583543
 21
203.27932760079551
 31
0.0
  0
LINE
  5
434E
  8
0
  6
CONTINUOUS
 62
     0
 10
-38.859690162893251
 20
203.18482794002031
 30
0.0
 11
-35.71150515643572
 21
206.33301294647791
 31
0.0
  0
LINE
  5
434F
  8
0
  6
CONTINUOUS
 62
     0
 10
-43.349818223427832
 20
203.18482794002031
 30
0.0
 11
-40.201633216970301
 21
206.33301294647791
 31
0.0
  0
LINE
  5
4350
  8
0
  6
CONTINUOUS
 62
     0
 10
-47.839946283962398
 20
203.18482794002031
 30
0.0
 11
-44.691761277504881
 21
206.33301294647791
 31
0.0
  0
LINE
  5
4351
  8
0
  6
CONTINUOUS
 62
     0
 10
-52.330074344496978
 20
203.18482794002031
 30
0.0
 11
-49.181889338039447
 21
206.33301294647791
 31
0.0
  0
LINE
  5
4352
  8
0
  6
CONTINUOUS
 62
     0
 10
-56.820202405031552
 20
203.18482794002031
 30
0.0
 11
-53.672017398574027
 21
206.33301294647791
 31
0.0
  0
LINE
  5
4353
  8
0
  6
CONTINUOUS
 62
     0
 10
-61.310330465566139
 20
203.18482794002031
 30
0.0
 11
-58.162145459108601
 21
206.33301294647791
 31
0.0
  0
LINE
  5
4354
  8
0
  6
CONTINUOUS
 62
     0
 10
-65.800458526100712
 20
203.18482794002031
 30
0.0
 11
-62.652273519643188
 21
206.33301294647791
 31
0.0
  0
LINE
  5
4355
  8
0
  6
CONTINUOUS
 62
     0
 10
-70.290586586635285
 20
203.18482794002031
 30
0.0
 11
-67.142401580177761
 21
206.33301294647791
 31
0.0
  0
LINE
  5
4356
  8
0
  6
CONTINUOUS
 62
     0
 10
-74.780714647169859
 20
203.18482794002031
 30
0.0
 11
-71.632529640712335
 21
206.33301294647791
 31
0.0
  0
LINE
  5
4357
  8
0
  6
CONTINUOUS
 62
     0
 10
-79.270842707704446
 20
203.18482794002031
 30
0.0
 11
-76.122657701246894
 21
206.33301294647791
 31
0.0
  0
LINE
  5
4358
  8
0
  6
CONTINUOUS
 62
     0
 10
-83.760970768239005
 20
203.18482794002031
 30
0.0
 11
-80.612785761781481
 21
206.33301294647791
 31
0.0
  0
LINE
  5
4359
  8
0
  6
CONTINUOUS
 62
     0
 10
-88.251098828773593
 20
203.18482794002031
 30
0.0
 11
-85.102913822316054
 21
206.33301294647791
 31
0.0
  0
LINE
  5
435A
  8
0
  6
CONTINUOUS
 62
     0
 10
-92.741226889308166
 20
203.18482794002031
 30
0.0
 11
-89.593041882850628
 21
206.33301294647791
 31
0.0
  0
LINE
  5
435B
  8
0
  6
CONTINUOUS
 62
     0
 10
-97.231354949842739
 20
203.18482794002031
 30
0.0
 11
-94.083169943385215
 21
206.33301294647791
 31
0.0
  0
LINE
  5
435C
  8
0
  6
CONTINUOUS
 62
     0
 10
-101.7214830103773
 20
203.18482794002031
 30
0.0
 11
-98.573298003919803
 21
206.33301294647791
 31
0.0
  0
LINE
  5
435D
  8
0
  6
CONTINUOUS
 62
     0
 10
-104.2749999839568
 20
205.12143902697551
 30
0.0
 11
-103.0634260644543
 21
206.33301294647791
 31
0.0
  0
ENDBLK
  5
435F
  8
0
  0
BLOCK
  8
0
  2
*X16
 70
     1
 10
0.0
 20
0.0
 30
0.0
  3
*X16
  1

  0
LINE
  5
436F
  8
0
  6
CONTINUOUS
 62
     0
 10
-106.9215369862966
 20
-116.154507410447
 30
0.0
 11
-106.9215369862966
 21
-116.154507410447
 31
0.0
  0
LINE
  5
4370
  8
0
  6
CONTINUOUS
 62
     0
 10
-104.4920351922573
 20
-109.15473660385911
 30
0.0
 11
-104.4920351922573
 21
-109.15473660385911
 31
0.0
  0
LINE
  5
4371
  8
0
  6
CONTINUOUS
 62
     0
 10
-106.7018028261446
 20
-107.1298576335935
 30
0.0
 11
-106.7018028261446
 21
-107.1298576335935
 31
0.0
  0
LINE
  5
4372
  8
0
  6
CONTINUOUS
 62
     0
 10
-107.1699739350191
 20
-106.7008578517575
 30
0.0
 11
-107.1699739350191
 21
-106.7008578517575
 31
0.0
  0
LINE
  5
4373
  8
0
  6
CONTINUOUS
 62
     0
 10
-104.2723010321053
 20
-100.1300868270056
 30
0.0
 11
-104.2723010321053
 21
-100.1300868270056
 31
0.0
  0
LINE
  5
4374
  8
0
  6
CONTINUOUS
 62
     0
 10
-104.7404721409797
 20
-99.701087045169686
 30
0.0
 11
-104.7404721409797
 21
-99.701087045169686
 31
0.0
  0
LINE
  5
4375
  8
0
  6
CONTINUOUS
 62
     0
 10
-107.26859612890161
 20
-97.384488223255573
 30
0.0
 11
-107.26859612890161
 21
-97.384488223255573
 31
0.0
  0
LINE
  5
4376
  8
0
  6
CONTINUOUS
 62
     0
 10
-104.8390943348623
 20
-90.384717416667712
 30
0.0
 11
-104.8390943348623
 21
-90.384717416667712
 31
0.0
  0
LINE
  5
4377
  8
0
  6
CONTINUOUS
 62
     0
 10
-107.04886196874961
 20
-88.359838446402051
 30
0.0
 11
-107.04886196874961
 21
-88.359838446402051
 31
0.0
  0
LINE
  5
4378
  8
0
  6
CONTINUOUS
 62
     0
 10
-104.61936017471029
 20
-81.360067639814204
 30
0.0
 11
-104.61936017471029
 21
-81.360067639814204
 31
0.0
  0
LINE
  5
4379
  8
0
  6
CONTINUOUS
 62
     0
 10
-105.0875312835847
 20
-80.931067857978263
 30
0.0
 11
-105.0875312835847
 21
-80.931067857978263
 31
0.0
  0
LINE
  5
437A
  8
0
  6
CONTINUOUS
 62
     0
 10
-105.1861534774673
 20
-71.614698229476275
 30
0.0
 11
-105.1861534774673
 21
-71.614698229476275
 31
0.0
  0
LINE
  5
437B
  8
0
  6
CONTINUOUS
 62
     0
 10
-104.9664193173153
 20
-62.590048452622767
 30
0.0
 11
-104.9664193173153
 21
-62.590048452622767
 31
0.0
  0
LINE
  5
437C
  8
0
  6
CONTINUOUS
 62
     0
 10
-105.4345904261897
 20
-62.16104867078684
 30
0.0
 11
-105.4345904261897
 21
-62.16104867078684
 31
0.0
  0
LINE
  5
437D
  8
0
  6
CONTINUOUS
 62
     0
 10
-105.53321262007231
 20
-52.844679042284866
 30
0.0
 11
-105.53321262007231
 21
-52.844679042284866
 31
0.0
  0
LINE
  5
437E
  8
0
  6
CONTINUOUS
 62
     0
 10
-105.3134784599203
 20
-43.820029265431337
 30
0.0
 11
-105.3134784599203
 21
-43.820029265431337
 31
0.0
  0
LINE
  5
437F
  8
0
  6
CONTINUOUS
 62
     0
 10
-105.78164956879471
 20
-43.391029483595403
 30
0.0
 11
-105.78164956879471
 21
-43.391029483595403
 31
0.0
  0
LINE
  5
4380
  8
0
  6
CONTINUOUS
 62
     0
 10
-105.8802717626773
 20
-34.074659855093437
 30
0.0
 11
-105.8802717626773
 21
-34.074659855093437
 31
0.0
  0
LINE
  5
4381
  8
0
  6
CONTINUOUS
 62
     0
 10
-105.6605376025253
 20
-25.050010078239922
 30
0.0
 11
-105.6605376025253
 21
-25.050010078239922
 31
0.0
  0
LINE
  5
4382
  8
0
  6
CONTINUOUS
 62
     0
 10
-106.1287087113997
 20
-24.621010296403981
 30
0.0
 11
-106.1287087113997
 21
-24.621010296403981
 31
0.0
  0
LINE
  5
4383
  8
0
  6
CONTINUOUS
 62
     0
 10
-103.231035808486
 20
-18.05023927165206
 30
0.0
 11
-103.231035808486
 21
-18.05023927165206
 31
0.0
  0
LINE
  5
4384
  8
0
  6
CONTINUOUS
 62
     0
 10
-103.6992069173604
 20
-17.621239489816109
 30
0.0
 11
-103.6992069173604
 21
-17.621239489816109
 31
0.0
  0
LINE
  5
4385
  8
0
  6
CONTINUOUS
 62
     0
 10
-106.2273309052823
 20
-15.30464066790201
 30
0.0
 11
-106.2273309052823
 21
-15.30464066790201
 31
0.0
  0
LINE
  5
4386
  8
0
  6
CONTINUOUS
 62
     0
 10
-106.0075967451303
 20
-6.2799908910484907
 30
0.0
 11
-106.0075967451303
 21
-6.2799908910484907
 31
0.0
  0
LINE
  5
4387
  8
0
  6
CONTINUOUS
 62
     0
 10
-106.4757678540047
 20
-5.8509911092125471
 30
0.0
 11
-106.4757678540047
 21
-5.8509911092125471
 31
0.0
  0
LINE
  5
4388
  8
0
  6
CONTINUOUS
 62
     0
 10
-106.57439004788731
 20
3.465378519289426
 30
0.0
 11
-106.57439004788731
 21
3.465378519289426
 31
0.0
  0
LINE
  5
4389
  8
0
  6
CONTINUOUS
 62
     0
 10
-106.3546558877353
 20
12.490028296142951
 30
0.0
 11
-106.3546558877353
 21
12.490028296142951
 31
0.0
  0
LINE
  5
438A
  8
0
  6
CONTINUOUS
 62
     0
 10
-106.82282699660971
 20
12.919028077978901
 30
0.0
 11
-106.82282699660971
 21
12.919028077978901
 31
0.0
  0
LINE
  5
438B
  8
0
  6
CONTINUOUS
 62
     0
 10
-98.719091363012325
 20
14.71932152871511
 30
0.0
 11
-98.719091363012325
 21
14.71932152871511
 31
0.0
  0
LINE
  5
438C
  8
0
  6
CONTINUOUS
 62
     0
 10
-99.18726247188674
 20
15.148321310551051
 30
0.0
 11
-99.18726247188674
 21
15.148321310551051
 31
0.0
  0
LINE
  5
438D
  8
0
  6
CONTINUOUS
 62
     0
 10
-101.7153864598086
 20
17.464920132465149
 30
0.0
 11
-101.7153864598086
 21
17.464920132465149
 31
0.0
  0
LINE
  5
438E
  8
0
  6
CONTINUOUS
 62
     0
 10
-103.92515409369589
 20
19.48979910273081
 30
0.0
 11
-103.92515409369589
 21
19.48979910273081
 31
0.0
  0
LINE
  5
438F
  8
0
  6
CONTINUOUS
 62
     0
 10
-104.3933252025704
 20
19.918798884566758
 30
0.0
 11
-104.3933252025704
 21
19.918798884566758
 31
0.0
  0
LINE
  5
4390
  8
0
  6
CONTINUOUS
 62
     0
 10
-106.9214491904923
 20
22.23539770648086
 30
0.0
 11
-106.9214491904923
 21
22.23539770648086
 31
0.0
  0
LINE
  5
4391
  8
0
  6
CONTINUOUS
 62
     0
 10
-88.873759204402035
 20
14.92373579102162
 30
0.0
 11
-88.873759204402035
 21
14.92373579102162
 31
0.0
  0
LINE
  5
4392
  8
0
  6
CONTINUOUS
 62
     0
 10
-91.083526838289359
 20
16.948614761287281
 30
0.0
 11
-91.083526838289359
 21
16.948614761287281
 31
0.0
  0
LINE
  5
4393
  8
0
  6
CONTINUOUS
 62
     0
 10
-91.551697947163774
 20
17.377614543123219
 30
0.0
 11
-91.551697947163774
 21
17.377614543123219
 31
0.0
  0
LINE
  5
4394
  8
0
  6
CONTINUOUS
 62
     0
 10
-94.079821935085704
 20
19.694213365037321
 30
0.0
 11
-94.079821935085704
 21
19.694213365037321
 31
0.0
  0
LINE
  5
4395
  8
0
  6
CONTINUOUS
 62
     0
 10
-101.963823408531
 20
26.91856969115463
 30
0.0
 11
-101.963823408531
 21
26.91856969115463
 31
0.0
  0
LINE
  5
4396
  8
0
  6
CONTINUOUS
 62
     0
 10
-104.4919473964529
 20
29.235168513068729
 30
0.0
 11
-104.4919473964529
 21
29.235168513068729
 31
0.0
  0
LINE
  5
4397
  8
0
  6
CONTINUOUS
 62
     0
 10
-106.7017150303403
 20
31.260047483334379
 30
0.0
 11
-106.7017150303403
 21
31.260047483334379
 31
0.0
  0
LINE
  5
4398
  8
0
  6
CONTINUOUS
 62
     0
 10
-107.1698861392147
 20
31.689047265170331
 30
0.0
 11
-107.1698861392147
 21
31.689047265170331
 31
0.0
  0
LINE
  5
4399
  8
0
  6
CONTINUOUS
 62
     0
 10
-81.238194679679054
 20
17.153029023593771
 30
0.0
 11
-81.238194679679054
 21
17.153029023593771
 31
0.0
  0
LINE
  5
439A
  8
0
  6
CONTINUOUS
 62
     0
 10
-83.447962313566364
 20
19.177907993859431
 30
0.0
 11
-83.447962313566364
 21
19.177907993859431
 31
0.0
  0
LINE
  5
439B
  8
0
  6
CONTINUOUS
 62
     0
 10
-83.916133422440794
 20
19.606907775695369
 30
0.0
 11
-83.916133422440794
 21
19.606907775695369
 31
0.0
  0
LINE
  5
439C
  8
0
  6
CONTINUOUS
 62
     0
 10
-104.2722132363009
 20
38.259818289922251
 30
0.0
 11
-104.2722132363009
 21
38.259818289922251
 31
0.0
  0
LINE
  5
439D
  8
0
  6
CONTINUOUS
 62
     0
 10
-104.7403843451754
 20
38.688818071758192
 30
0.0
 11
-104.7403843451754
 21
38.688818071758192
 31
0.0
  0
LINE
  5
439E
  8
0
  6
CONTINUOUS
 62
     0
 10
-107.2685083330973
 20
41.005416893672283
 30
0.0
 11
-107.2685083330973
 21
41.005416893672283
 31
0.0
  0
LINE
  5
439F
  8
0
  6
CONTINUOUS
 62
     0
 10
-109.4782759669846
 20
43.030295863937937
 30
0.0
 11
-109.4782759669846
 21
43.030295863937937
 31
0.0
  0
LINE
  5
43A0
  8
0
  6
CONTINUOUS
 62
     0
 10
-109.946447075859
 20
43.459295645773878
 30
0.0
 11
-109.946447075859
 21
43.459295645773878
 31
0.0
  0
LINE
  5
43A1
  8
0
  6
CONTINUOUS
 62
     0
 10
-71.074506167034187
 20
17.06572343425184
 30
0.0
 11
-71.074506167034187
 21
17.06572343425184
 31
0.0
  0
LINE
  5
43A2
  8
0
  6
CONTINUOUS
 62
     0
 10
-73.602630154956103
 20
19.382322256165939
 30
0.0
 11
-73.602630154956103
 21
19.382322256165939
 31
0.0
  0
LINE
  5
43A3
  8
0
  6
CONTINUOUS
 62
     0
 10
-104.83900653905791
 20
48.005187700260159
 30
0.0
 11
-104.83900653905791
 21
48.005187700260159
 31
0.0
  0
LINE
  5
43A4
  8
0
  6
CONTINUOUS
 62
     0
 10
-107.0487741729453
 20
50.030066670525819
 30
0.0
 11
-107.0487741729453
 21
50.030066670525819
 31
0.0
  0
LINE
  5
43A5
  8
0
  6
CONTINUOUS
 62
     0
 10
-107.5169452818197
 20
50.45906645236176
 30
0.0
 11
-107.5169452818197
 21
50.45906645236176
 31
0.0
  0
LINE
  5
43A6
  8
0
  6
CONTINUOUS
 62
     0
 10
-62.97077053343677
 20
18.86601688498806
 30
0.0
 11
-62.97077053343677
 21
18.86601688498806
 31
0.0
  0
LINE
  5
43A7
  8
0
  6
CONTINUOUS
 62
     0
 10
-63.4389416423112
 20
19.295016666824001
 30
0.0
 11
-63.4389416423112
 21
19.295016666824001
 31
0.0
  0
LINE
  5
43A8
  8
0
  6
CONTINUOUS
 62
     0
 10
-104.6192723789059
 20
57.029837477113681
 30
0.0
 11
-104.6192723789059
 21
57.029837477113681
 31
0.0
  0
LINE
  5
43A9
  8
0
  6
CONTINUOUS
 62
     0
 10
-105.0874434877804
 20
57.458837258949607
 30
0.0
 11
-105.0874434877804
 21
57.458837258949607
 31
0.0
  0
LINE
  5
43AA
  8
0
  6
CONTINUOUS
 62
     0
 10
-107.61556747570231
 20
59.775436080863713
 30
0.0
 11
-107.61556747570231
 21
59.775436080863713
 31
0.0
  0
LINE
  5
43AB
  8
0
  6
CONTINUOUS
 62
     0
 10
-109.8253351095896
 20
61.800315051129367
 30
0.0
 11
-109.8253351095896
 21
61.800315051129367
 31
0.0
  0
LINE
  5
43AC
  8
0
  6
CONTINUOUS
 62
     0
 10
-53.125438374826508
 20
19.07043114729457
 30
0.0
 11
-53.125438374826508
 21
19.07043114729457
 31
0.0
  0
LINE
  5
43AD
  8
0
  6
CONTINUOUS
 62
     0
 10
-55.335206008713818
 20
21.095310117560231
 30
0.0
 11
-55.335206008713818
 21
21.095310117560231
 31
0.0
  0
LINE
  5
43AE
  8
0
  6
CONTINUOUS
 62
     0
 10
-105.186065681663
 20
66.775206887451588
 30
0.0
 11
-105.186065681663
 21
66.775206887451588
 31
0.0
  0
LINE
  5
43AF
  8
0
  6
CONTINUOUS
 62
     0
 10
-107.39583331555031
 20
68.800085857717249
 30
0.0
 11
-107.39583331555031
 21
68.800085857717249
 31
0.0
  0
LINE
  5
43B0
  8
0
  6
CONTINUOUS
 62
     0
 10
-107.86400442442471
 20
69.22908563955319
 30
0.0
 11
-107.86400442442471
 21
69.22908563955319
 31
0.0
  0
LINE
  5
43B1
  8
0
  6
CONTINUOUS
 62
     0
 10
-42.961749862181613
 20
18.983125557952619
 30
0.0
 11
-42.961749862181613
 21
18.983125557952619
 31
0.0
  0
LINE
  5
43B2
  8
0
  6
CONTINUOUS
 62
     0
 10
-104.9663315215109
 20
75.799856664305111
 30
0.0
 11
-104.9663315215109
 21
75.799856664305111
 31
0.0
  0
LINE
  5
43B3
  8
0
  6
CONTINUOUS
 62
     0
 10
-105.4345026303854
 20
76.228856446141052
 30
0.0
 11
-105.4345026303854
 21
76.228856446141052
 31
0.0
  0
LINE
  5
43B4
  8
0
  6
CONTINUOUS
 62
     0
 10
-107.9626266183073
 20
78.54545526805515
 30
0.0
 11
-107.9626266183073
 21
78.54545526805515
 31
0.0
  0
LINE
  5
43B5
  8
0
  6
CONTINUOUS
 62
     0
 10
-34.85801422858421
 20
20.783419008688838
 30
0.0
 11
-34.85801422858421
 21
20.783419008688838
 31
0.0
  0
LINE
  5
43B6
  8
0
  6
CONTINUOUS
 62
     0
 10
-105.5331248242679
 20
85.545226074643011
 30
0.0
 11
-105.5331248242679
 21
85.545226074643011
 31
0.0
  0
LINE
  5
43B7
  8
0
  6
CONTINUOUS
 62
     0
 10
-107.7428924581552
 20
87.570105044908672
 30
0.0
 11
-107.7428924581552
 21
87.570105044908672
 31
0.0
  0
LINE
  5
43B8
  8
0
  6
CONTINUOUS
 62
     0
 10
-108.2110635670296
 20
87.999104826744599
 30
0.0
 11
-108.2110635670296
 21
87.999104826744599
 31
0.0
  0
LINE
  5
43B9
  8
0
  6
CONTINUOUS
 62
     0
 10
-105.3133906641159
 20
94.569875851496519
 30
0.0
 11
-105.3133906641159
 21
94.569875851496519
 31
0.0
  0
LINE
  5
43BA
  8
0
  6
CONTINUOUS
 62
     0
 10
-105.7815617729904
 20
94.99887563333246
 30
0.0
 11
-105.7815617729904
 21
94.99887563333246
 31
0.0
  0
LINE
  5
43BB
  8
0
  6
CONTINUOUS
 62
     0
 10
-108.3096857609123
 20
97.315474455246559
 30
0.0
 11
-108.3096857609123
 21
97.315474455246559
 31
0.0
  0
LINE
  5
43BC
  8
0
  6
CONTINUOUS
 62
     0
 10
-105.88018396687291
 20
104.31524526183441
 30
0.0
 11
-105.88018396687291
 21
104.31524526183441
 31
0.0
  0
LINE
  5
43BD
  8
0
  6
CONTINUOUS
 62
     0
 10
-108.0899516007602
 20
106.3401242321001
 30
0.0
 11
-108.0899516007602
 21
106.3401242321001
 31
0.0
  0
LINE
  5
43BE
  8
0
  6
CONTINUOUS
 62
     0
 10
-108.5581227096347
 20
106.76912401393599
 30
0.0
 11
-108.5581227096347
 21
106.76912401393599
 31
0.0
  0
LINE
  5
43BF
  8
0
  6
CONTINUOUS
 62
     0
 10
-103.4506821728336
 20
111.3150160684223
 30
0.0
 11
-103.4506821728336
 21
111.3150160684223
 31
0.0
  0
LINE
  5
43C0
  8
0
  6
CONTINUOUS
 62
     0
 10
-105.66044980672091
 20
113.3398950386879
 30
0.0
 11
-105.66044980672091
 21
113.3398950386879
 31
0.0
  0
LINE
  5
43C1
  8
0
  6
CONTINUOUS
 62
     0
 10
-106.12862091559531
 20
113.7688948205239
 30
0.0
 11
-106.12862091559531
 21
113.7688948205239
 31
0.0
  0
LINE
  5
43C2
  8
0
  6
CONTINUOUS
 62
     0
 10
-108.65674490351719
 20
116.085493642438
 30
0.0
 11
-108.65674490351719
 21
116.085493642438
 31
0.0
  0
LINE
  5
43C3
  8
0
  6
CONTINUOUS
 62
     0
 10
-106.2272431094779
 20
123.0852644490258
 30
0.0
 11
-106.2272431094779
 21
123.0852644490258
 31
0.0
  0
LINE
  5
43C4
  8
0
  6
CONTINUOUS
 62
     0
 10
-108.43701074336521
 20
125.1101434192915
 30
0.0
 11
-108.43701074336521
 21
125.1101434192915
 31
0.0
  0
LINE
  5
43C5
  8
0
  6
CONTINUOUS
 62
     0
 10
-108.90518185223959
 20
125.5391432011274
 30
0.0
 11
-108.90518185223959
 21
125.5391432011274
 31
0.0
  0
LINE
  5
43C6
  8
0
  6
CONTINUOUS
 62
     0
 10
-106.0075089493259
 20
132.10991422587929
 30
0.0
 11
-106.0075089493259
 21
132.10991422587929
 31
0.0
  0
LINE
  5
43C7
  8
0
  6
CONTINUOUS
 62
     0
 10
-106.4756800582003
 20
132.53891400771519
 30
0.0
 11
-106.4756800582003
 21
132.53891400771519
 31
0.0
  0
LINE
  5
43C8
  8
0
  6
CONTINUOUS
 62
     0
 10
-109.0038040461222
 20
134.85551282962939
 30
0.0
 11
-109.0038040461222
 21
134.85551282962939
 31
0.0
  0
LINE
  5
43C9
  8
0
  6
CONTINUOUS
 62
     0
 10
-106.5743022520829
 20
141.85528363621731
 30
0.0
 11
-106.5743022520829
 21
141.85528363621731
 31
0.0
  0
LINE
  5
43CA
  8
0
  6
CONTINUOUS
 62
     0
 10
-106.3545680919309
 20
150.8799334130708
 30
0.0
 11
-106.3545680919309
 21
150.8799334130708
 31
0.0
  0
LINE
  5
43CB
  8
0
  6
CONTINUOUS
 62
     0
 10
-106.8227392008053
 20
151.3089331949067
 30
0.0
 11
-106.8227392008053
 21
151.3089331949067
 31
0.0
  0
LINE
  5
43CC
  8
0
  6
CONTINUOUS
 62
     0
 10
-104.393237406766
 20
158.30870400149459
 30
0.0
 11
-104.393237406766
 21
158.30870400149459
 31
0.0
  0
LINE
  5
43CD
  8
0
  6
CONTINUOUS
 62
     0
 10
-106.92136139468791
 20
160.6253028234087
 30
0.0
 11
-106.92136139468791
 21
160.6253028234087
 31
0.0
  0
LINE
  5
43CE
  8
0
  6
CONTINUOUS
 62
     0
 10
-104.4918596006486
 20
167.62507362999651
 30
0.0
 11
-104.4918596006486
 21
167.62507362999651
 31
0.0
  0
LINE
  5
43CF
  8
0
  6
CONTINUOUS
 62
     0
 10
-106.70162723453591
 20
169.6499526002622
 30
0.0
 11
-106.70162723453591
 21
169.6499526002622
 31
0.0
  0
LINE
  5
43D0
  8
0
  6
CONTINUOUS
 62
     0
 10
-107.16979834341031
 20
170.07895238209821
 30
0.0
 11
-107.16979834341031
 21
170.07895238209821
 31
0.0
  0
LINE
  5
43D1
  8
0
  6
CONTINUOUS
 62
     0
 10
-104.740296549371
 20
177.07872318868601
 30
0.0
 11
-104.740296549371
 21
177.07872318868601
 31
0.0
  0
LINE
  5
43D2
  8
0
  6
CONTINUOUS
 62
     0
 10
-107.2684205372929
 20
179.3953220106001
 30
0.0
 11
-107.2684205372929
 21
179.3953220106001
 31
0.0
  0
LINE
  5
43D3
  8
0
  6
CONTINUOUS
 62
     0
 10
-104.8389187432536
 20
186.39509281718799
 30
0.0
 11
-104.8389187432536
 21
186.39509281718799
 31
0.0
  0
LINE
  5
43D4
  8
0
  6
CONTINUOUS
 62
     0
 10
-107.0486863771409
 20
188.4199717874537
 30
0.0
 11
-107.0486863771409
 21
188.4199717874537
 31
0.0
  0
LINE
  5
43D5
  8
0
  6
CONTINUOUS
 62
     0
 10
-107.5168574860153
 20
188.8489715692896
 30
0.0
 11
-107.5168574860153
 21
188.8489715692896
 31
0.0
  0
LINE
  5
43D6
  8
0
  6
CONTINUOUS
 62
     0
 10
-104.6191845831015
 20
195.41974259404151
 30
0.0
 11
-104.6191845831015
 21
195.41974259404151
 31
0.0
  0
LINE
  5
43D7
  8
0
  6
CONTINUOUS
 62
     0
 10
-105.087355691976
 20
195.84874237587741
 30
0.0
 11
-105.087355691976
 21
195.84874237587741
 31
0.0
  0
LINE
  5
43D8
  8
0
  6
CONTINUOUS
 62
     0
 10
-107.6154796798979
 20
198.16534119779161
 30
0.0
 11
-107.6154796798979
 21
198.16534119779161
 31
0.0
  0
LINE
  5
43D9
  8
0
  6
CONTINUOUS
 62
     0
 10
-105.18597788585861
 20
205.16511200437949
 30
0.0
 11
-105.18597788585861
 21
205.16511200437949
 31
0.0
  0
LINE
  5
43DA
  8
0
  6
CONTINUOUS
 62
     0
 10
-107.4285751574742
 20
-116.6334920248989
 30
0.0
 11
-107.4285751574742
 21
-116.6334920248989
 31
0.0
  0
LINE
  5
43DB
  8
0
  6
CONTINUOUS
 62
     0
 10
-108.4996822936566
 20
-115.95112152229849
 30
0.0
 11
-108.4996822936566
 21
-115.95112152229849
 31
0.0
  0
LINE
  5
43DC
  8
0
  6
CONTINUOUS
 62
     0
 10
-105.62396213129919
 20
-112.7296083132908
 30
0.0
 11
-105.62396213129919
 21
-112.7296083132908
 31
0.0
  0
LINE
  5
43DD
  8
0
  6
CONTINUOUS
 62
     0
 10
-107.67533479538061
 20
-106.36919079232101
 30
0.0
 11
-107.67533479538061
 21
-106.36919079232101
 31
0.0
  0
LINE
  5
43DE
  8
0
  6
CONTINUOUS
 62
     0
 10
-103.62139678322249
 20
-103.8982851361739
 30
0.0
 11
-103.62139678322249
 21
-103.8982851361739
 31
0.0
  0
LINE
  5
43DF
  8
0
  6
CONTINUOUS
 62
     0
 10
-104.6925039194048
 20
-103.21591463357341
 30
0.0
 11
-104.6925039194048
 21
-103.21591463357341
 31
0.0
  0
LINE
  5
43E0
  8
0
  6
CONTINUOUS
 62
     0
 10
-105.67276944730391
 20
-97.537867615204092
 30
0.0
 11
-105.67276944730391
 21
-97.537867615204092
 31
0.0
  0
LINE
  5
43E1
  8
0
  6
CONTINUOUS
 62
     0
 10
-106.7438765834863
 20
-96.855497112603643
 30
0.0
 11
-106.7438765834863
 21
-96.855497112603643
 31
0.0
  0
LINE
  5
43E2
  8
0
  6
CONTINUOUS
 62
     0
 10
-105.9195290852102
 20
-87.273566382626186
 30
0.0
 11
-105.9195290852102
 21
-87.273566382626186
 31
0.0
  0
LINE
  5
43E3
  8
0
  6
CONTINUOUS
 62
     0
 10
-104.988070873316
 20
-77.759872702908766
 30
0.0
 11
-104.988070873316
 21
-77.759872702908766
 31
0.0
  0
LINE
  5
43E4
  8
0
  6
CONTINUOUS
 62
     0
 10
-105.968336401215
 20
-72.081825684539439
 30
0.0
 11
-105.968336401215
 21
-72.081825684539439
 31
0.0
  0
LINE
  5
43E5
  8
0
  6
CONTINUOUS
 62
     0
 10
-106.21509603912131
 20
-61.817524451961532
 30
0.0
 11
-106.21509603912131
 21
-61.817524451961532
 31
0.0
  0
LINE
  5
43E6
  8
0
  6
CONTINUOUS
 62
     0
 10
-105.283637827227
 20
-52.303830772244119
 30
0.0
 11
-105.283637827227
 21
-52.303830772244119
 31
0.0
  0
LINE
  5
43E7
  8
0
  6
CONTINUOUS
 62
     0
 10
-106.263903355126
 20
-46.625783753874799
 30
0.0
 11
-106.263903355126
 21
-46.625783753874799
 31
0.0
  0
LINE
  5
43E8
  8
0
  6
CONTINUOUS
 62
     0
 10
-107.3350104913084
 20
-45.943413251274329
 30
0.0
 11
-107.3350104913084
 21
-45.943413251274329
 31
0.0
  0
LINE
  5
43E9
  8
0
  6
CONTINUOUS
 62
     0
 10
-104.459290328951
 20
-42.721900042266682
 30
0.0
 11
-104.459290328951
 21
-42.721900042266682
 31
0.0
  0
LINE
  5
43EA
  8
0
  6
CONTINUOUS
 62
     0
 10
-106.5106629930324
 20
-36.361482521296878
 30
0.0
 11
-106.5106629930324
 21
-36.361482521296878
 31
0.0
  0
LINE
  5
43EB
  8
0
  6
CONTINUOUS
 62
     0
 10
-104.5080976449557
 20
-27.530159344179939
 30
0.0
 11
-104.5080976449557
 21
-27.530159344179939
 31
0.0
  0
LINE
  5
43EC
  8
0
  6
CONTINUOUS
 62
     0
 10
-105.5792047811381
 20
-26.847788841579469
 30
0.0
 11
-105.5792047811381
 21
-26.847788841579469
 31
0.0
  0
LINE
  5
43ED
  8
0
  6
CONTINUOUS
 62
     0
 10
-106.5594703090371
 20
-21.169741823210149
 30
0.0
 11
-106.5594703090371
 21
-21.169741823210149
 31
0.0
  0
LINE
  5
43EE
  8
0
  6
CONTINUOUS
 62
     0
 10
-104.75485728286201
 20
-17.265858111602039
 30
0.0
 11
-104.75485728286201
 21
-17.265858111602039
 31
0.0
  0
LINE
  5
43EF
  8
0
  6
CONTINUOUS
 62
     0
 10
-104.8036645988668
 20
-2.0741174135152942
 30
0.0
 11
-104.8036645988668
 21
-2.0741174135152942
 31
0.0
  0
LINE
  5
43F0
  8
0
  6
CONTINUOUS
 62
     0
 10
-105.87477173504909
 20
-1.3917469109148271
 30
0.0
 11
-105.87477173504909
 21
-1.3917469109148271
 31
0.0
  0
LINE
  5
43F1
  8
0
  6
CONTINUOUS
 62
     0
 10
-106.8550372629482
 20
4.2863001074545037
 30
0.0
 11
-106.8550372629482
 21
4.2863001074545037
 31
0.0
  0
LINE
  5
43F2
  8
0
  6
CONTINUOUS
 62
     0
 10
-105.050424236773
 20
8.1901838190626144
 30
0.0
 11
-105.050424236773
 21
8.1901838190626144
 31
0.0
  0
LINE
  5
43F3
  8
0
  6
CONTINUOUS
 62
     0
 10
-107.1017969008545
 20
14.55060134003242
 30
0.0
 11
-107.1017969008545
 21
14.55060134003242
 31
0.0
  0
LINE
  5
43F4
  8
0
  6
CONTINUOUS
 62
     0
 10
-99.191873198439922
 20
14.56497318681788
 30
0.0
 11
-99.191873198439922
 21
14.56497318681788
 31
0.0
  0
LINE
  5
43F5
  8
0
  6
CONTINUOUS
 62
     0
 10
-103.0478588886964
 20
17.021506996179561
 30
0.0
 11
-103.0478588886964
 21
17.021506996179561
 31
0.0
  0
LINE
  5
43F6
  8
0
  6
CONTINUOUS
 62
     0
 10
-104.1189660248788
 20
17.70387749878002
 30
0.0
 11
-104.1189660248788
 21
17.70387749878002
 31
0.0
  0
LINE
  5
43F7
  8
0
  6
CONTINUOUS
 62
     0
 10
-109.15316956493589
 20
20.911018861002219
 30
0.0
 11
-109.15316956493589
 21
20.911018861002219
 31
0.0
  0
LINE
  5
43F8
  8
0
  6
CONTINUOUS
 62
     0
 10
-91.281949496025305
 20
14.57934503360333
 30
0.0
 11
-91.281949496025305
 21
14.57934503360333
 31
0.0
  0
LINE
  5
43F9
  8
0
  6
CONTINUOUS
 62
     0
 10
-95.137935186281808
 20
17.035878842965008
 30
0.0
 11
-95.137935186281808
 21
17.035878842965008
 31
0.0
  0
LINE
  5
43FA
  8
0
  6
CONTINUOUS
 62
     0
 10
-96.209042322464185
 20
17.718249345565479
 30
0.0
 11
-96.209042322464185
 21
17.718249345565479
 31
0.0
  0
LINE
  5
43FB
  8
0
  6
CONTINUOUS
 62
     0
 10
-101.24324586252131
 20
20.925390707787681
 30
0.0
 11
-101.24324586252131
 21
20.925390707787681
 31
0.0
  0
LINE
  5
43FC
  8
0
  6
CONTINUOUS
 62
     0
 10
-105.09923155277779
 20
23.381924517149351
 30
0.0
 11
-105.09923155277779
 21
23.381924517149351
 31
0.0
  0
LINE
  5
43FD
  8
0
  6
CONTINUOUS
 62
     0
 10
-106.1703386889602
 20
24.064295019749821
 30
0.0
 11
-106.1703386889602
 21
24.064295019749821
 31
0.0
  0
LINE
  5
43FE
  8
0
  6
CONTINUOUS
 62
     0
 10
-87.228011483867263
 20
17.05025068975047
 30
0.0
 11
-87.228011483867263
 21
17.05025068975047
 31
0.0
  0
LINE
  5
43FF
  8
0
  6
CONTINUOUS
 62
     0
 10
-88.29911862004964
 20
17.73262119235093
 30
0.0
 11
-88.29911862004964
 21
17.73262119235093
 31
0.0
  0
LINE
  5
4400
  8
0
  6
CONTINUOUS
 62
     0
 10
-93.333322160106746
 20
20.939762554573129
 30
0.0
 11
-93.333322160106746
 21
20.939762554573129
 31
0.0
  0
LINE
  5
4401
  8
0
  6
CONTINUOUS
 62
     0
 10
-103.2946185266027
 20
27.285808228757471
 30
0.0
 11
-103.2946185266027
 21
27.285808228757471
 31
0.0
  0
LINE
  5
4402
  8
0
  6
CONTINUOUS
 62
     0
 10
-107.15060421685919
 20
29.742342038119141
 30
0.0
 11
-107.15060421685919
 21
29.742342038119141
 31
0.0
  0
LINE
  5
4403
  8
0
  6
CONTINUOUS
 62
     0
 10
-108.2217113530416
 20
30.424712540719611
 30
0.0
 11
-108.2217113530416
 21
30.424712540719611
 31
0.0
  0
LINE
  5
4404
  8
0
  6
CONTINUOUS
 62
     0
 10
-79.318087781452675
 20
17.064622536535929
 30
0.0
 11
-79.318087781452675
 21
17.064622536535929
 31
0.0
  0
LINE
  5
4405
  8
0
  6
CONTINUOUS
 62
     0
 10
-80.389194917635038
 20
17.746993039136399
 30
0.0
 11
-80.389194917635038
 21
17.746993039136399
 31
0.0
  0
LINE
  5
4406
  8
0
  6
CONTINUOUS
 62
     0
 10
-85.423398457692159
 20
20.954134401358591
 30
0.0
 11
-85.423398457692159
 21
20.954134401358591
 31
0.0
  0
LINE
  5
4407
  8
0
  6
CONTINUOUS
 62
     0
 10
-105.3459911906841
 20
33.646225749727279
 30
0.0
 11
-105.3459911906841
 21
33.646225749727279
 31
0.0
  0
LINE
  5
4408
  8
0
  6
CONTINUOUS
 62
     0
 10
-109.20197688094061
 20
36.102759559088959
 30
0.0
 11
-109.20197688094061
 21
36.102759559088959
 31
0.0
  0
LINE
  5
4409
  8
0
  6
CONTINUOUS
 62
     0
 10
-71.408164079038102
 20
17.07899438332139
 30
0.0
 11
-71.408164079038102
 21
17.07899438332139
 31
0.0
  0
LINE
  5
440A
  8
0
  6
CONTINUOUS
 62
     0
 10
-72.479271215220464
 20
17.76136488592185
 30
0.0
 11
-72.479271215220464
 21
17.76136488592185
 31
0.0
  0
LINE
  5
440B
  8
0
  6
CONTINUOUS
 62
     0
 10
-77.513474755277585
 20
20.968506248144049
 30
0.0
 11
-77.513474755277585
 21
20.968506248144049
 31
0.0
  0
LINE
  5
440C
  8
0
  6
CONTINUOUS
 62
     0
 10
-107.3973638547655
 20
40.006643270697069
 30
0.0
 11
-107.3973638547655
 21
40.006643270697069
 31
0.0
  0
LINE
  5
440D
  8
0
  6
CONTINUOUS
 62
     0
 10
-63.498240376623528
 20
17.093366230106842
 30
0.0
 11
-63.498240376623528
 21
17.093366230106842
 31
0.0
  0
LINE
  5
440E
  8
0
  6
CONTINUOUS
 62
     0
 10
-64.569347512805891
 20
17.775736732707308
 30
0.0
 11
-64.569347512805891
 21
17.775736732707308
 31
0.0
  0
LINE
  5
440F
  8
0
  6
CONTINUOUS
 62
     0
 10
-69.603551052862997
 20
20.982878094929511
 30
0.0
 11
-69.603551052862997
 21
20.982878094929511
 31
0.0
  0
LINE
  5
4410
  8
0
  6
CONTINUOUS
 62
     0
 10
-104.41453297878979
 20
43.15991942944467
 30
0.0
 11
-104.41453297878979
 21
43.15991942944467
 31
0.0
  0
LINE
  5
4411
  8
0
  6
CONTINUOUS
 62
     0
 10
-61.693627350448423
 20
20.997249941714969
 30
0.0
 11
-61.693627350448423
 21
20.997249941714969
 31
0.0
  0
LINE
  5
4412
  8
0
  6
CONTINUOUS
 62
     0
 10
-105.3947985066889
 20
48.837966447814011
 30
0.0
 11
-105.3947985066889
 21
48.837966447814011
 31
0.0
  0
LINE
  5
4413
  8
0
  6
CONTINUOUS
 62
     0
 10
-106.46590564287121
 20
49.520336950414467
 30
0.0
 11
-106.46590564287121
 21
49.520336950414467
 31
0.0
  0
LINE
  5
4414
  8
0
  6
CONTINUOUS
 62
     0
 10
-53.783703648033843
 20
21.011621788500431
 30
0.0
 11
-53.783703648033843
 21
21.011621788500431
 31
0.0
  0
LINE
  5
4415
  8
0
  6
CONTINUOUS
 62
     0
 10
-107.4461711707703
 20
55.198383968783787
 30
0.0
 11
-107.4461711707703
 21
55.198383968783787
 31
0.0
  0
LINE
  5
4416
  8
0
  6
CONTINUOUS
 62
     0
 10
-108.5172783069526
 20
55.880754471384257
 30
0.0
 11
-108.5172783069526
 21
55.880754471384257
 31
0.0
  0
LINE
  5
4417
  8
0
  6
CONTINUOUS
 62
     0
 10
-45.873779945619248
 20
21.025993635285872
 30
0.0
 11
-45.873779945619248
 21
21.025993635285872
 31
0.0
  0
LINE
  5
4418
  8
0
  6
CONTINUOUS
 62
     0
 10
-105.64155814459509
 20
59.102267680391911
 30
0.0
 11
-105.64155814459509
 21
59.102267680391911
 31
0.0
  0
LINE
  5
4419
  8
0
  6
CONTINUOUS
 62
     0
 10
-109.4975438348517
 20
61.558801489753577
 30
0.0
 11
-109.4975438348517
 21
61.558801489753577
 31
0.0
  0
LINE
  5
441A
  8
0
  6
CONTINUOUS
 62
     0
 10
-37.963856243204681
 20
21.040365482071319
 30
0.0
 11
-37.963856243204681
 21
21.040365482071319
 31
0.0
  0
LINE
  5
441B
  8
0
  6
CONTINUOUS
 62
     0
 10
-107.69293080867661
 20
65.462685201361694
 30
0.0
 11
-107.69293080867661
 21
65.462685201361694
 31
0.0
  0
LINE
  5
441C
  8
0
  6
CONTINUOUS
 62
     0
 10
-104.7100999327009
 20
68.615961360109296
 30
0.0
 11
-104.7100999327009
 21
68.615961360109296
 31
0.0
  0
LINE
  5
441D
  8
0
  6
CONTINUOUS
 62
     0
 10
-109.74430347275801
 20
71.823102722331484
 30
0.0
 11
-109.74430347275801
 21
71.823102722331484
 31
0.0
  0
LINE
  5
441E
  8
0
  6
CONTINUOUS
 62
     0
 10
-105.69036546059991
 20
74.294008378478651
 30
0.0
 11
-105.69036546059991
 21
74.294008378478651
 31
0.0
  0
LINE
  5
441F
  8
0
  6
CONTINUOUS
 62
     0
 10
-106.7614725967823
 20
74.976378881079114
 30
0.0
 11
-106.7614725967823
 21
74.976378881079114
 31
0.0
  0
LINE
  5
4420
  8
0
  6
CONTINUOUS
 62
     0
 10
-107.74173812468131
 20
80.654425899448427
 30
0.0
 11
-107.74173812468131
 21
80.654425899448427
 31
0.0
  0
LINE
  5
4421
  8
0
  6
CONTINUOUS
 62
     0
 10
-108.8128452608637
 20
81.336796402048876
 30
0.0
 11
-108.8128452608637
 21
81.336796402048876
 31
0.0
  0
LINE
  5
4422
  8
0
  6
CONTINUOUS
 62
     0
 10
-105.9371250985062
 20
84.558309611056558
 30
0.0
 11
-105.9371250985062
 21
84.558309611056558
 31
0.0
  0
LINE
  5
4423
  8
0
  6
CONTINUOUS
 62
     0
 10
-109.7931107887627
 20
87.014843420418231
 30
0.0
 11
-109.7931107887627
 21
87.014843420418231
 31
0.0
  0
LINE
  5
4424
  8
0
  6
CONTINUOUS
 62
     0
 10
-107.9884977625876
 20
90.918727132026348
 30
0.0
 11
-107.9884977625876
 21
90.918727132026348
 31
0.0
  0
LINE
  5
4425
  8
0
  6
CONTINUOUS
 62
     0
 10
-105.00566688661191
 20
94.072003290773964
 30
0.0
 11
-105.00566688661191
 21
94.072003290773964
 31
0.0
  0
LINE
  5
4426
  8
0
  6
CONTINUOUS
 62
     0
 10
-105.9859324145109
 20
99.750050309143262
 30
0.0
 11
-105.9859324145109
 21
99.750050309143262
 31
0.0
  0
LINE
  5
4427
  8
0
  6
CONTINUOUS
 62
     0
 10
-107.0570395506933
 20
100.4324208117437
 30
0.0
 11
-107.0570395506933
 21
100.4324208117437
 31
0.0
  0
LINE
  5
4428
  8
0
  6
CONTINUOUS
 62
     0
 10
-104.18131938833589
 20
103.65393402075139
 30
0.0
 11
-104.18131938833589
 21
103.65393402075139
 31
0.0
  0
LINE
  5
4429
  8
0
  6
CONTINUOUS
 62
     0
 10
-108.0373050785924
 20
106.11046783011309
 30
0.0
 11
-108.0373050785924
 21
106.11046783011309
 31
0.0
  0
LINE
  5
442A
  8
0
  6
CONTINUOUS
 62
     0
 10
-109.1084122147748
 20
106.7928383327135
 30
0.0
 11
-109.1084122147748
 21
106.7928383327135
 31
0.0
  0
LINE
  5
442B
  8
0
  6
CONTINUOUS
 62
     0
 10
-106.23269205241731
 20
110.0143515417212
 30
0.0
 11
-106.23269205241731
 21
110.0143515417212
 31
0.0
  0
LINE
  5
442C
  8
0
  6
CONTINUOUS
 62
     0
 10
-102.17875404025919
 20
112.48525719786829
 30
0.0
 11
-102.17875404025919
 21
112.48525719786829
 31
0.0
  0
LINE
  5
442D
  8
0
  6
CONTINUOUS
 62
     0
 10
-103.2498611764416
 20
113.1676277004688
 30
0.0
 11
-103.2498611764416
 21
113.1676277004688
 31
0.0
  0
LINE
  5
442E
  8
0
  6
CONTINUOUS
 62
     0
 10
-108.2840647164987
 20
116.374769062691
 30
0.0
 11
-108.2840647164987
 21
116.374769062691
 31
0.0
  0
LINE
  5
442F
  8
0
  6
CONTINUOUS
 62
     0
 10
-105.301233840523
 20
119.5280452214386
 30
0.0
 11
-105.301233840523
 21
119.5280452214386
 31
0.0
  0
LINE
  5
4430
  8
0
  6
CONTINUOUS
 62
     0
 10
-106.2814993684221
 20
125.2060922398079
 30
0.0
 11
-106.2814993684221
 21
125.2060922398079
 31
0.0
  0
LINE
  5
4431
  8
0
  6
CONTINUOUS
 62
     0
 10
-107.3526065046044
 20
125.88846274240839
 30
0.0
 11
-107.3526065046044
 21
125.88846274240839
 31
0.0
  0
LINE
  5
4432
  8
0
  6
CONTINUOUS
 62
     0
 10
-104.476886342247
 20
129.109975951416
 30
0.0
 11
-104.476886342247
 21
129.109975951416
 31
0.0
  0
LINE
  5
4433
  8
0
  6
CONTINUOUS
 62
     0
 10
-108.3328720325035
 20
131.56650976077771
 30
0.0
 11
-108.3328720325035
 21
131.56650976077771
 31
0.0
  0
LINE
  5
4434
  8
0
  6
CONTINUOUS
 62
     0
 10
-106.5282590063283
 20
135.47039347238581
 30
0.0
 11
-106.5282590063283
 21
135.47039347238581
 31
0.0
  0
LINE
  5
4435
  8
0
  6
CONTINUOUS
 62
     0
 10
-108.5796316704098
 20
141.8308109933557
 30
0.0
 11
-108.5796316704098
 21
141.8308109933557
 31
0.0
  0
LINE
  5
4436
  8
0
  6
CONTINUOUS
 62
     0
 10
-104.5256936582517
 20
144.30171664950279
 30
0.0
 11
-104.5256936582517
 21
144.30171664950279
 31
0.0
  0
LINE
  5
4437
  8
0
  6
CONTINUOUS
 62
     0
 10
-105.5968007944341
 20
144.9840871521032
 30
0.0
 11
-105.5968007944341
 21
144.9840871521032
 31
0.0
  0
LINE
  5
4438
  8
0
  6
CONTINUOUS
 62
     0
 10
-106.5770663223331
 20
150.6621341704726
 30
0.0
 11
-106.5770663223331
 21
150.6621341704726
 31
0.0
  0
LINE
  5
4439
  8
0
  6
CONTINUOUS
 62
     0
 10
-107.6481734585155
 20
151.344504673073
 30
0.0
 11
-107.6481734585155
 21
151.344504673073
 31
0.0
  0
LINE
  5
443A
  8
0
  6
CONTINUOUS
 62
     0
 10
-104.77245329615801
 20
154.5660178820807
 30
0.0
 11
-104.77245329615801
 21
154.5660178820807
 31
0.0
  0
LINE
  5
443B
  8
0
  6
CONTINUOUS
 62
     0
 10
-108.62843898641449
 20
157.02255169144229
 30
0.0
 11
-108.62843898641449
 21
157.02255169144229
 31
0.0
  0
LINE
  5
443C
  8
0
  6
CONTINUOUS
 62
     0
 10
-106.8238259602395
 20
160.9264354030505
 30
0.0
 11
-106.8238259602395
 21
160.9264354030505
 31
0.0
  0
LINE
  5
443D
  8
0
  6
CONTINUOUS
 62
     0
 10
-108.8751986243208
 20
167.28685292402031
 30
0.0
 11
-108.8751986243208
 21
167.28685292402031
 31
0.0
  0
LINE
  5
443E
  8
0
  6
CONTINUOUS
 62
     0
 10
-104.8212606121627
 20
169.7577585801674
 30
0.0
 11
-104.8212606121627
 21
169.7577585801674
 31
0.0
  0
LINE
  5
443F
  8
0
  6
CONTINUOUS
 62
     0
 10
-105.89236774834509
 20
170.44012908276781
 30
0.0
 11
-105.89236774834509
 21
170.44012908276781
 31
0.0
  0
LINE
  5
4440
  8
0
  6
CONTINUOUS
 62
     0
 10
-106.8726332762442
 20
176.11817610113721
 30
0.0
 11
-106.8726332762442
 21
176.11817610113721
 31
0.0
  0
LINE
  5
4441
  8
0
  6
CONTINUOUS
 62
     0
 10
-107.94374041242661
 20
176.8005466037377
 30
0.0
 11
-107.94374041242661
 21
176.8005466037377
 31
0.0
  0
LINE
  5
4442
  8
0
  6
CONTINUOUS
 62
     0
 10
-105.068020250069
 20
180.02205981274531
 30
0.0
 11
-105.068020250069
 21
180.02205981274531
 31
0.0
  0
LINE
  5
4443
  8
0
  6
CONTINUOUS
 62
     0
 10
-107.1193929141504
 20
186.38247733371509
 30
0.0
 11
-107.1193929141504
 21
186.38247733371509
 31
0.0
  0
LINE
  5
4444
  8
0
  6
CONTINUOUS
 62
     0
 10
-105.11682756607379
 20
195.21380051083199
 30
0.0
 11
-105.11682756607379
 21
195.21380051083199
 31
0.0
  0
LINE
  5
4445
  8
0
  6
CONTINUOUS
 62
     0
 10
-106.1879347022561
 20
195.89617101343251
 30
0.0
 11
-106.1879347022561
 21
195.89617101343251
 31
0.0
  0
LINE
  5
4446
  8
0
  6
CONTINUOUS
 62
     0
 10
-103.3122145398987
 20
199.11768422244029
 30
0.0
 11
-103.3122145398987
 21
199.11768422244029
 31
0.0
  0
LINE
  5
4447
  8
0
  6
CONTINUOUS
 62
     0
 10
-107.16820023015519
 20
201.57421803180191
 30
0.0
 11
-107.16820023015519
 21
201.57421803180191
 31
0.0
  0
LINE
  5
4448
  8
0
  6
CONTINUOUS
 62
     0
 10
-108.2393073663376
 20
202.2565885344024
 30
0.0
 11
-108.2393073663376
 21
202.2565885344024
 31
0.0
  0
LINE
  5
4449
  8
0
  6
CONTINUOUS
 62
     0
 10
-105.3635872039801
 20
205.47810174341001
 30
0.0
 11
-105.3635872039801
 21
205.47810174341001
 31
0.0
  0
LINE
  5
444A
  8
0
  6
CONTINUOUS
 62
     0
 10
-104.4119973582568
 20
-113.24786770064
 30
0.0
 11
-104.4119973582568
 21
-113.24786770064
 31
0.0
  0
LINE
  5
444B
  8
0
  6
CONTINUOUS
 62
     0
 10
-107.8620271868654
 20
-113.7020727443273
 30
0.0
 11
-107.8620271868654
 21
-113.7020727443273
 31
0.0
  0
LINE
  5
444C
  8
0
  6
CONTINUOUS
 62
     0
 10
-103.3667943554853
 20
-106.5338217386437
 30
0.0
 11
-103.3667943554853
 21
-106.5338217386437
 31
0.0
  0
LINE
  5
444D
  8
0
  6
CONTINUOUS
 62
     0
 10
-105.4317757127547
 20
-106.80568169179971
 30
0.0
 11
-105.4317757127547
 21
-106.80568169179971
 31
0.0
  0
LINE
  5
444E
  8
0
  6
CONTINUOUS
 62
     0
 10
-106.7538674353967
 20
-106.9797383691251
 30
0.0
 11
-106.7538674353967
 21
-106.9797383691251
 31
0.0
  0
LINE
  5
444F
  8
0
  6
CONTINUOUS
 62
     0
 10
-105.7086644326252
 20
-100.2656924071289
 30
0.0
 11
-105.7086644326252
 21
-100.2656924071289
 31
0.0
  0
LINE
  5
4450
  8
0
  6
CONTINUOUS
 62
     0
 10
-104.60050468115659
 20
-93.543358031926729
 30
0.0
 11
-104.60050468115659
 21
-93.543358031926729
 31
0.0
  0
LINE
  5
4451
  8
0
  6
CONTINUOUS
 62
     0
 10
-105.6202830356545
 20
-87.101172023086463
 30
0.0
 11
-105.6202830356545
 21
-87.101172023086463
 31
0.0
  0
LINE
  5
4452
  8
0
  6
CONTINUOUS
 62
     0
 10
-106.9423747582964
 20
-87.275228700411887
 30
0.0
 11
-106.9423747582964
 21
-87.275228700411887
 31
0.0
  0
LINE
  5
4453
  8
0
  6
CONTINUOUS
 62
     0
 10
-105.89717175552499
 20
-80.561182738415695
 30
0.0
 11
-105.89717175552499
 21
-80.561182738415695
 31
0.0
  0
LINE
  5
4454
  8
0
  6
CONTINUOUS
 62
     0
 10
-104.7890120040563
 20
-73.838848363213501
 30
0.0
 11
-104.7890120040563
 21
-73.838848363213501
 31
0.0
  0
LINE
  5
4455
  8
0
  6
CONTINUOUS
 62
     0
 10
-105.8087903585543
 20
-67.396662354373234
 30
0.0
 11
-105.8087903585543
 21
-67.396662354373234
 31
0.0
  0
LINE
  5
4456
  8
0
  6
CONTINUOUS
 62
     0
 10
-106.0856790784248
 20
-60.856673069702452
 30
0.0
 11
-106.0856790784248
 21
-60.856673069702452
 31
0.0
  0
LINE
  5
4457
  8
0
  6
CONTINUOUS
 62
     0
 10
-104.9775193269562
 20
-54.134338694500272
 30
0.0
 11
-104.9775193269562
 21
-54.134338694500272
 31
0.0
  0
LINE
  5
4458
  8
0
  6
CONTINUOUS
 62
     0
 10
-105.9972976814541
 20
-47.692152685659991
 30
0.0
 11
-105.9972976814541
 21
-47.692152685659991
 31
0.0
  0
LINE
  5
4459
  8
0
  6
CONTINUOUS
 62
     0
 10
-107.319389404096
 20
-47.86620936298543
 30
0.0
 11
-107.319389404096
 21
-47.86620936298543
 31
0.0
  0
LINE
  5
445A
  8
0
  6
CONTINUOUS
 62
     0
 10
-106.2741864013246
 20
-41.152163400989231
 30
0.0
 11
-106.2741864013246
 21
-41.152163400989231
 31
0.0
  0
LINE
  5
445B
  8
0
  6
CONTINUOUS
 62
     0
 10
-105.16602664985589
 20
-34.429829025787043
 30
0.0
 11
-105.16602664985589
 21
-34.429829025787043
 31
0.0
  0
LINE
  5
445C
  8
0
  6
CONTINUOUS
 62
     0
 10
-106.1858050043539
 20
-27.987643016946759
 30
0.0
 11
-106.1858050043539
 21
-27.987643016946759
 31
0.0
  0
LINE
  5
445D
  8
0
  6
CONTINUOUS
 62
     0
 10
-103.0126638956158
 20
-20.993448688588661
 30
0.0
 11
-103.0126638956158
 21
-20.993448688588661
 31
0.0
  0
LINE
  5
445E
  8
0
  6
CONTINUOUS
 62
     0
 10
-106.46269372422439
 20
-21.447653732275992
 30
0.0
 11
-106.46269372422439
 21
-21.447653732275992
 31
0.0
  0
LINE
  5
445F
  8
0
  6
CONTINUOUS
 62
     0
 10
-104.0324422501137
 20
-14.551262679748371
 30
0.0
 11
-104.0324422501137
 21
-14.551262679748371
 31
0.0
  0
LINE
  5
4460
  8
0
  6
CONTINUOUS
 62
     0
 10
-105.3545339727557
 20
-14.725319357073809
 30
0.0
 11
-105.3545339727557
 21
-14.725319357073809
 31
0.0
  0
LINE
  5
4461
  8
0
  6
CONTINUOUS
 62
     0
 10
-104.3093309699843
 20
-8.0112733950776036
 30
0.0
 11
-104.3093309699843
 21
-8.0112733950776036
 31
0.0
  0
LINE
  5
4462
  8
0
  6
CONTINUOUS
 62
     0
 10
-106.37431232725361
 20
-8.2831333482335268
 30
0.0
 11
-106.37431232725361
 21
-8.2831333482335268
 31
0.0
  0
LINE
  5
4463
  8
0
  6
CONTINUOUS
 62
     0
 10
-106.6512010471242
 20
-1.743144063562756
 30
0.0
 11
-106.6512010471242
 21
-1.743144063562756
 31
0.0
  0
LINE
  5
4464
  8
0
  6
CONTINUOUS
 62
     0
 10
-105.5430412956555
 20
4.9791903116394218
 30
0.0
 11
-105.5430412956555
 21
4.9791903116394218
 31
0.0
  0
LINE
  5
4465
  8
0
  6
CONTINUOUS
 62
     0
 10
-77.149426658804344
 20
15.293722970310419
 30
0.0
 11
-77.149426658804344
 21
15.293722970310419
 31
0.0
  0
LINE
  5
4466
  8
0
  6
CONTINUOUS
 62
     0
 10
-63.475220841764461
 20
17.093966318647819
 30
0.0
 11
-63.475220841764461
 21
17.093966318647819
 31
0.0
  0
LINE
  5
4467
  8
0
  6
CONTINUOUS
 62
     0
 10
-65.540202199033843
 20
16.822106365491891
 30
0.0
 11
-65.540202199033843
 21
16.822106365491891
 31
0.0
  0
LINE
  5
4468
  8
0
  6
CONTINUOUS
 62
     0
 10
-66.862293921675814
 20
16.648049688166449
 30
0.0
 11
-66.862293921675814
 21
16.648049688166449
 31
0.0
  0
LINE
  5
4469
  8
0
  6
CONTINUOUS
 62
     0
 10
-87.373602647235614
 20
13.947684665660359
 30
0.0
 11
-87.373602647235614
 21
13.947684665660359
 31
0.0
  0
LINE
  5
446A
  8
0
  6
CONTINUOUS
 62
     0
 10
-36.12680920768473
 20
20.694453015322608
 30
0.0
 11
-36.12680920768473
 21
20.694453015322608
 31
0.0
  0
LINE
  5
446B
  8
0
  6
CONTINUOUS
 62
     0
 10
-38.191790564954111
 20
20.42259306216668
 30
0.0
 11
-38.191790564954111
 21
20.42259306216668
 31
0.0
  0
LINE
  5
446C
  8
0
  6
CONTINUOUS
 62
     0
 10
-39.513882287596083
 20
20.248536384841241
 30
0.0
 11
-39.513882287596083
 21
20.248536384841241
 31
0.0
  0
LINE
  5
446D
  8
0
  6
CONTINUOUS
 62
     0
 10
-42.963912116204661
 20
19.79433134115391
 30
0.0
 11
-42.963912116204661
 21
19.79433134115391
 31
0.0
  0
LINE
  5
446E
  8
0
  6
CONTINUOUS
 62
     0
 10
-45.028893473474042
 20
19.522471387997982
 30
0.0
 11
-45.028893473474042
 21
19.522471387997982
 31
0.0
  0
LINE
  5
446F
  8
0
  6
CONTINUOUS
 62
     0
 10
-46.350985196116007
 20
19.34841471067255
 30
0.0
 11
-46.350985196116007
 21
19.34841471067255
 31
0.0
  0
LINE
  5
4470
  8
0
  6
CONTINUOUS
 62
     0
 10
-49.801015024724613
 20
18.894209666985208
 30
0.0
 11
-49.801015024724613
 21
18.894209666985208
 31
0.0
  0
LINE
  5
4471
  8
0
  6
CONTINUOUS
 62
     0
 10
-104.4978382928841
 20
11.69323627363563
 30
0.0
 11
-104.4978382928841
 21
11.69323627363563
 31
0.0
  0
LINE
  5
4472
  8
0
  6
CONTINUOUS
 62
     0
 10
-106.5628196501534
 20
11.421376320479711
 30
0.0
 11
-106.5628196501534
 21
11.421376320479711
 31
0.0
  0
LINE
  5
4473
  8
0
  6
CONTINUOUS
 62
     0
 10
-82.878369815855578
 20
21.115935671343909
 30
0.0
 11
-82.878369815855578
 21
21.115935671343909
 31
0.0
  0
LINE
  5
4474
  8
0
  6
CONTINUOUS
 62
     0
 10
-86.328399644464156
 20
20.661730627656571
 30
0.0
 11
-86.328399644464156
 21
20.661730627656571
 31
0.0
  0
LINE
  5
4475
  8
0
  6
CONTINUOUS
 62
     0
 10
-88.393381001733545
 20
20.389870674500649
 30
0.0
 11
-88.393381001733545
 21
20.389870674500649
 31
0.0
  0
LINE
  5
4476
  8
0
  6
CONTINUOUS
 62
     0
 10
-89.715472724375516
 20
20.215813997175211
 30
0.0
 11
-89.715472724375516
 21
20.215813997175211
 31
0.0
  0
LINE
  5
4477
  8
0
  6
CONTINUOUS
 62
     0
 10
-93.165502552984108
 20
19.761608953487869
 30
0.0
 11
-93.165502552984108
 21
19.761608953487869
 31
0.0
  0
LINE
  5
4478
  8
0
  6
CONTINUOUS
 62
     0
 10
-95.230483910253483
 20
19.489749000331951
 30
0.0
 11
-95.230483910253483
 21
19.489749000331951
 31
0.0
  0
LINE
  5
4479
  8
0
  6
CONTINUOUS
 62
     0
 10
-96.552575632895454
 20
19.315692323006509
 30
0.0
 11
-96.552575632895454
 21
19.315692323006509
 31
0.0
  0
LINE
  5
447A
  8
0
  6
CONTINUOUS
 62
     0
 10
-100.002605461504
 20
18.861487279319171
 30
0.0
 11
-100.002605461504
 21
18.861487279319171
 31
0.0
  0
LINE
  5
447B
  8
0
  6
CONTINUOUS
 62
     0
 10
-102.06758681877341
 20
18.589627326163249
 30
0.0
 11
-102.06758681877341
 21
18.589627326163249
 31
0.0
  0
LINE
  5
447C
  8
0
  6
CONTINUOUS
 62
     0
 10
-103.38967854141541
 20
18.415570648837811
 30
0.0
 11
-103.38967854141541
 21
18.415570648837811
 31
0.0
  0
LINE
  5
447D
  8
0
  6
CONTINUOUS
 62
     0
 10
-106.839708370024
 20
17.961365605150469
 30
0.0
 11
-106.839708370024
 21
17.961365605150469
 31
0.0
  0
LINE
  5
447E
  8
0
  6
CONTINUOUS
 62
     0
 10
-108.9046897272933
 20
17.689505651994551
 30
0.0
 11
-108.9046897272933
 21
17.689505651994551
 31
0.0
  0
LINE
  5
447F
  8
0
  6
CONTINUOUS
 62
     0
 10
-102.34447553864401
 20
25.12961661083402
 30
0.0
 11
-102.34447553864401
 21
25.12961661083402
 31
0.0
  0
LINE
  5
4480
  8
0
  6
CONTINUOUS
 62
     0
 10
-104.40945689591329
 20
24.857756657678099
 30
0.0
 11
-104.40945689591329
 21
24.857756657678099
 31
0.0
  0
LINE
  5
4481
  8
0
  6
CONTINUOUS
 62
     0
 10
-105.73154861855529
 20
24.68369998035266
 30
0.0
 11
-105.73154861855529
 21
24.68369998035266
 31
0.0
  0
LINE
  5
4482
  8
0
  6
CONTINUOUS
 62
     0
 10
-104.68634561578391
 20
31.39774594234887
 30
0.0
 11
-104.68634561578391
 21
31.39774594234887
 31
0.0
  0
LINE
  5
4483
  8
0
  6
CONTINUOUS
 62
     0
 10
-106.7513269730532
 20
31.125885989192941
 30
0.0
 11
-106.7513269730532
 21
31.125885989192941
 31
0.0
  0
LINE
  5
4484
  8
0
  6
CONTINUOUS
 62
     0
 10
-108.0734186956952
 20
30.951829311867499
 30
0.0
 11
-108.0734186956952
 21
30.951829311867499
 31
0.0
  0
LINE
  5
4485
  8
0
  6
CONTINUOUS
 62
     0
 10
-107.02821569292379
 20
37.665875273863698
 30
0.0
 11
-107.02821569292379
 21
37.665875273863698
 31
0.0
  0
LINE
  5
4486
  8
0
  6
CONTINUOUS
 62
     0
 10
-109.0931970501932
 20
37.39401532070778
 30
0.0
 11
-109.0931970501932
 21
37.39401532070778
 31
0.0
  0
LINE
  5
4487
  8
0
  6
CONTINUOUS
 62
     0
 10
-104.5979642188131
 20
44.562266326391331
 30
0.0
 11
-104.5979642188131
 21
44.562266326391331
 31
0.0
  0
LINE
  5
4488
  8
0
  6
CONTINUOUS
 62
     0
 10
-105.9200559414551
 20
44.388209649065892
 30
0.0
 11
-105.9200559414551
 21
44.388209649065892
 31
0.0
  0
LINE
  5
4489
  8
0
  6
CONTINUOUS
 62
     0
 10
-109.3700857700637
 20
43.934004605378547
 30
0.0
 11
-109.3700857700637
 21
43.934004605378547
 31
0.0
  0
LINE
  5
448A
  8
0
  6
CONTINUOUS
 62
     0
 10
-104.8748529386837
 20
51.102255611062098
 30
0.0
 11
-104.8748529386837
 21
51.102255611062098
 31
0.0
  0
LINE
  5
448B
  8
0
  6
CONTINUOUS
 62
     0
 10
-106.93983429595301
 20
50.830395657906173
 30
0.0
 11
-106.93983429595301
 21
50.830395657906173
 31
0.0
  0
LINE
  5
448C
  8
0
  6
CONTINUOUS
 62
     0
 10
-108.26192601859501
 20
50.656338980580742
 30
0.0
 11
-108.26192601859501
 21
50.656338980580742
 31
0.0
  0
LINE
  5
448D
  8
0
  6
CONTINUOUS
 62
     0
 10
-107.2167230158235
 20
57.370384942576941
 30
0.0
 11
-107.2167230158235
 21
57.370384942576941
 31
0.0
  0
LINE
  5
448E
  8
0
  6
CONTINUOUS
 62
     0
 10
-109.28170437309289
 20
57.098524989421009
 30
0.0
 11
-109.28170437309289
 21
57.098524989421009
 31
0.0
  0
LINE
  5
448F
  8
0
  6
CONTINUOUS
 62
     0
 10
-104.7864715417129
 20
64.266775995104553
 30
0.0
 11
-104.7864715417129
 21
64.266775995104553
 31
0.0
  0
LINE
  5
4490
  8
0
  6
CONTINUOUS
 62
     0
 10
-106.1085632643549
 20
64.092719317779114
 30
0.0
 11
-106.1085632643549
 21
64.092719317779114
 31
0.0
  0
LINE
  5
4491
  8
0
  6
CONTINUOUS
 62
     0
 10
-109.55859309296351
 20
63.638514274091783
 30
0.0
 11
-109.55859309296351
 21
63.638514274091783
 31
0.0
  0
LINE
  5
4492
  8
0
  6
CONTINUOUS
 62
     0
 10
-105.0633602615835
 20
70.806765279775334
 30
0.0
 11
-105.0633602615835
 21
70.806765279775334
 31
0.0
  0
LINE
  5
4493
  8
0
  6
CONTINUOUS
 62
     0
 10
-107.1283416188528
 20
70.534905326619409
 30
0.0
 11
-107.1283416188528
 21
70.534905326619409
 31
0.0
  0
LINE
  5
4494
  8
0
  6
CONTINUOUS
 62
     0
 10
-108.4504333414948
 20
70.36084864929397
 30
0.0
 11
-108.4504333414948
 21
70.36084864929397
 31
0.0
  0
LINE
  5
4495
  8
0
  6
CONTINUOUS
 62
     0
 10
-107.4052303387233
 20
77.07489461129019
 30
0.0
 11
-107.4052303387233
 21
77.07489461129019
 31
0.0
  0
LINE
  5
4496
  8
0
  6
CONTINUOUS
 62
     0
 10
-109.4702116959927
 20
76.803034658134266
 30
0.0
 11
-109.4702116959927
 21
76.803034658134266
 31
0.0
  0
LINE
  5
4497
  8
0
  6
CONTINUOUS
 62
     0
 10
-104.97497886461269
 20
83.971285663817795
 30
0.0
 11
-104.97497886461269
 21
83.971285663817795
 31
0.0
  0
LINE
  5
4498
  8
0
  6
CONTINUOUS
 62
     0
 10
-106.29707058725469
 20
83.797228986492371
 30
0.0
 11
-106.29707058725469
 21
83.797228986492371
 31
0.0
  0
LINE
  5
4499
  8
0
  6
CONTINUOUS
 62
     0
 10
-109.7471004158633
 20
83.343023942805047
 30
0.0
 11
-109.7471004158633
 21
83.343023942805047
 31
0.0
  0
LINE
  5
449A
  8
0
  6
CONTINUOUS
 62
     0
 10
-105.25186758448319
 20
90.511274948488563
 30
0.0
 11
-105.25186758448319
 21
90.511274948488563
 31
0.0
  0
LINE
  5
449B
  8
0
  6
CONTINUOUS
 62
     0
 10
-107.3168489417526
 20
90.239414995332623
 30
0.0
 11
-107.3168489417526
 21
90.239414995332623
 31
0.0
  0
LINE
  5
449C
  8
0
  6
CONTINUOUS
 62
     0
 10
-108.6389406643946
 20
90.065358318007199
 30
0.0
 11
-108.6389406643946
 21
90.065358318007199
 31
0.0
  0
LINE
  5
449D
  8
0
  6
CONTINUOUS
 62
     0
 10
-104.1437078330145
 20
97.233609323690743
 30
0.0
 11
-104.1437078330145
 21
97.233609323690743
 31
0.0
  0
LINE
  5
449E
  8
0
  6
CONTINUOUS
 62
     0
 10
-107.59373766162309
 20
96.779404280003405
 30
0.0
 11
-107.59373766162309
 21
96.779404280003405
 31
0.0
  0
LINE
  5
449F
  8
0
  6
CONTINUOUS
 62
     0
 10
-105.1634861875125
 20
103.675795332531
 30
0.0
 11
-105.1634861875125
 21
103.675795332531
 31
0.0
  0
LINE
  5
44A0
  8
0
  6
CONTINUOUS
 62
     0
 10
-106.4855779101545
 20
103.5017386552055
 30
0.0
 11
-106.4855779101545
 21
103.5017386552055
 31
0.0
  0
LINE
  5
44A1
  8
0
  6
CONTINUOUS
 62
     0
 10
-105.440374907383
 20
110.21578461720181
 30
0.0
 11
-105.440374907383
 21
110.21578461720181
 31
0.0
  0
LINE
  5
44A2
  8
0
  6
CONTINUOUS
 62
     0
 10
-107.50535626465241
 20
109.94392466404589
 30
0.0
 11
-107.50535626465241
 21
109.94392466404589
 31
0.0
  0
LINE
  5
44A3
  8
0
  6
CONTINUOUS
 62
     0
 10
-108.82744798729441
 20
109.7698679867204
 30
0.0
 11
-108.82744798729441
 21
109.7698679867204
 31
0.0
  0
LINE
  5
44A4
  8
0
  6
CONTINUOUS
 62
     0
 10
-104.3322151559143
 20
116.938118992404
 30
0.0
 11
-104.3322151559143
 21
116.938118992404
 31
0.0
  0
LINE
  5
44A5
  8
0
  6
CONTINUOUS
 62
     0
 10
-107.7822449845229
 20
116.48391394871661
 30
0.0
 11
-107.7822449845229
 21
116.48391394871661
 31
0.0
  0
LINE
  5
44A6
  8
0
  6
CONTINUOUS
 62
     0
 10
-105.3519935104123
 20
123.3803050012442
 30
0.0
 11
-105.3519935104123
 21
123.3803050012442
 31
0.0
  0
LINE
  5
44A7
  8
0
  6
CONTINUOUS
 62
     0
 10
-106.6740852330543
 20
123.2062483239188
 30
0.0
 11
-106.6740852330543
 21
123.2062483239188
 31
0.0
  0
LINE
  5
44A8
  8
0
  6
CONTINUOUS
 62
     0
 10
-105.6288822302828
 20
129.92029428591499
 30
0.0
 11
-105.6288822302828
 21
129.92029428591499
 31
0.0
  0
LINE
  5
44A9
  8
0
  6
CONTINUOUS
 62
     0
 10
-107.6938635875522
 20
129.64843433275911
 30
0.0
 11
-107.6938635875522
 21
129.64843433275911
 31
0.0
  0
LINE
  5
44AA
  8
0
  6
CONTINUOUS
 62
     0
 10
-109.0159553101942
 20
129.4743776554337
 30
0.0
 11
-109.0159553101942
 21
129.4743776554337
 31
0.0
  0
LINE
  5
44AB
  8
0
  6
CONTINUOUS
 62
     0
 10
-104.52072247881409
 20
136.64262866111719
 30
0.0
 11
-104.52072247881409
 21
136.64262866111719
 31
0.0
  0
LINE
  5
44AC
  8
0
  6
CONTINUOUS
 62
     0
 10
-107.9707523074227
 20
136.18842361742989
 30
0.0
 11
-107.9707523074227
 21
136.18842361742989
 31
0.0
  0
LINE
  5
44AD
  8
0
  6
CONTINUOUS
 62
     0
 10
-105.54050083331209
 20
143.0848146699575
 30
0.0
 11
-105.54050083331209
 21
143.0848146699575
 31
0.0
  0
LINE
  5
44AE
  8
0
  6
CONTINUOUS
 62
     0
 10
-106.862592555954
 20
142.91075799263211
 30
0.0
 11
-106.862592555954
 21
142.91075799263211
 31
0.0
  0
LINE
  5
44AF
  8
0
  6
CONTINUOUS
 62
     0
 10
-105.81738955318259
 20
149.62480395462819
 30
0.0
 11
-105.81738955318259
 21
149.62480395462819
 31
0.0
  0
LINE
  5
44B0
  8
0
  6
CONTINUOUS
 62
     0
 10
-107.882370910452
 20
149.35294400147231
 30
0.0
 11
-107.882370910452
 21
149.35294400147231
 31
0.0
  0
LINE
  5
44B1
  8
0
  6
CONTINUOUS
 62
     0
 10
-109.204462633094
 20
149.1788873241469
 30
0.0
 11
-109.204462633094
 21
149.1788873241469
 31
0.0
  0
LINE
  5
44B2
  8
0
  6
CONTINUOUS
 62
     0
 10
-104.7092298017139
 20
156.34713832983039
 30
0.0
 11
-104.7092298017139
 21
156.34713832983039
 31
0.0
  0
LINE
  5
44B3
  8
0
  6
CONTINUOUS
 62
     0
 10
-108.1592596303225
 20
155.89293328614309
 30
0.0
 11
-108.1592596303225
 21
155.89293328614309
 31
0.0
  0
LINE
  5
44B4
  8
0
  6
CONTINUOUS
 62
     0
 10
-105.7290081562118
 20
162.7893243386707
 30
0.0
 11
-105.7290081562118
 21
162.7893243386707
 31
0.0
  0
LINE
  5
44B5
  8
0
  6
CONTINUOUS
 62
     0
 10
-107.0510998788538
 20
162.61526766134531
 30
0.0
 11
-107.0510998788538
 21
162.61526766134531
 31
0.0
  0
LINE
  5
44B6
  8
0
  6
CONTINUOUS
 62
     0
 10
-106.0058968760824
 20
169.32931362334139
 30
0.0
 11
-106.0058968760824
 21
169.32931362334139
 31
0.0
  0
LINE
  5
44B7
  8
0
  6
CONTINUOUS
 62
     0
 10
-108.07087823335181
 20
169.05745367018551
 30
0.0
 11
-108.07087823335181
 21
169.05745367018551
 31
0.0
  0
LINE
  5
44B8
  8
0
  6
CONTINUOUS
 62
     0
 10
-104.8977371246137
 20
176.05164799854359
 30
0.0
 11
-104.8977371246137
 21
176.05164799854359
 31
0.0
  0
LINE
  5
44B9
  8
0
  6
CONTINUOUS
 62
     0
 10
-108.3477669532223
 20
175.59744295485629
 30
0.0
 11
-108.3477669532223
 21
175.59744295485629
 31
0.0
  0
LINE
  5
44BA
  8
0
  6
CONTINUOUS
 62
     0
 10
-105.9175154791116
 20
182.49383400738401
 30
0.0
 11
-105.9175154791116
 21
182.49383400738401
 31
0.0
  0
LINE
  5
44BB
  8
0
  6
CONTINUOUS
 62
     0
 10
-107.2396072017536
 20
182.31977733005851
 30
0.0
 11
-107.2396072017536
 21
182.31977733005851
 31
0.0
  0
LINE
  5
44BC
  8
0
  6
CONTINUOUS
 62
     0
 10
-106.1944041989822
 20
189.03382329205471
 30
0.0
 11
-106.1944041989822
 21
189.03382329205471
 31
0.0
  0
LINE
  5
44BD
  8
0
  6
CONTINUOUS
 62
     0
 10
-108.2593855562516
 20
188.76196333889879
 30
0.0
 11
-108.2593855562516
 21
188.76196333889879
 31
0.0
  0
LINE
  5
44BE
  8
0
  6
CONTINUOUS
 62
     0
 10
-103.76415272487149
 20
195.93021434458231
 30
0.0
 11
-103.76415272487149
 21
195.93021434458231
 31
0.0
  0
LINE
  5
44BF
  8
0
  6
CONTINUOUS
 62
     0
 10
-105.08624444751349
 20
195.7561576672569
 30
0.0
 11
-105.08624444751349
 21
195.7561576672569
 31
0.0
  0
LINE
  5
44C0
  8
0
  6
CONTINUOUS
 62
     0
 10
-108.5362742761221
 20
195.3019526235696
 30
0.0
 11
-108.5362742761221
 21
195.3019526235696
 31
0.0
  0
LINE
  5
44C1
  8
0
  6
CONTINUOUS
 62
     0
 10
-104.04104144474211
 20
202.47020362925309
 30
0.0
 11
-104.04104144474211
 21
202.47020362925309
 31
0.0
  0
LINE
  5
44C2
  8
0
  6
CONTINUOUS
 62
     0
 10
-106.1060228020114
 20
202.19834367609721
 30
0.0
 11
-106.1060228020114
 21
202.19834367609721
 31
0.0
  0
LINE
  5
44C3
  8
0
  6
CONTINUOUS
 62
     0
 10
-107.4281145246534
 20
202.02428699877169
 30
0.0
 11
-107.4281145246534
 21
202.02428699877169
 31
0.0
  0
LINE
  5
44C4
  8
0
  6
CONTINUOUS
 62
     0
 10
-104.5846052281364
 20
-114.4520684269278
 30
0.0
 11
-104.5846052281364
 21
-114.4520684269278
 31
0.0
  0
LINE
  5
44C5
  8
0
  6
CONTINUOUS
 62
     0
 10
-107.85917114018849
 20
-116.9647312251613
 30
0.0
 11
-107.85917114018849
 21
-116.9647312251613
 31
0.0
  0
LINE
  5
44C6
  8
0
  6
CONTINUOUS
 62
     0
 10
-104.7446083577348
 20
-109.55793605363441
 30
0.0
 11
-104.7446083577348
 21
-109.55793605363441
 31
0.0
  0
LINE
  5
44C7
  8
0
  6
CONTINUOUS
 62
     0
 10
-104.9046114873332
 20
-104.663803680341
 30
0.0
 11
-104.9046114873332
 21
-104.663803680341
 31
0.0
  0
LINE
  5
44C8
  8
0
  6
CONTINUOUS
 62
     0
 10
-105.06461461693171
 20
-99.769671307047588
 30
0.0
 11
-105.06461461693171
 21
-99.769671307047588
 31
0.0
  0
LINE
  5
44C9
  8
0
  6
CONTINUOUS
 62
     0
 10
-105.22461774653
 20
-94.875538933754186
 30
0.0
 11
-105.22461774653
 21
-94.875538933754186
 31
0.0
  0
LINE
  5
44CA
  8
0
  6
CONTINUOUS
 62
     0
 10
-105.38462087612849
 20
-89.981406560460726
 30
0.0
 11
-105.38462087612849
 21
-89.981406560460726
 31
0.0
  0
LINE
  5
44CB
  8
0
  6
CONTINUOUS
 62
     0
 10
-105.5446240057269
 20
-85.087274187167296
 30
0.0
 11
-105.5446240057269
 21
-85.087274187167296
 31
0.0
  0
LINE
  5
44CC
  8
0
  6
CONTINUOUS
 62
     0
 10
-105.7046271353253
 20
-80.193141813873879
 30
0.0
 11
-105.7046271353253
 21
-80.193141813873879
 31
0.0
  0
LINE
  5
44CD
  8
0
  6
CONTINUOUS
 62
     0
 10
-105.8646302649237
 20
-75.299009440580463
 30
0.0
 11
-105.8646302649237
 21
-75.299009440580463
 31
0.0
  0
LINE
  5
44CE
  8
0
  6
CONTINUOUS
 62
     0
 10
-106.0246333945221
 20
-70.404877067287032
 30
0.0
 11
-106.0246333945221
 21
-70.404877067287032
 31
0.0
  0
LINE
  5
44CF
  8
0
  6
CONTINUOUS
 62
     0
 10
-106.18463652412051
 20
-65.510744693993615
 30
0.0
 11
-106.18463652412051
 21
-65.510744693993615
 31
0.0
  0
LINE
  5
44D0
  8
0
  6
CONTINUOUS
 62
     0
 10
-106.3446396537189
 20
-60.616612320700192
 30
0.0
 11
-106.3446396537189
 21
-60.616612320700192
 31
0.0
  0
LINE
  5
44D1
  8
0
  6
CONTINUOUS
 62
     0
 10
-106.50464278331729
 20
-55.722479947406761
 30
0.0
 11
-106.50464278331729
 21
-55.722479947406761
 31
0.0
  0
LINE
  5
44D2
  8
0
  6
CONTINUOUS
 62
     0
 10
-106.6646459129157
 20
-50.828347574113337
 30
0.0
 11
-106.6646459129157
 21
-50.828347574113337
 31
0.0
  0
LINE
  5
44D3
  8
0
  6
CONTINUOUS
 62
     0
 10
-106.8246490425141
 20
-45.934215200819906
 30
0.0
 11
-106.8246490425141
 21
-45.934215200819906
 31
0.0
  0
LINE
  5
44D4
  8
0
  6
CONTINUOUS
 62
     0
 10
-106.9846521721125
 20
-41.040082827526497
 30
0.0
 11
-106.9846521721125
 21
-41.040082827526497
 31
0.0
  0
LINE
  5
44D5
  8
0
  6
CONTINUOUS
 62
     0
 10
-107.1446553017109
 20
-36.145950454233073
 30
0.0
 11
-107.1446553017109
 21
-36.145950454233073
 31
0.0
  0
LINE
  5
44D6
  8
0
  6
CONTINUOUS
 62
     0
 10
-45.822217714955173
 20
20.94222506033076
 30
0.0
 11
-45.822217714955173
 21
20.94222506033076
 31
0.0
  0
LINE
  5
44D7
  8
0
  6
CONTINUOUS
 62
     0
 10
-48.885196291151573
 20
18.59191893521389
 30
0.0
 11
-48.885196291151573
 21
18.59191893521389
 31
0.0
  0
LINE
  5
44D8
  8
0
  6
CONTINUOUS
 62
     0
 10
-104.4016829847113
 20
-24.00737958252936
 30
0.0
 11
-104.4016829847113
 21
-24.00737958252936
 31
0.0
  0
LINE
  5
44D9
  8
0
  6
CONTINUOUS
 62
     0
 10
-52.319765332802064
 20
20.973388510273821
 30
0.0
 11
-52.319765332802064
 21
20.973388510273821
 31
0.0
  0
LINE
  5
44DA
  8
0
  6
CONTINUOUS
 62
     0
 10
-104.56168611430969
 20
-19.11324720923594
 30
0.0
 11
-104.56168611430969
 21
-19.11324720923594
 31
0.0
  0
LINE
  5
44DB
  8
0
  6
CONTINUOUS
 62
     0
 10
-58.96844676197442
 20
20.88858290799071
 30
0.0
 11
-58.96844676197442
 21
20.88858290799071
 31
0.0
  0
LINE
  5
44DC
  8
0
  6
CONTINUOUS
 62
     0
 10
-62.243012674026488
 20
18.37592010975721
 30
0.0
 11
-62.243012674026488
 21
18.37592010975721
 31
0.0
  0
LINE
  5
44DD
  8
0
  6
CONTINUOUS
 62
     0
 10
-104.7216892439081
 20
-14.219114835942509
 30
0.0
 11
-104.7216892439081
 21
-14.219114835942509
 31
0.0
  0
LINE
  5
44DE
  8
0
  6
CONTINUOUS
 62
     0
 10
-65.82871552700243
 20
20.641420632590989
 30
0.0
 11
-65.82871552700243
 21
20.641420632590989
 31
0.0
  0
LINE
  5
44DF
  8
0
  6
CONTINUOUS
 62
     0
 10
-68.89169410319883
 20
18.29111450747412
 30
0.0
 11
-68.89169410319883
 21
18.29111450747412
 31
0.0
  0
LINE
  5
44E0
  8
0
  6
CONTINUOUS
 62
     0
 10
-104.8816923735065
 20
-9.3249824626490785
 30
0.0
 11
-104.8816923735065
 21
-9.3249824626490785
 31
0.0
  0
LINE
  5
44E1
  8
0
  6
CONTINUOUS
 62
     0
 10
-72.326263144849321
 20
20.672584082534051
 30
0.0
 11
-72.326263144849321
 21
20.672584082534051
 31
0.0
  0
LINE
  5
44E2
  8
0
  6
CONTINUOUS
 62
     0
 10
-75.751962868226869
 20
18.043952232074389
 30
0.0
 11
-75.751962868226869
 21
18.043952232074389
 31
0.0
  0
LINE
  5
44E3
  8
0
  6
CONTINUOUS
 62
     0
 10
-78.814941444423269
 20
15.693646106957519
 30
0.0
 11
-78.814941444423269
 21
15.693646106957519
 31
0.0
  0
LINE
  5
44E4
  8
0
  6
CONTINUOUS
 62
     0
 10
-105.0416955031049
 20
-4.430850089355661
 30
0.0
 11
-105.0416955031049
 21
-4.430850089355661
 31
0.0
  0
LINE
  5
44E5
  8
0
  6
CONTINUOUS
 62
     0
 10
-78.974944574021691
 20
20.58777848025094
 30
0.0
 11
-78.974944574021691
 21
20.58777848025094
 31
0.0
  0
LINE
  5
44E6
  8
0
  6
CONTINUOUS
 62
     0
 10
-82.24951048607376
 20
18.075115682017451
 30
0.0
 11
-82.24951048607376
 21
18.075115682017451
 31
0.0
  0
LINE
  5
44E7
  8
0
  6
CONTINUOUS
 62
     0
 10
-85.675210209451308
 20
15.44648383155779
 30
0.0
 11
-85.675210209451308
 21
15.44648383155779
 31
0.0
  0
LINE
  5
44E8
  8
0
  6
CONTINUOUS
 62
     0
 10
-105.2016986327033
 20
0.4632822839377547
 30
0.0
 11
-105.2016986327033
 21
0.4632822839377547
 31
0.0
  0
LINE
  5
44E9
  8
0
  6
CONTINUOUS
 62
     0
 10
-85.835213339049744
 20
20.340616204851209
 30
0.0
 11
-85.835213339049744
 21
20.340616204851209
 31
0.0
  0
LINE
  5
44EA
  8
0
  6
CONTINUOUS
 62
     0
 10
-88.898191915246144
 20
17.990310079734339
 30
0.0
 11
-88.898191915246144
 21
17.990310079734339
 31
0.0
  0
LINE
  5
44EB
  8
0
  6
CONTINUOUS
 62
     0
 10
-92.172757827298184
 20
15.47764728150085
 30
0.0
 11
-92.172757827298184
 21
15.47764728150085
 31
0.0
  0
LINE
  5
44EC
  8
0
  6
CONTINUOUS
 62
     0
 10
-105.36170176230171
 20
5.3574146572311712
 30
0.0
 11
-105.36170176230171
 21
5.3574146572311712
 31
0.0
  0
LINE
  5
44ED
  8
0
  6
CONTINUOUS
 62
     0
 10
-92.332760956896578
 20
20.37177965479427
 30
0.0
 11
-92.332760956896578
 21
20.37177965479427
 31
0.0
  0
LINE
  5
44EE
  8
0
  6
CONTINUOUS
 62
     0
 10
-95.758460680274126
 20
17.743147804334619
 30
0.0
 11
-95.758460680274126
 21
17.743147804334619
 31
0.0
  0
LINE
  5
44EF
  8
0
  6
CONTINUOUS
 62
     0
 10
-98.821439256470526
 20
15.392841679217749
 30
0.0
 11
-98.821439256470526
 21
15.392841679217749
 31
0.0
  0
LINE
  5
44F0
  8
0
  6
CONTINUOUS
 62
     0
 10
-105.5217048919002
 20
10.2515470305246
 30
0.0
 11
-105.5217048919002
 21
10.2515470305246
 31
0.0
  0
LINE
  5
44F1
  8
0
  6
CONTINUOUS
 62
     0
 10
-98.981442386068963
 20
20.28697405251118
 30
0.0
 11
-98.981442386068963
 21
20.28697405251118
 31
0.0
  0
LINE
  5
44F2
  8
0
  6
CONTINUOUS
 62
     0
 10
-102.256008298121
 20
17.774311254277681
 30
0.0
 11
-102.256008298121
 21
17.774311254277681
 31
0.0
  0
LINE
  5
44F3
  8
0
  6
CONTINUOUS
 62
     0
 10
-105.68170802149849
 20
15.145679403818029
 30
0.0
 11
-105.68170802149849
 21
15.145679403818029
 31
0.0
  0
LINE
  5
44F4
  8
0
  6
CONTINUOUS
 62
     0
 10
-105.8417111510969
 20
20.03981177711146
 30
0.0
 11
-105.8417111510969
 21
20.03981177711146
 31
0.0
  0
LINE
  5
44F5
  8
0
  6
CONTINUOUS
 62
     0
 10
-108.9046897272933
 20
17.68950565199459
 30
0.0
 11
-108.9046897272933
 21
17.68950565199459
 31
0.0
  0
LINE
  5
44F6
  8
0
  6
CONTINUOUS
 62
     0
 10
-102.57601455731781
 20
27.562576000864532
 30
0.0
 11
-102.57601455731781
 21
27.562576000864532
 31
0.0
  0
LINE
  5
44F7
  8
0
  6
CONTINUOUS
 62
     0
 10
-106.0017142806953
 20
24.93394415040488
 30
0.0
 11
-106.0017142806953
 21
24.93394415040488
 31
0.0
  0
LINE
  5
44F8
  8
0
  6
CONTINUOUS
 62
     0
 10
-109.0646928568917
 20
22.583638025288
 30
0.0
 11
-109.0646928568917
 21
22.583638025288
 31
0.0
  0
LINE
  5
44F9
  8
0
  6
CONTINUOUS
 62
     0
 10
-106.1617174102938
 20
29.8280765236983
 30
0.0
 11
-106.1617174102938
 21
29.8280765236983
 31
0.0
  0
LINE
  5
44FA
  8
0
  6
CONTINUOUS
 62
     0
 10
-106.3217205398922
 20
34.722208896991717
 30
0.0
 11
-106.3217205398922
 21
34.722208896991717
 31
0.0
  0
LINE
  5
44FB
  8
0
  6
CONTINUOUS
 62
     0
 10
-106.48172366949061
 20
39.61634127028514
 30
0.0
 11
-106.48172366949061
 21
39.61634127028514
 31
0.0
  0
LINE
  5
44FC
  8
0
  6
CONTINUOUS
 62
     0
 10
-109.54470224568701
 20
37.266035145168267
 30
0.0
 11
-109.54470224568701
 21
37.266035145168267
 31
0.0
  0
LINE
  5
44FD
  8
0
  6
CONTINUOUS
 62
     0
 10
-106.641726799089
 20
44.51047364357855
 30
0.0
 11
-106.641726799089
 21
44.51047364357855
 31
0.0
  0
LINE
  5
44FE
  8
0
  6
CONTINUOUS
 62
     0
 10
-109.7047053752854
 20
42.160167518461691
 30
0.0
 11
-109.7047053752854
 21
42.160167518461691
 31
0.0
  0
LINE
  5
44FF
  8
0
  6
CONTINUOUS
 62
     0
 10
-106.80172992868739
 20
49.404606016871988
 30
0.0
 11
-106.80172992868739
 21
49.404606016871988
 31
0.0
  0
LINE
  5
4500
  8
0
  6
CONTINUOUS
 62
     0
 10
-106.9617330582858
 20
54.298738390165411
 30
0.0
 11
-106.9617330582858
 21
54.298738390165411
 31
0.0
  0
LINE
  5
4501
  8
0
  6
CONTINUOUS
 62
     0
 10
-107.1217361878842
 20
59.192870763458842
 30
0.0
 11
-107.1217361878842
 21
59.192870763458842
 31
0.0
  0
LINE
  5
4502
  8
0
  6
CONTINUOUS
 62
     0
 10
-110.1847147640806
 20
56.842564638341983
 30
0.0
 11
-110.1847147640806
 21
56.842564638341983
 31
0.0
  0
LINE
  5
4503
  8
0
  6
CONTINUOUS
 62
     0
 10
-107.2817393174826
 20
64.087003136752244
 30
0.0
 11
-107.2817393174826
 21
64.087003136752244
 31
0.0
  0
LINE
  5
4504
  8
0
  6
CONTINUOUS
 62
     0
 10
-107.441742447081
 20
68.981135510045689
 30
0.0
 11
-107.441742447081
 21
68.981135510045689
 31
0.0
  0
LINE
  5
4505
  8
0
  6
CONTINUOUS
 62
     0
 10
-104.1760458533018
 20
76.503899733798761
 30
0.0
 11
-104.1760458533018
 21
76.503899733798761
 31
0.0
  0
LINE
  5
4506
  8
0
  6
CONTINUOUS
 62
     0
 10
-107.60174557667941
 20
73.875267883339106
 30
0.0
 11
-107.60174557667941
 21
73.875267883339106
 31
0.0
  0
LINE
  5
4507
  8
0
  6
CONTINUOUS
 62
     0
 10
-104.33604898290019
 20
81.398032107092192
 30
0.0
 11
-104.33604898290019
 21
81.398032107092192
 31
0.0
  0
LINE
  5
4508
  8
0
  6
CONTINUOUS
 62
     0
 10
-107.7617487062778
 20
78.769400256632537
 30
0.0
 11
-107.7617487062778
 21
78.769400256632537
 31
0.0
  0
LINE
  5
4509
  8
0
  6
CONTINUOUS
 62
     0
 10
-104.4960521124987
 20
86.292164480385622
 30
0.0
 11
-104.4960521124987
 21
86.292164480385622
 31
0.0
  0
LINE
  5
450A
  8
0
  6
CONTINUOUS
 62
     0
 10
-107.92175183587619
 20
83.663532629925953
 30
0.0
 11
-107.92175183587619
 21
83.663532629925953
 31
0.0
  0
LINE
  5
450B
  8
0
  6
CONTINUOUS
 62
     0
 10
-104.6560552420971
 20
91.186296853679025
 30
0.0
 11
-104.6560552420971
 21
91.186296853679025
 31
0.0
  0
LINE
  5
450C
  8
0
  6
CONTINUOUS
 62
     0
 10
-108.0817549654746
 20
88.55766500321937
 30
0.0
 11
-108.0817549654746
 21
88.55766500321937
 31
0.0
  0
LINE
  5
450D
  8
0
  6
CONTINUOUS
 62
     0
 10
-104.8160583716955
 20
96.080429226972441
 30
0.0
 11
-104.8160583716955
 21
96.080429226972441
 31
0.0
  0
LINE
  5
450E
  8
0
  6
CONTINUOUS
 62
     0
 10
-108.241758095073
 20
93.451797376512786
 30
0.0
 11
-108.241758095073
 21
93.451797376512786
 31
0.0
  0
LINE
  5
450F
  8
0
  6
CONTINUOUS
 62
     0
 10
-104.9760615012939
 20
100.9745616002658
 30
0.0
 11
-104.9760615012939
 21
100.9745616002658
 31
0.0
  0
LINE
  5
4510
  8
0
  6
CONTINUOUS
 62
     0
 10
-108.4017612246714
 20
98.345929749806217
 30
0.0
 11
-108.4017612246714
 21
98.345929749806217
 31
0.0
  0
LINE
  5
4511
  8
0
  6
CONTINUOUS
 62
     0
 10
-105.13606463089231
 20
105.8686939735593
 30
0.0
 11
-105.13606463089231
 21
105.8686939735593
 31
0.0
  0
LINE
  5
4512
  8
0
  6
CONTINUOUS
 62
     0
 10
-108.5617643542698
 20
103.24006212309961
 30
0.0
 11
-108.5617643542698
 21
103.24006212309961
 31
0.0
  0
LINE
  5
4513
  8
0
  6
CONTINUOUS
 62
     0
 10
-102.0215018484386
 20
113.2754891450862
 30
0.0
 11
-102.0215018484386
 21
113.2754891450862
 31
0.0
  0
LINE
  5
4514
  8
0
  6
CONTINUOUS
 62
     0
 10
-105.2960677604907
 20
110.76282634685271
 30
0.0
 11
-105.2960677604907
 21
110.76282634685271
 31
0.0
  0
LINE
  5
4515
  8
0
  6
CONTINUOUS
 62
     0
 10
-108.72176748386821
 20
108.13419449639299
 30
0.0
 11
-108.72176748386821
 21
108.13419449639299
 31
0.0
  0
LINE
  5
4516
  8
0
  6
CONTINUOUS
 62
     0
 10
-105.45607089008909
 20
115.65695872014609
 30
0.0
 11
-105.45607089008909
 21
115.65695872014609
 31
0.0
  0
LINE
  5
4517
  8
0
  6
CONTINUOUS
 62
     0
 10
-108.8817706134666
 20
113.0283268696865
 30
0.0
 11
-108.8817706134666
 21
113.0283268696865
 31
0.0
  0
LINE
  5
4518
  8
0
  6
CONTINUOUS
 62
     0
 10
-105.6160740196875
 20
120.5510910934395
 30
0.0
 11
-105.6160740196875
 21
120.5510910934395
 31
0.0
  0
LINE
  5
4519
  8
0
  6
CONTINUOUS
 62
     0
 10
-109.04177374306499
 20
117.9224592429799
 30
0.0
 11
-109.04177374306499
 21
117.9224592429799
 31
0.0
  0
LINE
  5
451A
  8
0
  6
CONTINUOUS
 62
     0
 10
-105.7760771492859
 20
125.445223466733
 30
0.0
 11
-105.7760771492859
 21
125.445223466733
 31
0.0
  0
LINE
  5
451B
  8
0
  6
CONTINUOUS
 62
     0
 10
-109.2017768726635
 20
122.8165916162733
 30
0.0
 11
-109.2017768726635
 21
122.8165916162733
 31
0.0
  0
LINE
  5
451C
  8
0
  6
CONTINUOUS
 62
     0
 10
-105.9360802788843
 20
130.3393558400264
 30
0.0
 11
-105.9360802788843
 21
130.3393558400264
 31
0.0
  0
LINE
  5
451D
  8
0
  6
CONTINUOUS
 62
     0
 10
-106.0960834084827
 20
135.23348821331979
 30
0.0
 11
-106.0960834084827
 21
135.23348821331979
 31
0.0
  0
LINE
  5
451E
  8
0
  6
CONTINUOUS
 62
     0
 10
-106.25608653808111
 20
140.12762058661329
 30
0.0
 11
-106.25608653808111
 21
140.12762058661329
 31
0.0
  0
LINE
  5
451F
  8
0
  6
CONTINUOUS
 62
     0
 10
-109.6817862614587
 20
137.49898873615359
 30
0.0
 11
-109.6817862614587
 21
137.49898873615359
 31
0.0
  0
LINE
  5
4520
  8
0
  6
CONTINUOUS
 62
     0
 10
-106.4160896676795
 20
145.02175295990659
 30
0.0
 11
-106.4160896676795
 21
145.02175295990659
 31
0.0
  0
LINE
  5
4521
  8
0
  6
CONTINUOUS
 62
     0
 10
-106.57609279727789
 20
149.91588533320009
 30
0.0
 11
-106.57609279727789
 21
149.91588533320009
 31
0.0
  0
LINE
  5
4522
  8
0
  6
CONTINUOUS
 62
     0
 10
-106.7360959268763
 20
154.81001770649351
 30
0.0
 11
-106.7360959268763
 21
154.81001770649351
 31
0.0
  0
LINE
  5
4523
  8
0
  6
CONTINUOUS
 62
     0
 10
-106.8960990564747
 20
159.7041500797869
 30
0.0
 11
-106.8960990564747
 21
159.7041500797869
 31
0.0
  0
LINE
  5
4524
  8
0
  6
CONTINUOUS
 62
     0
 10
-107.0561021860731
 20
164.59828245308029
 30
0.0
 11
-107.0561021860731
 21
164.59828245308029
 31
0.0
  0
LINE
  5
4525
  8
0
  6
CONTINUOUS
 62
     0
 10
-107.2161053156715
 20
169.49241482637379
 30
0.0
 11
-107.2161053156715
 21
169.49241482637379
 31
0.0
  0
LINE
  5
4526
  8
0
  6
CONTINUOUS
 62
     0
 10
-107.37610844526991
 20
174.38654719966721
 30
0.0
 11
-107.37610844526991
 21
174.38654719966721
 31
0.0
  0
LINE
  5
4527
  8
0
  6
CONTINUOUS
 62
     0
 10
-107.5361115748683
 20
179.28067957296059
 30
0.0
 11
-107.5361115748683
 21
179.28067957296059
 31
0.0
  0
LINE
  5
4528
  8
0
  6
CONTINUOUS
 62
     0
 10
-104.4215487924147
 20
186.6874747444875
 30
0.0
 11
-104.4215487924147
 21
186.6874747444875
 31
0.0
  0
LINE
  5
4529
  8
0
  6
CONTINUOUS
 62
     0
 10
-107.69611470446669
 20
184.17481194625401
 30
0.0
 11
-107.69611470446669
 21
184.17481194625401
 31
0.0
  0
LINE
  5
452A
  8
0
  6
CONTINUOUS
 62
     0
 10
-104.58155192201311
 20
191.581607117781
 30
0.0
 11
-104.58155192201311
 21
191.581607117781
 31
0.0
  0
LINE
  5
452B
  8
0
  6
CONTINUOUS
 62
     0
 10
-107.8561178340651
 20
189.06894431954751
 30
0.0
 11
-107.8561178340651
 21
189.06894431954751
 31
0.0
  0
LINE
  5
452C
  8
0
  6
CONTINUOUS
 62
     0
 10
-104.7415550516115
 20
196.47573949107439
 30
0.0
 11
-104.7415550516115
 21
196.47573949107439
 31
0.0
  0
LINE
  5
452D
  8
0
  6
CONTINUOUS
 62
     0
 10
-108.0161209636635
 20
193.9630766928409
 30
0.0
 11
-108.0161209636635
 21
193.9630766928409
 31
0.0
  0
LINE
  5
452E
  8
0
  6
CONTINUOUS
 62
     0
 10
-104.90155818120989
 20
201.36987186436781
 30
0.0
 11
-104.90155818120989
 21
201.36987186436781
 31
0.0
  0
LINE
  5
452F
  8
0
  6
CONTINUOUS
 62
     0
 10
-108.176124093262
 20
198.85720906613429
 30
0.0
 11
-108.176124093262
 21
198.85720906613429
 31
0.0
  0
LINE
  5
4530
  8
0
  6
CONTINUOUS
 62
     0
 10
-105.0615613108083
 20
206.2640042376612
 30
0.0
 11
-105.0615613108083
 21
206.2640042376612
 31
0.0
  0
LINE
  5
4531
  8
0
  6
CONTINUOUS
 62
     0
 10
-108.3361272228604
 20
203.75134143942779
 30
0.0
 11
-108.3361272228604
 21
203.75134143942779
 31
0.0
  0
ENDBLK
  5
4533
  8
0
  0
BLOCK
  8
0
  2
*U17
 70
     1
 10
0.0
 20
0.0
 30
0.0
  3
*U17
  1

  0
POLYLINE
  5
454A
  8
0
 66
     1
 10
0.0
 20
0.0
 30
0.0
  0
VERTEX
  5
454B
  8
0
 10
-106.02745363452409
 20
185.670447875283
 30
0.0
  0
VERTEX
  5
454C
  8
0
 10
-111.0
 20
197.11160121693379
 30
0.0
  0
VERTEX
  5
454D
  8
0
 10
-118.0
 20
197.11160121693379
 30
0.0
  0
SEQEND
  5
454E
  8
0
  0
ENDBLK
  5
4550
  8
0
  0
BLOCK
  8
0
  2
*U18
 70
     1
 10
0.0
 20
0.0
 30
0.0
  3
*U18
  1

  0
TEXT
  5
4552
  8
0
  6
CONTINUOUS
 10
-176.65975443383351
 20
202.318467974551
 30
0.0
 40
4.4000000000000004
  1
Specialized Masonry
  7
SPECI
  0
TEXT
  5
4553
  8
0
  6
CONTINUOUS
 10
-186.89740791268761
 20
194.91010053480559
 30
0.0
 40
4.4000000000000004
  1
Leveling Compound with
  7
SPECI
  0
TEXT
  5
4554
  8
0
  6
CONTINUOUS
 10
-158.53451568894951
 20
187.5017330950603
 30
0.0
 40
4.4000000000000004
  1
selected finish
  7
SPECI
  0
ENDBLK
  5
4556
  8
0
  0
BLOCK
  8
0
  2
*U19
 70
     1
 10
0.0
 20
0.0
 30
0.0
  3
*U19
  1

  0
INSERT
  5
4558
  8
0
  2
SPECI01
 10
-69.297048483031119
 20
155.1848279400202
 30
0.0
 41
7.0
 42
7.0
 43
7.0
 50
340.06222205575341
  0
POLYLINE
  5
4559
  8
0
 66
     1
 10
0.0
 20
0.0
 30
0.0
  0
VERTEX
  5
455A
  8
0
 10
-75.877492937847393
 20
157.57182412289899
 30
0.0
  0
VERTEX
  5
455B
  8
0
 10
-111.0
 20
170.3121930852308
 30
0.0
  0
VERTEX
  5
455C
  8
0
 10
-118.0
 20
170.3121930852308
 30
0.0
  0
SEQEND
  5
455D
  8
0
  0
ENDBLK
  5
455F
  8
0
  0
BLOCK
  8
0
  2
*U20
 70
     1
 10
0.0
 20
0.0
 30
0.0
  3
*U20
  1

  0
TEXT
  5
4561
  8
0
  6
CONTINUOUS
 10
-192.04774897680761
 20
172.38963737809121
 30
0.0
 40
4.4000000000000004
  1
Ventilation openings every
  7
SPECI
  0
TEXT
  5
4562
  8
0
  6
CONTINUOUS
 10
-155.77926330150069
 20
165.05630404475781
 30
0.0
 40
4.4000000000000004
  1
third perpend
  7
SPECI
  0
ENDBLK
  5
4564
  8
0
  0
BLOCK
  8
0
  2
*U21
 70
     1
 10
0.0
 20
0.0
 30
0.0
  3
*U21
  1

  0
INSERT
  5
4566
  8
0
  2
SPECI01
 10
9.7250000160433903
 20
185.6250377243075
 30
0.0
 41
7.0
 42
7.0
 43
7.0
 50
24.248208406559652
  0
POLYLINE
  5
4567
  8
0
 66
     1
 10
0.0
 20
0.0
 30
0.0
  0
VERTEX
  5
4568
  8
0
 10
3.342575814161743
 20
182.75020532793459
 30
0.0
  0
VERTEX
  5
4569
  8
0
 10
-111.0
 20
131.2469315188433
 30
0.0
  0
VERTEX
  5
456A
  8
0
 10
-118.0
 20
131.2469315188433
 30
0.0
  0
SEQEND
  5
456B
  8
0
  0
ENDBLK
  5
456D
  8
0
  0
BLOCK
  8
0
  2
*U22
 70
     1
 10
0.0
 20
0.0
 30
0.0
  3
*U22
  1

  0
TEXT
  5
456F
  8
0
  6
CONTINUOUS
 10
-200.2024556616644
 20
140.76875962252669
 30
0.0
 40
4.4000000000000004
  1
Building wrap to be continued
  7
SPECI
  0
TEXT
  5
4570
  8
0
  6
CONTINUOUS
 10
-191.34542974079119
 20
133.4354262891934
 30
0.0
 40
4.4000000000000004
  1
under lintel and taped with
  7
SPECI
  0
TEXT
  5
4571
  8
0
  6
CONTINUOUS
 10
-179.85920873124141
 20
126.027058849448
 30
0.0
 40
4.4000000000000004
  1
protectosill system (or
  7
SPECI
  0
TEXT
  5
4572
  8
0
  6
CONTINUOUS
 10
-194.21173260572991
 20
118.61869140970271
 30
0.0
 40
4.4000000000000004
  1
similar) at corner by builder
  7
SPECI
  0
ENDBLK
  5
4574
  8
0
  0
BLOCK
  8
0
  2
*U23
 70
     1
 10
0.0
 20
0.0
 30
0.0
  3
*U23
  1

  0
INSERT
  5
4576
  8
0
  2
SPECI01
 10
8.1008526192276165
 20
123.3847951691191
 30
0.0
 41
7.0
 42
7.0
 43
7.0
 50
17.376325387122471
  0
POLYLINE
  5
4577
  8
0
 66
     1
 10
0.0
 20
0.0
 30
0.0
  0
VERTEX
  5
4578
  8
0
 10
1.420305944393389
 20
121.2942698462968
 30
0.0
  0
VERTEX
  5
4579
  8
0
 10
-111.0
 20
86.114888904090009
 30
0.0
  0
VERTEX
  5
457A
  8
0
 10
-118.0
 20
86.114888904090009
 30
0.0
  0
SEQEND
  5
457B
  8
0
  0
ENDBLK
  5
457D
  8
0
  0
BLOCK
  8
0
  2
*U24
 70
     1
 10
0.0
 20
0.0
 30
0.0
  3
*U24
  1

  0
TEXT
  5
457F
  8
0
  6
CONTINUOUS
 10
-194.5839017735334
 20
91.970050341106827
 30
0.0
 40
4.4000000000000004
  1
Breather type building wrap
  7
SPECI
  0
TEXT
  5
4580
  8
0
  6
CONTINUOUS
 10
-199.55115961800811
 20
84.561682901361493
 30
0.0
 40
4.4000000000000004
  1
taped onto head flashing with
  7
SPECI
  0
TEXT
  5
4581
  8
0
  6
CONTINUOUS
 10
-187.07148703956341
 20
77.15331546161616
 30
0.0
 40
4.4000000000000004
  1
Protecto tape (or similar)
  7
SPECI
  0
ENDBLK
  5
4583
  8
0
  0
BLOCK
  8
0
  2
*U25
 70
     1
 10
0.0
 20
0.0
 30
0.0
  3
*U25
  1

  0
INSERT
  5
4585
  8
0
  2
SPECI01
 10
-100.2386872523354
 20
18.684827940020451
 30
0.0
 41
7.0
 42
7.0
 43
7.0
 50
73.852622436146717
  0
POLYLINE
  5
4586
  8
0
 66
     1
 10
0.0
 20
0.0
 30
0.0
  0
VERTEX
  5
4587
  8
0
 10
-102.1854504020243
 20
11.96098132970778
 30
0.0
  0
VERTEX
  5
4588
  8
0
 10
-111.0
 20
-18.48323549515467
 30
0.0
  0
VERTEX
  5
4589
  8
0
 10
-118.0
 20
-18.48323549515467
 30
0.0
  0
SEQEND
  5
458A
  8
0
  0
ENDBLK
  5
458C
  8
0
  0
BLOCK
  8
0
  2
*U26
 70
     1
 10
0.0
 20
0.0
 30
0.0
  3
*U26
  1

  0
TEXT
  5
458E
  8
0
  6
CONTINUOUS
 10
-183.3107776261937
 20
-13.312385108615331
 30
0.0
 40
4.4000000000000004
  1
20x20 premeshed PVC
  7
SPECI
  0
TEXT
  5
458F
  8
0
  6
CONTINUOUS
 10
-180.7386084583901
 20
-20.64571844194867
 30
0.0
 40
4.4000000000000004
  1
corner - drip edge with
  7
SPECI
  0
TEXT
  5
4590
  8
0
  6
CONTINUOUS
 10
-171.92360163710771
 20
-28.054085881694011
 30
0.0
 40
4.4000000000000004
  1
minimum fall of 10°
  7
SPECI
  0
ENDBLK
  5
4592
  8
0
  0
BLOCK
  8
0
  2
*U27
 70
     1
 10
0.0
 20
0.0
 30
0.0
  3
*U27
  1

  0
INSERT
  5
4594
  8
0
  2
SPECI01
 10
-41.274999983960377
 20
7.3249999999962929
 30
0.0
 41
7.0
 42
7.0
 43
7.0
 50
37.11449984553898
  0
POLYLINE
  5
4595
  8
0
 66
     1
 10
0.0
 20
0.0
 30
0.0
  0
VERTEX
  5
4596
  8
0
 10
-46.857018729854389
 20
3.1011313087976831
 30
0.0
  0
VERTEX
  5
4597
  8
0
 10
-111.0
 20
-45.435346743411849
 30
0.0
  0
VERTEX
  5
4598
  8
0
 10
-118.0
 20
-45.435346743411849
 30
0.0
  0
SEQEND
  5
4599
  8
0
  0
ENDBLK
  5
459B
  8
0
  0
BLOCK
  8
0
  2
*U28
 70
     1
 10
0.0
 20
0.0
 30
0.0
  3
*U28
  1

  0
TEXT
  5
459D
  8
0
  6
CONTINUOUS
 10
-157.17789904502041
 20
-47.026069799346359
 30
0.0
 40
4.4000000000000004
  1
Head flashing
  7
SPECI
  0
ENDBLK
  5
459F
  8
0
  0
BLOCK
  8
0
  2
*U29
 70
     1
 10
0.0
 20
0.0
 30
0.0
  3
*U29
  1

  0
INSERT
  5
45A1
  8
0
  2
SPECI01
 10
-104.0249999839568
 20
-61.175000000003791
 30
0.0
 41
7.0
 42
7.0
 43
7.0
 50
75.505488549074244
  0
POLYLINE
  5
45A2
  8
0
 66
     1
 10
0.0
 20
0.0
 30
0.0
  0
VERTEX
  5
45A3
  8
0
 10
-105.7770108102177
 20
-67.952201344560734
 30
0.0
  0
VERTEX
  5
45A4
  8
0
 10
-111.0
 20
-88.155985949671731
 30
0.0
  0
VERTEX
  5
45A5
  8
0
 10
-118.0
 20
-88.155985949671731
 30
0.0
  0
SEQEND
  5
45A6
  8
0
  0
ENDBLK
  5
45A8
  8
0
  0
BLOCK
  8
0
  2
*U30
 70
     1
 10
0.0
 20
0.0
 30
0.0
  3
*U30
  1

  0
TEXT
  5
45AA
  8
0
  6
CONTINUOUS
 10
-154.24556616643929
 20
-90.319969578593955
 30
0.0
 40
4.4000000000000004
  1
Brick veneer
  7
SPECI
  0
ENDBLK
  5
45AC
  8
0
  0
BLOCK
  8
0
  2
*U31
 70
     1
 10
0.0
 20
0.0
 30
0.0
  3
*U31
  1

  0
INSERT
  5
45AE
  8
0
  2
SPECI01
 10
97.876694678650182
 20
-4.6749999999996126
 30
0.0
 41
7.0
 42
7.0
 43
7.0
 50
75.553529623785025
  0
POLYLINE
  5
45AF
  8
0
 66
     1
 10
0.0
 20
0.0
 30
0.0
  0
VERTEX
  5
45B0
  8
0
 10
96.130366981012685
 20
-11.453667979216769
 30
0.0
  0
VERTEX
  5
45B1
  8
0
 10
85.076055512553836
 20
-54.362858095658098
 30
0.0
  0
VERTEX
  5
45B2
  8
0
 10
78.076055512553836
 20
-54.362858095658098
 30
0.0
  0
SEQEND
  5
45B3
  8
0
  0
ENDBLK
  5
45B5
  8
0
  0
BLOCK
  8
0
  2
*U32
 70
     1
 10
0.0
 20
0.0
 30
0.0
  3
*U32
  1

  0
TEXT
  5
45B7
  8
0
  6
CONTINUOUS
 10
40.455864516646599
 20
-49.193508391247001
 30
0.0
 40
4.4000000000000004
  1
Air seal to be
  7
SPECI
  0
TEXT
  5
45B8
  8
0
  6
CONTINUOUS
 10
45.378101897274163
 20
-56.526841724580343
 30
0.0
 40
4.4000000000000004
  1
installed by
  7
SPECI
  0
TEXT
  5
45B9
  8
0
  6
CONTINUOUS
 10
57.539629864532003
 20
-63.860175057913679
 30
0.0
 40
4.4000000000000004
  1
builder
  7
SPECI
  0
ENDBLK
  5
45BB
  8
0
  0
BLOCK
  8
0
  2
*U33
 70
     1
 10
0.0
 20
0.0
 30
0.0
  3
*U33
  1

  0
INSERT
  5
45BD
  8
0
  2
SPECI01
 10
-69.547048483031062
 20
21.184827940020462
 30
0.0
 41
7.0
 42
7.0
 43
7.0
 50
331.1609987634115
  0
POLYLINE
  5
45BE
  8
0
 66
     1
 10
0.0
 20
0.0
 30
0.0
  0
VERTEX
  5
45BF
  8
0
 10
-75.67889831432862
 20
24.5612783907773
 30
0.0
  0
VERTEX
  5
45C0
  8
0
 10
-111.0
 20
44.010539704891549
 30
0.0
  0
VERTEX
  5
45C1
  8
0
 10
-118.0
 20
44.010539704891549
 30
0.0
  0
SEQEND
  5
45C2
  8
0
  0
ENDBLK
  5
45C4
  8
0
  0
BLOCK
  8
0
  2
*U34
 70
     1
 10
0.0
 20
0.0
 30
0.0
  3
*U34
  1

  0
TEXT
  5
45C6
  8
0
  6
CONTINUOUS
 10
-189.25948158253749
 20
53.496351437497289
 30
0.0
 40
4.4000000000000004
  1
Lintel must be key coated
  7
SPECI
  0
TEXT
  5
45C7
  8
0
  6
CONTINUOUS
 10
-196.60982264665759
 20
46.087983997751948
 30
0.0
 40
4.4000000000000004
  1
with Specialized Tankit prior
  7
SPECI
  0
TEXT
  5
45C8
  8
0
  6
CONTINUOUS
 10
-184.8744884038199
 20
38.679616558006607
 30
0.0
 40
4.4000000000000004
  1
to the application of any
  7
SPECI
  0
TEXT
  5
45C9
  8
0
  6
CONTINUOUS
 10
-138.5334242837653
 20
31.346283224673272
 30
0.0
 40
4.4000000000000004
  1
plaster
  7
SPECI
  0
ENDBLK
  5
45CB
  8
0
  0
BLOCK
  8
0
  2
*X35
 70
     1
 10
0.0
 20
0.0
 30
0.0
  3
*X35
  1

  0
LINE
  5
45EA
  8
0
  6
CONTINUOUS
 62
     0
 10
-35.066613228987279
 20
117.1848279400202
 30
0.0
 11
-34.297048483031119
 21
117.9543926859764
 31
0.0
  0
LINE
  5
45EB
  8
0
  6
CONTINUOUS
 62
     0
 10
-39.556741289521852
 20
117.1848279400202
 30
0.0
 11
-34.297048483031119
 21
122.444520746511
 31
0.0
  0
LINE
  5
45EC
  8
0
  6
CONTINUOUS
 62
     0
 10
-44.046869350056419
 20
117.1848279400202
 30
0.0
 11
-34.297048483031119
 21
126.93464880704551
 31
0.0
  0
LINE
  5
45ED
  8
0
  6
CONTINUOUS
 62
     0
 10
-48.536997410590999
 20
117.1848279400202
 30
0.0
 11
-34.297048483031119
 21
131.42477686758011
 31
0.0
  0
LINE
  5
45EE
  8
0
  6
CONTINUOUS
 62
     0
 10
-53.027125471125593
 20
117.1848279400202
 30
0.0
 11
-34.297048483031119
 21
135.91490492811471
 31
0.0
  0
LINE
  5
45EF
  8
0
  6
CONTINUOUS
 62
     0
 10
-57.517253531660153
 20
117.1848279400202
 30
0.0
 11
-34.297048483031098
 21
140.40503298864931
 31
0.0
  0
LINE
  5
45F0
  8
0
  6
CONTINUOUS
 62
     0
 10
-62.00738159219474
 20
117.1848279400202
 30
0.0
 11
-34.297048483031112
 21
144.89516104918391
 31
0.0
  0
LINE
  5
45F1
  8
0
  6
CONTINUOUS
 62
     0
 10
-66.49750965272932
 20
117.1848279400202
 30
0.0
 11
-34.297048483031112
 21
149.3852891097184
 31
0.0
  0
LINE
  5
45F2
  8
0
  6
CONTINUOUS
 62
     0
 10
-70.987637713263894
 20
117.1848279400202
 30
0.0
 11
-34.297048483031112
 21
153.875417170253
 31
0.0
  0
LINE
  5
45F3
  8
0
  6
CONTINUOUS
 62
     0
 10
-75.477765773798467
 20
117.1848279400202
 30
0.0
 11
-34.297048483031112
 21
158.3655452307876
 31
0.0
  0
LINE
  5
45F4
  8
0
  6
CONTINUOUS
 62
     0
 10
-79.967893834333054
 20
117.1848279400202
 30
0.0
 11
-34.297048483031119
 21
162.8556732913222
 31
0.0
  0
LINE
  5
45F5
  8
0
  6
CONTINUOUS
 62
     0
 10
-84.458021894867613
 20
117.1848279400202
 30
0.0
 11
-34.297048483031119
 21
167.34580135185669
 31
0.0
  0
LINE
  5
45F6
  8
0
  6
CONTINUOUS
 62
     0
 10
-88.948149955402215
 20
117.1848279400202
 30
0.0
 11
-34.297048483031134
 21
171.83592941239129
 31
0.0
  0
LINE
  5
45F7
  8
0
  6
CONTINUOUS
 62
     0
 10
-93.438278015936774
 20
117.1848279400202
 30
0.0
 11
-34.297048483031134
 21
176.3260574729259
 31
0.0
  0
LINE
  5
45F8
  8
0
  6
CONTINUOUS
 62
     0
 10
-97.928406076471362
 20
117.1848279400202
 30
0.0
 11
-34.297048483031134
 21
180.8161855334605
 31
0.0
  0
LINE
  5
45F9
  8
0
  6
CONTINUOUS
 62
     0
 10
-102.41853413700591
 20
117.1848279400202
 30
0.0
 11
-34.297048483031134
 21
185.30631359399499
 31
0.0
  0
LINE
  5
45FA
  8
0
  6
CONTINUOUS
 62
     0
 10
-104.29704848303101
 20
119.7964416545296
 30
0.0
 11
-34.297048483031141
 21
189.79644165452959
 31
0.0
  0
LINE
  5
45FB
  8
0
  6
CONTINUOUS
 62
     0
 10
-104.29704848303111
 20
124.2865697150642
 30
0.0
 11
-35.398790258075081
 21
193.1848279400202
 31
0.0
  0
LINE
  5
45FC
  8
0
  6
CONTINUOUS
 62
     0
 10
-104.29704848303111
 20
128.77669777559879
 30
0.0
 11
-39.888918318609662
 21
193.1848279400202
 31
0.0
  0
LINE
  5
45FD
  8
0
  6
CONTINUOUS
 62
     0
 10
-104.29704848303111
 20
133.26682583613331
 30
0.0
 11
-44.379046379144228
 21
193.1848279400202
 31
0.0
  0
LINE
  5
45FE
  8
0
  6
CONTINUOUS
 62
     0
 10
-104.29704848303111
 20
137.75695389666791
 30
0.0
 11
-48.869174439678801
 21
193.1848279400202
 31
0.0
  0
LINE
  5
45FF
  8
0
  6
CONTINUOUS
 62
     0
 10
-104.29704848303111
 20
142.24708195720251
 30
0.0
 11
-53.359302500213388
 21
193.1848279400202
 31
0.0
  0
LINE
  5
4600
  8
0
  6
CONTINUOUS
 62
     0
 10
-104.29704848303111
 20
146.73721001773711
 30
0.0
 11
-57.849430560747962
 21
193.1848279400202
 31
0.0
  0
LINE
  5
4601
  8
0
  6
CONTINUOUS
 62
     0
 10
-104.29704848303111
 20
151.22733807827171
 30
0.0
 11
-62.339558621282542
 21
193.1848279400202
 31
0.0
  0
LINE
  5
4602
  8
0
  6
CONTINUOUS
 62
     0
 10
-104.29704848303111
 20
155.7174661388062
 30
0.0
 11
-66.829686681817122
 21
193.1848279400202
 31
0.0
  0
LINE
  5
4603
  8
0
  6
CONTINUOUS
 62
     0
 10
-104.29704848303111
 20
160.2075941993408
 30
0.0
 11
-71.319814742351696
 21
193.1848279400202
 31
0.0
  0
LINE
  5
4604
  8
0
  6
CONTINUOUS
 62
     0
 10
-104.29704848303111
 20
164.69772225987541
 30
0.0
 11
-75.809942802886269
 21
193.1848279400202
 31
0.0
  0
LINE
  5
4605
  8
0
  6
CONTINUOUS
 62
     0
 10
-104.29704848303111
 20
169.18785032041001
 30
0.0
 11
-80.300070863420856
 21
193.1848279400202
 31
0.0
  0
LINE
  5
4606
  8
0
  6
CONTINUOUS
 62
     0
 10
-104.29704848303111
 20
173.67797838094461
 30
0.0
 11
-84.79019892395543
 21
193.1848279400202
 31
0.0
  0
LINE
  5
4607
  8
0
  6
CONTINUOUS
 62
     0
 10
-104.29704848303111
 20
178.1681064414791
 30
0.0
 11
-89.280326984489989
 21
193.1848279400202
 31
0.0
  0
LINE
  5
4608
  8
0
  6
CONTINUOUS
 62
     0
 10
-104.29704848303111
 20
182.6582345020137
 30
0.0
 11
-93.770455045024562
 21
193.1848279400202
 31
0.0
  0
LINE
  5
4609
  8
0
  6
CONTINUOUS
 62
     0
 10
-104.29704848303111
 20
187.1483625625483
 30
0.0
 11
-98.260583105559135
 21
193.1848279400202
 31
0.0
  0
LINE
  5
460A
  8
0
  6
CONTINUOUS
 62
     0
 10
-104.29704848303111
 20
191.63849062308279
 30
0.0
 11
-102.75071116609369
 21
193.18482794002031
 31
0.0
  0
ENDBLK
  5
460C
  8
0
  0
BLOCK
  8
0
  2
*X36
 70
     1
 10
0.0
 20
0.0
 30
0.0
  3
*X36
  1

  0
LINE
  5
4618
  8
0
  6
CONTINUOUS
 62
     0
 10
-35.066613228987279
 20
31.184827940020359
 30
0.0
 11
-34.297048483031119
 21
31.954392685976529
 31
0.0
  0
LINE
  5
4619
  8
0
  6
CONTINUOUS
 62
     0
 10
-39.556741289521852
 20
31.184827940020359
 30
0.0
 11
-34.297048483031119
 21
36.444520746511103
 31
0.0
  0
LINE
  5
461A
  8
0
  6
CONTINUOUS
 62
     0
 10
-44.046869350056419
 20
31.184827940020359
 30
0.0
 11
-34.297048483031119
 21
40.934648807045669
 31
0.0
  0
LINE
  5
461B
  8
0
  6
CONTINUOUS
 62
     0
 10
-48.536997410590999
 20
31.18482794002038
 30
0.0
 11
-34.297048483031098
 21
45.42477686758027
 31
0.0
  0
LINE
  5
461C
  8
0
  6
CONTINUOUS
 62
     0
 10
-53.027125471125593
 20
31.184827940020369
 30
0.0
 11
-34.297048483031119
 21
49.914904928114829
 31
0.0
  0
LINE
  5
461D
  8
0
  6
CONTINUOUS
 62
     0
 10
-57.517253531660153
 20
31.18482794002038
 30
0.0
 11
-34.297048483031098
 21
54.405032988649417
 31
0.0
  0
LINE
  5
461E
  8
0
  6
CONTINUOUS
 62
     0
 10
-62.00738159219474
 20
31.184827940020369
 30
0.0
 11
-34.297048483031112
 21
58.89516104918399
 31
0.0
  0
LINE
  5
461F
  8
0
  6
CONTINUOUS
 62
     0
 10
-66.49750965272932
 20
31.184827940020369
 30
0.0
 11
-34.297048483031112
 21
63.385289109718563
 31
0.0
  0
LINE
  5
4620
  8
0
  6
CONTINUOUS
 62
     0
 10
-70.987637713263894
 20
31.184827940020369
 30
0.0
 11
-34.297048483031112
 21
67.875417170253144
 31
0.0
  0
LINE
  5
4621
  8
0
  6
CONTINUOUS
 62
     0
 10
-75.477765773798467
 20
31.18482794002038
 30
0.0
 11
-34.297048483031112
 21
72.365545230787717
 31
0.0
  0
LINE
  5
4622
  8
0
  6
CONTINUOUS
 62
     0
 10
-79.967893834333054
 20
31.184827940020369
 30
0.0
 11
-34.297048483031119
 21
76.85567329132229
 31
0.0
  0
LINE
  5
4623
  8
0
  6
CONTINUOUS
 62
     0
 10
-84.458021894867613
 20
31.184827940020369
 30
0.0
 11
-34.297048483031119
 21
81.345801351856863
 31
0.0
  0
LINE
  5
4624
  8
0
  6
CONTINUOUS
 62
     0
 10
-88.948149955402215
 20
31.184827940020369
 30
0.0
 11
-34.297048483031134
 21
85.835929412391437
 31
0.0
  0
LINE
  5
4625
  8
0
  6
CONTINUOUS
 62
     0
 10
-93.438278015936774
 20
31.184827940020369
 30
0.0
 11
-34.297048483031134
 21
90.32605747292601
 31
0.0
  0
LINE
  5
4626
  8
0
  6
CONTINUOUS
 62
     0
 10
-97.928406076471362
 20
31.184827940020369
 30
0.0
 11
-34.297048483031134
 21
94.816185533460569
 31
0.0
  0
LINE
  5
4627
  8
0
  6
CONTINUOUS
 62
     0
 10
-102.41853413700591
 20
31.184827940020359
 30
0.0
 11
-34.297048483031134
 21
99.306313593995156
 31
0.0
  0
LINE
  5
4628
  8
0
  6
CONTINUOUS
 62
     0
 10
-104.29704848303101
 20
33.796441654529787
 30
0.0
 11
-34.297048483031141
 21
103.7964416545297
 31
0.0
  0
LINE
  5
4629
  8
0
  6
CONTINUOUS
 62
     0
 10
-104.29704848303111
 20
38.286569715064353
 30
0.0
 11
-35.398790258075081
 21
107.1848279400203
 31
0.0
  0
LINE
  5
462A
  8
0
  6
CONTINUOUS
 62
     0
 10
-104.29704848303111
 20
42.776697775598898
 30
0.0
 11
-39.888918318609662
 21
107.1848279400203
 31
0.0
  0
LINE
  5
462B
  8
0
  6
CONTINUOUS
 62
     0
 10
-104.29704848303111
 20
47.266825836133492
 30
0.0
 11
-44.379046379144228
 21
107.1848279400203
 31
0.0
  0
LINE
  5
462C
  8
0
  6
CONTINUOUS
 62
     0
 10
-104.29704848303111
 20
51.756953896668051
 30
0.0
 11
-48.869174439678801
 21
107.1848279400203
 31
0.0
  0
LINE
  5
462D
  8
0
  6
CONTINUOUS
 62
     0
 10
-104.29704848303111
 20
56.24708195720266
 30
0.0
 11
-53.359302500213388
 21
107.1848279400203
 31
0.0
  0
LINE
  5
462E
  8
0
  6
CONTINUOUS
 62
     0
 10
-104.29704848303111
 20
60.737210017737191
 30
0.0
 11
-57.849430560747962
 21
107.1848279400203
 31
0.0
  0
LINE
  5
462F
  8
0
  6
CONTINUOUS
 62
     0
 10
-104.29704848303111
 20
65.227338078271814
 30
0.0
 11
-62.339558621282542
 21
107.1848279400203
 31
0.0
  0
LINE
  5
4630
  8
0
  6
CONTINUOUS
 62
     0
 10
-104.29704848303111
 20
69.717466138806373
 30
0.0
 11
-66.829686681817122
 21
107.1848279400203
 31
0.0
  0
LINE
  5
4631
  8
0
  6
CONTINUOUS
 62
     0
 10
-104.29704848303111
 20
74.20759419934096
 30
0.0
 11
-71.319814742351696
 21
107.1848279400203
 31
0.0
  0
LINE
  5
4632
  8
0
  6
CONTINUOUS
 62
     0
 10
-104.29704848303111
 20
78.697722259875547
 30
0.0
 11
-75.809942802886269
 21
107.1848279400203
 31
0.0
  0
LINE
  5
4633
  8
0
  6
CONTINUOUS
 62
     0
 10
-104.29704848303111
 20
83.187850320410107
 30
0.0
 11
-80.300070863420856
 21
107.1848279400203
 31
0.0
  0
LINE
  5
4634
  8
0
  6
CONTINUOUS
 62
     0
 10
-104.29704848303111
 20
87.677978380944694
 30
0.0
 11
-84.79019892395543
 21
107.1848279400203
 31
0.0
  0
LINE
  5
4635
  8
0
  6
CONTINUOUS
 62
     0
 10
-104.29704848303111
 20
92.168106441479239
 30
0.0
 11
-89.280326984489989
 21
107.1848279400203
 31
0.0
  0
LINE
  5
4636
  8
0
  6
CONTINUOUS
 62
     0
 10
-104.29704848303111
 20
96.658234502013826
 30
0.0
 11
-93.770455045024562
 21
107.1848279400203
 31
0.0
  0
LINE
  5
4637
  8
0
  6
CONTINUOUS
 62
     0
 10
-104.29704848303111
 20
101.1483625625484
 30
0.0
 11
-98.260583105559135
 21
107.1848279400203
 31
0.0
  0
LINE
  5
4638
  8
0
  6
CONTINUOUS
 62
     0
 10
-104.29704848303111
 20
105.638490623083
 30
0.0
 11
-102.75071116609369
 21
107.1848279400203
 31
0.0
  0
ENDBLK
  5
463A
  8
0
  0
BLOCK
  8
0
  2
*X37
 70
     1
 10
0.0
 20
0.0
 30
0.0
  3
*X37
  1

  0
LINE
  5
478A
  8
0
  6
CONTINUOUS
 62
     0
 10
-35.044564729912928
 20
-99.175000000003806
 30
0.0
 11
-34.274999983956782
 21
-98.405435254047632
 31
0.0
  0
LINE
  5
478B
  8
0
  6
CONTINUOUS
 62
     0
 10
-39.534692790447522
 20
-99.175000000003806
 30
0.0
 11
-34.274999983956782
 21
-93.915307193513058
 31
0.0
  0
LINE
  5
478C
  8
0
  6
CONTINUOUS
 62
     0
 10
-44.024820850982088
 20
-99.175000000003806
 30
0.0
 11
-34.274999983956782
 21
-89.425179132978485
 31
0.0
  0
LINE
  5
478D
  8
0
  6
CONTINUOUS
 62
     0
 10
-48.514948911516662
 20
-99.175000000003806
 30
0.0
 11
-34.274999983956761
 21
-84.935051072443898
 31
0.0
  0
LINE
  5
478E
  8
0
  6
CONTINUOUS
 62
     0
 10
-53.005076972051242
 20
-99.175000000003806
 30
0.0
 11
-34.274999983956782
 21
-80.444923011909324
 31
0.0
  0
LINE
  5
478F
  8
0
  6
CONTINUOUS
 62
     0
 10
-57.495205032585808
 20
-99.175000000003806
 30
0.0
 11
-34.274999983956761
 21
-75.954794951374737
 31
0.0
  0
LINE
  5
4790
  8
0
  6
CONTINUOUS
 62
     0
 10
-61.985333093120403
 20
-99.175000000003806
 30
0.0
 11
-34.274999983956768
 21
-71.464666890840164
 31
0.0
  0
LINE
  5
4791
  8
0
  6
CONTINUOUS
 62
     0
 10
-66.475461153654976
 20
-99.175000000003806
 30
0.0
 11
-34.274999983956768
 21
-66.97453883030559
 31
0.0
  0
LINE
  5
4792
  8
0
  6
CONTINUOUS
 62
     0
 10
-70.965589214189549
 20
-99.175000000003806
 30
0.0
 11
-34.274999983956761
 21
-62.48441076977101
 31
0.0
  0
LINE
  5
4793
  8
0
  6
CONTINUOUS
 62
     0
 10
-75.455717274724122
 20
-99.175000000003806
 30
0.0
 11
-34.274999983956768
 21
-57.994282709236451
 31
0.0
  0
LINE
  5
4794
  8
0
  6
CONTINUOUS
 62
     0
 10
-79.945845335258696
 20
-99.175000000003777
 30
0.0
 11
-34.274999983956761
 21
-53.504154648701864
 31
0.0
  0
LINE
  5
4795
  8
0
  6
CONTINUOUS
 62
     0
 10
-84.435973395793283
 20
-99.175000000003806
 30
0.0
 11
-34.274999983956782
 21
-49.014026588167297
 31
0.0
  0
LINE
  5
4796
  8
0
  6
CONTINUOUS
 62
     0
 10
-88.926101456327856
 20
-99.175000000003777
 30
0.0
 11
-34.274999983956782
 21
-44.52389852763271
 31
0.0
  0
LINE
  5
4797
  8
0
  6
CONTINUOUS
 62
     0
 10
-93.41622951686243
 20
-99.175000000003806
 30
0.0
 11
-34.274999983956782
 21
-40.033770467098137
 31
0.0
  0
LINE
  5
4798
  8
0
  6
CONTINUOUS
 62
     0
 10
-97.906357577397003
 20
-99.175000000003806
 30
0.0
 11
-34.274999983956782
 21
-35.543642406563571
 31
0.0
  0
LINE
  5
4799
  8
0
  6
CONTINUOUS
 62
     0
 10
-102.3964856379316
 20
-99.175000000003806
 30
0.0
 11
-34.274999983956782
 21
-31.053514346029001
 31
0.0
  0
LINE
  5
479A
  8
0
  6
CONTINUOUS
 62
     0
 10
-104.2749999839567
 20
-96.563386285494417
 30
0.0
 11
-34.274999983956789
 21
-26.563386285494431
 31
0.0
  0
LINE
  5
479B
  8
0
  6
CONTINUOUS
 62
     0
 10
-104.2749999839567
 20
-92.073258224959829
 30
0.0
 11
-35.37674175900073
 21
-23.175000000003791
 31
0.0
  0
LINE
  5
479C
  8
0
  6
CONTINUOUS
 62
     0
 10
-104.2749999839567
 20
-87.583130164425242
 30
0.0
 11
-39.86686981953531
 21
-23.175000000003791
 31
0.0
  0
LINE
  5
479D
  8
0
  6
CONTINUOUS
 62
     0
 10
-104.2749999839567
 20
-83.093002103890655
 30
0.0
 11
-44.356997880069883
 21
-23.175000000003791
 31
0.0
  0
LINE
  5
479E
  8
0
  6
CONTINUOUS
 62
     0
 10
-104.2749999839567
 20
-78.602874043356096
 30
0.0
 11
-48.84712594060445
 21
-23.175000000003791
 31
0.0
  0
LINE
  5
479F
  8
0
  6
CONTINUOUS
 62
     0
 10
-104.2749999839567
 20
-74.112745982821522
 30
0.0
 11
-53.33725400113903
 21
-23.175000000003791
 31
0.0
  0
LINE
  5
47A0
  8
0
  6
CONTINUOUS
 62
     0
 10
-104.2749999839567
 20
-69.622617922286935
 30
0.0
 11
-57.827382061673603
 21
-23.175000000003791
 31
0.0
  0
LINE
  5
47A1
  8
0
  6
CONTINUOUS
 62
     0
 10
-104.2749999839567
 20
-65.132489861752376
 30
0.0
 11
-62.317510122208191
 21
-23.175000000003791
 31
0.0
  0
LINE
  5
47A2
  8
0
  6
CONTINUOUS
 62
     0
 10
-104.2749999839567
 20
-60.642361801217788
 30
0.0
 11
-66.80763818274275
 21
-23.175000000003791
 31
0.0
  0
LINE
  5
47A3
  8
0
  6
CONTINUOUS
 62
     0
 10
-104.2749999839567
 20
-56.152233740683222
 30
0.0
 11
-71.297766243277323
 21
-23.175000000003791
 31
0.0
  0
LINE
  5
47A4
  8
0
  6
CONTINUOUS
 62
     0
 10
-104.2749999839567
 20
-51.662105680148642
 30
0.0
 11
-75.78789430381191
 21
-23.175000000003791
 31
0.0
  0
LINE
  5
47A5
  8
0
  6
CONTINUOUS
 62
     0
 10
-104.2749999839567
 20
-47.171977619614047
 30
0.0
 11
-80.278022364346484
 21
-23.175000000003781
 31
0.0
  0
LINE
  5
47A6
  8
0
  6
CONTINUOUS
 62
     0
 10
-104.2749999839567
 20
-42.681849559079488
 30
0.0
 11
-84.768150424881071
 21
-23.175000000003791
 31
0.0
  0
LINE
  5
47A7
  8
0
  6
CONTINUOUS
 62
     0
 10
-104.2749999839567
 20
-38.191721498544908
 30
0.0
 11
-89.258278485415644
 21
-23.175000000003791
 31
0.0
  0
LINE
  5
47A8
  8
0
  6
CONTINUOUS
 62
     0
 10
-104.2749999839567
 20
-33.701593438010349
 30
0.0
 11
-93.748406545950218
 21
-23.175000000003791
 31
0.0
  0
LINE
  5
47A9
  8
0
  6
CONTINUOUS
 62
     0
 10
-104.2749999839567
 20
-29.211465377475761
 30
0.0
 11
-98.238534606484791
 21
-23.175000000003791
 31
0.0
  0
LINE
  5
47AA
  8
0
  6
CONTINUOUS
 62
     0
 10
-104.2749999839567
 20
-24.721337316941181
 30
0.0
 11
-102.72866266701929
 21
-23.175000000003791
 31
0.0
  0
ENDBLK
  5
47AC
  8
0
  0
BLOCK
  8
0
  2
*U38
 70
     1
 10
0.0
 20
0.0
 30
0.0
  3
*U38
  1

  0
TEXT
  5
47B8
  8
0
  6
CONTINUOUS
 62
     0
 10
-11.56106141038036
 20
25.305778597371809
 30
0.0
 40
4.4000000000000004
  1
35mm min.
 50
90.0
  7
SPECI
  0
ENDBLK
  5
47BA
  8
0
  0
BLOCK
  8
0
  2
*U39
 70
     1
 10
0.0
 20
0.0
 30
0.0
  3
*U39
  1

  0
TEXT
  5
47BC
  8
0
  6
CONTINUOUS
 10
123.6730588452677
 20
6.0224132766436256
 30
0.0
 40
4.4000000000000004
  1
7.5
 50
90.0
  7
SPECI
  0
ENDBLK
  5
47BE
  8
0
  0
ENDSEC
  0
SECTION
  2
ENTITIES
  0
POLYLINE
  5
28D3
  8
0
 66
     1
 10
0.0
 20
0.0
 30
0.0
  0
VERTEX
  5
428A
  8
0
 10
102.7250000160434
 20
206.33301294647791
 30
0.0
  0
VERTEX
  5
428B
  8
0
 10
102.7250000160434
 20
-15.17499999999961
 30
0.0
  0
VERTEX
  5
428C
  8
0
 10
112.7250000160434
 20
-15.17499999999961
 30
0.0
  0
VERTEX
  5
428D
  8
0
 10
112.7250000160434
 20
206.33301294647791
 30
0.0
  0
SEQEND
  5
428E
  8
0
  0
POLYLINE
  5
28D5
  8
0
 10
94.528803329915235
 20
-2.4860222666579594
 30
0.0
 66
     1
 70
     8
  0
VERTEX
  8
0
  5
47BF
 10
94.5288
 20
-2.48602
 30
0.000000
  70
    32
  0
VERTEX
  8
0
  5
47C0
 10
94.4582
 20
-2.60286
 30
0.000000
  70
    32
  0
VERTEX
  8
0
  5
47C1
 10
94.3958
 20
-2.72470
 30
0.000000
  70
    32
  0
VERTEX
  8
0
  5
47C2
 10
94.3417
 20
-2.85123
 30
0.000000
  70
    32
  0
VERTEX
  8
0
  5
47C3
 10
94.2962
 20
-2.98215
 30
0.000000
  70
    32
  0
VERTEX
  8
0
  5
47C4
 10
94.2594
 20
-3.11716
 30
0.000000
  70
    32
  0
VERTEX
  8
0
  5
47C5
 10
94.2312
 20
-3.25591
 30
0.000000
  70
    32
  0
VERTEX
  8
0
  5
47C6
 10
94.2118
 20
-3.39809
 30
0.000000
  70
    32
  0
VERTEX
  8
0
  5
47C7
 10
94.2013
 20
-3.54334
 30
0.000000
  70
    32
  0
VERTEX
  8
0
  5
47C8
 10
94.1996
 20
-3.69132
 30
0.000000
  70
    32
  0
VERTEX
  8
0
  5
47C9
 10
94.2067
 20
-3.84167
 30
0.000000
  70
    32
  0
VERTEX
  8
0
  5
47CA
 10
94.2228
 20
-3.99402
 30
0.000000
  70
    32
  0
VERTEX
  8
0
  5
47CB
 10
94.2476
 20
-4.14802
 30
0.000000
  70
    32
  0
VERTEX
  8
0
  5
47CC
 10
94.2811
 20
-4.30328
 30
0.000000
  70
    32
  0
VERTEX
  8
0
  5
47CD
 10
94.3233
 20
-4.45944
 30
0.000000
  70
    32
  0
VERTEX
  8
0
  5
47CE
 10
94.3741
 20
-4.61612
 30
0.000000
  70
    32
  0
VERTEX
  8
0
  5
47CF
 10
94.4333
 20
-4.77294
 30
0.000000
  70
    32
  0
VERTEX
  8
0
  5
47D0
 10
94.5008
 20
-4.92953
 30
0.000000
  70
    32
  0
VERTEX
  8
0
  5
47D1
 10
94.5764
 20
-5.08550
 30
0.000000
  70
    32
  0
VERTEX
  8
0
  5
47D2
 10
94.6600
 20
-5.24049
 30
0.000000
  70
    32
  0
VERTEX
  8
0
  5
47D3
 10
94.7514
 20
-5.39411
 30
0.000000
  70
    32
  0
VERTEX
  8
0
  5
47D4
 10
94.8502
 20
-5.54600
 30
0.000000
  70
    32
  0
VERTEX
  8
0
  5
47D5
 10
94.9564
 20
-5.69579
 30
0.000000
  70
    32
  0
VERTEX
  8
0
  5
47D6
 10
95.0696
 20
-5.84312
 30
0.000000
  70
    32
  0
VERTEX
  8
0
  5
47D7
 10
95.1896
 20
-5.98764
 30
0.000000
  70
    32
  0
VERTEX
  8
0
  5
47D8
 10
95.3160
 20
-6.12899
 30
0.000000
  70
    32
  0
VERTEX
  8
0
  5
47D9
 10
95.4486
 20
-6.26684
 30
0.000000
  70
    32
  0
VERTEX
  8
0
  5
47DA
 10
95.5870
 20
-6.40086
 30
0.000000
  70
    32
  0
VERTEX
  8
0
  5
47DB
 10
95.7310
 20
-6.53072
 30
0.000000
  70
    32
  0
VERTEX
  8
0
  5
47DC
 10
95.8801
 20
-6.65611
 30
0.000000
  70
    32
  0
VERTEX
  8
0
  5
47DD
 10
96.0341
 20
-6.77673
 30
0.000000
  70
    32
  0
VERTEX
  8
0
  5
47DE
 10
96.1925
 20
-6.89228
 30
0.000000
  70
    32
  0
VERTEX
  8
0
  5
47DF
 10
96.3549
 20
-7.00249
 30
0.000000
  70
    32
  0
VERTEX
  8
0
  5
47E0
 10
96.5210
 20
-7.10709
 30
0.000000
  70
    32
  0
VERTEX
  8
0
  5
47E1
 10
96.6904
 20
-7.20584
 30
0.000000
  70
    32
  0
VERTEX
  8
0
  5
47E2
 10
96.8626
 20
-7.29849
 30
0.000000
  70
    32
  0
VERTEX
  8
0
  5
47E3
 10
97.0373
 20
-7.38482
 30
0.000000
  70
    32
  0
VERTEX
  8
0
  5
47E4
 10
97.2140
 20
-7.46462
 30
0.000000
  70
    32
  0
VERTEX
  8
0
  5
47E5
 10
97.3923
 20
-7.53770
 30
0.000000
  70
    32
  0
VERTEX
  8
0
  5
47E6
 10
97.5717
 20
-7.60388
 30
0.000000
  70
    32
  0
VERTEX
  8
0
  5
47E7
 10
97.7519
 20
-7.66301
 30
0.000000
  70
    32
  0
VERTEX
  8
0
  5
47E8
 10
97.9324
 20
-7.71493
 30
0.000000
  70
    32
  0
VERTEX
  8
0
  5
47E9
 10
98.1128
 20
-7.75954
 30
0.000000
  70
    32
  0
VERTEX
  8
0
  5
47EA
 10
98.2926
 20
-7.79671
 30
0.000000
  70
    32
  0
VERTEX
  8
0
  5
47EB
 10
98.4714
 20
-7.82637
 30
0.000000
  70
    32
  0
VERTEX
  8
0
  5
47EC
 10
98.6487
 20
-7.84843
 30
0.000000
  70
    32
  0
VERTEX
  8
0
  5
47ED
 10
98.8242
 20
-7.86285
 30
0.000000
  70
    32
  0
VERTEX
  8
0
  5
47EE
 10
98.9974
 20
-7.86958
 30
0.000000
  70
    32
  0
VERTEX
  8
0
  5
47EF
 10
99.1679
 20
-7.86863
 30
0.000000
  70
    32
  0
VERTEX
  8
0
  5
47F0
 10
99.3353
 20
-7.85997
 30
0.000000
  70
    32
  0
VERTEX
  8
0
  5
47F1
 10
99.4992
 20
-7.84365
 30
0.000000
  70
    32
  0
VERTEX
  8
0
  5
47F2
 10
99.6592
 20
-7.81969
 30
0.000000
  70
    32
  0
VERTEX
  8
0
  5
47F3
 10
99.8149
 20
-7.78815
 30
0.000000
  70
    32
  0
VERTEX
  8
0
  5
47F4
 10
99.9659
 20
-7.74912
 30
0.000000
  70
    32
  0
VERTEX
  8
0
  5
47F5
 10
100.112
 20
-7.70268
 30
0.000000
  70
    32
  0
VERTEX
  8
0
  5
47F6
 10
100.252
 20
-7.64894
 30
0.000000
  70
    32
  0
VERTEX
  8
0
  5
47F7
 10
100.387
 20
-7.58804
 30
0.000000
  70
    32
  0
VERTEX
  8
0
  5
47F8
 10
100.516
 20
-7.52013
 30
0.000000
  70
    32
  0
VERTEX
  8
0
  5
47F9
 10
100.639
 20
-7.44536
 30
0.000000
  70
    32
  0
VERTEX
  8
0
  5
47FA
 10
100.754
 20
-7.36391
 30
0.000000
  70
    32
  0
VERTEX
  8
0
  5
47FB
 10
100.863
 20
-7.27599
 30
0.000000
  70
    32
  0
VERTEX
  8
0
  5
47FC
 10
100.965
 20
-7.18180
 30
0.000000
  70
    32
  0
VERTEX
  8
0
  5
47FD
 10
101.059
 20
-7.08157
 30
0.000000
  70
    32
  0
VERTEX
  8
0
  5
47FE
 10
101.146
 20
-6.97555
 30
0.000000
  70
    32
  0
VERTEX
  8
0
  5
47FF
 10
101.225
 20
-6.86398
 30
0.000000
  70
    32
  0
VERTEX
  8
0
  5
4800
 10
101.295
 20
-6.74714
 30
0.000000
  70
    32
  0
VERTEX
  8
0
  5
4801
 10
101.358
 20
-6.62530
 30
0.000000
  70
    32
  0
VERTEX
  8
0
  5
4802
 10
101.412
 20
-6.49877
 30
0.000000
  70
    32
  0
VERTEX
  8
0
  5
4803
 10
101.457
 20
-6.36785
 30
0.000000
  70
    32
  0
VERTEX
  8
0
  5
4804
 10
101.494
 20
-6.23284
 30
0.000000
  70
    32
  0
VERTEX
  8
0
  5
4805
 10
101.522
 20
-6.09409
 30
0.000000
  70
    32
  0
VERTEX
  8
0
  5
4806
 10
101.542
 20
-5.95191
 30
0.000000
  70
    32
  0
VERTEX
  8
0
  5
4807
 10
101.552
 20
-5.80666
 30
0.000000
  70
    32
  0
VERTEX
  8
0
  5
4808
 10
101.554
 20
-5.65868
 30
0.000000
  70
    32
  0
VERTEX
  8
0
  5
4809
 10
101.547
 20
-5.50833
 30
0.000000
  70
    32
  0
VERTEX
  8
0
  5
480A
 10
101.531
 20
-5.35598
 30
0.000000
  70
    32
  0
VERTEX
  8
0
  5
480B
 10
101.506
 20
-5.20198
 30
0.000000
  70
    32
  0
VERTEX
  8
0
  5
480C
 10
101.472
 20
-5.04672
 30
0.000000
  70
    32
  0
VERTEX
  8
0
  5
480D
 10
101.430
 20
-4.89056
 30
0.000000
  70
    32
  0
VERTEX
  8
0
  5
480E
 10
101.379
 20
-4.73388
 30
0.000000
  70
    32
  0
VERTEX
  8
0
  5
480F
 10
101.320
 20
-4.57706
 30
0.000000
  70
    32
  0
VERTEX
  8
0
  5
4810
 10
101.253
 20
-4.42047
 30
0.000000
  70
    32
  0
VERTEX
  8
0
  5
4811
 10
101.177
 20
-4.26450
 30
0.000000
  70
    32
  0
VERTEX
  8
0
  5
4812
 10
101.093
 20
-4.10951
 30
0.000000
  70
    32
  0
VERTEX
  8
0
  5
4813
 10
101.002
 20
-3.95589
 30
0.000000
  70
    32
  0
VERTEX
  8
0
  5
4814
 10
100.903
 20
-3.80400
 30
0.000000
  70
    32
  0
VERTEX
  8
0
  5
4815
 10
100.797
 20
-3.65421
 30
0.000000
  70
    32
  0
VERTEX
  8
0
  5
4816
 10
100.684
 20
-3.50688
 30
0.000000
  70
    32
  0
VERTEX
  8
0
  5
4817
 10
100.564
 20
-3.36236
 30
0.000000
  70
    32
  0
VERTEX
  8
0
  5
4818
 10
100.437
 20
-3.22101
 30
0.000000
  70
    32
  0
VERTEX
  8
0
  5
4819
 10
100.305
 20
-3.08316
 30
0.000000
  70
    32
  0
VERTEX
  8
0
  5
481A
 10
100.166
 20
-2.94914
 30
0.000000
  70
    32
  0
VERTEX
  8
0
  5
481B
 10
100.022
 20
-2.81928
 30
0.000000
  70
    32
  0
VERTEX
  8
0
  5
481C
 10
99.8733
 20
-2.69389
 30
0.000000
  70
    32
  0
VERTEX
  8
0
  5
481D
 10
99.7193
 20
-2.57327
 30
0.000000
  70
    32
  0
VERTEX
  8
0
  5
481E
 10
99.5609
 20
-2.45772
 30
0.000000
  70
    32
  0
VERTEX
  8
0
  5
481F
 10
99.3985
 20
-2.34751
 30
0.000000
  70
    32
  0
VERTEX
  8
0
  5
4820
 10
99.2324
 20
-2.24291
 30
0.000000
  70
    32
  0
VERTEX
  8
0
  5
4821
 10
99.0630
 20
-2.14416
 30
0.000000
  70
    32
  0
VERTEX
  8
0
  5
4822
 10
98.8908
 20
-2.05151
 30
0.000000
  70
    32
  0
VERTEX
  8
0
  5
4823
 10
98.7161
 20
-1.96518
 30
0.000000
  70
    32
  0
VERTEX
  8
0
  5
4824
 10
98.5394
 20
-1.88538
 30
0.000000
  70
    32
  0
VERTEX
  8
0
  5
4825
 10
98.3611
 20
-1.81230
 30
0.000000
  70
    32
  0
VERTEX
  8
0
  5
4826
 10
98.1817
 20
-1.74612
 30
0.000000
  70
    32
  0
VERTEX
  8
0
  5
4827
 10
98.0015
 20
-1.68699
 30
0.000000
  70
    32
  0
VERTEX
  8
0
  5
4828
 10
97.8210
 20
-1.63507
 30
0.000000
  70
    32
  0
VERTEX
  8
0
  5
4829
 10
97.6406
 20
-1.59046
 30
0.000000
  70
    32
  0
VERTEX
  8
0
  5
482A
 10
97.4608
 20
-1.55329
 30
0.000000
  70
    32
  0
VERTEX
  8
0
  5
482B
 10
97.2820
 20
-1.52363
 30
0.000000
  70
    32
  0
VERTEX
  8
0
  5
482C
 10
97.1047
 20
-1.50157
 30
0.000000
  70
    32
  0
VERTEX
  8
0
  5
482D
 10
96.9292
 20
-1.48715
 30
0.000000
  70
    32
  0
VERTEX
  8
0
  5
482E
 10
96.7560
 20
-1.48042
 30
0.000000
  70
    32
  0
VERTEX
  8
0
  5
482F
 10
96.5855
 20
-1.48137
 30
0.000000
  70
    32
  0
VERTEX
  8
0
  5
4830
 10
96.4180
 20
-1.49003
 30
0.000000
  70
    32
  0
VERTEX
  8
0
  5
4831
 10
96.2542
 20
-1.50635
 30
0.000000
  70
    32
  0
VERTEX
  8
0
  5
4832
 10
96.0942
 20
-1.53031
 30
0.000000
  70
    32
  0
VERTEX
  8
0
  5
4833
 10
95.9385
 20
-1.56185
 30
0.000000
  70
    32
  0
VERTEX
  8
0
  5
4834
 10
95.7875
 20
-1.60088
 30
0.000000
  70
    32
  0
VERTEX
  8
0
  5
4835
 10
95.6415
 20
-1.64732
 30
0.000000
  70
    32
  0
VERTEX
  8
0
  5
4836
 10
95.5009
 20
-1.70106
 30
0.000000
  70
    32
  0
VERTEX
  8
0
  5
4837
 10
95.3660
 20
-1.76196
 30
0.000000
  70
    32
  0
VERTEX
  8
0
  5
4838
 10
95.2372
 20
-1.82987
 30
0.000000
  70
    32
  0
VERTEX
  8
0
  5
4839
 10
95.1147
 20
-1.90464
 30
0.000000
  70
    32
  0
VERTEX
  8
0
  5
483A
 10
94.9989
 20
-1.98609
 30
0.000000
  70
    32
  0
VERTEX
  8
0
  5
483B
 10
94.8900
 20
-2.07401
 30
0.000000
  70
    32
  0
VERTEX
  8
0
  5
483C
 10
94.7883
 20
-2.16820
 30
0.000000
  70
    32
  0
VERTEX
  8
0
  5
483D
 10
94.6941
 20
-2.26843
 30
0.000000
  70
    32
  0
VERTEX
  8
0
  5
483E
 10
94.6075
 20
-2.37445
 30
0.000000
  70
    32
  0
VERTEX
  8
0
  5
483F
 10
94.5288
 20
-2.48602
 30
0.000000
  70
    32
  0
SEQEND
  8
0
  5
4840
  0
POLYLINE
  5
28D7
  8
0
 66
     1
 10
0.0
 20
0.0
 30
0.0
  0
VERTEX
  5
428F
  8
0
 10
-108.69686961977629
 20
206.33301294647791
 30
0.0
  0
VERTEX
  5
4290
  8
0
 10
-108.112584588687
 20
201.0568261906302
 30
0.0
  0
VERTEX
  5
4291
  8
0
 10
-108.6214183223899
 20
195.5650662848808
 30
0.0
  0
VERTEX
  5
4292
  8
0
 10
-108.2887416750184
 20
191.56401856554459
 30
0.0
  0
VERTEX
  5
4293
  8
0
 10
-108.2887416750184
 20
189.20658918271749
 30
0.0
  0
VERTEX
  5
4294
  8
0
 10
-108.92385659356221
 20
185.670447875283
 30
0.0
  0
VERTEX
  5
4295
  8
0
 10
-108.2887416750184
 20
182.67832703046619
 30
0.0
  0
VERTEX
  5
4296
  8
0
 10
-108.6516661784465
 20
177.41944780219399
 30
0.0
  0
VERTEX
  5
4297
  8
0
 10
-109.3269804337008
 20
170.5038355769808
 30
0.0
  0
VERTEX
  5
4298
  8
0
 10
-108.5567656926607
 20
164.21793317955721
 30
0.0
  0
VERTEX
  5
4299
  8
0
 10
-109.58372105067861
 20
158.5734483495051
 30
0.0
  0
VERTEX
  5
429A
  8
0
 10
-109.1986113101941
 20
153.31381655000141
 30
0.0
  0
VERTEX
  5
429B
  8
0
 10
-110.4823049152248
 20
148.4390350142402
 30
0.0
  0
VERTEX
  5
429C
  8
0
 10
-108.5567656926607
 20
143.9491037422211
 30
0.0
  0
VERTEX
  5
429D
  8
0
 10
-109.7247908135807
 20
137.4746407492045
 30
0.0
  0
VERTEX
  5
429E
  8
0
 10
-108.935358030955
 20
132.8538976563899
 30
0.0
  0
VERTEX
  5
429F
  8
0
 10
-109.1609099159962
 20
126.65534055752789
 30
0.0
  0
VERTEX
  5
42A0
  8
0
 10
-109.7247908135807
 20
121.5837934629854
 30
0.0
  0
VERTEX
  5
42A1
  8
0
 10
-109.1609099159962
 20
118.09006037449041
 30
0.0
  0
VERTEX
  5
42A2
  8
0
 10
-109.3864618010373
 20
113.3566169729453
 30
0.0
  0
VERTEX
  5
42A3
  8
0
 10
-109.6770776016355
 20
107.2577389100295
 30
0.0
  0
VERTEX
  5
42A4
  8
0
 10
-108.935358030955
 20
102.8754190908631
 30
0.0
  0
VERTEX
  5
42A5
  8
0
 10
-110.2886717111657
 20
99.607089386635039
 30
0.0
  0
VERTEX
  5
42A6
  8
0
 10
-109.1494748376074
 20
98.610891203111009
 30
0.0
  0
VERTEX
  5
42A7
  8
0
 10
-109.6396664310812
 20
90.773059653157475
 30
0.0
  0
VERTEX
  5
42A8
  8
0
 10
-110.7296107037953
 20
86.56401729289621
 30
0.0
  0
VERTEX
  5
42A9
  8
0
 10
-109.72161980116989
 20
82.422822549326042
 30
0.0
  0
VERTEX
  5
42AA
  8
0
 10
-110.4904939570412
 20
76.043146179603696
 30
0.0
  0
VERTEX
  5
42AB
  8
0
 10
-109.7076947048628
 20
68.483305312124571
 30
0.0
  0
VERTEX
  5
42AC
  8
0
 10
-109.7076947048628
 20
63.505662229762827
 30
0.0
  0
VERTEX
  5
42AD
  8
0
 10
-111.13082516730189
 20
58.350246328395663
 30
0.0
  0
VERTEX
  5
42AE
  8
0
 10
-109.8855842351942
 20
55.32810563849705
 30
0.0
  0
VERTEX
  5
42AF
  8
0
 10
-109.3519109042706
 20
46.43945638780621
 30
0.0
  0
VERTEX
  5
42B0
  8
0
 10
-110.4192599360823
 20
41.284040486439032
 30
0.0
  0
VERTEX
  5
42B1
  8
0
 10
-109.8057235436997
 20
36.611537370410467
 30
0.0
  0
VERTEX
  5
42B2
  8
0
 10
-108.84827924249809
 20
33.327174025422103
 30
0.0
  0
VERTEX
  5
42B3
  8
0
 10
-109.7101732951472
 20
29.428190610144611
 30
0.0
  0
VERTEX
  5
42B4
  8
0
 10
-108.8323773951584
 20
26.476248935797461
 30
0.0
  0
VERTEX
  5
42B5
  8
0
 10
-109.4004824473426
 20
21.479584456523529
 30
0.0
  0
VERTEX
  5
42B6
  8
0
 10
-109.6253801400612
 20
17.414186516422259
 30
0.0
  0
VERTEX
  5
42B7
  8
0
 10
-108.560361495514
 20
15.40187822496369
 30
0.0
  0
VERTEX
  5
42B8
  8
0
 10
-107.63822118640221
 20
12.97578048504908
 30
0.0
  0
VERTEX
  5
42B9
  8
0
 10
-107.1600974518207
 20
9.5355809424130484
 30
0.0
  0
VERTEX
  5
42BA
  8
0
 10
-107.5580618793889
 20
5.6633958290468618
 30
0.0
  0
VERTEX
  5
42BB
  8
0
 10
-107.437546818013
 20
3.375133829372202
 30
0.0
  0
VERTEX
  5
42BC
  8
0
 10
-107.0760016338847
 20
2.110569298039195
 30
0.0
  0
VERTEX
  5
42BD
  8
0
 10
-106.9785393376003
 20
1.1463786795152371
 30
0.0
  0
VERTEX
  5
42BE
  8
0
 10
-106.9785393376003
 20
1.1463786795152371
 30
0.0
  0
VERTEX
  5
42BF
  8
0
 10
-107.5377016359991
 20
-1.4613152228769191
 30
0.0
  0
VERTEX
  5
42C0
  8
0
 10
-107.2115234311029
 20
-4.0224437803169621
 30
0.0
  0
VERTEX
  5
42C1
  8
0
 10
-107.25812167178189
 20
-6.2576093894801943
 30
0.0
  0
VERTEX
  5
42C2
  8
0
 10
-106.1955078289072
 20
-11.294018047843791
 30
0.0
  0
VERTEX
  5
42C3
  8
0
 10
-107.23167049874679
 20
-13.586849427624649
 30
0.0
  0
VERTEX
  5
42C4
  8
0
 10
-106.7876007831012
 20
-17.284965091814229
 30
0.0
  0
VERTEX
  5
42C5
  8
0
 10
-106.7876007831012
 20
-20.021570019281171
 30
0.0
  0
VERTEX
  5
42C6
  8
0
 10
-107.8977750722149
 20
-23.941573840716728
 30
0.0
  0
VERTEX
  5
42C7
  8
0
 10
-106.9356240216496
 20
-28.897047890016669
 30
0.0
  0
VERTEX
  5
42C8
  8
0
 10
-107.62742137953479
 20
-36.626679341196109
 30
0.0
  0
VERTEX
  5
42C9
  8
0
 10
-106.97269500530891
 20
-41.599290986849951
 30
0.0
  0
VERTEX
  5
42CA
  8
0
 10
-107.62742137953479
 20
-46.506473204254803
 30
0.0
  0
VERTEX
  5
42CB
  8
0
 10
-106.86429283214891
 20
-52.06156529930638
 30
0.0
  0
VERTEX
  5
42CC
  8
0
 10
-107.1717127685595
 20
-57.745052410114219
 30
0.0
  0
VERTEX
  5
42CD
  8
0
 10
-106.5389014554441
 20
-63.459439210311423
 30
0.0
  0
VERTEX
  5
42CE
  8
0
 10
-107.04773518914701
 20
-68.95119911606082
 30
0.0
  0
VERTEX
  5
42CF
  8
0
 10
-106.71505854177551
 20
-72.952246835396977
 30
0.0
  0
VERTEX
  5
42D0
  8
0
 10
-106.71505854177551
 20
-75.309676218224126
 30
0.0
  0
VERTEX
  5
42D1
  8
0
 10
-107.3501734603194
 20
-78.845817525658603
 30
0.0
  0
VERTEX
  5
42D2
  8
0
 10
-106.71505854177551
 20
-81.837938370475399
 30
0.0
  0
VERTEX
  5
42D3
  8
0
 10
-107.0779830452036
 20
-87.096817598747634
 30
0.0
  0
VERTEX
  5
42D4
  8
0
 10
-107.7532973004579
 20
-94.012429823960815
 30
0.0
  0
VERTEX
  5
42D5
  8
0
 10
-106.98308255941789
 20
-100.2983322213844
 30
0.0
  0
VERTEX
  5
42D6
  8
0
 10
-108.0100379174357
 20
-105.94281705143641
 30
0.0
  0
VERTEX
  5
42D7
  8
0
 10
-107.6249281769512
 20
-111.2024488509402
 30
0.0
  0
VERTEX
  5
42D8
  8
0
 10
-108.90862178198201
 20
-116.0772303867014
 30
0.0
  0
VERTEX
  5
42D9
  8
0
 10
-108.3395522652538
 20
-117.4041745430027
 30
0.0
  0
SEQEND
  5
42DA
  8
0
  0
POLYLINE
  5
28D8
  8
0
 66
     1
 10
0.0
 20
0.0
 30
0.0
  0
VERTEX
  5
42DB
  8
0
 10
8.1008526192276165
 20
206.33301294647791
 30
0.0
  0
VERTEX
  5
42DC
  8
0
 10
8.1008526192276165
 20
60.866624436389543
 30
0.0
  0
VERTEX
  5
42DD
  8
0
 10
6.4767052224118444
 20
55.800664887059838
 30
0.0
  0
VERTEX
  5
42DE
  8
0
 10
6.4767052224118444
 20
30.800664887059838
 30
0.0
  0
SEQEND
  5
42DF
  8
0
  0
POLYLINE
  5
28D9
  8
0
 66
     1
 10
0.0
 20
0.0
 30
0.0
  0
VERTEX
  5
42E0
  8
0
 10
122.72500001604431
 20
-26.675000000000519
 30
0.0
  0
VERTEX
  5
42E1
  8
0
 10
122.72500001604421
 20
-117.4041745430028
 30
0.0
  0
SEQEND
  5
42E2
  8
0
  0
POLYLINE
  5
28DA
  8
0
 66
     1
 10
0.0
 20
0.0
 30
0.0
  0
VERTEX
  5
42E3
  8
0
 10
10.7250000160433
 20
189.8250000000026
 30
0.0
  0
VERTEX
  5
42E4
  8
0
 10
10.7250000160433
 20
206.33301294647791
 30
0.0
  0
SEQEND
  5
42E5
  8
0
  0
POLYLINE
  5
28DB
  8
0
 66
     1
 10
0.0
 20
0.0
 30
0.0
  0
VERTEX
  5
42E6
  8
0
 10
100.7250000160434
 20
189.8250000000009
 30
0.0
  0
VERTEX
  5
42E7
  8
0
 10
100.7250000160434
 20
206.33301294647791
 30
0.0
  0
SEQEND
  5
42E8
  8
0
  0
DIMENSION
  5
28EC
  8
0
  2
*D8
 10
125.74809295167969
 20
-8.1749999999996223
 30
0.0
 11
125.74809295167969
 21
10.317365527666819
 31
0.0
 70
   128
  1
7.5
 13
100.7250000160434
 23
-0.174999999999045
 33
0.0
 14
92.725000016043253
 24
-8.1749999999996135
 34
0.0
 50
90.0
  0
INSERT
  5
28ED
  8
0
  6
CONTINUOUS
  2
*X13
 10
0.0
 20
0.0
 30
0.0
1001
ACAD
1000
HATCH
1002
{
1070
    19
1000
ANSI31
1040
1.0
1040
0.0
1000
R14_HATCH_DATA
1000
28ED
1011
1.0
1021
0.0
1031
0.0
1021
0.0
1031
0.0
1011
0.0
1021
0.0
1031
0.0
1021
1.0
1031
0.0
1011
0.0
1021
0.0
1031
0.0
1021
0.0
1031
1.0
1040
0.0
1010
0.0
1020
0.0
1030
1.0
1000
ANSI31
1070
     0
1070
     0
1071
        2
1071
        7
1070
     1
1070
     1
1071
       25
1040
-34.288050465051981
1040
6.5706435652377868
1040
-0.4949021304146216
1040
-35.236801768146137
1040
6.4699167782617897
1040
-0.1103502097449063
1040
-35.839777934875293
1040
7.4812499999981119
1040
0.3239071714294498
1040
-36.314736814674887
1040
7.8249999999985667
1040
0.0
1040
-36.87499998395888
1040
7.8249999999985667
1040
-1.0
1040
-36.87499998395888
1040
8.8249999999967486
1040
0.0
1040
-36.314736814673267
1040
8.8249999999967486
1040
0.3239071714290708
1040
-35.839777934874263
1040
9.1687499999962938
1040
-0.0700097239663397
1040
-35.507352652669063
1040
9.8437499999964757
1040
0.6022205876859262
1040
-35.920751295022171
1040
10.62499999999579
1040
0.0
1040
-37.27499998396064
1040
10.624999999995561
1040
0.4142135623730459
1040
-39.0749999839596
1040
8.8249999999962938
1040
0.0
1040
-39.0749999839596
1040
3.3996211250604338
1040
-0.4999999999699293
1040
-39.0749999839596
1040
2.5996211250989059
1040
0.0
1040
-39.074999983957781
1040
-3.6503788749197379
1040
0.0
1040
-37.124688881731892
1040
-3.6503788749197379
1040
0.0
1040
-37.357962897100997
1040
-2.7797883974698152
1040
-1.0
1040
-36.392037070813252
1040
-2.5209693523692058
1040
0.0
1040
-36.158763055444183
1040
-3.3915598298195841
1040
-0.4931454260306726
1040
-37.124688881733881
1040
-4.6503788749199648
1040
0.0
1040
-39.074999983954143
1040
-4.6503788749197383
1040
0.0
1040
-39.074999983954143
1040
-6.7189733124347413
1040
0.1763269807084639
1040
-38.419924424687451
1040
-8.5187786195565423
1040
0.0
1040
-34.512890781674521
1040
-13.175000000003701
1040
0.0
1040
-34.274999983956747
1040
-13.175000000003701
1040
0.0
1071
        0
1071
        7
1070
     1
1070
     1
1071
       24
1040
-34.297048483031148
1040
20.184827940020451
1040
0.0
1040
-36.48923592926829
1040
19.944851011289192
1040
0.0
1040
-39.034836548135132
1040
20.208132015586671
1040
0.0
1040
-41.010803043973453
1040
19.436816230130031
1040
0.0
1040
-45.921039289007886
1040
17.741666672511428
1040
0.0
1040
-52.013492836468117
1040
18.64560637231898
1040
0.0
1040
-57.740628339312792
1040
18.394085180068831
1040
0.0
1040
-65.5192766983902
1040
16.052162998911399
1040
0.0
1040
-70.583315238388337
1040
16.831263212820311
1040
0.0
1040
-73.164383310137083
1040
16.03058937294179
1040
0.0
1040
-77.941110287046371
1040
15.088609455513501
1040
0.0
1040
-83.45605198476423
1040
15.09864162242741
1040
0.0
1040
-87.392769817218706
1040
13.907648889673389
1040
0.0
1040
-93.187043575394767
1040
14.31998695244374
1040
0.0
1040
-97.55020746117853
1040
13.31438052620922
1040
0.0
1040
-100.3599437937757
1040
14.265163798778071
1040
0.0
1040
-104.2749999839567
1040
13.03811224523554
1040
0.0
1040
-104.2749999839567
1040
-13.175000000003701
1040
0.0
1040
-36.079379528872892
1040
-13.175000000003701
1040
0.0
1040
-39.339177756430701
1040
-9.2901237511796353
1040
-0.1763269807083787
1040
-40.274999983954856
1040
-6.7189733124346267
1040
0.0
1040
-40.274999983960328
1040
8.8249999999952706
1040
-0.414213562373269
1040
-37.274999983959617
1040
11.82499999999629
1040
0.0
1040
-34.291523224959413
1040
11.82499999999561
1040
0.0
1071
        0
1070
     0
1070
     1
1040
0.0
1040
1.0
1070
     0
1070
     1
1040
0.7853981633974483
1040
-36.453512624025556
1040
1.2795759956078421
1040
-2.2450640302672871
1040
2.245064030267288
1070
     0
1040
0.144032074437741
1071
        6
1040
-36.453512624025556
1040
1.2795759956078421
1040
0.0
1040
-69.162618479155128
1040
15.1066554705302
1040
0.0
1040
-54.054457229177892
1040
7.5512574179882668
1040
0.0
1040
-57.224944919541997
1040
5.6369181668927686
1040
0.0
1040
-57.347673707435717
1040
11.42867354276825
1040
0.0
1040
-71.566673656869682
1040
26.632919526356659
1040
0.0
1002
}
  0
POLYLINE
  5
28EE
  8
0
 66
     1
 10
0.0
 20
0.0
 30
0.0
  0
VERTEX
  5
4309
  8
0
 10
-34.297048483031148
 20
20.184827940020451
 30
0.0
  0
VERTEX
  5
430A
  8
0
 10
-34.274999983956747
 20
-13.175000000003701
 30
0.0
  0
VERTEX
  5
430B
  8
0
 10
-104.2749999839567
 20
-13.175000000003701
 30
0.0
  0
VERTEX
  5
430C
  8
0
 10
-104.2749999839567
 20
13.03811224523554
 30
0.0
  0
VERTEX
  5
430D
  8
0
 10
-104.2749999839567
 20
13.03811224523554
 30
0.0
  0
SEQEND
  5
430E
  8
0
  0
INSERT
  5
28EF
  8
0
  6
CONTINUOUS
  2
*X14
 10
0.0
 20
0.0
 30
0.0
1001
ACAD
1000
HATCH
1002
{
1070
    19
1000
ANSI31
1040
1.0
1040
0.0
1000
R14_HATCH_DATA
1000
28EF
1011
1.0
1021
0.0
1031
0.0
1021
0.0
1031
0.0
1011
0.0
1021
0.0
1031
0.0
1021
1.0
1031
0.0
1011
0.0
1021
0.0
1031
0.0
1021
0.0
1031
1.0
1040
0.0
1010
0.0
1020
0.0
1030
1.0
1000
ANSI31
1070
     0
1070
     0
1071
        1
1071
        1
1071
        4
1070
     1
1040
-104.2749999839567
1040
-117.4041745430027
1040
-34.274999983956782
1040
-117.4041745430027
1070
     1
1040
-34.274999983956747
1040
-117.4041745430027
1040
-34.274999983956747
1040
-109.17500000000371
1070
     1
1040
-34.274999983956747
1040
-109.17500000000371
1040
-104.2749999839567
1040
-109.17500000000371
1070
     1
1040
-104.2749999839567
1040
-109.17500000000371
1040
-104.2749999839567
1040
-117.4041745430027
1071
        0
1070
     0
1070
     1
1040
0.0
1040
1.0
1070
     0
1070
     1
1040
0.7853981633974483
1040
5.5837704831416772
1040
-86.174999999999613
1040
-2.2450640302672871
1040
2.245064030267288
1070
     0
1071
        1
1040
-71.566673656869682
1040
-145.36708047364331
1040
0.0
1002
}
  0
POLYLINE
  5
28F0
  8
0
 66
     1
 10
0.0
 20
0.0
 30
0.0
  0
VERTEX
  5
4324
  8
0
 10
-104.2749999839567
 20
-117.4041745430027
 30
0.0
  0
VERTEX
  5
4325
  8
0
 10
-104.2749999839567
 20
-109.17500000000371
 30
0.0
  0
VERTEX
  5
4326
  8
0
 10
-34.274999983956747
 20
-109.17500000000371
 30
0.0
  0
VERTEX
  5
4327
  8
0
 10
-34.274999983956747
 20
-117.4041745430027
 30
0.0
  0
SEQEND
  5
4328
  8
0
  0
POLYLINE
  5
28F1
  8
0
 66
     1
 10
0.0
 20
0.0
 30
0.0
 40
0.5
 41
0.5
  0
VERTEX
  5
4329
  8
0
 10
8.2267052224118444
 20
57.866624436389529
 30
0.0
  0
VERTEX
  5
432A
  8
0
 10
8.2267052224118444
 20
22.866624436389539
 30
0.0
  0
VERTEX
  5
432B
  8
0
 10
-41.274999983960377
 20
12.82499999999629
 30
0.0
  0
VERTEX
  5
432C
  8
0
 10
-41.274999983960377
 20
1.8249999999962929
 30
0.0
  0
VERTEX
  5
432D
  8
0
 10
-43.063150759545032
 20
-0.3940418790504054
 30
0.0
  0
SEQEND
  5
432E
  8
0
  0
POLYLINE
  5
28F6
  8
0
 66
     1
 10
0.0
 20
0.0
 30
0.0
  0
VERTEX
  5
432F
  8
0
 10
18.805243542299081
 20
-28.443199448167551
 30
0.0
  0
VERTEX
  5
4330
  8
0
 10
18.805243542299049
 20
-117.4041745430028
 30
0.0
  0
SEQEND
  5
4331
  8
0
  0
ARC
  5
28FA
  8
0
 10
-30.303469275837362
 20
-18.175000000003479
 30
0.0
 40
6.3853783102910189
 50
128.4603318098815
 51
231.5396681901185
  0
ARC
  5
28FB
  8
0
 10
-108.24653069207611
 20
-18.175000000003479
 30
0.0
 40
6.3853783102910189
 50
308.46033180988161
 51
51.539668190118469
  0
POLYLINE
  5
294F
  8
0
 66
     1
 10
0.0
 20
0.0
 30
0.0
  0
VERTEX
  5
4332
  8
0
 10
-107.5306459688952
 20
12.20175445935854
 30
0.0
  0
VERTEX
  5
4333
  8
0
 10
-106.9760955849835
 20
12.19153855829359
 30
0.0
  0
VERTEX
  5
4334
  8
0
 10
-106.9760955849835
 20
12.19153855829359
 30
0.0
  0
VERTEX
  5
4335
  8
0
 10
-100.3599437937757
 20
14.265163798778071
 30
0.0
  0
VERTEX
  5
4336
  8
0
 10
-97.55020746117853
 20
13.31438052620922
 30
0.0
  0
VERTEX
  5
4337
  8
0
 10
-93.187043575394767
 20
14.31998695244374
 30
0.0
  0
VERTEX
  5
4338
  8
0
 10
-87.392769817218706
 20
13.907648889673389
 30
0.0
  0
VERTEX
  5
4339
  8
0
 10
-83.45605198476423
 20
15.09864162242741
 30
0.0
  0
VERTEX
  5
433A
  8
0
 10
-77.941110287046371
 20
15.088609455513501
 30
0.0
  0
VERTEX
  5
433B
  8
0
 10
-73.164383310137083
 20
16.03058937294179
 30
0.0
  0
VERTEX
  5
433C
  8
0
 10
-70.583315238388337
 20
16.831263212820311
 30
0.0
  0
VERTEX
  5
433D
  8
0
 10
-65.5192766983902
 20
16.052162998911399
 30
0.0
  0
VERTEX
  5
433E
  8
0
 10
-57.740628339312792
 20
18.394085180068831
 30
0.0
  0
VERTEX
  5
433F
  8
0
 10
-52.013492836468117
 20
18.64560637231898
 30
0.0
  0
VERTEX
  5
4340
  8
0
 10
-45.921039289007886
 20
17.741666672511428
 30
0.0
  0
VERTEX
  5
4341
  8
0
 10
-41.010803043973418
 20
19.436816230130031
 30
0.0
  0
VERTEX
  5
4342
  8
0
 10
-39.034836548135132
 20
20.208132015586671
 30
0.0
  0
VERTEX
  5
4343
  8
0
 10
-36.48923592926829
 20
19.944851011289192
 30
0.0
  0
VERTEX
  5
4344
  8
0
 10
-34.297048483031148
 20
20.184827940020451
 30
0.0
  0
VERTEX
  5
4345
  8
0
 10
-34.297048483031148
 20
20.184827940020451
 30
0.0
  0
VERTEX
  5
4346
  8
0
 10
-34.297048483031148
 20
20.184827940020451
 30
0.0
  0
VERTEX
  5
4347
  8
0
 10
-34.297048483031148
 20
20.184827940020451
 30
0.0
  0
VERTEX
  5
4348
  8
0
 10
-34.297048483031148
 20
20.184827940020451
 30
0.0
  0
VERTEX
  5
4349
  8
0
 10
-34.297048483031148
 20
20.184827940020451
 30
0.0
  0
VERTEX
  5
434A
  8
0
 10
-34.089941701844452
 20
21.477721158833901
 30
0.0
  0
SEQEND
  5
434B
  8
0
  0
INSERT
  5
295E
  8
0
  6
CONTINUOUS
  2
*X15
 10
0.0
 20
0.0
 30
0.0
1001
ACAD
1000
HATCH
1002
{
1070
    19
1000
ANSI31
1040
1.0
1040
0.0
1000
R14_HATCH_DATA
1000
295E
1011
1.0
1021
0.0
1031
0.0
1021
0.0
1031
0.0
1011
0.0
1021
0.0
1031
0.0
1021
1.0
1031
0.0
1011
0.0
1021
0.0
1031
0.0
1021
0.0
1031
1.0
1040
0.0
1010
0.0
1020
0.0
1030
1.0
1000
ANSI31
1070
     0
1070
     0
1071
        1
1071
        1
1071
        4
1070
     1
1040
-34.277080712740059
1040
206.33301294647791
1040
-104.2749999839567
1040
206.33301294647791
1070
     1
1040
-104.2749999839567
1040
206.33301294647791
1040
-104.2749999839567
1040
203.18482794002031
1070
     1
1040
-104.2749999839567
1040
203.18482794002031
1040
-34.274999983956747
1040
203.18482794002031
1070
     1
1040
-34.274999983956747
1040
203.18482794002031
1040
-34.277080712740059
1040
206.33301294647791
1071
        0
1070
     0
1070
     1
1040
0.0
1040
1.0
1070
     0
1070
     1
1040
0.7853981633974483
1040
-54.054457229177892
1040
223.91108535801229
1040
-2.2450640302672871
1040
2.245064030267288
1070
     0
1071
        4
1040
-54.054457229177892
1040
223.91108535801229
1040
0.0
1040
-57.224944919541997
1040
221.99674610691679
1040
0.0
1040
-57.347673707435717
1040
227.7885014827923
1040
0.0
1040
-71.566673656869682
1040
242.99274746638071
1040
0.0
1002
}
  0
POLYLINE
  5
295F
  8
0
 66
     1
 10
0.0
 20
0.0
 30
0.0
  0
VERTEX
  5
4360
  8
0
 10
-34.27609826727209
 20
206.33301294647791
 30
0.0
  0
VERTEX
  5
4361
  8
0
 10
-34.274999983956747
 20
203.18482794002031
 30
0.0
  0
VERTEX
  5
4362
  8
0
 10
-104.2749999839567
 20
203.18482794002031
 30
0.0
  0
VERTEX
  5
4363
  8
0
 10
-104.2749999839567
 20
206.33301294647791
 30
0.0
  0
SEQEND
  5
4364
  8
0
  0
ARC
  5
2960
  8
0
 10
-30.303469275837362
 20
198.18482794002051
 30
0.0
 40
6.3853783102910189
 50
128.4603318098815
 51
231.5396681901185
  0
ARC
  5
2961
  8
0
 10
-108.24653069207611
 20
198.18482794002051
 30
0.0
 40
6.3853783102910189
 50
308.46033180988161
 51
51.539668190118469
  0
POLYLINE
  5
2962
  8
0
 66
     1
 10
0.0
 20
0.0
 30
0.0
 40
1.1999999999999991
 41
1.1999999999999991
  0
VERTEX
  5
4365
  8
0
 10
-104.29704848303111
 20
21.18482794002043
 30
0.0
  0
VERTEX
  5
4366
  8
0
 10
-33.797048483031013
 20
21.184827940020462
 30
0.0
 42
0.4142135623730951
  0
VERTEX
  5
4367
  8
0
 10
-32.797048483031013
 20
22.184827940020462
 30
0.0
  0
VERTEX
  5
4368
  8
0
 10
-32.797048483031013
 20
91.184827940020455
 30
0.0
  0
SEQEND
  5
4369
  8
0
  0
POLYLINE
  5
2969
  8
0
 66
     1
 10
0.0
 20
0.0
 30
0.0
 40
1.1999999999999991
 41
1.1999999999999991
  0
VERTEX
  5
436A
  8
0
 10
-106.29704848303111
 20
38.684827940020462
 30
0.0
  0
VERTEX
  5
436B
  8
0
 10
-106.29704848303111
 20
18.684827940020451
 30
0.0
  0
VERTEX
  5
436C
  8
0
 10
-86.297048483031105
 20
18.684827940020451
 30
0.0
  0
SEQEND
  5
436D
  8
0
  0
INSERT
  5
2A96
  8
0
  6
CONTINUOUS
  2
*X16
 10
0.0
 20
0.0
 30
0.0
1001
GRADIENTCOLOR1ACI
1070
     5
1001
GRADIENTCOLOR2ACI
1070
     2
1001
ACAD
1000
HATCH
1002
{
1070
    19
1000
AR-SAND
1040
0.1
1040
0.0
1000
R14_HATCH_DATA
1000
2A96
1011
1.0
1021
0.0
1031
0.0
1021
0.0
1031
0.0
1011
0.0
1021
0.0
1031
0.0
1021
1.0
1031
0.0
1011
0.0
1021
0.0
1031
0.0
1021
0.0
1031
1.0
1040
0.0
1010
0.0
1020
0.0
1030
1.0
1000
AR-SAND
1070
     0
1070
     0
1071
        2
1071
        1
1071
       73
1070
     1
1040
-104.04704848303111
1040
106.9133993685919
1040
-104.29704848303101
1040
107.1848279400204
1070
     2
1040
-108.26857919115049
1040
112.1848279400203
1040
6.3853783102910207
1040
5.3836484018766679
1040
7.1827222124825241
1070
     1
1070
     1
1040
-104.29704848303111
1040
117.1848279400202
1040
-104.29704848303111
1040
193.18482794002031
1070
     1
1040
-104.29704848303111
1040
193.18482794002031
1040
-104.2749999839571
1040
193.18482794002031
1070
     2
1040
-108.24653069207611
1040
198.18482794002051
1040
6.385378310291026
1040
5.3836484018765649
1040
7.1827222124825338
1070
     1
1070
     1
1040
-104.2749999839567
1040
203.1848279400206
1040
-104.2749999839567
1040
206.33301294647791
1070
     1
1040
-104.2749999839567
1040
206.33301294647791
1040
-108.69686961977629
1040
206.33301294647791
1070
     1
1040
-108.69686961977629
1040
206.33301294647791
1040
-108.112584588687
1040
201.05682619063029
1070
     1
1040
-108.112584588687
1040
201.05682619063029
1040
-108.6214183223899
1040
195.56506628488069
1070
     1
1040
-108.6214183223899
1040
195.56506628488069
1040
-108.2887416750184
1040
191.56401856554459
1070
     1
1040
-108.2887416750184
1040
191.56401856554459
1040
-108.2887416750184
1040
189.20658918271749
1070
     1
1040
-108.2887416750184
1040
189.20658918271749
1040
-108.92385659356221
1040
185.670447875283
1070
     1
1040
-108.92385659356221
1040
185.670447875283
1040
-108.2887416750184
1040
182.67832703046619
1070
     1
1040
-108.2887416750184
1040
182.67832703046619
1040
-108.6516661784465
1040
177.41944780219399
1070
     1
1040
-108.6516661784465
1040
177.41944780219399
1040
-109.3269804337008
1040
170.5038355769808
1070
     1
1040
-109.3269804337008
1040
170.5038355769808
1040
-108.5567656926607
1040
164.21793317955721
1070
     1
1040
-108.5567656926607
1040
164.21793317955721
1040
-109.58372105067861
1040
158.5734483495051
1070
     1
1040
-109.58372105067861
1040
158.5734483495051
1040
-109.1986113101941
1040
153.31381655000141
1070
     1
1040
-109.1986113101941
1040
153.31381655000141
1040
-110.4823049152248
1040
148.4390350142402
1070
     1
1040
-110.4823049152248
1040
148.4390350142402
1040
-108.5567656926607
1040
143.94910374222121
1070
     1
1040
-108.5567656926607
1040
143.94910374222121
1040
-109.7247908135807
1040
137.4746407492045
1070
     1
1040
-109.7247908135807
1040
137.4746407492045
1040
-108.935358030955
1040
132.8538976563899
1070
     1
1040
-108.935358030955
1040
132.8538976563899
1040
-109.1609099159962
1040
126.65534055752789
1070
     1
1040
-109.1609099159962
1040
126.65534055752789
1040
-109.7247908135807
1040
121.5837934629854
1070
     1
1040
-109.7247908135807
1040
121.5837934629854
1040
-109.1609099159962
1040
118.09006037449051
1070
     1
1040
-109.1609099159962
1040
118.09006037449051
1040
-109.3864618010373
1040
113.3566169729453
1070
     1
1040
-109.3864618010373
1040
113.3566169729453
1040
-109.6770776016355
1040
107.2577389100295
1070
     1
1040
-109.6770776016355
1040
107.2577389100295
1040
-108.935358030955
1040
102.8754190908631
1070
     1
1040
-108.935358030955
1040
102.8754190908631
1040
-110.2886717111657
1040
99.607089386635053
1070
     1
1040
-110.2886717111657
1040
99.607089386635053
1040
-109.1494748376074
1040
98.610891203110995
1070
     1
1040
-109.1494748376074
1040
98.610891203110995
1040
-109.6396664310812
1040
90.773059653157446
1070
     1
1040
-109.6396664310812
1040
90.773059653157446
1040
-110.7296107037953
1040
86.56401729289621
1070
     1
1040
-110.7296107037953
1040
86.56401729289621
1040
-109.72161980116989
1040
82.422822549326042
1070
     1
1040
-109.72161980116989
1040
82.422822549326042
1040
-110.4904939570412
1040
76.043146179603696
1070
     1
1040
-110.4904939570412
1040
76.043146179603696
1040
-109.7076947048628
1040
68.483305312124571
1070
     1
1040
-109.7076947048628
1040
68.483305312124571
1040
-109.7076947048628
1040
63.505662229762827
1070
     1
1040
-109.7076947048628
1040
63.505662229762827
1040
-111.13082516730189
1040
58.350246328395649
1070
     1
1040
-111.13082516730189
1040
58.350246328395649
1040
-109.8855842351942
1040
55.32810563849705
1070
     1
1040
-109.8855842351942
1040
55.32810563849705
1040
-109.3519109042706
1040
46.43945638780621
1070
     1
1040
-109.3519109042706
1040
46.43945638780621
1040
-110.4192599360823
1040
41.284040486439032
1070
     1
1040
-110.4192599360823
1040
41.284040486439032
1040
-109.8057235436997
1040
36.611537370410467
1070
     1
1040
-109.8057235436997
1040
36.611537370410467
1040
-108.84827924249809
1040
33.327174025422103
1070
     1
1040
-108.84827924249809
1040
33.327174025422103
1040
-109.7101732951472
1040
29.428190610144611
1070
     1
1040
-109.7101732951472
1040
29.428190610144611
1040
-108.8323773951584
1040
26.476248935797461
1070
     1
1040
-108.8323773951584
1040
26.476248935797461
1040
-109.4004824473426
1040
21.479584456523529
1070
     1
1040
-109.4004824473426
1040
21.479584456523529
1040
-109.6253801400612
1040
17.414186516422259
1070
     1
1040
-109.6253801400612
1040
17.414186516422259
1040
-108.560361495514
1040
15.40187822496369
1070
     1
1040
-108.560361495514
1040
15.40187822496369
1040
-107.63822118640221
1040
12.97578048504908
1070
     1
1040
-107.63822118640221
1040
12.97578048504908
1040
-107.5306459688952
1040
12.20175445935854
1070
     1
1040
-107.5306459688952
1040
12.20175445935854
1040
-106.9760955849835
1040
12.19153855829359
1070
     1
1040
-106.9760955849835
1040
12.19153855829359
1040
-100.3599437937757
1040
14.265163798778071
1070
     1
1040
-100.3599437937757
1040
14.265163798778071
1040
-97.55020746117853
1040
13.31438052620922
1070
     1
1040
-97.55020746117853
1040
13.31438052620922
1040
-93.187043575394767
1040
14.31998695244374
1070
     1
1040
-93.187043575394767
1040
14.31998695244374
1040
-87.392769817218706
1040
13.907648889673389
1070
     1
1040
-87.392769817218706
1040
13.907648889673389
1040
-83.45605198476423
1040
15.09864162242741
1070
     1
1040
-83.45605198476423
1040
15.09864162242741
1040
-77.941110287046371
1040
15.088609455513501
1070
     1
1040
-77.941110287046371
1040
15.088609455513501
1040
-73.164383310137111
1040
16.03058937294179
1070
     1
1040
-73.164383310137111
1040
16.03058937294179
1040
-70.583315238388337
1040
16.831263212820311
1070
     1
1040
-70.583315238388337
1040
16.831263212820311
1040
-65.5192766983902
1040
16.052162998911399
1070
     1
1040
-65.5192766983902
1040
16.052162998911399
1040
-57.740628339312799
1040
18.394085180068831
1070
     1
1040
-57.740628339312799
1040
18.394085180068831
1040
-52.013492836468117
1040
18.64560637231898
1070
     1
1040
-52.013492836468117
1040
18.64560637231898
1040
-45.921039289007886
1040
17.741666672511428
1070
     1
1040
-45.921039289007886
1040
17.741666672511428
1040
-41.010803043973461
1040
19.436816230129999
1070
     1
1040
-41.010803043973461
1040
19.436816230129999
1040
-39.034836548135132
1040
20.208132015586671
1070
     1
1040
-39.034836548135132
1040
20.208132015586671
1040
-36.48923592926829
1040
19.944851011289192
1070
     1
1040
-36.48923592926829
1040
19.944851011289192
1040
-34.297048483031148
1040
20.184827940020451
1070
     1
1040
-34.297048483031148
1040
20.184827940020451
1040
-34.297048483031119
1040
21.184827940020462
1070
     1
1040
-34.297048483031119
1040
21.184827940020462
1040
-104.29704848303111
1040
21.184827940020462
1070
     2
1040
-108.7592544782764
1040
26.421711013075178
1040
6.8801327505252772
1040
5.4180852227712304
1040
7.0995145732425042
1070
     1
1070
     1
1040
-104.04704848303111
1040
31.434827940020369
1040
-34.527311640925888
1040
31.434827940020369
1070
     1
1040
-34.527311640925888
1040
31.434827940020369
1040
-104.0667853251361
1040
31.434827940020369
1070
     1
1040
-104.0667853251361
1040
31.434827940020369
1040
-104.04704848303111
1040
31.456256511448618
1070
     1
1040
-104.04704848303111
1040
31.456256511448618
1040
-104.04704848303111
1040
106.9133993685919
1071
        0
1071
        1
1071
       40
1070
     2
1040
-108.24653069207611
1040
-18.175000000003479
1040
6.3853783102910011
1040
5.3836484018766306
1040
7.1827222124825401
1070
     1
1070
     1
1040
-104.2749999839567
1040
-13.175000000003481
1040
-104.2749999839567
1040
13.03811224523565
1070
     1
1040
-104.2749999839567
1040
13.03811224523565
1040
-106.9760955849835
1040
12.19153855829359
1070
     1
1040
-106.9760955849835
1040
12.19153855829359
1040
-107.5306459688952
1040
12.20175445935854
1070
     1
1040
-107.5306459688952
1040
12.20175445935854
1040
-107.1600974518207
1040
9.5355809424130484
1070
     1
1040
-107.1600974518207
1040
9.5355809424130484
1040
-107.5580618793889
1040
5.6633958290468618
1070
     1
1040
-107.5580618793889
1040
5.6633958290468618
1040
-107.437546818013
1040
3.375133829372202
1070
     1
1040
-107.437546818013
1040
3.375133829372202
1040
-107.0760016338847
1040
2.110569298039195
1070
     1
1040
-107.0760016338847
1040
2.110569298039195
1040
-106.9785393376003
1040
1.1463786795152371
1070
     1
1040
-106.9785393376003
1040
1.1463786795152371
1040
-107.5377016359991
1040
-1.4613152228769191
1070
     1
1040
-107.5377016359991
1040
-1.4613152228769191
1040
-107.2115234311029
1040
-4.0224437803169621
1070
     1
1040
-107.2115234311029
1040
-4.0224437803169621
1040
-107.25812167178189
1040
-6.2576093894801943
1070
     1
1040
-107.25812167178189
1040
-6.2576093894801943
1040
-106.1955078289072
1040
-11.294018047843791
1070
     1
1040
-106.1955078289072
1040
-11.294018047843791
1040
-107.23167049874679
1040
-13.586849427624649
1070
     1
1040
-107.23167049874679
1040
-13.586849427624649
1040
-106.7876007831012
1040
-17.284965091814229
1070
     1
1040
-106.7876007831012
1040
-17.284965091814229
1040
-106.7876007831012
1040
-20.021570019281171
1070
     1
1040
-106.7876007831012
1040
-20.021570019281171
1040
-107.8977750722149
1040
-23.941573840716728
1070
     1
1040
-107.8977750722149
1040
-23.941573840716728
1040
-106.9356240216496
1040
-28.897047890016669
1070
     1
1040
-106.9356240216496
1040
-28.897047890016669
1040
-107.62742137953479
1040
-36.626679341196109
1070
     1
1040
-107.62742137953479
1040
-36.626679341196109
1040
-106.97269500530891
1040
-41.599290986849951
1070
     1
1040
-106.97269500530891
1040
-41.599290986849951
1040
-107.62742137953479
1040
-46.506473204254803
1070
     1
1040
-107.62742137953479
1040
-46.506473204254803
1040
-106.86429283214891
1040
-52.06156529930638
1070
     1
1040
-106.86429283214891
1040
-52.06156529930638
1040
-107.1717127685595
1040
-57.745052410114219
1070
     1
1040
-107.1717127685595
1040
-57.745052410114219
1040
-106.5389014554441
1040
-63.459439210311423
1070
     1
1040
-106.5389014554441
1040
-63.459439210311423
1040
-107.04773518914701
1040
-68.95119911606082
1070
     1
1040
-107.04773518914701
1040
-68.95119911606082
1040
-106.71505854177551
1040
-72.952246835396977
1070
     1
1040
-106.71505854177551
1040
-72.952246835396977
1040
-106.71505854177551
1040
-75.309676218224126
1070
     1
1040
-106.71505854177551
1040
-75.309676218224126
1040
-107.3501734603194
1040
-78.845817525658603
1070
     1
1040
-107.3501734603194
1040
-78.845817525658603
1040
-106.71505854177551
1040
-81.837938370475399
1070
     1
1040
-106.71505854177551
1040
-81.837938370475399
1040
-107.0779830452036
1040
-87.096817598747634
1070
     1
1040
-107.0779830452036
1040
-87.096817598747634
1040
-107.7532973004579
1040
-94.012429823960815
1070
     1
1040
-107.7532973004579
1040
-94.012429823960815
1040
-106.98308255941789
1040
-100.2983322213844
1070
     1
1040
-106.98308255941789
1040
-100.2983322213844
1040
-108.0100379174357
1040
-105.94281705143641
1070
     1
1040
-108.0100379174357
1040
-105.94281705143641
1040
-107.6249281769512
1040
-111.2024488509402
1070
     1
1040
-107.6249281769512
1040
-111.2024488509402
1040
-108.90862178198201
1040
-116.0772303867014
1070
     1
1040
-108.90862178198201
1040
-116.0772303867014
1040
-108.3395522652538
1040
-117.4041745430027
1070
     1
1040
-108.3395522652538
1040
-117.4041745430027
1040
-104.2749999839567
1040
-117.4041745430027
1070
     1
1040
-104.2749999839567
1040
-117.4041745430027
1040
-104.2749999839567
1040
-109.17500000000371
1070
     2
1040
-108.24653069207611
1040
-104.17500000000371
1040
6.3853783102909798
1040
5.3836484018766431
1040
7.1827222124825294
1070
     1
1070
     1
1040
-104.2749999839567
1040
-99.17500000000382
1040
-104.2749999839567
1040
-23.175000000003479
1071
        0
1070
     0
1070
     1
1040
0.0
1040
0.1
1070
     0
1070
     4
1040
0.6544984694978737
1040
-108.9046897272933
1040
17.68950565199458
1040
-0.1600031295984046
1040
4.8941323732934228
1070
     6
1040
0.0
1040
-3.8607999999999998
1040
0.0
1040
-4.3179999999999996
1040
0.0
1040
-4.1275000000000004
1040
0.1308996938995747
1040
-108.9046897272933
1040
17.68950565199458
1040
4.4952328313800258
1040
7.1682510056835431
1070
     6
1040
0.0
1040
-2.0828000000000002
1040
0.0
1040
-3.4798
1040
0.0
1040
-1.3334999999999999
1040
5.715953300281428
1040
-112.0288897272933
1040
17.68950565199458
1040
7.909923702414579
1040
0.0143718467854569
1070
     6
1040
0.0
1040
-1.27
1040
0.0
1040
-4.5720000000000001
1040
0.0
1040
-5.9690000000000003
1040
5.5414203750819961
1040
-112.0288897272933
1040
17.68950565199458
1040
7.6355645247229722
1040
2.2292932325721622
1070
     6
1040
0.0
1040
-0.635
1040
0.0
1040
-2.997199999999999
1040
0.0
1040
-3.4289999999999998
1071
        3
1040
-106.75851857079419
1040
82.656104903534754
1040
0.0
1040
-106.7246554546853
1040
72.903473942097435
1040
0.0
1040
-105.8308820700738
1040
-45.424905564180442
1040
0.0
1002
}
  0
DIMENSION
  5
2B7C
  8
0
  2
*D9
 10
-7.4658732415485476
 20
22.86662443638955
 30
0.0
 11
-13.72204367504612
 21
40.366624436389543
 31
0.0
 70
   128
  1
35mm min.
 13
8.2267052224118444
 23
57.866624436389543
 33
0.0
 14
8.2267052224118444
 24
22.866624436389539
 34
0.0
 50
90.0
  0
POLYLINE
  5
2BB3
  8
0
 66
     1
 10
0.0
 20
0.0
 30
0.0
  0
VERTEX
  5
4534
  8
0
 10
-34.297048483031119
 20
107.1848279400204
 30
0.0
  0
VERTEX
  5
4535
  8
0
 10
-104.29704848303091
 20
31.184827940020231
 30
0.0
  0
SEQEND
  5
4536
  8
0
  0
POLYLINE
  5
2BB4
  8
0
 66
     1
 10
0.0
 20
0.0
 30
0.0
  0
VERTEX
  5
4537
  8
0
 10
-104.29704848303101
 20
107.1848279400204
 30
0.0
  0
VERTEX
  5
4538
  8
0
 10
-34.297048483031119
 20
31.184827940020341
 30
0.0
  0
SEQEND
  5
4539
  8
0
  0
POLYLINE
  5
3040
  8
0
 66
     1
 10
0.0
 20
0.0
 30
0.0
 40
0.35
 41
0.35
  0
VERTEX
  5
453A
  8
0
 10
-104.09999998395681
 20
-117.4041745430027
 30
0.0
  0
VERTEX
  5
453B
  8
0
 10
-104.09999998395681
 20
-109.3500000000037
 30
0.0
  0
VERTEX
  5
453C
  8
0
 10
-34.449999983956729
 20
-109.3500000000037
 30
0.0
  0
VERTEX
  5
453D
  8
0
 10
-34.449999983956751
 20
-117.4041745430027
 30
0.0
  0
SEQEND
  5
453E
  8
0
  0
POLYLINE
  5
3043
  8
0
 66
     1
 10
0.0
 20
0.0
 30
0.0
 40
0.35
 41
0.35
  0
VERTEX
  5
453F
  8
0
 10
-34.451098256622913
 20
206.332951895565
 30
0.0
  0
VERTEX
  5
4540
  8
0
 10
-34.45006104552251
 20
203.3598279400203
 30
0.0
  0
VERTEX
  5
4541
  8
0
 10
-104.09999998395681
 20
203.3598279400203
 30
0.0
  0
VERTEX
  5
4542
  8
0
 10
-104.09999998395681
 20
206.33301294647791
 30
0.0
  0
SEQEND
  5
4543
  8
0
  0
POLYLINE
  5
3044
  8
0
 66
     1
 10
0.0
 20
0.0
 30
0.0
 40
0.35
 41
0.35
  0
VERTEX
  5
4544
  8
0
 10
-34.472048444808721
 20
20.184712277358699
 30
0.0
  0
VERTEX
  5
4545
  8
0
 10
-34.450115684866212
 20
-13.00000000000372
 30
0.0
  0
VERTEX
  5
4546
  8
0
 10
-104.09999998395681
 20
-13.0000000000037
 30
0.0
  0
VERTEX
  5
4547
  8
0
 10
-104.09999998395681
 20
13.03811224523554
 30
0.0
  0
SEQEND
  5
4548
  8
0
  0
INSERT
  5
30B3
  8
0
  6
CONTINUOUS
  2
*U17
 10
0.0
 20
0.0
 30
0.0
  0
INSERT
  5
30B4
  8
0
  6
CONTINUOUS
  2
*U18
 10
0.0
 20
0.0
 30
0.0
  0
INSERT
  5
30B5
  8
0
  6
CONTINUOUS
  2
*U19
 10
0.0
 20
0.0
 30
0.0
  0
INSERT
  5
30B6
  8
0
  6
CONTINUOUS
  2
*U20
 10
0.0
 20
0.0
 30
0.0
  0
INSERT
  5
30B7
  8
0
  6
CONTINUOUS
  2
*U21
 10
0.0
 20
0.0
 30
0.0
  0
INSERT
  5
30B8
  8
0
  6
CONTINUOUS
  2
*U22
 10
0.0
 20
0.0
 30
0.0
  0
INSERT
  5
30B9
  8
0
  6
CONTINUOUS
  2
*U23
 10
0.0
 20
0.0
 30
0.0
  0
INSERT
  5
30BA
  8
0
  6
CONTINUOUS
  2
*U24
 10
0.0
 20
0.0
 30
0.0
  0
INSERT
  5
30BB
  8
0
  6
CONTINUOUS
  2
*U25
 10
0.0
 20
0.0
 30
0.0
  0
INSERT
  5
30BC
  8
0
  6
CONTINUOUS
  2
*U26
 10
0.0
 20
0.0
 30
0.0
  0
INSERT
  5
30BD
  8
0
  6
CONTINUOUS
  2
*U27
 10
0.0
 20
0.0
 30
0.0
  0
INSERT
  5
30BE
  8
0
  6
CONTINUOUS
  2
*U28
 10
0.0
 20
0.0
 30
0.0
  0
INSERT
  5
30BF
  8
0
  6
CONTINUOUS
  2
*U29
 10
0.0
 20
0.0
 30
0.0
  0
INSERT
  5
30C0
  8
0
  6
CONTINUOUS
  2
*U30
 10
0.0
 20
0.0
 30
0.0
  0
INSERT
  5
30C1
  8
0
  6
CONTINUOUS
  2
*U31
 10
0.0
 20
0.0
 30
0.0
  0
INSERT
  5
30C2
  8
0
  6
CONTINUOUS
  2
*U32
 10
0.0
 20
0.0
 30
0.0
  0
LINE
  5
30F6
  8
0
 10
-104.04704848303111
 20
192.9348279400202
 30
0.0
 11
-34.547048483031119
 21
117.4348279400202
 31
0.0
  0
LINE
  5
30F8
  8
0
 10
-104.04704848303111
 20
117.4348279400202
 30
0.0
 11
-34.547048483031119
 21
192.9348279400202
 31
0.0
  0
INSERT
  5
33B5
  8
0
  6
CONTINUOUS
  2
*U33
 10
0.0
 20
0.0
 30
0.0
  0
INSERT
  5
33B6
  8
0
  6
CONTINUOUS
  2
*U34
 10
0.0
 20
0.0
 30
0.0
  0
POLYLINE
  5
35FA
  8
0
 66
     1
 10
0.0
 20
0.0
 30
0.0
  0
VERTEX
  5
45CC
  8
0
 10
-112.3395522652538
 20
-117.4041745430027
 30
0.0
  0
VERTEX
  5
45CD
  8
0
 10
5.1927238753953731
 20
-117.4041745430027
 30
0.0
  0
VERTEX
  5
45CE
  8
0
 10
6.1927238753953686
 20
-120.15165196245739
 30
0.0
  0
VERTEX
  5
45CF
  8
0
 10
8.1927238753953695
 20
-114.6566971235482
 30
0.0
  0
VERTEX
  5
45D0
  8
0
 10
9.1927238753953731
 20
-117.4041745430027
 30
0.0
  0
VERTEX
  5
45D1
  8
0
 10
126.72500001604421
 20
-117.4041745430028
 30
0.0
  0
SEQEND
  5
45D2
  8
0
  0
POLYLINE
  5
3604
  8
0
 66
     1
 10
0.0
 20
0.0
 30
0.0
  0
VERTEX
  5
45D3
  8
0
 10
-111.5830230685237
 20
206.33301294647791
 30
0.0
  0
VERTEX
  5
45D4
  8
0
 10
0.5709884737600249
 20
206.33301294647791
 30
0.0
  0
VERTEX
  5
45D5
  8
0
 10
1.5709884737600259
 20
203.5855355270231
 30
0.0
  0
VERTEX
  5
45D6
  8
0
 10
3.5709884737600261
 20
209.08049036593241
 30
0.0
  0
VERTEX
  5
45D7
  8
0
 10
4.5709884737600239
 20
206.33301294647791
 30
0.0
  0
VERTEX
  5
45D8
  8
0
 10
116.7250000160434
 20
206.33301294647791
 30
0.0
  0
SEQEND
  5
45D9
  8
0
  0
POLYLINE
  5
3873
  8
0
 66
     1
 10
0.0
 20
0.0
 30
0.0
  0
VERTEX
  5
45DA
  8
0
 10
-42.469014676466152
 20
19.122794321815089
 30
0.0
  0
VERTEX
  5
45DB
  8
0
 10
-107.79704848303111
 20
17.184827940020451
 30
0.0
  0
VERTEX
  5
45DC
  8
0
 10
-107.79704848303111
 20
73.253589584753286
 30
0.0
  0
SEQEND
  5
45DD
  8
0
  0
LINE
  5
41A2
  8
0
 10
101.7250000160434
 20
74.825000000000955
 30
0.0
 11
101.7250000160434
 21
-1.174999999999045
 31
0.0
  0
LINE
  5
41A5
  8
0
 10
101.7250000160434
 20
-1.174999999999045
 30
0.0
 11
9.7250000160433601
 21
-1.174999999999045
 31
0.0
  0
LINE
  5
41A6
  8
0
 10
9.7250000160433601
 20
-1.174999999999045
 30
0.0
 11
9.7250000160433885
 21
206.33301294647779
 31
0.0
  0
INSERT
  5
41A7
  8
0
  6
CONTINUOUS
  2
*X35
 10
0.0
 20
0.0
 30
0.0
1001
ACAD
1000
HATCH
1002
{
1070
    19
1000
ANSI31
1040
1.0
1040
0.0
1000
R14_HATCH_DATA
1000
41A7
1011
1.0
1021
0.0
1031
0.0
1021
0.0
1031
0.0
1011
0.0
1021
0.0
1031
0.0
1021
1.0
1031
0.0
1011
0.0
1021
0.0
1031
0.0
1021
0.0
1031
1.0
1040
0.0
1010
0.0
1020
0.0
1030
1.0
1000
ANSI31
1070
     0
1070
     0
1071
        1
1071
        7
1070
     0
1070
     1
1071
        4
1040
-34.297048483031119
1040
193.1848279400202
1040
-104.29704848303111
1040
193.1848279400202
1040
-104.29704848303111
1040
117.1848279400202
1040
-34.297048483031119
1040
117.1848279400202
1071
        0
1070
     0
1070
     1
1040
0.0
1040
1.0
1070
     0
1070
     1
1040
0.7853981633974483
1040
5.561721984067332
1040
216.18482794002429
1040
-2.2450640302672871
1040
2.245064030267288
1070
     0
1040
0.3247920190654526
1071
        1
1040
-71.588722155944026
1040
156.99274746638059
1040
0.0
1002
}
  0
POLYLINE
  5
41A8
  8
0
  6
CONTINUOUS
 66
     1
 10
0.0
 20
0.0
 30
0.0
 70
     1
  0
VERTEX
  5
460D
  8
0
  6
CONTINUOUS
 10
-104.29704848303111
 20
193.1848279400202
 30
0.0
  0
VERTEX
  5
460E
  8
0
  6
CONTINUOUS
 10
-34.297048483031119
 20
193.1848279400202
 30
0.0
  0
VERTEX
  5
460F
  8
0
  6
CONTINUOUS
 10
-34.297048483031119
 20
117.1848279400202
 30
0.0
  0
VERTEX
  5
4610
  8
0
  6
CONTINUOUS
 10
-104.29704848303111
 20
117.1848279400202
 30
0.0
  0
SEQEND
  5
4611
  8
0
  6
CONTINUOUS
  0
POLYLINE
  5
41A9
  8
0
  6
CONTINUOUS
 66
     1
 10
0.0
 20
0.0
 30
0.0
 70
     1
 40
0.5
 41
0.5
  0
VERTEX
  5
4612
  8
0
  6
CONTINUOUS
 10
-104.04704848303111
 20
192.9348279400202
 30
0.0
  0
VERTEX
  5
4613
  8
0
  6
CONTINUOUS
 10
-34.547048483031119
 20
192.9348279400202
 30
0.0
  0
VERTEX
  5
4614
  8
0
  6
CONTINUOUS
 10
-34.547048483031119
 20
117.4348279400202
 30
0.0
  0
VERTEX
  5
4615
  8
0
  6
CONTINUOUS
 10
-104.04704848303111
 20
117.4348279400202
 30
0.0
  0
SEQEND
  5
4616
  8
0
  6
CONTINUOUS
  0
ARC
  5
41AA
  8
0
  6
CONTINUOUS
 10
-30.32551777491172
 20
112.1848279400203
 30
0.0
 40
6.3853783102910189
 50
128.46033180988201
 51
231.53966819011791
  0
ARC
  5
41AB
  8
0
  6
CONTINUOUS
 10
-108.26857919115049
 20
112.1848279400203
 30
0.0
 40
6.3853783102910189
 50
308.46033180988212
 51
51.539668190117951
  0
INSERT
  5
41AC
  8
0
  6
CONTINUOUS
  2
*X36
 10
0.0
 20
0.0
 30
0.0
1001
ACAD
1000
HATCH
1002
{
1070
    19
1000
ANSI31
1040
1.0
1040
0.0
1000
R14_HATCH_DATA
1000
41AC
1011
1.0
1021
0.0
1031
0.0
1021
0.0
1031
0.0
1011
0.0
1021
0.0
1031
0.0
1021
1.0
1031
0.0
1011
0.0
1021
0.0
1031
0.0
1021
0.0
1031
1.0
1040
0.0
1010
0.0
1020
0.0
1030
1.0
1000
ANSI31
1070
     0
1070
     0
1071
        1
1071
        7
1070
     0
1070
     1
1071
        4
1040
-34.297048483031119
1040
107.1848279400203
1040
-104.29704848303111
1040
107.1848279400203
1040
-104.29704848303111
1040
31.184827940020369
1040
-34.297048483031119
1040
31.184827940020369
1071
        0
1070
     0
1070
     1
1040
0.0
1040
1.0
1070
     0
1070
     1
1040
0.7853981633974483
1040
5.561721984067332
1040
130.18482794002441
1040
-2.2450640302672871
1040
2.245064030267288
1070
     0
1040
0.3247920190654526
1071
        1
1040
-71.588722155944026
1040
70.992747466380735
1040
0.0
1002
}
  0
POLYLINE
  5
41AD
  8
0
  6
CONTINUOUS
 66
     1
 10
0.0
 20
0.0
 30
0.0
 70
     1
  0
VERTEX
  5
463B
  8
0
  6
CONTINUOUS
 10
-104.29704848303111
 20
107.1848279400203
 30
0.0
  0
VERTEX
  5
463C
  8
0
  6
CONTINUOUS
 10
-34.297048483031119
 20
107.1848279400203
 30
0.0
  0
VERTEX
  5
463D
  8
0
  6
CONTINUOUS
 10
-34.297048483031119
 20
31.184827940020369
 30
0.0
  0
VERTEX
  5
463E
  8
0
  6
CONTINUOUS
 10
-104.29704848303111
 20
31.184827940020369
 30
0.0
  0
SEQEND
  5
463F
  8
0
  6
CONTINUOUS
  0
POLYLINE
  5
41AE
  8
0
  6
CONTINUOUS
 66
     1
 10
0.0
 20
0.0
 30
0.0
 70
     1
 40
0.5
 41
0.5
  0
VERTEX
  5
4640
  8
0
  6
CONTINUOUS
 10
-104.04704848303111
 20
106.9348279400204
 30
0.0
  0
VERTEX
  5
4641
  8
0
  6
CONTINUOUS
 10
-34.547048483031119
 20
106.9348279400204
 30
0.0
  0
VERTEX
  5
4642
  8
0
  6
CONTINUOUS
 10
-34.547048483031119
 20
31.434827940020369
 30
0.0
  0
VERTEX
  5
4643
  8
0
  6
CONTINUOUS
 10
-104.04704848303111
 20
31.434827940020369
 30
0.0
  0
SEQEND
  5
4644
  8
0
  6
CONTINUOUS
  0
ARC
  5
41AF
  8
0
  6
CONTINUOUS
 10
-30.32551777491172
 20
26.184827940020408
 30
0.0
 40
6.3853783102910189
 50
128.46033180988201
 51
231.53966819011791
  0
ARC
  5
41B0
  8
0
  6
CONTINUOUS
 10
-108.26857919115049
 20
26.184827940020408
 30
0.0
 40
6.3853783102910189
 50
308.46033180988189
 51
51.539668190118078
  0
POLYLINE
  5
41B2
  8
0
  6
CONTINUOUS
 66
     1
 10
0.0
 20
0.0
 30
0.0
  0
VERTEX
  5
4645
  8
0
  6
CONTINUOUS
 10
62.725000016043239
 20
-2.174999999999613
 30
0.0
  0
VERTEX
  5
4646
  8
0
  6
CONTINUOUS
 10
92.725000016043253
 20
-2.174999999999613
 30
0.0
  0
VERTEX
  5
4647
  8
0
  6
CONTINUOUS
 10
92.725000016043253
 20
-7.1749999999996126
 30
0.0
  0
VERTEX
  5
4648
  8
0
  6
CONTINUOUS
 10
62.725000016043239
 20
-7.1749999999996126
 30
0.0
  0
VERTEX
  5
4649
  8
0
  6
CONTINUOUS
 10
62.725000016043239
 20
-2.174999999999613
 30
0.0
  0
SEQEND
  5
464A
  8
0
  6
CONTINUOUS
  0
POLYLINE
  5
41B3
  8
0
  6
CONTINUOUS
 66
     1
 10
0.0
 20
0.0
 30
0.0
 70
     1
 40
0.35
 41
0.35
  0
VERTEX
  5
464B
  8
0
  6
CONTINUOUS
 10
62.900000016043258
 20
-2.3499999999996239
 30
0.0
  0
VERTEX
  5
464C
  8
0
  6
CONTINUOUS
 10
92.550000016043242
 20
-2.3499999999996239
 30
0.0
  0
VERTEX
  5
464D
  8
0
  6
CONTINUOUS
 10
92.550000016043242
 20
-6.9999999999996296
 30
0.0
  0
VERTEX
  5
464E
  8
0
  6
CONTINUOUS
 10
62.900000016043258
 20
-6.9999999999996021
 30
0.0
  0
SEQEND
  5
464F
  8
0
  6
CONTINUOUS
  0
POLYLINE
  5
41B4
  8
0
  6
CONTINUOUS
 66
     1
 10
0.0
 20
0.0
 30
0.0
  0
VERTEX
  5
4650
  8
0
  6
CONTINUOUS
 10
62.900000016043258
 20
-2.3499999999996239
 30
0.0
  0
VERTEX
  5
4651
  8
0
  6
CONTINUOUS
 10
92.550000016043242
 20
-6.9999999999996296
 30
0.0
  0
SEQEND
  5
4652
  8
0
  6
CONTINUOUS
  0
POLYLINE
  5
41B5
  8
0
  6
CONTINUOUS
 66
     1
 10
0.0
 20
0.0
 30
0.0
  0
VERTEX
  5
4653
  8
0
  6
CONTINUOUS
 10
92.550000016043242
 20
-2.3499999999996239
 30
0.0
  0
VERTEX
  5
4654
  8
0
  6
CONTINUOUS
 10
62.900000016043258
 20
-6.9999999999996021
 30
0.0
  0
SEQEND
  5
4655
  8
0
  6
CONTINUOUS
  0
POLYLINE
  5
41B7
  8
0
 66
     1
 10
0.0
 20
0.0
 30
0.0
 70
     1
  0
VERTEX
  5
4656
  8
0
 10
-40.274999983960328
 20
8.8249999999953843
 30
0.0
 42
-0.4142135623731866
  0
VERTEX
  5
4657
  8
0
 10
-37.274999983960328
 20
11.82499999999629
 30
0.0
  0
VERTEX
  5
4658
  8
0
 10
-29.774999983960331
 20
11.824999999994469
 30
0.0
  0
VERTEX
  5
4659
  8
0
 10
-29.774999983960331
 20
10.32499999999402
 30
0.0
  0
VERTEX
  5
465A
  8
0
 10
-30.448341179430461
 20
10.3249999999947
 30
0.0
 42
0.5655031645004213
  0
VERTEX
  5
465B
  8
0
 10
-30.890006617314238
 20
9.5906250001672788
 30
0.0
 42
-0.3217948770562723
  0
VERTEX
  5
465C
  8
0
 10
-31.313198199770881
 20
6.4699167782622453
 30
0.0
 42
-0.9999999999998639
  0
VERTEX
  5
465D
  8
0
 10
-32.185110103854271
 20
7.2943982101443217
 30
0.0
 42
2.321887592543225
  0
VERTEX
  5
465E
  8
0
 10
-34.364889864062746
 20
7.294398210144549
 30
0.0
 42
-1.0
  0
VERTEX
  5
465F
  8
0
 10
-35.236801768146137
 20
6.4699167782617897
 30
0.0
 42
-0.1103502097709531
  0
VERTEX
  5
4660
  8
0
 10
-35.839777934962143
 20
7.4812500002620927
 30
0.0
 42
0.3239071718579501
  0
VERTEX
  5
4661
  8
0
 10
-36.314736815728423
 20
7.8249999999985667
 30
0.0
  0
VERTEX
  5
4662
  8
0
 10
-36.87499998395888
 20
7.8249999999985667
 30
0.0
 42
-0.9999999999999998
  0
VERTEX
  5
4663
  8
0
 10
-36.87499998395888
 20
8.8249999999967486
 30
0.0
  0
VERTEX
  5
4664
  8
0
 10
-36.314736815408281
 20
8.8249999999967486
 30
0.0
 42
0.323907171728007
  0
VERTEX
  5
4665
  8
0
 10
-35.839777934934858
 20
9.1687499998121211
 30
0.0
 42
-0.0700097239470757
  0
VERTEX
  5
4666
  8
0
 10
-35.507352652894582
 20
9.8437499996649631
 30
0.0
 42
0.602220588535332
  0
VERTEX
  5
4667
  8
0
 10
-35.920751295867923
 20
10.62499999999579
 30
0.0
  0
VERTEX
  5
4668
  8
0
 10
-37.274999983960328
 20
10.624999999995561
 30
0.0
 42
0.4142135623733198
  0
VERTEX
  5
4669
  8
0
 10
-39.0749999839596
 20
8.8249999999949296
 30
0.0
  0
VERTEX
  5
466A
  8
0
 10
-39.0749999839596
 20
3.3996211250604338
 30
0.0
 42
-0.4999999999699297
  0
VERTEX
  5
466B
  8
0
 10
-39.0749999839596
 20
2.5996211250989059
 30
0.0
  0
VERTEX
  5
466C
  8
0
 10
-39.074999983957781
 20
-3.6503788749197379
 30
0.0
  0
VERTEX
  5
466D
  8
0
 10
-37.124688881731892
 20
-3.6503788749197379
 30
0.0
  0
VERTEX
  5
466E
  8
0
 10
-37.357962897100691
 20
-2.7797883974709521
 30
0.0
 42
-0.9999999999999998
  0
VERTEX
  5
466F
  8
0
 10
-36.392037070813423
 20
-2.5209693523685242
 30
0.0
  0
VERTEX
  5
4670
  8
0
 10
-36.158763055444609
 20
-3.3915598298179921
 30
0.0
 42
-0.4931454260305637
  0
VERTEX
  5
4671
  8
0
 10
-37.124688881731892
 20
-4.6503788749199648
 30
0.0
  0
VERTEX
  5
4672
  8
0
 10
-39.074999983954143
 20
-4.6503788749197383
 30
0.0
  0
VERTEX
  5
4673
  8
0
 10
-39.074999983954143
 20
-6.7189733124331488
 30
0.0
 42
0.1763269807084013
  0
VERTEX
  5
4674
  8
0
 10
-38.419924424688901
 20
-8.5187786195548352
 30
0.0
  0
VERTEX
  5
4675
  8
0
 10
-33.291568879742591
 20
-14.63051476434509
 30
0.0
 42
-0.0563385934597803
  0
VERTEX
  5
4676
  8
0
 10
-32.645967012164512
 20
-15.60403297179721
 30
0.0
  0
VERTEX
  5
4677
  8
0
 10
-31.574999983957781
 20
-16.675000000003699
 30
0.0
  0
VERTEX
  5
4678
  8
0
 10
-31.574999983957781
 20
-17.175000000003699
 30
0.0
  0
VERTEX
  5
4679
  8
0
 10
-32.074999983961419
 20
-17.175000000003699
 30
0.0
  0
VERTEX
  5
467A
  8
0
 10
-32.074999983961419
 20
-20.275000000004749
 30
0.0
 42
0.4142135623731409
  0
VERTEX
  5
467B
  8
0
 10
-30.574999983961192
 20
-21.775000000004749
 30
0.0
  0
VERTEX
  5
467C
  8
0
 10
-22.121640091067629
 20
-21.775000000003619
 30
0.0
 42
0.4671804552025508
  0
VERTEX
  5
467D
  8
0
 10
-21.629487133325341
 20
-21.18676470573234
 30
0.0
 42
-0.1957965268150679
  0
VERTEX
  5
467E
  8
0
 10
-21.174999983954852
 20
-19.047117940337209
 30
0.0
  0
VERTEX
  5
467F
  8
0
 10
-21.174999983954852
 20
-17.57499999994706
 30
0.0
  0
VERTEX
  5
4680
  8
0
 10
-16.574999983956641
 20
-17.57499999994706
 30
0.0
  0
VERTEX
  5
4681
  8
0
 10
-16.574999983956982
 20
-18.78555563717509
 30
0.0
 42
-0.0334583915426535
  0
VERTEX
  5
4682
  8
0
 10
-16.342635092087761
 20
-19.095885997471552
 30
0.0
  0
VERTEX
  5
4683
  8
0
 10
-15.73401297344625
 20
-19.095885997581831
 30
0.0
 42
-0.1989123673327494
  0
VERTEX
  5
4684
  8
0
 10
-14.74406348003739
 20
-19.50593650392091
 30
0.0
  0
VERTEX
  5
4685
  8
0
 10
-12.47499998383873
 20
-21.77500000012185
 30
0.0
  0
VERTEX
  5
4686
  8
0
 10
0.425000016044038
 20
-21.774999999839451
 30
0.0
 42
-0.2757233595359096
  0
VERTEX
  5
4687
  8
0
 10
1.6571942336353509
 20
-22.510396802333052
 30
0.0
 42
0.4507513050372938
  0
VERTEX
  5
4688
  8
0
 10
2.3868688210399389
 20
-22.68062754366667
 30
0.0
 42
-0.1556796623165252
  0
VERTEX
  5
4689
  8
0
 10
5.2250000160433103
 20
-21.77500000000407
 30
0.0
  0
VERTEX
  5
468A
  8
0
 10
10.18481349253252
 20
-21.775000000003619
 30
0.0
 42
-0.5724326707062994
  0
VERTEX
  5
468B
  8
0
 10
11.33210966139214
 20
-21.39935258867115
 30
0.0
 42
2.2171784721050898
  0
VERTEX
  5
468C
  8
0
 10
11.33210966139214
 20
-19.150647411335619
 30
0.0
 42
-0.5724326705872703
  0
VERTEX
  5
468D
  8
0
 10
10.184813492587089
 20
-18.77500000025077
 30
0.0
  0
VERTEX
  5
468E
  8
0
 10
9.6250000158967453
 20
-18.775000000149131
 30
0.0
 42
-0.4142135623199554
  0
VERTEX
  5
468F
  8
0
 10
8.8250000160418551
 20
-17.97500000014918
 30
0.0
  0
VERTEX
  5
4690
  8
0
 10
8.8250000160418551
 20
-17.27500000000407
 30
0.0
  0
VERTEX
  5
4691
  8
0
 10
15.825000016040031
 20
-17.275000000004301
 30
0.0
  0
VERTEX
  5
4692
  8
0
 10
16.186963300713071
 20
-8.1354270620046236
 30
0.0
 42
-0.4026668427419374
  0
VERTEX
  5
4693
  8
0
 10
17.186179985209861
 20
-7.1750000000048431
 30
0.0
  0
VERTEX
  5
4694
  8
0
 10
18.225000016041491
 20
-7.1750000000043883
 30
0.0
  0
VERTEX
  5
4695
  8
0
 10
18.425000016042219
 20
-7.3750000000042064
 30
0.0
  0
VERTEX
  5
4696
  8
0
 10
25.02500001604076
 20
-7.3750000000019318
 30
0.0
  0
VERTEX
  5
4697
  8
0
 10
25.225000016041491
 20
-7.1750000000018872
 30
0.0
  0
VERTEX
  5
4698
  8
0
 10
26.725000016039669
 20
-7.1750000000014316
 30
0.0
 42
-0.9999999999999998
  0
VERTEX
  5
4699
  8
0
 10
26.725000016039669
 20
-8.1750000000041592
 30
0.0
  0
VERTEX
  5
469A
  8
0
 10
17.225000016039669
 20
-8.1750000000046157
 30
0.0
  0
VERTEX
  5
469B
  8
0
 10
17.225000016039669
 20
-17.27500000000407
 30
0.0
 42
-0.4142135623728079
  0
VERTEX
  5
469C
  8
0
 10
15.82500001604185
 20
-18.675000000004161
 30
0.0
  0
VERTEX
  5
469D
  8
0
 10
15.24903831957036
 20
-18.675000000004161
 30
0.0
 42
0.5427832983428679
  0
VERTEX
  5
469E
  8
0
 10
14.97490972862172
 20
-19.096875000001319
 30
0.0
 42
-0.2772996015394571
  0
VERTEX
  5
469F
  8
0
 10
14.609445416664499
 20
-22.061423581230539
 30
0.0
 42
0.4682733384615019
  0
VERTEX
  5
46A0
  8
0
 10
14.70652131434454
 20
-22.511952459428699
 30
0.0
 42
-0.2789442285749476
  0
VERTEX
  5
46A1
  8
0
 10
17.22500001604331
 20
-26.675000000005529
 30
0.0
  0
VERTEX
  5
46A2
  8
0
 10
17.225000016039669
 20
-27.375000000003979
 30
0.0
  0
VERTEX
  5
46A3
  8
0
 10
21.72500001604331
 20
-27.375000000003979
 30
0.0
  0
VERTEX
  5
46A4
  8
0
 10
21.72500001604331
 20
-27.575000000003339
 30
0.0
 42
-0.4348123749608391
  0
VERTEX
  5
46A5
  8
0
 10
20.65524354229947
 20
-28.572564050263171
 30
0.0
  0
VERTEX
  5
46A6
  8
0
 10
16.955243542298739
 20
-28.313834846071931
 30
0.0
 42
-0.3939104756170651
  0
VERTEX
  5
46A7
  8
0
 10
16.025000016042579
 20
-27.316270795804829
 30
0.0
  0
VERTEX
  5
46A8
  8
0
 10
16.025000016046221
 20
-26.675000000003251
 30
0.0
 42
0.4142135623730951
  0
VERTEX
  5
46A9
  8
0
 10
12.525000016046221
 20
-23.175000000003251
 30
0.0
  0
VERTEX
  5
46AA
  8
0
 10
5.2250000160433103
 20
-23.175000000003251
 30
0.0
 42
0.4142135623730951
  0
VERTEX
  5
46AB
  8
0
 10
1.7250000160433101
 20
-26.675000000003251
 30
0.0
  0
VERTEX
  5
46AC
  8
0
 10
1.7250000160433101
 20
-43.17500000000507
 30
0.0
  0
VERTEX
  5
46AD
  8
0
 10
-1.0749999839577811
 20
-43.175000000004161
 30
0.0
 42
-0.414213562373428
  0
VERTEX
  5
46AE
  8
0
 10
-1.874999983957053
 20
-42.375000000003972
 30
0.0
  0
VERTEX
  5
46AF
  8
0
 10
-1.874999983957053
 20
-40.325000000004252
 30
0.0
 42
-0.4142135623748682
  0
VERTEX
  5
46B0
  8
0
 10
-1.424999983959963
 20
-39.875000000004427
 30
0.0
 42
-0.4142135623725041
  0
VERTEX
  5
46B1
  8
0
 10
-0.9749999839592362
 20
-40.325000000004252
 30
0.0
  0
VERTEX
  5
46B2
  8
0
 10
-0.9749999839592362
 20
-41.875000000004199
 30
0.0
  0
VERTEX
  5
46B3
  8
0
 10
0.4250000160404
 20
-41.875000000004199
 30
0.0
  0
VERTEX
  5
46B4
  8
0
 10
0.4250000160404
 20
-35.47500000000435
 30
0.0
  0
VERTEX
  5
46B5
  8
0
 10
-0.9749999839592362
 20
-35.47500000000435
 30
0.0
  0
VERTEX
  5
46B6
  8
0
 10
-0.9749999839592362
 20
-36.125000000003979
 30
0.0
 42
-0.4142135623730951
  0
VERTEX
  5
46B7
  8
0
 10
-1.424999983959963
 20
-36.575000000004707
 30
0.0
 42
-0.4142135623725041
  0
VERTEX
  5
46B8
  8
0
 10
-1.874999983957053
 20
-36.125000000004889
 30
0.0
  0
VERTEX
  5
46B9
  8
0
 10
-1.874999983957053
 20
-35.27500000000407
 30
0.0
 42
-0.4142135623726539
  0
VERTEX
  5
46BA
  8
0
 10
-0.9749999839592362
 20
-34.375000000003979
 30
0.0
  0
VERTEX
  5
46BB
  8
0
 10
0.4250000160436969
 20
-34.375000000003979
 30
0.0
  0
VERTEX
  5
46BC
  8
0
 10
0.4250000160418779
 20
-23.174999999840448
 30
0.0
  0
VERTEX
  5
46BD
  8
0
 10
-12.474999983944681
 20
-23.174999999998931
 30
0.0
 42
-0.1989123673830573
  0
VERTEX
  5
46BE
  8
0
 10
-13.46494947762457
 20
-22.764949493658261
 30
0.0
  0
VERTEX
  5
46BF
  8
0
 10
-15.73401297369727
 20
-20.495885997581919
 30
0.0
  0
VERTEX
  5
46C0
  8
0
 10
-16.75828022879486
 20
-20.495885997581919
 30
0.0
 42
-0.2983362412664925
  0
VERTEX
  5
46C1
  8
0
 10
-17.399963787255359
 20
-20.07560408924417
 30
0.0
 42
1.850368107317784
  0
VERTEX
  5
46C2
  8
0
 10
-18.77499998404036
 20
-22.174999999947548
 30
0.0
  0
VERTEX
  5
46C3
  8
0
 10
-17.774999983960331
 20
-22.175000000004619
 30
0.0
 42
-0.1989123673801356
  0
VERTEX
  5
46C4
  8
0
 10
-17.56286794960269
 20
-22.26286796564807
 30
0.0
  0
VERTEX
  5
46C5
  8
0
 10
-17.362867949601959
 20
-22.462867965646979
 30
0.0
 42
-0.4142135623737189
  0
VERTEX
  5
46C6
  8
0
 10
-17.362867949601959
 20
-22.887132034359521
 30
0.0
  0
VERTEX
  5
46C7
  8
0
 10
-17.56286794960269
 20
-23.087132034360248
 30
0.0
 42
-0.1989123673802284
  0
VERTEX
  5
46C8
  8
0
 10
-17.77499998395669
 20
-23.17500000000371
 30
0.0
  0
VERTEX
  5
46C9
  8
0
 10
-33.27499998395669
 20
-23.17500000000371
 30
0.0
  0
VERTEX
  5
46CA
  8
0
 10
-33.27499998395669
 20
-17.973010334720239
 30
0.0
 42
0.1763269807084801
  0
VERTEX
  5
46CB
  8
0
 10
-34.210822211480803
 20
-15.401859895973869
 30
0.0
  0
VERTEX
  5
46CC
  8
0
 10
-39.339177756430757
 20
-9.2901237511795216
 30
0.0
 42
-0.1763269807084215
  0
VERTEX
  5
46CD
  8
0
 10
-40.274999983954856
 20
-6.7189733124339446
 30
0.0
  0
SEQEND
  5
46CE
  8
0
  0
POLYLINE
  5
41B8
  8
0
 66
     1
 10
0.0
 20
0.0
 30
0.0
 70
     1
  0
VERTEX
  5
46CF
  8
0
 10
-18.624909795836771
 20
-21.415192378867339
 30
0.0
 42
0.7673269879784158
  0
VERTEX
  5
46D0
  8
0
 10
-18.474909795836219
 20
-21.97500000000321
 30
0.0
  0
VERTEX
  5
46D1
  8
0
 10
-17.274909795837321
 20
-21.97500000000321
 30
0.0
  0
VERTEX
  5
46D2
  8
0
 10
-17.274909795835491
 20
-23.674999999179931
 30
0.0
  0
VERTEX
  5
46D3
  8
0
 10
-29.879404833731002
 20
-23.67499999918061
 30
0.0
 42
0.1839743436377466
  0
VERTEX
  5
46D4
  8
0
 10
-31.874999983978942
 20
-24.435000000003701
 30
0.0
  0
VERTEX
  5
46D5
  8
0
 10
-31.874999983978029
 20
-23.475000000004119
 30
0.0
 42
0.4142135623733169
  0
VERTEX
  5
46D6
  8
0
 10
-32.174999983978211
 20
-23.17500000000371
 30
0.0
  0
VERTEX
  5
46D7
  8
0
 10
-32.574999983957838
 20
-23.17500000000371
 30
0.0
 42
0.4142135623730951
  0
VERTEX
  5
46D8
  8
0
 10
-32.87499998395802
 20
-23.475000000003892
 30
0.0
  0
VERTEX
  5
46D9
  8
0
 10
-32.87499998395711
 20
-43.875000000008519
 30
0.0
 42
0.4142135623773127
  0
VERTEX
  5
46DA
  8
0
 10
-32.574999983952381
 20
-44.175000000008481
 30
0.0
  0
VERTEX
  5
46DB
  8
0
 10
-32.274999983948561
 20
-44.175000000005518
 30
0.0
 42
0.4142135623699874
  0
VERTEX
  5
46DC
  8
0
 10
-31.97499998395293
 20
-43.875000000003979
 30
0.0
  0
VERTEX
  5
46DD
  8
0
 10
-31.974999983956561
 20
-43.175000000004381
 30
0.0
  0
VERTEX
  5
46DE
  8
0
 10
-30.8749999839753
 20
-43.175000000004161
 30
0.0
 42
0.4142135623735391
  0
VERTEX
  5
46DF
  8
0
 10
-30.574999983976031
 20
-42.875000000004427
 30
0.0
  0
VERTEX
  5
46E0
  8
0
 10
-30.574999983976031
 20
-42.575000000004472
 30
0.0
 42
0.414213562373761
  0
VERTEX
  5
46E1
  8
0
 10
-30.8749999839753
 20
-42.275000000004532
 30
0.0
  0
VERTEX
  5
46E2
  8
0
 10
-31.674999983958202
 20
-42.275000000004532
 30
0.0
  0
VERTEX
  5
46E3
  8
0
 10
-31.674999983958202
 20
-41.611396103054737
 30
0.0
  0
VERTEX
  5
46E4
  8
0
 10
-30.706801932442119
 20
-40.643198051539343
 30
0.0
 42
0.6681786379188248
  0
VERTEX
  5
46E5
  8
0
 10
-31.02499998397494
 20
-39.875000000005123
 30
0.0
  0
VERTEX
  5
46E6
  8
0
 10
-31.47499998395725
 20
-39.875000000004782
 30
0.0
  0
VERTEX
  5
46E7
  8
0
 10
-31.37499998395711
 20
-26.685980484835451
 30
0.0
 42
-0.416146736396814
  0
VERTEX
  5
46E8
  8
0
 10
-29.865106423312369
 20
-25.186013112704249
 30
0.0
 42
-0.4380437686141797
  0
VERTEX
  5
46E9
  8
0
 10
-29.568226726021429
 20
-25.512153310947841
 30
0.0
  0
VERTEX
  5
46EA
  8
0
 10
-29.692396657991281
 20
-26.93142212780424
 30
0.0
 42
1.000000000000079
  0
VERTEX
  5
46EB
  8
0
 10
-28.696201959900151
 20
-27.018577870550988
 30
0.0
  0
VERTEX
  5
46EC
  8
0
 10
-28.558673415564641
 20
-25.446619415676771
 30
0.0
 42
-0.3865331148211373
  0
VERTEX
  5
46ED
  8
0
 10
-28.26226190679759
 20
-25.172776117538319
 30
0.0
  0
VERTEX
  5
46EE
  8
0
 10
-17.266753460298471
 20
-25.08309007800915
 30
0.0
 42
0.4118266132869719
  0
VERTEX
  5
46EF
  8
0
 10
-16.27490979583277
 20
-24.083123341464329
 30
0.0
  0
VERTEX
  5
46F0
  8
0
 10
-16.27490979583823
 20
-21.9750000000023
 30
0.0
 42
0.414213562372799
  0
VERTEX
  5
46F1
  8
0
 10
-17.174909795837859
 20
-21.07500000000357
 30
0.0
  0
VERTEX
  5
46F2
  8
0
 10
-18.035679311295691
 20
-21.075000000003119
 30
0.0
  0
SEQEND
  5
46F3
  8
0
  0
POLYLINE
  5
41B9
  8
0
 66
     1
 10
0.0
 20
0.0
 30
0.0
 70
     1
  0
VERTEX
  5
46F4
  8
0
 10
0.1107442061461086
 20
-39.561225696303332
 30
0.0
 42
-0.2556906500445654
  0
VERTEX
  5
46F5
  8
0
 10
0.2259442061458401
 20
-39.771770133417931
 30
0.0
  0
VERTEX
  5
46F6
  8
0
 10
0.2259442061459538
 20
-40.475184523447922
 30
0.0
 42
-0.9999999999999998
  0
VERTEX
  5
46F7
  8
0
 10
-0.6740557938541372
 20
-40.475184523447858
 30
0.0
  0
VERTEX
  5
46F8
  8
0
 10
-0.6740557938541372
 20
-39.625184523447842
 30
0.0
  0
VERTEX
  5
46F9
  8
0
 10
-1.274055793854159
 20
-39.625184523447842
 30
0.0
  0
VERTEX
  5
46FA
  8
0
 10
-1.874055793854182
 20
-39.625184523447949
 30
0.0
  0
VERTEX
  5
46FB
  8
0
 10
-1.874055793854182
 20
-42.225184523448029
 30
0.0
 42
-0.4142135623730951
  0
VERTEX
  5
46FC
  8
0
 10
-2.1240557938541822
 20
-42.475184523447979
 30
0.0
  0
VERTEX
  5
46FD
  8
0
 10
-2.6240557938541822
 20
-42.475184523448029
 30
0.0
 42
-0.4142135623730951
  0
VERTEX
  5
46FE
  8
0
 10
-2.8740557938541822
 20
-42.225184523447979
 30
0.0
  0
VERTEX
  5
46FF
  8
0
 10
-2.8740557938541822
 20
-38.675184523448017
 30
0.0
  0
VERTEX
  5
4700
  8
0
 10
-2.8740557938541822
 20
-35.125184523447963
 30
0.0
 42
-0.4142135623730951
  0
VERTEX
  5
4701
  8
0
 10
-2.6240557938541822
 20
-34.875184523448013
 30
0.0
  0
VERTEX
  5
4702
  8
0
 10
-2.1240557938541822
 20
-34.875184523447963
 30
0.0
 42
-0.4142135623730951
  0
VERTEX
  5
4703
  8
0
 10
-1.874055793854182
 20
-35.12518452344802
 30
0.0
  0
VERTEX
  5
4704
  8
0
 10
-1.874055793854182
 20
-37.725184523447872
 30
0.0
  0
VERTEX
  5
4705
  8
0
 10
-1.274055793854159
 20
-37.725184523447872
 30
0.0
  0
VERTEX
  5
4706
  8
0
 10
-0.6740557938541372
 20
-37.725184523447872
 30
0.0
  0
VERTEX
  5
4707
  8
0
 10
-0.6740557938541372
 20
-36.875184523447849
 30
0.0
 42
-0.9999999999999998
  0
VERTEX
  5
4708
  8
0
 10
0.2259442061458401
 20
-36.875184523447899
 30
0.0
  0
VERTEX
  5
4709
  8
0
 10
0.2259442061458401
 20
-37.578598913477776
 30
0.0
 42
-0.2556906500445664
  0
VERTEX
  5
470A
  8
0
 10
0.1107442061447443
 20
-37.789143350590393
 30
0.0
 42
0.5471529031042364
  0
SEQEND
  5
470B
  8
0
  0
LINE
  5
41BA
  8
0
 10
-1.274055793854159
 20
-37.725184523447872
 30
0.0
 11
-1.274055793854159
 21
-39.625184523447842
 31
0.0
  0
POLYLINE
  5
41BB
  8
0
 66
     1
 10
0.0
 20
0.0
 30
0.0
 70
     1
  0
VERTEX
  5
470C
  8
0
 10
-31.141220051345641
 20
-39.825388504096168
 30
0.0
  0
VERTEX
  5
470D
  8
0
 10
-30.59122005134569
 20
-39.825388504096168
 30
0.0
  0
VERTEX
  5
470E
  8
0
 10
-30.59122005134569
 20
-43.37538850409544
 30
0.0
  0
VERTEX
  5
470F
  8
0
 10
-30.741213215399771
 20
-43.37538850409544
 30
0.0
 42
0.414213562374094
  0
VERTEX
  5
4710
  8
0
 10
-31.241220051298601
 20
-43.875395339992792
 30
0.0
  0
VERTEX
  5
4711
  8
0
 10
-31.241220051298601
 20
-44.24133701820017
 30
0.0
 42
0.3222824919740567
  0
VERTEX
  5
4712
  8
0
 10
-30.900262196458609
 20
-44.715368236647691
 30
0.0
 42
0.0594186347937949
  0
VERTEX
  5
4713
  8
0
 10
-26.72644562123461
 20
-45.583237014343119
 30
0.0
 42
0.4660174091873958
  0
VERTEX
  5
4714
  8
0
 10
-26.509965563276889
 20
-45.366550391995702
 30
0.0
  0
VERTEX
  5
4715
  8
0
 10
-26.60884370556213
 20
-44.236368054075683
 30
0.0
 42
0.310508253462837
  0
VERTEX
  5
4716
  8
0
 10
-26.752955174016989
 20
-44.061546863437457
 30
0.0
  0
VERTEX
  5
4717
  8
0
 10
-26.946494762979938
 20
-44.006050279340791
 30
0.0
 42
-0.3345953195019858
  0
VERTEX
  5
4718
  8
0
 10
-28.39522005134555
 20
-42.083526887464473
 30
0.0
  0
VERTEX
  5
4719
  8
0
 10
-28.39522005134555
 20
-40.62538850409544
 30
0.0
  0
VERTEX
  5
471A
  8
0
 10
-26.66892710150924
 20
-41.25370775345948
 30
0.0
 42
0.8390996311772196
  0
VERTEX
  5
471B
  8
0
 10
-26.324244387955019
 20
-40.656699781092811
 30
0.0
  0
VERTEX
  5
471C
  8
0
 10
-28.395220051345781
 20
-38.918944865764608
 30
0.0
  0
VERTEX
  5
471D
  8
0
 10
-28.395220051346001
 20
-36.987305934953731
 30
0.0
  0
VERTEX
  5
471E
  8
0
 10
-26.668927101509471
 20
-37.615625184317878
 30
0.0
 42
0.8390996311772196
  0
VERTEX
  5
471F
  8
0
 10
-26.32424438795525
 20
-37.018617211951209
 30
0.0
  0
VERTEX
  5
4720
  8
0
 10
-28.395220051346001
 20
-35.280862296622793
 30
0.0
  0
VERTEX
  5
4721
  8
0
 10
-29.920861010338999
 20
-33.881699064505483
 30
0.0
 42
0.6526623844698686
  0
VERTEX
  5
4722
  8
0
 10
-30.59122005134569
 20
-34.176497281844149
 30
0.0
  0
VERTEX
  5
4723
  8
0
 10
-30.59122005134569
 20
-38.371229046217081
 30
0.0
  0
VERTEX
  5
4724
  8
0
 10
-31.3449158138624
 20
-39.430447011304523
 30
0.0
 42
0.609409364796348
  0
SEQEND
  5
4725
  8
0
  0
POLYLINE
  5
41BC
  8
0
 66
     1
 10
0.0
 20
0.0
 30
0.0
 70
     1
  0
VERTEX
  5
4726
  8
0
 10
101.1250000160439
 20
-8.1750000000041592
 30
0.0
  0
VERTEX
  5
4727
  8
0
 10
17.225000016039608
 20
-8.1750000000046157
 30
0.0
  0
VERTEX
  5
4728
  8
0
 10
17.225000016040521
 20
-27.17499999999643
 30
0.0
  0
VERTEX
  5
4729
  8
0
 10
122.22500001604431
 20
-27.17500000000053
 30
0.0
  0
VERTEX
  5
472A
  8
0
 10
122.72500001604431
 20
-26.675000000000519
 30
0.0
  0
VERTEX
  5
472B
  8
0
 10
122.7250000160425
 20
-8.6749999999996135
 30
0.0
  0
VERTEX
  5
472C
  8
0
 10
122.2250000160425
 20
-8.1749999999996135
 30
0.0
  0
VERTEX
  5
472D
  8
0
 10
112.7250000160434
 20
-8.1749999999996135
 30
0.0
  0
VERTEX
  5
472E
  8
0
 10
112.7250000160434
 20
-16.17499999999961
 30
0.0
  0
VERTEX
  5
472F
  8
0
 10
102.7250000160434
 20
-16.175000000004161
 30
0.0
  0
SEQEND
  5
4730
  8
0
  0
POLYLINE
  5
41BD
  8
0
 66
     1
 10
0.0
 20
0.0
 30
0.0
 70
     1
 40
0.35
 41
0.35
  0
VERTEX
  5
4731
  8
0
 10
100.9815343330682
 20
-8.3500000000041616
 30
0.0
  0
VERTEX
  5
4732
  8
0
 10
17.400000016039609
 20
-8.3500000000046146
 30
0.0
  0
VERTEX
  5
4733
  8
0
 10
17.400000016040511
 20
-26.99999999999644
 30
0.0
  0
VERTEX
  5
4734
  8
0
 10
122.15251264262901
 20
-27.000000000000519
 30
0.0
  0
VERTEX
  5
4735
  8
0
 10
122.55000001604429
 20
-26.602512626585241
 30
0.0
  0
VERTEX
  5
4736
  8
0
 10
122.5500000160425
 20
-8.7474873734149305
 30
0.0
  0
VERTEX
  5
4737
  8
0
 10
122.1525126426272
 20
-8.3499999999996177
 30
0.0
  0
VERTEX
  5
4738
  8
0
 10
112.90000001604341
 20
-8.3499999999996142
 30
0.0
  0
VERTEX
  5
4739
  8
0
 10
112.90000001604341
 20
-16.349999999999529
 30
0.0
  0
VERTEX
  5
473A
  8
0
 10
102.58153433306759
 20
-16.350000000004229
 30
0.0
  0
SEQEND
  5
473B
  8
0
  0
LINE
  5
41BE
  8
0
 10
17.225000016040301
 20
-21.974198974159101
 30
0.0
 11
63.42537425972759
 21
-27.1750000000028
 31
0.0
  0
ARC
  5
41BF
  8
0
 10
-5.9055209429103854
 20
-0.2316566599891985
 30
0.0
 40
43.253896975683567
 50
321.47095026057241
 51
349.41788182999881
  0
LINE
  5
41C0
  8
0
 10
-20.874055793848719
 20
-31.174999977986211
 30
0.0
 11
-8.8740557938541826
 21
-43.174999977980796
 31
0.0
  0
LINE
  5
41C1
  8
0
 10
-20.874055793848719
 20
-43.174999977980796
 30
0.0
 11
-8.8740557938541826
 21
-31.174999977986211
 31
0.0
  0
POLYLINE
  5
41C2
  8
0
 66
     1
 10
0.0
 20
0.0
 30
0.0
 70
     1
  0
VERTEX
  5
473C
  8
0
 10
-20.874055793848719
 20
-31.174999977986211
 30
0.0
  0
VERTEX
  5
473D
  8
0
 10
-8.8740557938541826
 20
-31.174999977986211
 30
0.0
  0
VERTEX
  5
473E
  8
0
 10
-8.8740557938541826
 20
-43.174999977980796
 30
0.0
  0
VERTEX
  5
473F
  8
0
 10
-20.874055793848719
 20
-43.174999977980796
 30
0.0
  0
SEQEND
  5
4740
  8
0
  0
POLYLINE
  5
41C3
  8
0
  6
CONTINUOUS
 66
     1
 10
0.0
 20
0.0
 30
0.0
  0
VERTEX
  5
4741
  8
0
  6
CONTINUOUS
 10
-8.8740557938541826
 20
-117.4041745430028
 30
0.0
  0
VERTEX
  5
4742
  8
0
  6
CONTINUOUS
 10
-8.8740557938541826
 20
-31.174999977986211
 30
0.0
  0
VERTEX
  5
4743
  8
0
  6
CONTINUOUS
 10
-2.8740557938541822
 20
-31.174999977986211
 30
0.0
  0
VERTEX
  5
4744
  8
0
  6
CONTINUOUS
 10
-2.8740557938541822
 20
-117.4041745430028
 30
0.0
  0
SEQEND
  5
4745
  8
0
  6
CONTINUOUS
  0
POLYLINE
  5
41C4
  8
0
  6
CONTINUOUS
 66
     1
 10
0.0
 20
0.0
 30
0.0
  0
VERTEX
  5
4746
  8
0
  6
CONTINUOUS
 10
-7.8740557938541818
 20
-31.174999977986211
 30
0.0
  0
VERTEX
  5
4747
  8
0
  6
CONTINUOUS
 10
-7.8740557938541818
 20
-117.4041745430028
 30
0.0
  0
SEQEND
  5
4748
  8
0
  6
CONTINUOUS
  0
POLYLINE
  5
41C5
  8
0
  6
CONTINUOUS
 66
     1
 10
0.0
 20
0.0
 30
0.0
  0
VERTEX
  5
4749
  8
0
  6
CONTINUOUS
 10
-6.8740557938541818
 20
-31.174999977986211
 30
0.0
  0
VERTEX
  5
474A
  8
0
  6
CONTINUOUS
 10
-6.8740557938541818
 20
-117.4041745430028
 30
0.0
  0
SEQEND
  5
474B
  8
0
  6
CONTINUOUS
  0
POLYLINE
  5
41C6
  8
0
  6
CONTINUOUS
 66
     1
 10
0.0
 20
0.0
 30
0.0
  0
VERTEX
  5
474C
  8
0
  6
CONTINUOUS
 10
-5.8740557938541818
 20
-31.174999977986211
 30
0.0
  0
VERTEX
  5
474D
  8
0
  6
CONTINUOUS
 10
-5.8740557938541818
 20
-117.4041745430028
 30
0.0
  0
SEQEND
  5
474E
  8
0
  6
CONTINUOUS
  0
POLYLINE
  5
41C7
  8
0
  6
CONTINUOUS
 66
     1
 10
0.0
 20
0.0
 30
0.0
  0
VERTEX
  5
474F
  8
0
  6
CONTINUOUS
 10
-4.8740557938541818
 20
-31.174999977986211
 30
0.0
  0
VERTEX
  5
4750
  8
0
  6
CONTINUOUS
 10
-4.8740557938541818
 20
-117.4041745430028
 30
0.0
  0
SEQEND
  5
4751
  8
0
  6
CONTINUOUS
  0
POLYLINE
  5
41C8
  8
0
  6
CONTINUOUS
 66
     1
 10
0.0
 20
0.0
 30
0.0
  0
VERTEX
  5
4752
  8
0
  6
CONTINUOUS
 10
-3.8740557938541822
 20
-31.174999977986211
 30
0.0
  0
VERTEX
  5
4753
  8
0
  6
CONTINUOUS
 10
-3.8740557938541822
 20
-117.4041745430028
 30
0.0
  0
SEQEND
  5
4754
  8
0
  6
CONTINUOUS
  0
POLYLINE
  5
41C9
  8
0
  6
CONTINUOUS
 66
     1
 10
0.0
 20
0.0
 30
0.0
  0
VERTEX
  5
4755
  8
0
  6
CONTINUOUS
 10
-20.874055793848719
 20
-117.4041745430028
 30
0.0
  0
VERTEX
  5
4756
  8
0
  6
CONTINUOUS
 10
-20.874055793848719
 20
-31.174999977986211
 30
0.0
  0
VERTEX
  5
4757
  8
0
  6
CONTINUOUS
 10
-26.874055793848729
 20
-31.174999977986211
 30
0.0
  0
VERTEX
  5
4758
  8
0
  6
CONTINUOUS
 10
-26.874055793848729
 20
-117.4041745430028
 30
0.0
  0
SEQEND
  5
4759
  8
0
  6
CONTINUOUS
  0
POLYLINE
  5
41CA
  8
0
  6
CONTINUOUS
 66
     1
 10
0.0
 20
0.0
 30
0.0
  0
VERTEX
  5
475A
  8
0
  6
CONTINUOUS
 10
-21.874055793848729
 20
-31.174999977986211
 30
0.0
  0
VERTEX
  5
475B
  8
0
  6
CONTINUOUS
 10
-21.874055793848729
 20
-117.4041745430028
 30
0.0
  0
SEQEND
  5
475C
  8
0
  6
CONTINUOUS
  0
POLYLINE
  5
41CB
  8
0
  6
CONTINUOUS
 66
     1
 10
0.0
 20
0.0
 30
0.0
  0
VERTEX
  5
475D
  8
0
  6
CONTINUOUS
 10
-22.874055793848729
 20
-31.174999977986211
 30
0.0
  0
VERTEX
  5
475E
  8
0
  6
CONTINUOUS
 10
-22.874055793848729
 20
-117.4041745430028
 30
0.0
  0
SEQEND
  5
475F
  8
0
  6
CONTINUOUS
  0
POLYLINE
  5
41CC
  8
0
  6
CONTINUOUS
 66
     1
 10
0.0
 20
0.0
 30
0.0
  0
VERTEX
  5
4760
  8
0
  6
CONTINUOUS
 10
-23.874055793848729
 20
-31.174999977986211
 30
0.0
  0
VERTEX
  5
4761
  8
0
  6
CONTINUOUS
 10
-23.874055793848729
 20
-117.4041745430028
 30
0.0
  0
SEQEND
  5
4762
  8
0
  6
CONTINUOUS
  0
POLYLINE
  5
41CD
  8
0
  6
CONTINUOUS
 66
     1
 10
0.0
 20
0.0
 30
0.0
  0
VERTEX
  5
4763
  8
0
  6
CONTINUOUS
 10
-24.874055793848729
 20
-31.174999977986211
 30
0.0
  0
VERTEX
  5
4764
  8
0
  6
CONTINUOUS
 10
-24.874055793848729
 20
-117.4041745430028
 30
0.0
  0
SEQEND
  5
4765
  8
0
  6
CONTINUOUS
  0
POLYLINE
  5
41CE
  8
0
  6
CONTINUOUS
 66
     1
 10
0.0
 20
0.0
 30
0.0
  0
VERTEX
  5
4766
  8
0
  6
CONTINUOUS
 10
-25.874055793848729
 20
-31.174999977986211
 30
0.0
  0
VERTEX
  5
4767
  8
0
  6
CONTINUOUS
 10
-25.874055793848729
 20
-117.4041745430027
 30
0.0
  0
SEQEND
  5
4768
  8
0
  6
CONTINUOUS
  0
POLYLINE
  5
41D0
  8
0
 66
     1
 10
0.0
 20
0.0
 30
0.0
 70
     1
  0
VERTEX
  5
4769
  8
0
 10
10.725000016043239
 20
-0.1749999999996135
 30
0.0
  0
VERTEX
  5
476A
  8
0
 10
10.7250000160433
 20
189.82500000000039
 30
0.0
  0
VERTEX
  5
476B
  8
0
 10
55.725000016043303
 20
189.82500000000039
 30
0.0
  0
VERTEX
  5
476C
  8
0
 10
55.725000016043253
 20
-0.1749999999996272
 30
0.0
  0
SEQEND
  5
476D
  8
0
  0
POLYLINE
  5
41D1
  8
0
 66
     1
 10
0.0
 20
0.0
 30
0.0
 70
     1
 40
0.35
 41
0.35
  0
VERTEX
  5
476E
  8
0
 10
10.90000001604324
 20
0.0000000000003865
 30
0.0
  0
VERTEX
  5
476F
  8
0
 10
10.9000000160433
 20
189.6500000000004
 30
0.0
  0
VERTEX
  5
4770
  8
0
 10
55.55000001604332
 20
189.6500000000004
 30
0.0
  0
VERTEX
  5
4771
  8
0
 10
55.550000016043249
 20
0.0000000000003979
 30
0.0
  0
SEQEND
  5
4772
  8
0
  0
POLYLINE
  5
41D2
  8
0
  6
CONTINUOUS
 66
     1
 10
0.0
 20
0.0
 30
0.0
  0
VERTEX
  5
4773
  8
0
  6
CONTINUOUS
 10
10.9000000160433
 20
189.6500000000004
 30
0.0
  0
VERTEX
  5
4774
  8
0
  6
CONTINUOUS
 10
55.550000016043249
 20
0.0000000000003979
 30
0.0
  0
SEQEND
  5
4775
  8
0
  6
CONTINUOUS
  0
POLYLINE
  5
41D3
  8
0
  6
CONTINUOUS
 66
     1
 10
0.0
 20
0.0
 30
0.0
  0
VERTEX
  5
4776
  8
0
  6
CONTINUOUS
 10
55.55000001604332
 20
189.6500000000004
 30
0.0
  0
VERTEX
  5
4777
  8
0
  6
CONTINUOUS
 10
10.90000001604338
 20
0.0000000000003979
 30
0.0
  0
SEQEND
  5
4778
  8
0
  6
CONTINUOUS
  0
POLYLINE
  5
41D5
  8
0
 66
     1
 10
0.0
 20
0.0
 30
0.0
 70
     1
  0
VERTEX
  5
4779
  8
0
 10
55.725000016043253
 20
-0.1749999999996135
 30
0.0
  0
VERTEX
  5
477A
  8
0
 10
55.725000016043303
 20
189.82500000000039
 30
0.0
  0
VERTEX
  5
477B
  8
0
 10
100.7250000160433
 20
189.82500000000039
 30
0.0
  0
VERTEX
  5
477C
  8
0
 10
100.7250000160432
 20
-0.1749999999996272
 30
0.0
  0
SEQEND
  5
477D
  8
0
  0
POLYLINE
  5
41D6
  8
0
 66
     1
 10
0.0
 20
0.0
 30
0.0
 70
     1
 40
0.35
 41
0.35
  0
VERTEX
  5
477E
  8
0
 10
55.900000016043244
 20
0.0000000000003865
 30
0.0
  0
VERTEX
  5
477F
  8
0
 10
55.9000000160433
 20
189.6500000000004
 30
0.0
  0
VERTEX
  5
4780
  8
0
 10
100.5500000160433
 20
189.6500000000004
 30
0.0
  0
VERTEX
  5
4781
  8
0
 10
100.5500000160432
 20
0.0000000000003979
 30
0.0
  0
SEQEND
  5
4782
  8
0
  0
POLYLINE
  5
41D7
  8
0
  6
CONTINUOUS
 66
     1
 10
0.0
 20
0.0
 30
0.0
  0
VERTEX
  5
4783
  8
0
  6
CONTINUOUS
 10
55.9000000160433
 20
189.6500000000004
 30
0.0
  0
VERTEX
  5
4784
  8
0
  6
CONTINUOUS
 10
100.5500000160432
 20
0.0000000000003979
 30
0.0
  0
SEQEND
  5
4785
  8
0
  6
CONTINUOUS
  0
POLYLINE
  5
41D8
  8
0
  6
CONTINUOUS
 66
     1
 10
0.0
 20
0.0
 30
0.0
  0
VERTEX
  5
4786
  8
0
  6
CONTINUOUS
 10
100.5500000160433
 20
189.6500000000004
 30
0.0
  0
VERTEX
  5
4787
  8
0
  6
CONTINUOUS
 10
55.900000016043371
 20
0.0000000000003979
 30
0.0
  0
SEQEND
  5
4788
  8
0
  6
CONTINUOUS
  0
INSERT
  5
41D9
  8
0
  6
CONTINUOUS
  2
*X37
 10
0.0
 20
0.0
 30
0.0
1001
ACAD
1000
HATCH
1002
{
1070
    19
1000
ANSI31
1040
1.0
1040
0.0
1000
R14_HATCH_DATA
1000
41D9
1011
1.0
1021
0.0
1031
0.0
1021
0.0
1031
0.0
1011
0.0
1021
0.0
1031
0.0
1021
1.0
1031
0.0
1011
0.0
1021
0.0
1031
0.0
1021
0.0
1031
1.0
1040
0.0
1010
0.0
1020
0.0
1030
1.0
1000
ANSI31
1070
     0
1070
     0
1071
        1
1071
        7
1070
     0
1070
     1
1071
        4
1040
-34.274999983956782
1040
-23.175000000003791
1040
-104.2749999839567
1040
-23.175000000003791
1040
-104.2749999839567
1040
-99.175000000003806
1040
-34.274999983956782
1040
-99.175000000003806
1071
        0
1070
     0
1070
     1
1040
0.0
1040
1.0
1070
     0
1070
     1
1040
0.7853981633974483
1040
5.5837704831416772
1040
-0.1749999999996987
1040
-2.2450640302672871
1040
2.245064030267288
1070
     0
1040
0.3247920190654526
1071
        1
1040
-71.566673656869682
1040
-59.367080473643419
1040
0.0
1002
}
  0
POLYLINE
  5
41DA
  8
0
  6
CONTINUOUS
 66
     1
 10
0.0
 20
0.0
 30
0.0
 70
     1
  0
VERTEX
  5
47AD
  8
0
  6
CONTINUOUS
 10
-104.2749999839567
 20
-23.175000000003791
 30
0.0
  0
VERTEX
  5
47AE
  8
0
  6
CONTINUOUS
 10
-34.274999983956782
 20
-23.175000000003791
 30
0.0
  0
VERTEX
  5
47AF
  8
0
  6
CONTINUOUS
 10
-34.274999983956782
 20
-99.175000000003806
 30
0.0
  0
VERTEX
  5
47B0
  8
0
  6
CONTINUOUS
 10
-104.2749999839567
 20
-99.175000000003806
 30
0.0
  0
SEQEND
  5
47B1
  8
0
  6
CONTINUOUS
  0
POLYLINE
  5
41DB
  8
0
  6
CONTINUOUS
 66
     1
 10
0.0
 20
0.0
 30
0.0
 70
     1
 40
0.5
 41
0.5
  0
VERTEX
  5
47B2
  8
0
  6
CONTINUOUS
 10
-104.0249999839568
 20
-23.425000000003791
 30
0.0
  0
VERTEX
  5
47B3
  8
0
  6
CONTINUOUS
 10
-34.524999983956782
 20
-23.425000000003791
 30
0.0
  0
VERTEX
  5
47B4
  8
0
  6
CONTINUOUS
 10
-34.524999983956782
 20
-98.925000000003806
 30
0.0
  0
VERTEX
  5
47B5
  8
0
  6
CONTINUOUS
 10
-104.0249999839568
 20
-98.925000000003806
 30
0.0
  0
SEQEND
  5
47B6
  8
0
  6
CONTINUOUS
  0
ARC
  5
41DC
  8
0
  6
CONTINUOUS
 10
-30.303469275837379
 20
-104.17500000000371
 30
0.0
 40
6.3853783102910189
 50
128.46033180988201
 51
231.53966819011791
  0
ARC
  5
41DD
  8
0
  6
CONTINUOUS
 10
-108.24653069207611
 20
-104.17500000000371
 30
0.0
 40
6.3853783102910189
 50
308.46033180988212
 51
51.539668190117951
  0
VIEWPORT
  5
4192
 67
     1
  8
0
  6
CONTINUOUS
 10
143.43592834472651
 20
99.959580898284912
 30
0.0
 40
322.3754288017887
 41
222.15178063964851
 68
     1
 69
     1
1001
ACAD
1000
MVIEW
1002
{
1070
    16
1010
0.0
1020
0.0
1030
0.0
1010
0.0
1020
0.0
1030
1.0
1040
0.0
1040
222.15178063964851
1040
143.43592834472651
1040
99.959580898284912
1040
50.0
1040
0.0
1040
0.0
1070
     0
1070
  1000
1070
     1
1070
     1
1070
     0
1070
     0
1070
     0
1070
     0
1040
0.0
1040
0.0
1040
0.0
1040
10.0
1040
10.0
1040
10.0
1040
10.0
1070
     0
1002
{
1002
}
1002
}
  0
VIEWPORT
  5
4196
 67
     1
  8
0
  6
CONTINUOUS
 10
143.4359130859375
 20
99.95958781242372
 30
0.0
 40
229.49746093749999
 41
159.9353404998779
 68
     2
 69
     2
1001
ACAD
1000
MVIEW
1002
{
1070
    16
1010
0.0
1020
0.0
1030
0.0
1010
0.0
1020
0.0
1030
1.0
1040
0.0
1040
331.86249233367658
1040
-34.050855227960973
1040
44.464419201737478
1040
50.0
1040
0.0
1040
0.0
1070
     0
1070
  1000
1070
     1
1070
     3
1070
     0
1070
     0
1070
     0
1070
     0
1040
0.0
1040
0.0
1040
0.0
1040
10.0
1040
10.0
1040
10.0
1040
10.0
1070
     0
1002
{
1002
}
1002
}
  0
ENDSEC
  0
EOF
