999
DXF file: 170-100-50-40-88_4way_boss.dxf
999
Pro/ENGINEER 2006320 by Parametric Technology Corporation
  0
SECTION
  2
HEADER
  9
$ACADVER
  1
AC1012
  9
$DWGCODEPAGE
  3
ANSI_1252
  9
$EXTMAX
 10
420.0
 20
297.0
 30
0.0
  9
$EXTMIN
 10
0.0
 20
0.0
 30
0.0
  9
$LIMMIN
 10
0.0
 20
0.0
  9
$LIMMAX
 10
420.0
 20
297.0
  9
$VIEWCTR
 10
210.0
 20
148.5
  9
$VIEWSIZE
 40
297.0
  9
$CLAYER
  8
0
  9
$LTSCALE
 40
23.1
  9
$CELTYPE
  6
BYLAYER
  9
$DIMSCALE
 40
1.0
  9
$DIMASZ
 40
3.0
  9
$DIMEXO
 40
2.625
  9
$DIMDLI
 40
15.96
  9
$DIMEXE
 40
7.56
  9
$DIMCEN
 40
3.78
  9
$DIMLFAC
 40
1.0
  9
$DIMBLK
  1
_FILLED
  9
$DIMTXT
 40
3.0
  9
$DIMTOL
 70
0
  9
$DIMLIM
 70
0
  9
$DIMTFAC
 40
1.0
  9
$PDMODE
 70
3
  9
$PDSIZE
 40
0.3125
  9
$HANDSEED
  5
284
  0
ENDSEC
  0
SECTION
  2
CLASSES
  0
ENDSEC
  0
SECTION
  2
TABLES
  0
TABLE
  2
VPORT
  5
8
100
AcDbSymbolTable
 70
2
  0
VPORT
  5
1F4
100
AcDbSymbolTableRecord
100
AcDbViewportTableRecord
  2
*ACTIVE
 70
0
 10
0.0
 20
0.0
 11
1.0
 21
1.0
 12
210.0
 22
148.5
 13
0.0
 23
0.0
 14
1.0
 24
1.0
 15
0.0
 25
0.0
 16
0.0
 26
0.0
 36
1.0
 17
0.0
 27
0.0
 37
0.0
 40
297.0
 41
1.4141414141
 42
50.0
 43
0.0
 44
0.0
 50
0.0
 51
0.0
 71
0
 72
100
 73
1
 74
1
 75
0
 76
0
 77
0
 78
0
  0
ENDTAB
  0
TABLE
  2
LTYPE
  5
5
100
AcDbSymbolTable
 70
6
  0
LTYPE
  5
14
100
AcDbSymbolTableRecord
100
AcDbLinetypeTableRecord
  2
BYBLOCK
 70
0
  3

 72
65
 73
0
 40
0.0
  0
LTYPE
  5
15
100
AcDbSymbolTableRecord
100
AcDbLinetypeTableRecord
  2
BYLAYER
 70
0
  3

 72
65
 73
0
 40
0.0
  0
LTYPE
  5
16
100
AcDbSymbolTableRecord
100
AcDbLinetypeTableRecord
  2
CONTINUOUS
 70
64
  3
Solid line
 72
65
 73
0
 40
0.0
  0
LTYPE
  5
1F5
100
AcDbSymbolTableRecord
100
AcDbLinetypeTableRecord
  2
CENTER
 70
64
  3
____ _ ____ _ ____ _ ____ _ ____ _ ____ _ ____
 72
65
 73
4
 40
0.6
 49
0.375
 74
0
 49
-0.075
 74
0
 49
0.075
 74
0
 49
-0.075
 74
0
  0
LTYPE
  5
1F6
100
AcDbSymbolTableRecord
100
AcDbLinetypeTableRecord
  2
HIDDEN
 70
64
  3
- - - - - - - - - - - - - - - - - - - -
 72
65
 73
2
 40
0.2
 49
0.1
 74
0
 49
-0.1
 74
0
  0
LTYPE
  5
1F7
100
AcDbSymbolTableRecord
100
AcDbLinetypeTableRecord
  2
PHANTOM
 70
64
  3
_____ _ _ _____ _ _ _____ _ _ _____
 72
65
 73
6
 40
0.8
 49
0.45
 74
0
 49
-0.05
 74
0
 49
0.1
 74
0
 49
-0.05
 74
0
 49
0.1
 74
0
 49
-0.05
 74
0
  0
LTYPE
  5
1F8
100
AcDbSymbolTableRecord
100
AcDbLinetypeTableRecord
  2
DOT
 70
64
  3
. . . . . . . . . . . . . . . . . . . .
 72
65
 73
2
 40
0.2
 49
0.1
 74
0
 49
-0.1
 74
0
  0
LTYPE
  5
1F9
100
AcDbSymbolTableRecord
100
AcDbLinetypeTableRecord
  2
DASHED
 70
64
  3
- - - - - - - - - - - - - - - - - - - -
 72
65
 73
2
 40
0.2
 49
0.1
 74
0
 49
-0.1
 74
0
  0
ENDTAB
  0
TABLE
  2
LAYER
  5
2
100
AcDbSymbolTable
 70
36
  0
LAYER
  5
10
100
AcDbSymbolTableRecord
100
AcDbLayerTableRecord
  2
0
 70
0
 62
7
  6
CONTINUOUS
  0
LAYER
  5
1FA
100
AcDbSymbolTableRecord
100
AcDbLayerTableRecord
  2
DEFAULT_1
 70
0
 62
7
  6
CENTER
  0
LAYER
  5
1FB
100
AcDbSymbolTableRecord
100
AcDbLayerTableRecord
  2
DEFAULT_2
 70
0
 62
8
  6
HIDDEN
  0
LAYER
  5
1FC
100
AcDbSymbolTableRecord
100
AcDbLayerTableRecord
  2
DEFAULT_3
 70
0
 62
7
  6
PHANTOM
  0
LAYER
  5
1FD
100
AcDbSymbolTableRecord
100
AcDbLayerTableRecord
  2
_2D_DELETED_OBJS
 70
0
 62
7
  6
CONTINUOUS
  0
LAYER
  5
1FE
100
AcDbSymbolTableRecord
100
AcDbLayerTableRecord
  2
01___PRT_ALL_DTM_PLN
 70
0
 62
7
  6
CONTINUOUS
  0
LAYER
  5
1FF
100
AcDbSymbolTableRecord
100
AcDbLayerTableRecord
  2
01___PRT_DEF_DTM_PLN
 70
0
 62
7
  6
CONTINUOUS
  0
LAYER
  5
200
100
AcDbSymbolTableRecord
100
AcDbLayerTableRecord
  2
02___PRT_ALL_AXES
 70
0
 62
7
  6
CONTINUOUS
  0
LAYER
  5
201
100
AcDbSymbolTableRecord
100
AcDbLayerTableRecord
  2
03___PRT_ALL_CURVES
 70
0
 62
7
  6
CONTINUOUS
  0
LAYER
  5
202
100
AcDbSymbolTableRecord
100
AcDbLayerTableRecord
  2
04___PRT_ALL_DTM_PNT
 70
0
 62
7
  6
CONTINUOUS
  0
LAYER
  5
203
100
AcDbSymbolTableRecord
100
AcDbLayerTableRecord
  2
05___PRT_ALL_DTM_CSYS
 70
0
 62
7
  6
CONTINUOUS
  0
LAYER
  5
204
100
AcDbSymbolTableRecord
100
AcDbLayerTableRecord
  2
05___PRT_DEF_DTM_CSYS
 70
0
 62
7
  6
CONTINUOUS
  0
LAYER
  5
205
100
AcDbSymbolTableRecord
100
AcDbLayerTableRecord
  2
06___PRT_ALL_SURFS
 70
0
 62
7
  6
CONTINUOUS
  0
LAYER
  5
206
100
AcDbSymbolTableRecord
100
AcDbLayerTableRecord
  2
CURVES
 70
0
 62
7
  6
CONTINUOUS
  0
ENDTAB
  0
TABLE
  2
STYLE
  5
3
100
AcDbSymbolTable
 70
1
  0
STYLE
  5
11
100
AcDbSymbolTableRecord
100
AcDbTextStyleTableRecord
  2
STANDARD
 70
0
 40
0.0
 41
0.6
 50
0.0
 71
0
 42
0.2
  3
txt
  4

  0
ENDTAB
  0
TABLE
  2
VIEW
  5
6
100
AcDbSymbolTable
 70
0
  0
ENDTAB
  0
TABLE
  2
UCS
  5
7
100
AcDbSymbolTable
 70
0
  0
ENDTAB
  0
TABLE
  2
APPID
  5
9
100
AcDbSymbolTable
 70
1
  0
APPID
  5
207
100
AcDbSymbolTableRecord
100
AcDbRegAppTableRecord
  2
ACAD
 70
0
  0
ENDTAB
  0
TABLE
  2
BLOCK_RECORD
  5
1
100
AcDbSymbolTable
 70
0
  0
BLOCK_RECORD
  5
1F
100
AcDbSymbolTableRecord
100
AcDbBlockTableRecord
  2
*MODEL_SPACE
  0
BLOCK_RECORD
  5
1B
100
AcDbSymbolTableRecord
100
AcDbBlockTableRecord
  2
*PAPER_SPACE
  0
BLOCK_RECORD
  5
208
100
AcDbSymbolTableRecord
100
AcDbBlockTableRecord
  2
_FILLED
  0
BLOCK_RECORD
  5
209
100
AcDbSymbolTableRecord
100
AcDbBlockTableRecord
  2
*D0
  0
BLOCK_RECORD
  5
20A
100
AcDbSymbolTableRecord
100
AcDbBlockTableRecord
  2
*D1
  0
BLOCK_RECORD
  5
20B
100
AcDbSymbolTableRecord
100
AcDbBlockTableRecord
  2
*D2
  0
BLOCK_RECORD
  5
20C
100
AcDbSymbolTableRecord
100
AcDbBlockTableRecord
  2
*D3
  0
BLOCK_RECORD
  5
20D
100
AcDbSymbolTableRecord
100
AcDbBlockTableRecord
  2
*D4
  0
ENDTAB
  0
TABLE
  2
DIMSTYLE
  5
A
100
AcDbSymbolTable
 70
1
  0
DIMSTYLE
105
20E
100
AcDbSymbolTableRecord
100
AcDbDimStyleTableRecord
  2
STANDARD
 70
0
  3

  4

  5
_FILLED
  6
_FILLED
  7
_FILLED
 40
1.0
 41
3.0
 42
0.0625
 43
0.38
 44
0.18
 45
0.0
 46
0.0
 47
0.03
 48
0.03
140
3.0
141
0.09
142
0.0
143
25.4
144
1.0
145
0.0
146
1.0
147
0.09
 71
0.0
 72
0.0
 73
1
 74
1
 75
0
 76
0
 77
0
 78
8
170
0
171
2
172
0
173
0
174
0
175
0
176
0
177
0
178
0
270
2
271
2
272
2
273
2
274
2
275
0
280
0
281
0
282
0
283
1
284
8
285
0
286
0
287
3
288
0
340
11
  0
DIMSTYLE
105
20F
100
AcDbSymbolTableRecord
100
AcDbDimStyleTableRecord
  2
DIMSTYLE_1
 70
0
  3

  4

  5
_FILLED
  6
_FILLED
  7
_FILLED
 40
1.0
 41
3.0
 42
0.0625
 43
0.38
 44
0.18
 45
0.0
 46
0.0
 47
0.0
 48
0.0
140
3.0
141
0.09
142
0.0
143
25.4
144
1.0
145
0.0
146
1.0
147
0.09
 71
0.0
 72
0.0
 73
1
 74
1
 75
0
 76
0
 77
0
 78
8
170
0
171
2
172
0
173
0
174
0
175
0
176
0
177
0
178
0
270
2
271
2
272
2
273
2
274
2
275
0
280
0
281
0
282
0
283
1
284
8
285
0
286
0
287
3
288
0
340
11
  0
DIMSTYLE
105
210
100
AcDbSymbolTableRecord
100
AcDbDimStyleTableRecord
  2
DIMSTYLE_2
 70
0
  3

  4

  5
_FILLED
  6
_FILLED
  7
_FILLED
 40
1.0
 41
3.0
 42
0.0625
 43
0.38
 44
0.18
 45
0.0
 46
0.0
 47
0.0
 48
0.0
140
3.0
141
0.09
142
0.0
143
25.4
144
1.0
145
0.0
146
1.0
147
0.09
 71
0.0
 72
0.0
 73
1
 74
1
 75
0
 76
0
 77
0
 78
8
170
0
171
2
172
0
173
0
174
0
175
0
176
0
177
0
178
0
270
2
271
1
272
1
273
2
274
2
275
0
280
0
281
0
282
0
283
1
284
8
285
0
286
0
287
3
288
0
340
11
  0
DIMSTYLE
105
211
100
AcDbSymbolTableRecord
100
AcDbDimStyleTableRecord
  2
DIMSTYLE_3
 70
0
  3

  4

  5
_FILLED
  6
_FILLED
  7
_FILLED
 40
1.0
 41
3.0
 42
0.0625
 43
0.38
 44
0.18
 45
0.0
 46
0.0
 47
0.0
 48
0.0
140
3.0
141
0.09
142
0.0
143
25.4
144
1.0
145
0.0
146
1.0
147
0.09
 71
0.0
 72
0.0
 73
1
 74
1
 75
0
 76
0
 77
0
 78
8
170
0
171
2
172
0
173
0
174
0
175
0
176
0
177
0
178
0
270
2
271
0
272
0
273
2
274
2
275
0
280
0
281
0
282
0
283
1
284
8
285
0
286
0
287
3
288
0
340
11
  0
ENDTAB
  0
ENDSEC
  0
SECTION
  2
BLOCKS
  0
BLOCK
  5
20
100
AcDbEntity
  8
0
100
AcDbBlockBegin
  2
*MODEL_SPACE
 70
0
 10
0.0
 20
0.0
 30
0.0
  3
*MODEL_SPACE
  1

  0
ENDBLK
  5
21
100
AcDbEntity
  8
0
100
AcDbBlockEnd
  0
BLOCK
  5
1C
100
AcDbEntity
  8
0
100
AcDbBlockBegin
  2
*PAPER_SPACE
 70
0
 10
0.0
 20
0.0
 30
0.0
  3
*PAPER_SPACE
  1

  0
ENDBLK
  5
1D
100
AcDbEntity
  8
0
100
AcDbBlockEnd
  0
BLOCK
  5
212
100
AcDbEntity
  8
0
100
AcDbBlockBegin
 62
2
  6
CONTINUOUS
  2
*D0
 70
65
 10
0.0
 20
0.0
  3
*D0
  1

  0
TEXT
  5
213
100
AcDbEntity
  8
0
100
AcDbText
 62
2
  6
CONTINUOUS
 10
189.6901767418
 20
40.6156186613
  7
STANDARD
 40
3.0
  1
110
 41
0.6
 72
0
100
AcDbText
  0
LINE
  5
214
100
AcDbEntity
  8
0
100
AcDbLine
 62
2
  6
CONTINUOUS
 10
247.3901767418
 20
62.1725153689
 11
247.3901767418
 21
39.1156186613
  0
LINE
  5
215
100
AcDbEntity
  8
0
100
AcDbLine
 62
2
  6
CONTINUOUS
 10
137.3901767418
 20
57.9295131846
 11
137.3901767418
 21
39.1156186613
  0
LINE
  5
216
100
AcDbEntity
  8
0
100
AcDbLine
 62
2
  6
CONTINUOUS
 10
247.3901767418
 20
42.1156186613
 11
196.5901767418
 21
42.1156186613
  0
LINE
  5
217
100
AcDbEntity
  8
0
100
AcDbLine
 62
2
  6
CONTINUOUS
 10
137.3901767418
 20
42.1156186613
 11
188.1901767418
 21
42.1156186613
  0
INSERT
  5
218
100
AcDbEntity
  8
0
100
AcDbBlockReference
 62
2
  6
CONTINUOUS
  2
_FILLED
 10
247.3901767418
 20
42.1156186613
 41
3.0
 42
3.0
 43
3.0
  0
INSERT
  5
219
100
AcDbEntity
  8
0
100
AcDbBlockReference
 62
2
  6
CONTINUOUS
  2
_FILLED
 10
137.3901767418
 20
42.1156186613
 41
3.0
 42
3.0
 43
3.0
 50
180.0
  0
ENDBLK
  5
21A
100
AcDbEntity
  8
0
  6
BYBLOCK
 62
0
100
AcDbBlockEnd
  0
BLOCK
  5
21B
100
AcDbEntity
  8
0
100
AcDbBlockBegin
 62
2
  6
CONTINUOUS
  2
*D1
 70
65
 10
0.0
 20
0.0
  3
*D1
  1

  0
TEXT
  5
21C
100
AcDbEntity
  8
0
100
AcDbText
 62
2
  6
CONTINUOUS
 10
265.2289203475
 20
237.4225728258
  7
STANDARD
 40
3.0
  1
88%%d
 41
0.6222222222
 72
0
100
AcDbText
  0
LINE
  5
21D
100
AcDbEntity
  8
0
100
AcDbLine
 62
2
  6
CONTINUOUS
 10
228.5233801744
 20
161.8581601931
 11
304.2082666692
 21
164.5011346684
  0
LINE
  5
21E
100
AcDbEntity
  8
0
100
AcDbLine
 62
2
  6
CONTINUOUS
 10
192.3901767418
 20
162.0963609251
 11
192.3901767418
 21
272.4826089317
  0
ARC
  5
21F
100
AcDbEntity
  8
0
100
AcDbCircle
 62
2
  6
CONTINUOUS
 10
192.3901767418
 20
160.5963609251
 40
108.8862480066
100
AcDbArc
 50
2.0
 51
43.7718206041
  0
ARC
  5
220
100
AcDbEntity
  8
0
100
AcDbCircle
 62
2
  6
CONTINUOUS
 10
192.3901767418
 20
160.5963609251
 40
108.8862480066
100
AcDbArc
 50
48.3218217738
 51
90.0
  0
SOLID
  5
221
100
AcDbEntity
  8
0
100
AcDbTrace
 62
2
  6
CONTINUOUS
 10
300.314993148
 20
167.3563845103
 11
301.2100941881
 21
164.3964361783
 12
301.8132160148
 22
167.4293793137
 13
301.8132160148
 23
167.4293793137
  0
SOLID
  5
222
100
AcDbEntity
  8
0
100
AcDbTrace
 62
2
  6
CONTINUOUS
 10
195.4002236419
 20
270.1912115418
 11
192.3901767418
 21
269.4826089317
 12
195.379560529
 22
268.69135387
 13
195.379560529
 23
268.69135387
  0
ENDBLK
  5
223
100
AcDbEntity
  8
0
  6
BYBLOCK
 62
0
100
AcDbBlockEnd
  0
BLOCK
  5
224
100
AcDbEntity
  8
0
100
AcDbBlockBegin
 62
2
  6
CONTINUOUS
  2
*D2
 70
65
 10
0.0
 20
0.0
  3
*D2
  1

  0
TEXT
  5
225
100
AcDbEntity
  8
0
100
AcDbText
 62
2
  6
CONTINUOUS
 10
189.6901767418
 20
22.7912001534
  7
STANDARD
 40
3.0
  1
177
 41
0.6
 72
0
100
AcDbText
  0
LINE
  5
226
100
AcDbEntity
  8
0
100
AcDbLine
 62
2
  6
CONTINUOUS
 10
104.0115143363
 20
128.0830899026
 11
104.0115143363
 21
21.2912001534
  0
LINE
  5
227
100
AcDbEntity
  8
0
100
AcDbLine
 62
2
  6
CONTINUOUS
 10
280.7688391473
 20
128.0830899026
 11
280.7688391473
 21
21.2912001534
  0
LINE
  5
228
100
AcDbEntity
  8
0
100
AcDbLine
 62
2
  6
CONTINUOUS
 10
104.0115143363
 20
24.2912001534
 11
188.1901767418
 21
24.2912001534
  0
LINE
  5
229
100
AcDbEntity
  8
0
100
AcDbLine
 62
2
  6
CONTINUOUS
 10
280.7688391473
 20
24.2912001534
 11
196.5901767418
 21
24.2912001534
  0
INSERT
  5
22A
100
AcDbEntity
  8
0
100
AcDbBlockReference
 62
2
  6
CONTINUOUS
  2
_FILLED
 10
104.0115143363
 20
24.2912001534
 41
3.0
 42
3.0
 43
3.0
 50
180.0
  0
INSERT
  5
22B
100
AcDbEntity
  8
0
100
AcDbBlockReference
 62
2
  6
CONTINUOUS
  2
_FILLED
 10
280.7688391473
 20
24.2912001534
 41
3.0
 42
3.0
 43
3.0
  0
ENDBLK
  5
22C
100
AcDbEntity
  8
0
  6
BYBLOCK
 62
0
100
AcDbBlockEnd
  0
BLOCK
  5
22D
100
AcDbEntity
  8
0
100
AcDbBlockBegin
 62
2
  6
CONTINUOUS
  2
*D3
 70
65
 10
0.0
 20
0.0
  3
*D3
  1

  0
TEXT
  5
22E
100
AcDbEntity
  8
0
100
AcDbText
 62
2
  6
CONTINUOUS
 10
69.7314800613
 20
153.1725153689
  7
STANDARD
 40
3.0
  1
182
 41
0.6
 72
0
100
AcDbText
  0
LINE
  5
22F
100
AcDbEntity
  8
0
100
AcDbLine
 62
2
  6
CONTINUOUS
 10
131.8901767418
 20
245.6725153689
 11
69.4314800613
 21
245.6725153689
  0
LINE
  5
230
100
AcDbEntity
  8
0
100
AcDbLine
 62
2
  6
CONTINUOUS
 10
135.8901767418
 20
63.6725153689
 11
69.4314800613
 21
63.6725153689
  0
LINE
  5
231
100
AcDbEntity
  8
0
100
AcDbLine
 62
2
  6
CONTINUOUS
 10
72.4314800613
 20
245.6725153689
 11
72.4314800613
 21
157.6725153689
  0
LINE
  5
232
100
AcDbEntity
  8
0
100
AcDbLine
 62
2
  6
CONTINUOUS
 10
72.4314800613
 20
63.6725153689
 11
72.4314800613
 21
151.6725153689
  0
INSERT
  5
233
100
AcDbEntity
  8
0
100
AcDbBlockReference
 62
2
  6
CONTINUOUS
  2
_FILLED
 10
72.4314800613
 20
245.6725153689
 41
3.0
 42
3.0
 43
3.0
 50
90.0
  0
INSERT
  5
234
100
AcDbEntity
  8
0
100
AcDbBlockReference
 62
2
  6
CONTINUOUS
  2
_FILLED
 10
72.4314800613
 20
63.6725153689
 41
3.0
 42
3.0
 43
3.0
 50
270.0
  0
ENDBLK
  5
235
100
AcDbEntity
  8
0
  6
BYBLOCK
 62
0
100
AcDbBlockEnd
  0
BLOCK
  5
236
100
AcDbEntity
  8
0
100
AcDbBlockBegin
 62
2
  6
CONTINUOUS
  2
*D4
 70
65
 10
0.0
 20
0.0
  3
*D4
  1

  0
TEXT
  5
237
100
AcDbEntity
  8
0
100
AcDbText
 62
2
  6
CONTINUOUS
 10
82.3713947853
 20
207.7948342253
  7
STANDARD
 40
3.0
  1
82
 41
0.6
 72
0
100
AcDbText
  0
LINE
  5
238
100
AcDbEntity
  8
0
100
AcDbLine
 62
2
  6
CONTINUOUS
 10
131.8901767418
 20
245.6725153689
 11
81.1713947853
 21
245.6725153689
  0
LINE
  5
239
100
AcDbEntity
  8
0
100
AcDbLine
 62
2
  6
CONTINUOUS
 10
103.700845539
 20
163.6410794621
 11
81.1713947853
 21
163.6410794621
  0
LINE
  5
23A
100
AcDbEntity
  8
0
100
AcDbLine
 62
2
  6
CONTINUOUS
 10
84.1713947853
 20
245.6725153689
 11
84.1713947853
 21
212.2948342253
  0
LINE
  5
23B
100
AcDbEntity
  8
0
100
AcDbLine
 62
2
  6
CONTINUOUS
 10
84.1713947853
 20
163.6410794621
 11
84.1713947853
 21
206.2948342253
  0
INSERT
  5
23C
100
AcDbEntity
  8
0
100
AcDbBlockReference
 62
2
  6
CONTINUOUS
  2
_FILLED
 10
84.1713947853
 20
245.6725153689
 41
3.0
 42
3.0
 43
3.0
 50
90.0
  0
INSERT
  5
23D
100
AcDbEntity
  8
0
100
AcDbBlockReference
 62
2
  6
CONTINUOUS
  2
_FILLED
 10
84.1713947853
 20
163.6410794621
 41
3.0
 42
3.0
 43
3.0
 50
270.0
  0
ENDBLK
  5
23E
100
AcDbEntity
  8
0
  6
BYBLOCK
 62
0
100
AcDbBlockEnd
  0
BLOCK
  5
23F
100
AcDbEntity
  8
0
100
AcDbBlockBegin
  2
_FILLED
 70
64
 10
0.0
 20
0.0
  3
_FILLED
  1

  0
SOLID
  5
240
100
AcDbEntity
  8
0
  6
BYBLOCK
 62
0
100
AcDbTrace
 10
0.0
 20
0.0
 11
-1.0
 21
0.25
 12
-1.0
 22
-0.25
 13
-1.0
 23
-0.25
  0
ENDBLK
  5
241
100
AcDbEntity
  8
0
  6
BYBLOCK
 62
0
100
AcDbBlockEnd
  0
ENDSEC
  0
SECTION
  2
ENTITIES
  0
DIMENSION
  5
242
100
AcDbEntity
  8
0
100
AcDbDimension
 62
2
  6
CONTINUOUS
  2
*D0
 10
137.3901767418
 20
42.1156186613
 11
192.3901767418
 21
42.1156186613
 70
160
  3
DIMSTYLE_1
100
AcDbAlignedDimension
 13
247.3901767418
 23
62.1725153689
 14
137.3901767418
 24
57.9295131846
 50
180.0
100
AcDbRotatedDimension
  0
DIMENSION
  5
243
100
AcDbEntity
  8
0
100
AcDbDimension
 62
2
  6
CONTINUOUS
  2
*D1
 10
192.3901767418
 20
162.0963609251
 11
268.0289203475
 21
238.9225728258
 70
162
  3
DIMSTYLE_2
100
AcDb2LineAngularDimension
 13
228.5233801744
 23
161.8581601931
 14
304.2082666692
 24
164.5011346684
 15
192.3901767418
 25
272.4826089317
 16
268.0289203475
 26
238.9225728258
  0
DIMENSION
  5
244
100
AcDbEntity
  8
0
100
AcDbDimension
 62
2
  6
CONTINUOUS
  2
*D2
 10
280.7688391473
 20
24.2912001534
 11
192.3901767418
 21
24.2912001534
 70
160
  3
DIMSTYLE_3
100
AcDbAlignedDimension
 13
104.0115143363
 23
128.0830899026
 14
280.7688391473
 24
128.0830899026
100
AcDbRotatedDimension
  0
DIMENSION
  5
245
100
AcDbEntity
  8
0
100
AcDbDimension
 62
2
  6
CONTINUOUS
  2
*D3
 10
72.4314800613
 20
63.6725153689
 11
72.4314800613
 21
154.6725153689
 70
160
  3
DIMSTYLE_1
100
AcDbAlignedDimension
 13
131.8901767418
 23
245.6725153689
 14
135.8901767418
 24
63.6725153689
 50
270.0
100
AcDbRotatedDimension
  0
DIMENSION
  5
246
100
AcDbEntity
  8
0
100
AcDbDimension
 62
2
  6
CONTINUOUS
  2
*D4
 10
84.1713947853
 20
163.6410794621
 11
84.1713947853
 21
209.2948342253
 70
160
  3
DIMSTYLE_3
100
AcDbAlignedDimension
 13
131.8901767418
 23
245.6725153689
 14
103.700845539
 24
163.6410794621
 50
270.0
100
AcDbRotatedDimension
  0
LINE
  5
247
100
AcDbEntity
  8
0
100
AcDbLine
 62
7
  6
CONTINUOUS
 10
0.0
 20
0.0
 11
0.0
 21
297.0
  0
LINE
  5
248
100
AcDbEntity
  8
0
100
AcDbLine
 62
7
  6
CONTINUOUS
 10
0.0
 20
0.0
 11
420.0
 21
0.0
  0
LINE
  5
249
100
AcDbEntity
  8
0
100
AcDbLine
 62
7
  6
CONTINUOUS
 10
0.0
 20
297.0
 11
420.0
 21
297.0
  0
LINE
  5
24A
100
AcDbEntity
  8
0
100
AcDbLine
 62
7
  6
CONTINUOUS
 10
420.0
 20
0.0
 11
420.0
 21
297.0
  0
LINE
  5
24B
100
AcDbEntity
  8
0
100
AcDbLine
 62
7
  6
CONTINUOUS
 10
132.8901768531
 20
237.6725152576
 11
131.3901769775
 21
236.1725153763
  0
LINE
  5
24C
100
AcDbEntity
  8
02___PRT_ALL_AXES
100
AcDbLine
 62
7
  6
CONTINUOUS
 10
106.3901767418
 20
197.6990690216
 11
104.0115143363
 21
129.5830899026
  0
LINE
  5
24D
100
AcDbEntity
  8
0
100
AcDbLine
 62
7
  6
CONTINUOUS
 10
132.8901768531
 20
213.6725152576
 11
131.3901769775
 21
212.1725153763
  0
LINE
  5
24E
100
AcDbEntity
  8
0
100
AcDbLine
 62
7
  6
CONTINUOUS
 10
247.3901767418
 20
63.6725153689
 11
137.3901767418
 21
63.6725153689
  0
LINE
  5
24F
100
AcDbEntity
  8
0
100
AcDbLine
 62
7
  6
CONTINUOUS
 10
133.3901767418
 20
245.6725153689
 11
133.3901767418
 21
237.6725153689
  0
LINE
  5
250
100
AcDbEntity
  8
0
100
AcDbLine
 62
7
  6
CONTINUOUS
 10
133.3901767418
 20
234.6725153689
 11
133.3901767418
 21
213.6725153689
  0
LINE
  5
251
100
AcDbEntity
  8
0
100
AcDbLine
 62
7
  6
CONTINUOUS
 10
133.3901767418
 20
210.6725153689
 11
133.3901767418
 21
196.7562082454
  0
LINE
  5
252
100
AcDbEntity
  8
0
100
AcDbLine
 62
7
  6
CONTINUOUS
 10
137.3901767418
 20
128.4174813268
 11
137.3901767418
 21
63.6725153689
  0
LINE
  5
253
100
AcDbEntity
  8
0
100
AcDbLine
 62
7
  6
CONTINUOUS
 10
139.562627111
 20
202.6725153689
 11
139.562627111
 21
205.6725153689
  0
LINE
  5
254
100
AcDbEntity
  8
0
100
AcDbLine
 62
7
  6
CONTINUOUS
 10
161.8901767418
 20
202.6725153689
 11
161.8901767418
 21
205.6725153689
  0
LINE
  5
255
100
AcDbEntity
  8
0
100
AcDbLine
 62
7
  6
CONTINUOUS
 10
162.8901767418
 20
205.6725153689
 11
162.8901767418
 21
202.6725153689
  0
LINE
  5
256
100
AcDbEntity
  8
02___PRT_ALL_AXES
100
AcDbLine
 62
7
  6
CONTINUOUS
 10
247.3901767418
 20
128.4174813268
 11
280.7688391473
 21
129.5830899026
  0
LINE
  5
257
100
AcDbEntity
  8
02___PRT_ALL_AXES
100
AcDbLine
 62
7
  6
CONTINUOUS
 10
104.0115143363
 20
129.5830899026
 11
137.3901767418
 21
128.4174813268
  0
LINE
  5
258
100
AcDbEntity
  8
0
100
AcDbLine
 62
7
  6
CONTINUOUS
 10
251.8901766232
 20
234.6725154874
 11
253.3901765062
 21
236.1725153763
  0
LINE
  5
259
100
AcDbEntity
  8
DEFAULT_1
100
AcDbLine
 62
7
  6
CENTER
 10
192.3901767418
 20
61.1725153689
 11
192.3901767418
 21
248.1725153689
  0
LINE
  5
25A
100
AcDbEntity
  8
0
100
AcDbLine
 62
7
  6
CONTINUOUS
 10
132.8901768604
 20
210.6725154874
 11
131.3901769775
 21
212.1725153763
  0
LINE
  5
25B
100
AcDbEntity
  8
0
100
AcDbLine
 62
7
  6
CONTINUOUS
 10
251.8901766232
 20
210.6725154874
 11
253.3901765062
 21
212.1725153763
  0
LINE
  5
25C
100
AcDbEntity
  8
02___PRT_ALL_AXES
100
AcDbLine
 62
7
  6
CENTER
 10
282.0779850121
 20
163.7283282039
 11
227.0242939339
 21
161.8058109481
  0
LINE
  5
25D
100
AcDbEntity
  8
02___PRT_ALL_AXES
100
AcDbLine
 62
7
  6
CENTER
 10
102.7023684715
 20
163.7283282039
 11
157.7560595497
 21
161.8058109481
  0
LINE
  5
25E
100
AcDbEntity
  8
0
100
AcDbLine
 62
7
  6
CONTINUOUS
 10
132.8901768604
 20
234.6725154874
 11
131.3901769775
 21
236.1725153763
  0
LINE
  5
25F
100
AcDbEntity
  8
0
100
AcDbLine
 62
7
  6
CONTINUOUS
 10
221.8901767418
 20
205.6725153689
 11
221.8901767418
 21
202.6725153689
  0
LINE
  5
260
100
AcDbEntity
  8
0
100
AcDbLine
 62
7
  6
CONTINUOUS
 10
222.8901767418
 20
202.6725153689
 11
222.8901767418
 21
205.6725153689
  0
LINE
  5
261
100
AcDbEntity
  8
02___PRT_ALL_AXES
100
AcDbLine
 62
7
  6
CONTINUOUS
 10
251.3901767418
 20
196.7562082454
 11
278.3901767418
 21
197.6990690216
  0
LINE
  5
262
100
AcDbEntity
  8
02___PRT_ALL_AXES
100
AcDbLine
 62
7
  6
CONTINUOUS
 10
245.4758257101
 20
193.3631142921
 11
139.3045277735
 21
193.3631142921
  0
LINE
  5
263
100
AcDbEntity
  8
02___PRT_ALL_AXES
100
AcDbLine
 62
7
  6
CONTINUOUS
 10
250.7832785168
 20
195.6725153689
 11
133.9970749668
 21
195.6725153689
  0
LINE
  5
264
100
AcDbEntity
  8
02___PRT_ALL_AXES
100
AcDbLine
 62
7
  6
CONTINUOUS
 10
106.3901767418
 20
197.6990690216
 11
133.3901767418
 21
196.7562082454
  0
LINE
  5
265
100
AcDbEntity
  8
0
100
AcDbLine
 62
7
  6
CONTINUOUS
 10
162.8901767418
 20
202.6725153689
 11
139.562627111
 21
202.6725153689
  0
LINE
  5
266
100
AcDbEntity
  8
0
100
AcDbLine
 62
7
  6
CONTINUOUS
 10
221.8901767418
 20
202.6725153689
 11
245.2177263727
 21
202.6725153689
  0
LINE
  5
267
100
AcDbEntity
  8
0
100
AcDbLine
 62
7
  6
CONTINUOUS
 10
245.2177263727
 20
205.6725153689
 11
221.8901767418
 21
205.6725153689
  0
LINE
  5
268
100
AcDbEntity
  8
0
100
AcDbLine
 62
7
  6
CONTINUOUS
 10
139.562627111
 20
205.6725153689
 11
162.8901767418
 21
205.6725153689
  0
LINE
  5
269
100
AcDbEntity
  8
0
100
AcDbLine
 62
7
  6
CONTINUOUS
 10
245.2177263727
 20
202.6725153689
 11
245.2177263727
 21
205.6725153689
  0
LINE
  5
26A
100
AcDbEntity
  8
0
100
AcDbLine
 62
7
  6
CONTINUOUS
 10
247.3901767418
 20
128.4174813268
 11
247.3901767418
 21
63.6725153689
  0
LINE
  5
26B
100
AcDbEntity
  8
0
100
AcDbLine
 62
7
  6
CONTINUOUS
 10
251.3901767418
 20
245.6725153689
 11
251.3901767418
 21
237.6725153689
  0
LINE
  5
26C
100
AcDbEntity
  8
0
100
AcDbLine
 62
7
  6
CONTINUOUS
 10
251.3901767418
 20
234.6725153689
 11
251.3901767418
 21
213.6725153689
  0
LINE
  5
26D
100
AcDbEntity
  8
0
100
AcDbLine
 62
7
  6
CONTINUOUS
 10
251.3901767418
 20
210.6725153689
 11
251.3901767418
 21
196.7562082454
  0
LINE
  5
26E
100
AcDbEntity
  8
0
100
AcDbLine
 62
7
  6
CONTINUOUS
 10
132.8901767418
 20
210.6725153689
 11
251.8901767418
 21
210.6725153689
  0
LINE
  5
26F
100
AcDbEntity
  8
0
100
AcDbLine
 62
7
  6
CONTINUOUS
 10
131.3901769775
 20
212.1725153763
 11
253.3901765062
 21
212.1725153763
  0
LINE
  5
270
100
AcDbEntity
  8
0
100
AcDbLine
 62
7
  6
CONTINUOUS
 10
132.8901767418
 20
213.6725153689
 11
251.8901767418
 21
213.6725153689
  0
LINE
  5
271
100
AcDbEntity
  8
0
100
AcDbLine
 62
7
  6
CONTINUOUS
 10
132.8901767418
 20
234.6725153689
 11
251.8901767418
 21
234.6725153689
  0
LINE
  5
272
100
AcDbEntity
  8
0
100
AcDbLine
 62
7
  6
CONTINUOUS
 10
253.3901765062
 20
236.1725153763
 11
131.3901769775
 21
236.1725153763
  0
LINE
  5
273
100
AcDbEntity
  8
0
100
AcDbLine
 62
7
  6
CONTINUOUS
 10
132.8901767418
 20
237.6725153689
 11
251.8901767418
 21
237.6725153689
  0
LINE
  5
274
100
AcDbEntity
  8
0
100
AcDbLine
 62
7
  6
CONTINUOUS
 10
251.8901766305
 20
213.6725152576
 11
253.3901765062
 21
212.1725153763
  0
LINE
  5
275
100
AcDbEntity
  8
02___PRT_ALL_AXES
100
AcDbLine
 62
7
  6
CONTINUOUS
 10
278.3901767418
 20
197.6990690216
 11
280.7688391473
 21
129.5830899026
  0
LINE
  5
276
100
AcDbEntity
  8
0
100
AcDbLine
 62
7
  6
CONTINUOUS
 10
251.3901767418
 20
245.6725153689
 11
133.3901767418
 21
245.6725153689
  0
LINE
  5
277
100
AcDbEntity
  8
0
100
AcDbLine
 62
7
  6
CONTINUOUS
 10
251.8901766305
 20
237.6725152576
 11
253.3901765062
 21
236.1725153763
  0
CIRCLE
  5
278
100
AcDbEntity
  8
02___PRT_ALL_AXES
100
AcDbCircle
 62
7
  6
CONTINUOUS
 10
192.3901767418
 20
163.6725153689
 40
24.0
  0
CIRCLE
  5
279
100
AcDbEntity
  8
02___PRT_ALL_AXES
100
AcDbCircle
 62
7
  6
CONTINUOUS
 10
192.3901767418
 20
163.6725153689
 40
21.5
  0
SPLINE
  5
27A
100
AcDbEntity
  8
02___PRT_ALL_AXES
100
AcDbSpline
 62
7
  6
CONTINUOUS
 70
0
 71
3
 72
45
 73
41
 74
39
 42
0.0000001
 43
0.0000001
 44
0.0000000001
 12
37.095413937
 22
58.6097149219
 32
0.0
 13
-34.3501790402
 23
60.2597196737
 33
0.0
 40
0.0
 40
0.0
 40
0.0
 40
0.0
 40
0.0013023464
 40
0.0052227697
 40
0.0117802084
 40
0.02102778
 40
0.0329985524
 40
0.0477673034
 40
0.0653479826
 40
0.0857710944
 40
0.1089696823
 40
0.1348345393
 40
0.163082893
 40
0.1933597202
 40
0.2252006511
 40
0.2580630323
 40
0.2913078859
 40
0.3245187509
 40
0.3574123189
 40
0.3898036795
 40
0.4217398304
 40
0.4532114526
 40
0.4844142735
 40
0.515485541
 40
0.5466091103
 40
0.5780482506
 40
0.6099128187
 40
0.6424130783
 40
0.6755636022
 40
0.7093726349
 40
0.743705412
 40
0.7782427911
 40
0.812585811
 40
0.8459905895
 40
0.8778503528
 40
0.9076273638
 40
0.9349610564
 40
0.9595287067
 40
0.9812321433
 40
1.0
 40
1.0
 40
1.0
 40
1.0
 10
137.3901767418
 20
128.4174813268
 30
0.0
 10
137.4062804342
 20
128.4429247097
 30
0.0
 10
137.4708274905
 20
128.5449807494
 30
0.0
 10
137.6161148028
 20
128.775363771
 30
0.0
 10
137.8583656431
 20
129.1617758283
 30
0.0
 10
138.1972574761
 20
129.7072815109
 30
0.0
 10
138.6323448303
 20
130.4165207203
 30
0.0
 10
139.1617404287
 20
131.2939134836
 30
0.0
 10
139.7823602249
 20
132.3444571461
 30
0.0
 10
140.4880571668
 20
133.5710259691
 30
0.0
 10
141.2696629403
 20
134.9747442071
 30
0.0
 10
142.1127617927
 20
136.5510561832
 30
0.0
 10
142.9982064312
 20
138.2899240666
 30
0.0
 10
143.9019679978
 20
140.1739410821
 30
0.0
 10
144.7970653507
 20
142.1796117871
 30
0.0
 10
145.6547221117
 20
144.276026826
 30
0.0
 10
146.4490573339
 20
146.4311431408
 30
0.0
 10
147.1597726668
 20
148.6161228956
 30
0.0
 10
147.7734460769
 20
150.8099212181
 30
0.0
 10
148.2827053077
 20
153.0001016154
 30
0.0
 10
148.683878966
 20
155.1792673855
 30
0.0
 10
148.9763370573
 20
157.3479760668
 30
0.0
 10
149.1602463462
 20
159.5085308908
 30
0.0
 10
149.2360748756
 20
161.6675321933
 30
0.0
 10
149.203801463
 20
163.8330890591
 30
0.0
 10
149.0625387626
 20
166.0126508303
 30
0.0
 10
148.8106782726
 20
168.2142354444
 30
0.0
 10
148.4469152818
 20
170.4401915022
 30
0.0
 10
147.9707871879
 20
172.6907689538
 30
0.0
 10
147.3846895189
 20
174.9589630201
 30
0.0
 10
146.695061338
 20
177.2312963357
 30
0.0
 10
145.9140110672
 20
179.486815025
 30
0.0
 10
145.0617491287
 20
181.6933033774
 30
0.0
 10
144.1647216403
 20
183.8147991635
 30
0.0
 10
143.253595663
 20
185.8147119195
 30
0.0
 10
142.3567739961
 20
187.6661789566
 30
0.0
 10
141.499651342
 20
189.3490553966
 30
0.0
 10
140.7019717466
 20
190.852410273
 30
0.0
 10
139.9787598928
 20
192.1708805405
 30
0.0
 10
139.5194208534
 20
192.9861323633
 30
0.0
 10
139.3045277735
 20
193.3631142921
 30
0.0
 11
137.3901767418
 21
128.4174813268
 31
0.0
 11
137.4384629393
 21
128.493827219
 31
0.0
 11
137.5835157242
 21
128.72384026
 31
0.0
 11
137.8251096556
 21
129.1092136316
 31
0.0
 11
138.1635848303
 21
129.6540751308
 31
0.0
 11
138.5977383211
 21
130.3618521325
 31
0.0
 11
139.1269084516
 21
131.2389905834
 31
0.0
 11
139.7470640504
 21
132.288964094
 31
0.0
 11
140.4533556204
 21
133.5169329297
 31
0.0
 11
141.2359082214
 21
134.9229413286
 31
0.0
 11
142.081664883
 21
136.5051307417
 31
0.0
 11
142.9702260808
 21
138.2514482198
 31
0.0
 11
143.8778093536
 21
140.1452868579
 31
0.0
 11
144.7769750463
 21
142.16253244
 31
0.0
 11
145.6389847398
 21
144.2726731828
 31
0.0
 11
146.4352895672
 21
146.4367664777
 31
0.0
 11
147.1466379543
 21
148.6277748024
 31
0.0
 11
147.7601294274
 21
150.8253300854
 31
0.0
 11
148.2679557747
 21
153.0139350516
 31
0.0
 11
148.6681873496
 21
155.1926527668
 31
0.0
 11
148.9593199103
 21
157.3561051791
 31
0.0
 11
149.1425264683
 21
159.5126455209
 31
0.0
 11
149.2180795476
 21
161.6665043279
 31
0.0
 11
149.1860840374
 21
163.825078529
 31
0.0
 11
149.0454858631
 21
166.0012414912
 31
0.0
 11
148.7949749412
 21
168.1972077264
 31
0.0
 11
148.4323375282
 21
170.4221509068
 31
0.0
 11
147.9575427461
 21
172.6720038926
 31
0.0
 11
147.3721173154
 21
174.9428378126
 31
0.0
 11
146.6818701128
 21
177.2220204885
 31
0.0
 11
145.8992948296
 21
179.4861947036
 31
0.0
 11
145.0422080159
 21
181.7087836022
 31
0.0
 11
144.1408741792
 21
183.8433281491
 31
0.0
 11
143.2255039708
 21
185.8547077025
 31
0.0
 11
142.3257196085
 21
187.7138227665
 31
0.0
 11
141.4656807028
 21
189.4034692108
 31
0.0
 11
140.6672484069
 21
190.9089193824
 31
0.0
 11
139.94343939
 21
192.2289001853
 31
0.0
 11
139.3045277735
 21
193.3631142921
 31
0.0
  0
SPLINE
  5
27B
100
AcDbEntity
  8
02___PRT_ALL_AXES
100
AcDbSpline
 62
7
  6
CONTINUOUS
 70
0
 71
3
 72
45
 73
41
 74
39
 42
0.0000001
 43
0.0000001
 44
0.0000000001
 12
-34.3501783728
 22
-60.259718503
 32
0.0
 13
37.09541321
 23
-58.6097137769
 33
0.0
 40
0.0
 40
0.0
 40
0.0
 40
0.0
 40
0.0187696023
 40
0.0404711761
 40
0.0650475724
 40
0.0923336572
 40
0.1221290811
 40
0.1539548508
 40
0.187315059
 40
0.2215551843
 40
0.2560319597
 40
0.2903808781
 40
0.3242124233
 40
0.3573798494
 40
0.3898705714
 40
0.4217669527
 40
0.4532599861
 40
0.4844385536
 40
0.5155707837
 40
0.5468320014
 40
0.5783136804
 40
0.6102372553
 40
0.6426362658
 40
0.6755444284
 40
0.7087543637
 40
0.7419266114
 40
0.7747274837
 40
0.8065287212
 40
0.8368027026
 40
0.8650681521
 40
0.8909117684
 40
0.9141361339
 40
0.9345587015
 40
0.9521694215
 40
0.9669447364
 40
0.9789374156
 40
0.9881994668
 40
0.9947673881
 40
0.9986959555
 40
1.0
 40
1.0
 40
1.0
 40
1.0
 10
245.4758257101
 20
193.3631142921
 30
0.0
 10
245.2609126474
 20
192.9860973079
 30
0.0
 10
244.8015753216
 20
192.1708476423
 30
0.0
 10
244.0782681922
 20
190.8522021422
 30
0.0
 10
243.2810337283
 20
189.3496769586
 30
0.0
 10
242.4241098407
 20
187.6672304898
 30
0.0
 10
241.5278841232
 20
185.8170979583
 30
0.0
 10
240.6172761158
 20
183.8184784249
 30
0.0
 10
239.7217413912
 20
181.7009082108
 30
0.0
 10
238.8708966026
 20
179.4990340197
 30
0.0
 10
238.0904044968
 20
177.2469314401
 30
0.0
 10
237.4002433941
 20
174.975290619
 30
0.0
 10
236.8131415289
 20
172.7060289517
 30
0.0
 10
236.3362036449
 20
170.4549163432
 30
0.0
 10
235.9716075721
 20
168.2281797895
 30
0.0
 10
235.7188702885
 20
166.024920955
 30
0.0
 10
235.5768523934
 20
163.8421439523
 30
0.0
 10
235.5441599938
 20
161.672661054
 30
0.0
 10
235.6199725052
 20
159.5096202143
 30
0.0
 10
235.8041860709
 20
157.3460835632
 30
0.0
 10
236.0969798552
 20
155.176115728
 30
0.0
 10
236.4983268203
 20
152.9968621592
 30
0.0
 10
237.0077745785
 20
150.8064957232
 30
0.0
 10
237.6217424254
 20
148.6122674576
 30
0.0
 10
238.3322021814
 20
146.4286381705
 30
0.0
 10
239.1255148104
 20
144.2764762309
 30
0.0
 10
239.9815585901
 20
142.1837455621
 30
0.0
 10
240.8755029415
 20
140.1801958035
 30
0.0
 10
241.7788296899
 20
138.2966226354
 30
0.0
 10
242.6640586146
 20
136.5578259691
 30
0.0
 10
243.5072708575
 20
134.981007635
 30
0.0
 10
244.2888232674
 20
133.5771537922
 30
0.0
 10
244.9950862249
 20
132.34943622
 30
0.0
 10
245.6160818261
 20
131.2981460887
 30
0.0
 10
246.146146713
 20
130.4195771363
 30
0.0
 10
246.5817358456
 20
129.7094807146
 30
0.0
 10
246.9211916532
 20
129.1630496604
 30
0.0
 10
247.1638460909
 20
128.7759872035
 30
0.0
 10
247.3093834013
 20
128.545206275
 30
0.0
 10
247.3740520514
 20
128.4429578859
 30
0.0
 10
247.3901767418
 20
128.4174813268
 30
0.0
 11
245.4758257101
 21
193.3631142921
 31
0.0
 11
244.8368552286
 21
192.2287944071
 31
0.0
 11
244.1131089667
 21
190.9089265849
 31
0.0
 11
243.314396485
 21
189.4029383595
 31
0.0
 11
242.455837957
 21
187.7162438083
 31
0.0
 11
241.555456814
 21
185.8559987346
 31
0.0
 11
240.6410022284
 21
183.8467931084
 31
0.0
 11
239.7407254239
 21
181.7151581028
 31
0.0
 11
238.8858792743
 21
179.4993545333
 31
0.0
 11
238.104112461
 21
177.2393486502
 31
0.0
 11
237.4128590718
 21
174.9593010368
 31
0.0
 11
236.8263623021
 21
172.6871308862
 31
0.0
 11
236.3506606574
 21
170.4362712188
 31
0.0
 11
235.9874438734
 21
168.2120929123
 31
0.0
 11
235.7360108783
 21
166.0140110538
 31
0.0
 11
235.5946307065
 21
163.834152767
 31
0.0
 11
235.5622209511
 21
161.6717695408
 31
0.0
 11
235.6377649657
 21
159.5136793405
 31
0.0
 11
235.8213629032
 21
157.3531071434
 31
0.0
 11
236.112750164
 21
155.188985201
 31
0.0
 11
236.5129764211
 21
153.011153456
 31
0.0
 11
237.0210598047
 21
150.8220634722
 31
0.0
 11
237.6349841757
 21
148.6235780629
 31
0.0
 11
238.3464793353
 21
146.4326852492
 31
0.0
 11
239.1411087857
 21
144.2733417716
 31
0.0
 11
240.0014178955
 21
142.1671150505
 31
0.0
 11
240.899291612
 21
140.1523080147
 31
0.0
 11
241.8066081156
 21
138.2585604727
 31
0.0
 11
242.6955630335
 21
136.5111128892
 31
0.0
 11
243.5405028877
 21
134.9301574885
 31
0.0
 11
244.3238257387
 21
133.5225315551
 31
0.0
 11
245.0300271157
 21
132.2945544251
 31
0.0
 11
245.6511937011
 21
131.2427580403
 31
0.0
 11
246.180569373
 21
130.3652118899
 31
0.0
 11
246.6154997888
 21
129.6561288739
 31
0.0
 11
246.9544970335
 21
129.1104093521
 31
0.0
 11
247.1964741801
 21
128.7244180666
 31
0.0
 11
247.3418276154
 21
128.4939267887
 31
0.0
 11
247.3901767418
 21
128.4174813268
 31
0.0
  0
SPLINE
  5
27C
100
AcDbEntity
  8
02___PRT_ALL_AXES
100
AcDbSpline
 62
7
  6
CONTINUOUS
 70
0
 71
3
 72
13
 73
9
 74
7
 42
0.0000001
 43
0.0000001
 44
0.0000000001
 12
-5.3185457853
 22
2.2837893089
 32
0.0
 13
-5.2970693711
 23
2.3331692942
 33
0.0
 40
0.0
 40
0.0
 40
0.0
 40
0.0
 40
0.1871710684
 40
0.3689786626
 40
0.543308508
 40
0.707996322
 40
0.8609426175
 40
1.0
 40
1.0
 40
1.0
 40
1.0
 10
139.3045277735
 20
193.3631142921
 30
0.0
 10
138.9727018078
 20
193.5056007204
 30
0.0
 10
138.3188310105
 20
193.7871256309
 30
0.0
 10
137.35679095
 20
194.2034271741
 30
0.0
 10
136.4352421973
 20
194.6040690762
 30
0.0
 10
135.5653513482
 20
194.9838651964
 30
0.0
 10
134.7583265822
 20
195.3375676413
 30
0.0
 10
134.2426071674
 20
195.5643672305
 30
0.0
 10
133.9970749668
 20
195.6725153689
 30
0.0
 11
139.3045277735
 21
193.3631142921
 31
0.0
 11
138.3094595785
 21
193.7915264432
 31
0.0
 11
137.3436712376
 21
194.2094362663
 31
0.0
 11
136.4182892104
 21
194.6117331694
 31
0.0
 11
135.5446829714
 21
194.9931421696
 31
0.0
 11
134.733861138
 21
195.3485016806
 31
0.0
 11
133.9970749668
 21
195.6725153689
 31
0.0
  0
SPLINE
  5
27D
100
AcDbEntity
  8
02___PRT_ALL_AXES
100
AcDbSpline
 62
7
  6
CONTINUOUS
 70
0
 71
3
 72
11
 73
7
 74
5
 42
0.0000001
 43
0.0000001
 44
0.0000000001
 12
-0.6116831703
 22
-1.0810033605
 32
0.0
 13
-0.602028733
 23
-1.0864097072
 33
0.0
 40
0.0
 40
0.0
 40
0.0
 40
0.0
 40
0.0616622656
 40
0.2482799954
 40
0.5611247593
 40
1.0
 40
1.0
 40
1.0
 40
1.0
 10
251.3901767418
 20
196.7562082454
 30
0.0
 10
251.3776041518
 20
196.7339892066
 30
0.0
 10
251.3270052483
 20
196.6445117878
 30
0.0
 10
251.212868349
 20
196.4421646739
 30
0.0
 10
251.0227477215
 20
196.103371877
 30
0.0
 10
250.8713503518
 20
195.8314481428
 30
0.0
 10
250.7832785168
 20
195.6725153689
 30
0.0
 11
251.3901767418
 21
196.7562082454
 31
0.0
 11
251.352476869
 21
196.6895410028
 31
0.0
 11
251.2385991536
 21
196.487652252
 31
0.0
 11
251.0484412262
 21
196.1487875708
 31
0.0
 11
250.7832785168
 21
195.6725153689
 31
0.0
  0
SPLINE
  5
27E
100
AcDbEntity
  8
02___PRT_ALL_AXES
100
AcDbSpline
 62
7
  6
CONTINUOUS
 70
0
 71
3
 72
15
 73
11
 74
9
 42
0.0000001
 43
0.0000001
 44
0.0000000001
 12
-5.2970696187
 22
-2.3331694033
 32
0.0
 13
-5.3185460339
 23
-2.2837894156
 33
0.0
 40
0.0
 40
0.0
 40
0.0
 40
0.0
 40
0.1058551717
 40
0.2187944317
 40
0.3377775065
 40
0.4618592842
 40
0.5902367062
 40
0.722701988
 40
0.8592462679
 40
1.0
 40
1.0
 40
1.0
 40
1.0
 10
250.7832785168
 20
195.6725153689
 30
0.0
 10
250.5963711121
 20
195.5901893529
 30
0.0
 10
250.2099729976
 20
195.4201980821
 30
0.0
 10
249.6132026379
 20
195.1583193818
 30
0.0
 10
248.9839513066
 20
194.8829462316
 30
0.0
 10
248.3271000881
 20
194.5963461964
 30
0.0
 10
247.6460626696
 20
194.3001342878
 30
0.0
 10
246.9425986516
 20
193.9952002573
 30
0.0
 10
246.2168141507
 20
193.6817206061
 30
0.0
 10
245.7253607778
 20
193.4702649199
 30
0.0
 10
245.4758257101
 20
193.3631142921
 30
0.0
 11
250.7832785168
 21
195.6725153689
 31
0.0
 11
250.2224466961
 21
195.4257863147
 31
0.0
 11
249.6238374791
 21
195.1631034985
 31
0.0
 11
248.9929144915
 21
194.8870022038
 31
0.0
 11
248.3346418355
 21
194.5997859531
 31
0.0
 11
247.6532352781
 21
194.3034180655
 31
0.0
 11
246.9497538652
 21
193.9984817028
 31
0.0
 11
246.2241984817
 21
193.6851069296
 31
0.0
 11
245.4758257101
 21
193.3631142921
 31
0.0
  0
SPLINE
  5
27F
100
AcDbEntity
  8
02___PRT_ALL_AXES
100
AcDbSpline
 62
7
  6
CONTINUOUS
 70
0
 71
3
 72
11
 73
7
 74
5
 42
0.0000001
 43
0.0000001
 44
0.0000000001
 12
-0.602028733
 22
1.0864097072
 32
0.0
 13
-0.6116831703
 23
1.0810033605
 33
0.0
 40
0.0
 40
0.0
 40
0.0
 40
0.0
 40
0.4388752407
 40
0.7517200046
 40
0.9383377344
 40
1.0
 40
1.0
 40
1.0
 40
1.0
 10
133.9970749668
 20
195.6725153689
 30
0.0
 10
133.9090031318
 20
195.8314481428
 30
0.0
 10
133.7576057621
 20
196.103371877
 30
0.0
 10
133.5674851346
 20
196.4421646739
 30
0.0
 10
133.4533482353
 20
196.6445117878
 30
0.0
 10
133.4027493318
 20
196.7339892066
 30
0.0
 10
133.3901767418
 20
196.7562082454
 30
0.0
 11
133.9970749668
 21
195.6725153689
 31
0.0
 11
133.7319122574
 21
196.1487875708
 31
0.0
 11
133.54175433
 21
196.487652252
 31
0.0
 11
133.4278766146
 21
196.6895410028
 31
0.0
 11
133.3901767418
 21
196.7562082454
 31
0.0
  0
ENDSEC
  0
SECTION
  2
OBJECTS
  0
DICTIONARY
  5
280
100
AcDbDictionary
  3
ACAD_GROUP
350
281
  3
ACAD_MLINESTYLE
350
282
  0
DICTIONARY
  5
281
102
{ACAD_REACTORS
330
280
102
}
100
AcDbDictionary
  0
DICTIONARY
  5
282
102
{ACAD_REACTORS
330
280
102
}
100
AcDbDictionary
  3
STANDARD
350
283
  0
MLINESTYLE
  5
283
102
{ACAD_REACTORS
330
282
102
}
100
AcDbMlineStyle
  2
STANDARD
 70
0
  3

 62
256
 51
90.0
 52
90.0
 71
2
 49
0.5
 62
256
  6
BYLAYER
 49
-0.5
 62
256
  6
BYLAYER
  0
ENDSEC
  0
EOF
