999
DXF file: 170-80-50-40-88_4way_boss.dxf
999
Pro/ENGINEER 2006320 by Parametric Technology Corporation
  0
SECTION
  2
HEADER
  9
$EXTMAX
 10
420.0
 20
297.0
 30
0.0
  9
$EXTMIN
 10
0.0
 20
0.0
 30
0.0
  9
$LIMMIN
 10
0.0
 20
0.0
  9
$LIMMAX
 10
420.0
 20
297.0
  9
$VIEWCTR
 10
210.0
 20
148.5
  9
$VIEWSIZE
 40
297.0
  9
$CLAYER
  8
0
  9
$LTSCALE
 40
23.1
  9
$CELTYPE
  6
BYLAYER
  9
$DIMSCALE
 40
1.0
  9
$DIMASZ
 40
3.0
  9
$DIMEXO
 40
2.625
  9
$DIMDLI
 40
15.96
  9
$DIMEXE
 40
7.56
  9
$DIMCEN
 40
3.78
  9
$DIMLFAC
 40
1.0
  9
$DIMBLK
  1
_FILLED
  9
$DIMTXT
 40
3.0
  9
$PDMODE
 70
3
  9
$PDSIZE
 40
0.3125
  0
ENDSEC
  0
SECTION
  2
TABLES
  0
TABLE
  2
LTYPE
 70
6
  0
LTYPE
  2
BYBLOCK
 70
0
  3

 72
65
 73
0
 40
0.0
  0
LTYPE
  2
BYLAYER
 70
0
  3

 72
65
 73
0
 40
0.0
  0
LTYPE
  2
CONTINUOUS
 70
64
  3
Solid line
 72
65
 73
0
 40
0.0
  0
LTYPE
  2
CENTER
 70
64
  3
____ _ ____ _ ____ _ ____ _ ____ _ ____ _ ____
 72
65
 73
4
 40
0.6
 49
0.375
 49
-0.075
 49
0.075
 49
-0.075
  0
LTYPE
  2
HIDDEN
 70
64
  3
- - - - - - - - - - - - - - - - - - - -
 72
65
 73
2
 40
0.2
 49
0.1
 49
-0.1
  0
LTYPE
  2
PHANTOM
 70
64
  3
_____ _ _ _____ _ _ _____ _ _ _____
 72
65
 73
6
 40
0.8
 49
0.45
 49
-0.05
 49
0.1
 49
-0.05
 49
0.1
 49
-0.05
  0
LTYPE
  2
DOT
 70
64
  3
. . . . . . . . . . . . . . . . . . . .
 72
65
 73
2
 40
0.2
 49
0.1
 49
-0.1
  0
LTYPE
  2
DASHED
 70
64
  3
- - - - - - - - - - - - - - - - - - - -
 72
65
 73
2
 40
0.2
 49
0.1
 49
-0.1
  0
ENDTAB
  0
TABLE
  2
LAYER
 70
36
  0
LAYER
  2
0
 70
0
 62
7
  6
CONTINUOUS
  0
LAYER
  2
DEFAULT_1
 70
0
 62
7
  6
CENTER
  0
LAYER
  2
DEFAULT_2
 70
0
 62
8
  6
HIDDEN
  0
LAYER
  2
DEFAULT_3
 70
0
 62
7
  6
PHANTOM
  0
LAYER
  2
01___PRT_ALL_DTM_PLN
 70
0
 62
7
  6
CONTINUOUS
  0
LAYER
  2
01___PRT_DEF_DTM_PLN
 70
0
 62
7
  6
CONTINUOUS
  0
LAYER
  2
02___PRT_ALL_AXES
 70
0
 62
7
  6
CONTINUOUS
  0
LAYER
  2
03___PRT_ALL_CURVES
 70
0
 62
7
  6
CONTINUOUS
  0
LAYER
  2
04___PRT_ALL_DTM_PNT
 70
0
 62
7
  6
CONTINUOUS
  0
LAYER
  2
05___PRT_ALL_DTM_CSYS
 70
0
 62
7
  6
CONTINUOUS
  0
LAYER
  2
05___PRT_DEF_DTM_CSYS
 70
0
 62
7
  6
CONTINUOUS
  0
LAYER
  2
06___PRT_ALL_SURFS
 70
0
 62
7
  6
CONTINUOUS
  0
ENDTAB
  0
TABLE
  2
STYLE
 70
1
  0
STYLE
  2
STANDARD
 70
0
 40
0.0
 41
0.6
 50
0.0
 71
0
 42
0.2
  3
txt
  4

  0
ENDTAB
  0
ENDSEC
  0
SECTION
  2
BLOCKS
  0
BLOCK
  8
0
 62
7
  6
CONTINUOUS
  2
*D0
 70
65
 10
0.0
 20
0.0
  0
TEXT
  8
0
 62
7
  6
CONTINUOUS
 10
80.2512170385
 20
182.9380281076
  7
STANDARD
 40
3.0
  1
83
 41
0.6
 72
0
  0
LINE
  8
0
 62
7
  6
CONTINUOUS
 10
135.7616276571
 20
225.9167508296
 11
79.0512170385
 21
225.9167508296
  0
LINE
  8
0
 62
7
  6
CONTINUOUS
 10
107.4068049711
 20
142.9593053855
 11
79.0512170385
 21
142.9593053855
  0
LINE
  8
0
 62
7
  6
CONTINUOUS
 10
82.0512170385
 20
225.9167508296
 11
82.0512170385
 21
187.4380281076
  0
LINE
  8
0
 62
7
  6
CONTINUOUS
 10
82.0512170385
 20
142.9593053855
 11
82.0512170385
 21
181.4380281076
  0
INSERT
  8
0
 62
7
  6
CONTINUOUS
  2
_FILLED
 10
82.0512170385
 20
225.9167508296
 41
3.0
 42
3.0
 43
3.0
 50
90.0
  0
INSERT
  8
0
 62
7
  6
CONTINUOUS
  2
_FILLED
 10
82.0512170385
 20
142.9593053855
 41
3.0
 42
3.0
 43
3.0
 50
270.0
  0
ENDBLK
  8
0
  6
BYBLOCK
 62
0
  0
BLOCK
  8
0
 62
7
  6
CONTINUOUS
  2
*D1
 70
65
 10
0.0
 20
0.0
  0
TEXT
  8
0
 62
7
  6
CONTINUOUS
 10
66.5027406737
 20
141.9167514394
  7
STANDARD
 40
3.0
  1
165
 41
0.6
 72
0
  0
LINE
  8
0
 62
7
  6
CONTINUOUS
 10
135.7616276571
 20
225.9167508296
 11
66.2027406737
 21
225.9167508296
  0
LINE
  8
0
 62
7
  6
CONTINUOUS
 10
137.2616263722
 20
60.9167520492
 11
66.2027406737
 21
60.9167520492
  0
LINE
  8
0
 62
7
  6
CONTINUOUS
 10
69.2027406737
 20
225.9167508296
 11
69.2027406737
 21
146.4167514394
  0
LINE
  8
0
 62
7
  6
CONTINUOUS
 10
69.2027406737
 20
60.9167520492
 11
69.2027406737
 21
140.4167514394
  0
INSERT
  8
0
 62
7
  6
CONTINUOUS
  2
_FILLED
 10
69.2027406737
 20
225.9167508296
 41
3.0
 42
3.0
 43
3.0
 50
90.0
  0
INSERT
  8
0
 62
7
  6
CONTINUOUS
  2
_FILLED
 10
69.2027406737
 20
60.9167520492
 41
3.0
 42
3.0
 43
3.0
 50
270.0
  0
ENDBLK
  8
0
  6
BYBLOCK
 62
0
  0
BLOCK
  8
0
 62
7
  6
CONTINUOUS
  2
*D2
 70
65
 10
0.0
 20
0.0
  0
TEXT
  8
0
 62
7
  6
CONTINUOUS
 10
176.4116263722
 20
41.5027490472
  7
STANDARD
 40
3.0
  1
82.5
 41
0.6
 72
0
  0
LINE
  8
0
 62
7
  6
CONTINUOUS
 10
138.7616263722
 20
59.4167520492
 11
138.7616263722
 21
40.0027490472
  0
LINE
  8
0
 62
7
  6
CONTINUOUS
 10
221.2616263722
 20
59.4167520492
 11
221.2616263722
 21
40.0027490472
  0
LINE
  8
0
 62
7
  6
CONTINUOUS
 10
138.7616263722
 20
43.0027490472
 11
174.9116263722
 21
43.0027490472
  0
LINE
  8
0
 62
7
  6
CONTINUOUS
 10
221.2616263722
 20
43.0027490472
 11
185.1116263722
 21
43.0027490472
  0
INSERT
  8
0
 62
7
  6
CONTINUOUS
  2
_FILLED
 10
138.7616263722
 20
43.0027490472
 41
3.0
 42
3.0
 43
3.0
 50
180.0
  0
INSERT
  8
0
 62
7
  6
CONTINUOUS
  2
_FILLED
 10
221.2616263722
 20
43.0027490472
 41
3.0
 42
3.0
 43
3.0
 50
360.0
  0
ENDBLK
  8
0
  6
BYBLOCK
 62
0
  0
BLOCK
  8
0
 62
7
  6
CONTINUOUS
  2
*D3
 70
65
 10
0.0
 20
0.0
  0
TEXT
  8
0
 62
7
  6
CONTINUOUS
 10
178.7975025615
 20
30.3611415422
  7
STANDARD
 40
3.0
  1
147
 41
0.6
 72
0
  0
LINE
  8
0
 62
7
  6
CONTINUOUS
 10
108.0343175536
 20
116.4745347101
 11
108.0343175536
 21
28.8611415422
  0
LINE
  8
0
 62
7
  6
CONTINUOUS
 10
254.9606875694
 20
109.8241961658
 11
254.9606875694
 21
28.8611415422
  0
LINE
  8
0
 62
7
  6
CONTINUOUS
 10
108.0343175536
 20
31.8611415422
 11
177.2975025615
 21
31.8611415422
  0
LINE
  8
0
 62
7
  6
CONTINUOUS
 10
254.9606875694
 20
31.8611415422
 11
185.6975025615
 21
31.8611415422
  0
INSERT
  8
0
 62
7
  6
CONTINUOUS
  2
_FILLED
 10
108.0343175536
 20
31.8611415422
 41
3.0
 42
3.0
 43
3.0
 50
180.0
  0
INSERT
  8
0
 62
7
  6
CONTINUOUS
  2
_FILLED
 10
254.9606875694
 20
31.8611415422
 41
3.0
 42
3.0
 43
3.0
  0
ENDBLK
  8
0
  6
BYBLOCK
 62
0
  0
BLOCK
  8
0
 62
7
  6
CONTINUOUS
  2
*D4
 70
65
 10
0.0
 20
0.0
  0
TEXT
  8
0
 62
7
  6
CONTINUOUS
 10
246.407840636
 20
197.6863834634
  7
STANDARD
 40
3.0
  1
88%%d
 41
0.6222222222
 72
0
  0
LINE
  8
0
 62
7
  6
CONTINUOUS
 10
202.8836963711
 20
141.2749805919
 11
273.701383028
 21
143.7479887036
  0
LINE
  8
0
 62
7
  6
CONTINUOUS
 10
180.0116263722
 20
141.9762703076
 11
180.0116263722
 21
234.2231350204
  0
ARC
  8
0
 62
7
  6
CONTINUOUS
 10
180.0116263722
 20
140.4762703076
 40
90.7468647128
 50
2.0
 51
37.8725259748
  0
ARC
  8
0
 62
7
  6
CONTINUOUS
 10
180.0116263722
 20
140.4762703076
 40
90.7468647128
 50
42.8455764081
 51
90.0
  0
SOLID
  8
0
 62
7
  6
CONTINUOUS
 10
269.7999622419
 20
146.6007625294
 11
270.7032105469
 21
143.6432902135
 12
271.2979784265
 22
146.6778826357
 13
271.2979784265
 23
146.6778826357
  0
SOLID
  8
0
 62
7
  6
CONTINUOUS
 10
183.0236131032
 20
231.9234463317
 11
180.0116263722
 21
231.2231350204
 12
182.9988199872
 22
230.4236512452
 13
182.9988199872
 23
230.4236512452
  0
ENDBLK
  8
0
  6
BYBLOCK
 62
0
  0
BLOCK
  8
0
 62
7
  6
CONTINUOUS
  2
*D5
 70
65
 10
0.0
 20
0.0
  0
TEXT
  8
0
 62
7
  6
CONTINUOUS
 10
260.4909465618
 20
155.6169301267
  7
STANDARD
 40
3.0
  1
63.5
 41
0.6
 72
0
  0
LINE
  8
0
 62
7
  6
CONTINUOUS
 10
254.2436557693
 20
174.8378629266
 11
266.4590503984
 21
175.2644339067
  0
LINE
  8
0
 62
7
  6
CONTINUOUS
 10
256.4597738099
 20
111.3765454109
 11
268.675168439
 21
111.803116391
  0
LINE
  8
0
 62
7
  6
CONTINUOUS
 10
263.4608779173
 20
175.1597354166
 11
263.9861842534
 21
160.1169301267
  0
LINE
  8
0
 62
7
  6
CONTINUOUS
 10
265.6769959579
 20
111.6984179009
 11
264.1957088703
 21
154.1169301267
  0
INSERT
  8
0
 62
7
  6
CONTINUOUS
  2
_FILLED
 10
263.4608779173
 20
175.1597354166
 41
3.0
 42
3.0
 43
3.0
 50
92.0
  0
INSERT
  8
0
 62
7
  6
CONTINUOUS
  2
_FILLED
 10
265.6769959579
 20
111.6984179009
 41
3.0
 42
3.0
 43
3.0
 50
272.0
  0
ENDBLK
  8
0
  6
BYBLOCK
 62
0
  0
BLOCK
  8
0
 62
7
  6
CONTINUOUS
  2
*D6
 70
65
 10
0.0
 20
0.0
  0
TEXT
  8
0
 62
7
  6
CONTINUOUS
 10
98.1286406791
 20
154.5178505125
  7
STANDARD
 40
3.0
  1
50
 41
0.6
 72
0
  0
LINE
  8
0
 62
7
  6
CONTINUOUS
 10
108.2802061482
 20
167.9964253061
 11
97.358431764
 21
168.3778220718
  0
LINE
  8
0
 62
7
  6
CONTINUOUS
 10
106.535231313
 20
118.0268839551
 11
95.6134569289
 21
118.4082807208
  0
LINE
  8
0
 62
7
  6
CONTINUOUS
 10
100.356604245
 20
168.2731235817
 11
100.0334029876
 21
159.0178505125
  0
LINE
  8
0
 62
7
  6
CONTINUOUS
 10
98.6116294099
 20
118.3035822307
 11
99.8238783707
 21
153.0178505125
  0
INSERT
  8
0
 62
7
  6
CONTINUOUS
  2
_FILLED
 10
100.356604245
 20
168.2731235817
 41
3.0
 42
3.0
 43
3.0
 50
88.0
  0
INSERT
  8
0
 62
7
  6
CONTINUOUS
  2
_FILLED
 10
98.6116294099
 20
118.3035822307
 41
3.0
 42
3.0
 43
3.0
 50
268.0
  0
ENDBLK
  8
0
  6
BYBLOCK
 62
0
  0
BLOCK
  8
0
 62
7
  6
CONTINUOUS
  2
*D7
 70
65
 10
0.0
 20
0.0
  0
TEXT
  8
0
 62
7
  6
CONTINUOUS
 10
98.2242074412
 20
183.6006336563
  7
STANDARD
 40
3.0
  1
88%%d
 41
0.6222222222
 72
0
  0
LINE
  8
0
 62
7
  6
CONTINUOUS
 10
180.0116263722
 20
141.9762703076
 11
180.0116263722
 21
234.1975255551
  0
LINE
  8
0
 62
7
  6
CONTINUOUS
 10
159.8757371491
 20
141.1794310537
 11
86.3474635813
 21
143.7470949461
  0
ARC
  8
0
 62
7
  6
CONTINUOUS
 10
180.0116263722
 20
140.4762703076
 40
90.7212552474
 50
90.0
 51
148.3349442738
  0
ARC
  8
0
 62
7
  6
CONTINUOUS
 10
180.0116263722
 20
140.4762703076
 40
90.7212552474
 50
152.6892675678
 51
178.0
  0
SOLID
  8
0
 62
7
  6
CONTINUOUS
 10
177.0244364878
 20
230.3980278414
 11
180.0116263722
 21
231.1975255551
 12
176.9996363736
 22
231.8978228122
 13
176.9996363736
 23
231.8978228122
  0
SOLID
  8
0
 62
7
  6
CONTINUOUS
 10
88.7508823424
 20
146.6769916535
 11
89.3456360623
 21
143.642396456
 12
90.2488981671
 22
146.5998645573
 13
90.2488981671
 23
146.5998645573
  0
ENDBLK
  8
0
  6
BYBLOCK
 62
0
  0
BLOCK
  8
0
  2
_FILLED
 70
64
 10
0.0
 20
0.0
  0
SOLID
  8
0
  6
BYBLOCK
 62
0
 10
0.0
 20
0.0
 11
-1.0
 21
0.25
 12
-1.0
 22
-0.25
 13
-1.0
 23
-0.25
  0
ENDBLK
  8
0
  6
BYBLOCK
 62
0
  0
ENDSEC
  0
SECTION
  2
ENTITIES
  0
DIMENSION
  8
0
 62
7
  6
CONTINUOUS
  2
*D0
 10
82.0512170385
 20
142.9593053855
 11
82.0512170385
 21
184.4380281076
 70
128
 13
135.7616276571
 23
225.9167508296
 14
107.4068049711
 24
142.9593053855
 50
270.0
  0
DIMENSION
  8
0
 62
7
  6
CONTINUOUS
  2
*D1
 10
69.2027406737
 20
60.9167520492
 11
69.2027406737
 21
143.4167514394
 70
128
 13
135.7616276571
 23
225.9167508296
 14
137.2616263722
 24
60.9167520492
 50
270.0
  0
DIMENSION
  8
0
 62
7
  6
CONTINUOUS
  2
*D2
 10
221.2616263722
 20
43.0027490472
 11
180.0116263722
 21
43.0027490472
 70
128
 13
138.7616263722
 23
59.4167520492
 14
221.2616263722
 24
59.4167520492
  0
DIMENSION
  8
0
 62
7
  6
CONTINUOUS
  2
*D3
 10
254.9606875694
 20
31.8611415422
 11
181.4975025615
 21
31.8611415422
 70
128
 13
108.0343175536
 23
116.4745347101
 14
254.9606875694
 24
109.8241961658
  0
DIMENSION
  8
0
 62
7
  6
CONTINUOUS
  2
*D4
 10
180.0116263722
 20
141.9762703076
 11
249.207840636
 21
199.1863834634
 70
130
 13
202.8836963711
 23
141.2749805919
 14
273.701383028
 24
143.7479887036
 15
180.0116263722
 25
234.2231350204
 16
243.0496955379
 26
205.7541018515
  0
DIMENSION
  8
0
 62
7
  6
CONTINUOUS
  2
*D5
 10
265.6769959579
 20
111.6984179009
 11
264.0909465618
 21
157.1169301267
 70
128
 13
254.2436557693
 23
174.8378629266
 14
256.4597738099
 24
111.3765454109
 50
272.0
  0
DIMENSION
  8
0
 62
7
  6
CONTINUOUS
  2
*D6
 10
98.6116294099
 20
118.3035822307
 11
99.9286406791
 21
156.0178505125
 70
128
 13
108.2802061482
 23
167.9964253061
 14
106.535231313
 24
118.0268839551
 50
268.0
  0
DIMENSION
  8
0
 62
7
  6
CONTINUOUS
  2
*D7
 10
159.8757371491
 20
141.1794310537
 11
101.0242074412
 21
185.1006336563
 70
130
 13
180.0116263722
 23
141.9762703076
 14
180.0116263722
 24
234.1975255551
 15
86.3474635813
 25
143.7470949461
 16
116.9913470361
 26
205.7356799438
  0
LINE
  8
0
 62
7
  6
CONTINUOUS
 10
0.0
 20
0.0
 11
0.0
 21
297.0
  0
LINE
  8
0
 62
7
  6
CONTINUOUS
 10
0.0
 20
0.0
 11
420.0
 21
0.0
  0
LINE
  8
0
 62
7
  6
CONTINUOUS
 10
0.0
 20
297.0
 11
420.0
 21
297.0
  0
LINE
  8
0
 62
7
  6
CONTINUOUS
 10
420.0
 20
0.0
 11
420.0
 21
297.0
  0
LINE
  8
0
 62
7
  6
CONTINUOUS
 10
137.2616276244
 20
225.916750797
 11
135.261627683
 21
223.9167507384
  0
LINE
  8
0
 62
7
  6
CONTINUOUS
 10
135.2616263722
 20
214.4167520492
 11
133.2616263722
 21
213.4167520492
  0
LINE
  8
02___PRT_ALL_AXES
 62
7
  6
CONTINUOUS
 10
221.2616263722
 20
60.9167520492
 11
138.7616263722
 21
60.9167520492
  0
LINE
  8
02___PRT_ALL_AXES
 62
7
  6
CONTINUOUS
 10
109.7792923887
 20
167.944076061
 11
108.0343175536
 21
117.9745347101
  0
LINE
  8
0
 62
7
  6
CONTINUOUS
 10
135.2616263722
 20
187.4167520492
 11
133.2616263722
 21
186.4167520492
  0
LINE
  8
0
 62
7
  6
CONTINUOUS
 10
133.2616263722
 20
213.4167520492
 11
133.2616263722
 21
210.4167520492
  0
LINE
  8
0
 62
7
  6
CONTINUOUS
 10
133.2616263722
 20
186.4167520492
 11
133.2616263722
 21
183.4167520492
  0
LINE
  8
02___PRT_ALL_AXES
 62
7
  6
CONTINUOUS
 10
135.2616263722
 20
223.9167520492
 11
135.2616263722
 21
214.4167520492
  0
LINE
  8
02___PRT_ALL_AXES
 62
7
  6
CONTINUOUS
 10
135.2616263722
 20
209.4167520492
 11
135.2616263722
 21
187.4167520492
  0
LINE
  8
02___PRT_ALL_AXES
 62
7
  6
CONTINUOUS
 10
135.2616263722
 20
182.4167520492
 11
135.2616263722
 21
171.9167520492
  0
LINE
  8
02___PRT_ALL_AXES
 62
7
  6
CONTINUOUS
 10
138.7616263722
 20
168.4167520492
 11
138.7616263722
 21
166.9319906567
  0
LINE
  8
02___PRT_ALL_AXES
 62
7
  6
CONTINUOUS
 10
138.7616263722
 20
116.9015134417
 11
138.7616263722
 21
60.9167520492
  0
LINE
  8
0
 62
7
  6
CONTINUOUS
 10
226.7616263722
 20
210.4167520492
 11
224.7616263722
 21
209.4167520492
  0
POLYLINE
  8
02___PRT_ALL_AXES
 62
7
  6
CONTINUOUS
 66
1
 70
0
  0
VERTEX
  8
02___PRT_ALL_AXES
 62
7
  6
CONTINUOUS
 10
180.0116263722
 20
110.9015134417
  0
VERTEX
  8
02___PRT_ALL_AXES
 62
7
  6
CONTINUOUS
 10
181.8910171238
 20
110.9708029883
  0
VERTEX
  8
02___PRT_ALL_AXES
 62
7
  6
CONTINUOUS
 10
183.772307045
 20
111.1801608691
  0
VERTEX
  8
02___PRT_ALL_AXES
 62
7
  6
CONTINUOUS
 10
185.6445029894
 20
111.5312627758
  0
VERTEX
  8
02___PRT_ALL_AXES
 62
7
  6
CONTINUOUS
 10
187.506530719
 20
112.0281556015
  0
VERTEX
  8
02___PRT_ALL_AXES
 62
7
  6
CONTINUOUS
 10
189.3488271055
 20
112.6743528513
  0
VERTEX
  8
02___PRT_ALL_AXES
 62
7
  6
CONTINUOUS
 10
191.1671383116
 20
113.4763625791
  0
VERTEX
  8
02___PRT_ALL_AXES
 62
7
  6
CONTINUOUS
 10
192.9448872667
 20
114.4364344941
  0
VERTEX
  8
02___PRT_ALL_AXES
 62
7
  6
CONTINUOUS
 10
194.6676260768
 20
115.5569841915
  0
VERTEX
  8
02___PRT_ALL_AXES
 62
7
  6
CONTINUOUS
 10
196.3134523166
 20
116.834035307
  0
VERTEX
  8
02___PRT_ALL_AXES
 62
7
  6
CONTINUOUS
 10
197.8600440949
 20
118.2590008075
  0
VERTEX
  8
02___PRT_ALL_AXES
 62
7
  6
CONTINUOUS
 10
199.2808886864
 20
119.8123939234
  0
VERTEX
  8
02___PRT_ALL_AXES
 62
7
  6
CONTINUOUS
 10
200.5553342351
 20
121.4704500037
  0
VERTEX
  8
02___PRT_ALL_AXES
 62
7
  6
CONTINUOUS
 10
201.6646829346
 20
123.1989146043
  0
VERTEX
  8
02___PRT_ALL_AXES
 62
7
  6
CONTINUOUS
 10
202.6024299934
 20
124.9672647296
  0
VERTEX
  8
02___PRT_ALL_AXES
 62
7
  6
CONTINUOUS
 10
203.3741504222
 20
126.7590111721
  0
VERTEX
  8
02___PRT_ALL_AXES
 62
7
  6
CONTINUOUS
 10
203.9849033443
 20
128.5532064806
  0
VERTEX
  8
02___PRT_ALL_AXES
 62
7
  6
CONTINUOUS
 10
204.443119264
 20
130.3325364519
  0
VERTEX
  8
02___PRT_ALL_AXES
 62
7
  6
CONTINUOUS
 10
204.7617493018
 20
132.1006821599
  0
VERTEX
  8
02___PRT_ALL_AXES
 62
7
  6
CONTINUOUS
 10
204.9502006851
 20
133.8711885326
  0
VERTEX
  8
02___PRT_ALL_AXES
 62
7
  6
CONTINUOUS
 10
205.0116277886
 20
135.6220539291
  0
SEQEND
  0
LINE
  8
02___PRT_ALL_AXES
 62
7
  6
CONTINUOUS
 10
221.2616263722
 20
110.1473990177
 11
254.9606875694
 21
111.3241961658
  0
POLYLINE
  8
02___PRT_ALL_AXES
 62
7
  6
CONTINUOUS
 66
1
 70
0
  0
VERTEX
  8
02___PRT_ALL_AXES
 62
7
  6
CONTINUOUS
 10
155.011624939
 20
135.622053834
  0
VERTEX
  8
02___PRT_ALL_AXES
 62
7
  6
CONTINUOUS
 10
155.0730389341
 20
133.8713751984
  0
VERTEX
  8
02___PRT_ALL_AXES
 62
7
  6
CONTINUOUS
 10
155.2614660243
 20
132.1009440155
  0
VERTEX
  8
02___PRT_ALL_AXES
 62
7
  6
CONTINUOUS
 10
155.5800780085
 20
130.3327908453
  0
VERTEX
  8
02___PRT_ALL_AXES
 62
7
  6
CONTINUOUS
 10
156.0382362882
 20
128.5535863146
  0
VERTEX
  8
02___PRT_ALL_AXES
 62
7
  6
CONTINUOUS
 10
156.6489246396
 20
126.7594736755
  0
VERTEX
  8
02___PRT_ALL_AXES
 62
7
  6
CONTINUOUS
 10
157.4205883226
 20
124.9677542757
  0
VERTEX
  8
02___PRT_ALL_AXES
 62
7
  6
CONTINUOUS
 10
158.3583301198
 20
123.1993250457
  0
VERTEX
  8
02___PRT_ALL_AXES
 62
7
  6
CONTINUOUS
 10
159.4676786444
 20
121.4707913054
  0
VERTEX
  8
02___PRT_ALL_AXES
 62
7
  6
CONTINUOUS
 10
160.7420835996
 20
119.8127282568
  0
VERTEX
  8
02___PRT_ALL_AXES
 62
7
  6
CONTINUOUS
 10
162.1629114309
 20
118.2592990611
  0
VERTEX
  8
02___PRT_ALL_AXES
 62
7
  6
CONTINUOUS
 10
163.7095100832
 20
116.83428082
  0
VERTEX
  8
02___PRT_ALL_AXES
 62
7
  6
CONTINUOUS
 10
165.3552853676
 20
115.5572267913
  0
VERTEX
  8
02___PRT_ALL_AXES
 62
7
  6
CONTINUOUS
 10
167.0780771156
 20
114.4366055957
  0
VERTEX
  8
02___PRT_ALL_AXES
 62
7
  6
CONTINUOUS
 10
168.8557447695
 20
113.4765433882
  0
VERTEX
  8
02___PRT_ALL_AXES
 62
7
  6
CONTINUOUS
 10
170.6740064769
 20
112.6745183216
  0
VERTEX
  8
02___PRT_ALL_AXES
 62
7
  6
CONTINUOUS
 10
172.5162994361
 20
112.0282857588
  0
VERTEX
  8
02___PRT_ALL_AXES
 62
7
  6
CONTINUOUS
 10
174.3784125425
 20
111.5313391869
  0
VERTEX
  8
02___PRT_ALL_AXES
 62
7
  6
CONTINUOUS
 10
176.2507021522
 20
111.1801971721
  0
VERTEX
  8
02___PRT_ALL_AXES
 62
7
  6
CONTINUOUS
 10
178.1321127863
 20
110.970812059
  0
VERTEX
  8
02___PRT_ALL_AXES
 62
7
  6
CONTINUOUS
 10
180.0116263722
 20
110.9015134417
  0
SEQEND
  0
POLYLINE
  8
02___PRT_ALL_AXES
 62
7
  6
CONTINUOUS
 66
1
 70
0
  0
VERTEX
  8
02___PRT_ALL_AXES
 62
7
  6
CONTINUOUS
 10
158.0116598202
 20
136.9593053855
  0
VERTEX
  8
02___PRT_ALL_AXES
 62
7
  6
CONTINUOUS
 10
158.0337789083
 20
135.9728803876
  0
VERTEX
  8
02___PRT_ALL_AXES
 62
7
  6
CONTINUOUS
 10
158.2107316133
 20
134.0079725057
  0
VERTEX
  8
02___PRT_ALL_AXES
 62
7
  6
CONTINUOUS
 10
158.5632123042
 20
132.0668270208
  0
VERTEX
  8
02___PRT_ALL_AXES
 62
7
  6
CONTINUOUS
 10
159.0883830137
 20
130.165072895
  0
VERTEX
  8
02___PRT_ALL_AXES
 62
7
  6
CONTINUOUS
 10
159.7820153761
 20
128.3180219342
  0
VERTEX
  8
02___PRT_ALL_AXES
 62
7
  6
CONTINUOUS
 10
160.6385246714
 20
126.5405455068
  0
VERTEX
  8
02___PRT_ALL_AXES
 62
7
  6
CONTINUOUS
 10
161.6510147904
 20
124.8469548078
  0
VERTEX
  8
02___PRT_ALL_AXES
 62
7
  6
CONTINUOUS
 10
162.8113337579
 20
123.2508856338
  0
VERTEX
  8
02___PRT_ALL_AXES
 62
7
  6
CONTINUOUS
 10
164.110139368
 20
121.7651885951
  0
VERTEX
  8
02___PRT_ALL_AXES
 62
7
  6
CONTINUOUS
 10
165.5369744016
 20
120.4018256508
  0
VERTEX
  8
02___PRT_ALL_AXES
 62
7
  6
CONTINUOUS
 10
167.0803508218
 20
119.1717737978
  0
VERTEX
  8
02___PRT_ALL_AXES
 62
7
  6
CONTINUOUS
 10
168.7278422693
 20
118.0849366901
  0
VERTEX
  8
02___PRT_ALL_AXES
 62
7
  6
CONTINUOUS
 10
170.4661841117
 20
117.1500649013
  0
VERTEX
  8
02___PRT_ALL_AXES
 62
7
  6
CONTINUOUS
 10
172.2813802425
 20
116.3746854692
  0
VERTEX
  8
02___PRT_ALL_AXES
 62
7
  6
CONTINUOUS
 10
174.1588157698
 20
115.7650412931
  0
VERTEX
  8
02___PRT_ALL_AXES
 62
7
  6
CONTINUOUS
 10
176.0833746867
 20
115.3260408694
  0
VERTEX
  8
02___PRT_ALL_AXES
 62
7
  6
CONTINUOUS
 10
178.0395615764
 20
115.0612187715
  0
VERTEX
  8
02___PRT_ALL_AXES
 62
7
  6
CONTINUOUS
 10
180.0116263722
 20
114.9727071911
  0
SEQEND
  0
POLYLINE
  8
02___PRT_ALL_AXES
 62
7
  6
CONTINUOUS
 66
1
 70
0
  0
VERTEX
  8
02___PRT_ALL_AXES
 62
7
  6
CONTINUOUS
 10
155.0116568079
 20
136.9593053855
  0
VERTEX
  8
02___PRT_ALL_AXES
 62
7
  6
CONTINUOUS
 10
155.0341522171
 20
135.8989216565
  0
VERTEX
  8
02___PRT_ALL_AXES
 62
7
  6
CONTINUOUS
 10
155.2141154908
 20
133.7857942875
  0
VERTEX
  8
02___PRT_ALL_AXES
 62
7
  6
CONTINUOUS
 10
155.5727453986
 20
131.6955321386
  0
VERTEX
  8
02___PRT_ALL_AXES
 62
7
  6
CONTINUOUS
 10
156.1074580038
 20
129.6431955966
  0
VERTEX
  8
02___PRT_ALL_AXES
 62
7
  6
CONTINUOUS
 10
156.8144006898
 20
127.6435717933
  0
VERTEX
  8
02___PRT_ALL_AXES
 62
7
  6
CONTINUOUS
 10
157.6884799185
 20
125.711068064
  0
VERTEX
  8
02___PRT_ALL_AXES
 62
7
  6
CONTINUOUS
 10
158.7233979289
 20
123.8596081424
  0
VERTEX
  8
02___PRT_ALL_AXES
 62
7
  6
CONTINUOUS
 10
159.9116981131
 20
122.1025318396
  0
VERTEX
  8
02___PRT_ALL_AXES
 62
7
  6
CONTINUOUS
 10
161.2448187409
 20
120.4524989306
  0
VERTEX
  8
02___PRT_ALL_AXES
 62
7
  6
CONTINUOUS
 10
162.7131546478
 20
118.9213979403
  0
VERTEX
  8
02___PRT_ALL_AXES
 62
7
  6
CONTINUOUS
 10
164.3061264399
 20
117.5202604866
  0
VERTEX
  8
02___PRT_ALL_AXES
 62
7
  6
CONTINUOUS
 10
166.0122567188
 20
116.2591817968
  0
VERTEX
  8
02___PRT_ALL_AXES
 62
7
  6
CONTINUOUS
 10
167.8192527769
 20
115.1472479718
  0
VERTEX
  8
02___PRT_ALL_AXES
 62
7
  6
CONTINUOUS
 10
169.7140951661
 20
114.1924705202
  0
VERTEX
  8
02___PRT_ALL_AXES
 62
7
  6
CONTINUOUS
 10
171.6831315037
 20
113.4017286356
  0
VERTEX
  8
02___PRT_ALL_AXES
 62
7
  6
CONTINUOUS
 10
173.7121748376
 20
112.7807196313
  0
VERTEX
  8
02___PRT_ALL_AXES
 62
7
  6
CONTINUOUS
 10
175.7866058642
 20
112.3339178914
  0
VERTEX
  8
02___PRT_ALL_AXES
 62
7
  6
CONTINUOUS
 10
177.8914782604
 20
112.0645426327
  0
VERTEX
  8
02___PRT_ALL_AXES
 62
7
  6
CONTINUOUS
 10
180.0116263722
 20
111.9745347101
  0
SEQEND
  0
LINE
  8
02___PRT_ALL_AXES
 62
7
  6
CONTINUOUS
 10
155.0116263722
 20
136.9593053855
 11
155.0116263722
 21
135.6220752932
  0
POLYLINE
  8
02___PRT_ALL_AXES
 62
7
  6
CONTINUOUS
 66
1
 70
0
  0
VERTEX
  8
02___PRT_ALL_AXES
 62
7
  6
CONTINUOUS
 10
158.0296294614
 20
136.1579295272
  0
VERTEX
  8
02___PRT_ALL_AXES
 62
7
  6
CONTINUOUS
 10
158.0782101684
 20
137.4076239587
  0
VERTEX
  8
02___PRT_ALL_AXES
 62
7
  6
CONTINUOUS
 10
158.2774984563
 20
139.1126032768
  0
VERTEX
  8
02___PRT_ALL_AXES
 62
7
  6
CONTINUOUS
 10
158.6137784881
 20
140.8228611873
  0
VERTEX
  8
02___PRT_ALL_AXES
 62
7
  6
CONTINUOUS
 10
159.0950119194
 20
142.5407271499
  0
VERTEX
  8
02___PRT_ALL_AXES
 62
7
  6
CONTINUOUS
 10
159.7276803492
 20
144.2540629519
  0
VERTEX
  8
02___PRT_ALL_AXES
 62
7
  6
CONTINUOUS
 10
160.5189190176
 20
145.9517127663
  0
VERTEX
  8
02___PRT_ALL_AXES
 62
7
  6
CONTINUOUS
 10
161.4697759166
 20
147.610840989
  0
VERTEX
  8
02___PRT_ALL_AXES
 62
7
  6
CONTINUOUS
 10
162.5743425548
 20
149.2041108156
  0
VERTEX
  8
02___PRT_ALL_AXES
 62
7
  6
CONTINUOUS
 10
163.8232937023
 20
150.7078510193
  0
VERTEX
  8
02___PRT_ALL_AXES
 62
7
  6
CONTINUOUS
 10
165.1952432155
 20
152.0932171896
  0
VERTEX
  8
02___PRT_ALL_AXES
 62
7
  6
CONTINUOUS
 10
166.6700819612
 20
153.3429381685
  0
VERTEX
  8
02___PRT_ALL_AXES
 62
7
  6
CONTINUOUS
 10
168.2212869438
 20
154.4418285618
  0
VERTEX
  8
02___PRT_ALL_AXES
 62
7
  6
CONTINUOUS
 10
169.8328643657
 20
155.3877579157
  0
VERTEX
  8
02___PRT_ALL_AXES
 62
7
  6
CONTINUOUS
 10
171.4845582482
 20
156.1782645752
  0
VERTEX
  8
02___PRT_ALL_AXES
 62
7
  6
CONTINUOUS
 10
173.163332099
 20
156.8164628444
  0
VERTEX
  8
02___PRT_ALL_AXES
 62
7
  6
CONTINUOUS
 10
174.8631310219
 20
157.3076115652
  0
VERTEX
  8
02___PRT_ALL_AXES
 62
7
  6
CONTINUOUS
 10
176.5737698584
 20
157.6547153186
  0
VERTEX
  8
02___PRT_ALL_AXES
 62
7
  6
CONTINUOUS
 10
178.2941608379
 20
157.8617311944
  0
VERTEX
  8
02___PRT_ALL_AXES
 62
7
  6
CONTINUOUS
 10
180.0116263722
 20
157.9301620238
  0
SEQEND
  0
POLYLINE
  8
02___PRT_ALL_AXES
 62
7
  6
CONTINUOUS
 66
1
 70
0
  0
VERTEX
  8
02___PRT_ALL_AXES
 62
7
  6
CONTINUOUS
 10
139.1684446533
 20
117.5648294548
  0
VERTEX
  8
02___PRT_ALL_AXES
 62
7
  6
CONTINUOUS
 10
139.4843978167
 20
118.0884906725
  0
VERTEX
  8
02___PRT_ALL_AXES
 62
7
  6
CONTINUOUS
 10
139.8883635958
 20
118.7697429225
  0
VERTEX
  8
02___PRT_ALL_AXES
 62
7
  6
CONTINUOUS
 10
140.377729484
 20
119.6142822023
  0
VERTEX
  8
02___PRT_ALL_AXES
 62
7
  6
CONTINUOUS
 10
140.9469141347
 20
120.626355731
  0
VERTEX
  8
02___PRT_ALL_AXES
 62
7
  6
CONTINUOUS
 10
141.5850344077
 20
121.8049532408
  0
VERTEX
  8
02___PRT_ALL_AXES
 62
7
  6
CONTINUOUS
 10
142.2783847693
 20
123.1483424833
  0
VERTEX
  8
02___PRT_ALL_AXES
 62
7
  6
CONTINUOUS
 10
143.0037889966
 20
124.6404236997
  0
VERTEX
  8
02___PRT_ALL_AXES
 62
7
  6
CONTINUOUS
 10
143.7364308094
 20
126.2633909987
  0
VERTEX
  8
02___PRT_ALL_AXES
 62
7
  6
CONTINUOUS
 10
144.4451362049
 20
127.9835612908
  0
VERTEX
  8
02___PRT_ALL_AXES
 62
7
  6
CONTINUOUS
 10
145.103314134
 20
129.7704910101
  0
VERTEX
  8
02___PRT_ALL_AXES
 62
7
  6
CONTINUOUS
 10
145.6891396697
 20
131.5954365439
  0
VERTEX
  8
02___PRT_ALL_AXES
 62
7
  6
CONTINUOUS
 10
146.1860913545
 20
133.430287655
  0
VERTEX
  8
02___PRT_ALL_AXES
 62
7
  6
CONTINUOUS
 10
146.5873039144
 20
135.265984074
  0
VERTEX
  8
02___PRT_ALL_AXES
 62
7
  6
CONTINUOUS
 10
146.888193985
 20
137.0915573408
  0
VERTEX
  8
02___PRT_ALL_AXES
 62
7
  6
CONTINUOUS
 10
147.0886999952
 20
138.9120091303
  0
VERTEX
  8
02___PRT_ALL_AXES
 62
7
  6
CONTINUOUS
 10
147.1885067292
 20
140.7304855268
  0
VERTEX
  8
02___PRT_ALL_AXES
 62
7
  6
CONTINUOUS
 10
147.1875515133
 20
142.5490304179
  0
VERTEX
  8
02___PRT_ALL_AXES
 62
7
  6
CONTINUOUS
 10
147.0851868989
 20
144.3823832575
  0
VERTEX
  8
02___PRT_ALL_AXES
 62
7
  6
CONTINUOUS
 10
146.8802737905
 20
146.2321320437
  0
VERTEX
  8
02___PRT_ALL_AXES
 62
7
  6
CONTINUOUS
 10
146.5720519573
 20
148.1010500838
  0
VERTEX
  8
02___PRT_ALL_AXES
 62
7
  6
CONTINUOUS
 10
146.1601645047
 20
149.9916691353
  0
VERTEX
  8
02___PRT_ALL_AXES
 62
7
  6
CONTINUOUS
 10
145.6492843036
 20
151.8906866464
  0
VERTEX
  8
02___PRT_ALL_AXES
 62
7
  6
CONTINUOUS
 10
145.0475165998
 20
153.78461021
  0
VERTEX
  8
02___PRT_ALL_AXES
 62
7
  6
CONTINUOUS
 10
144.3741316207
 20
155.638533989
  0
VERTEX
  8
02___PRT_ALL_AXES
 62
7
  6
CONTINUOUS
 10
143.653080354
 20
157.4201404896
  0
VERTEX
  8
02___PRT_ALL_AXES
 62
7
  6
CONTINUOUS
 10
142.9140226703
 20
159.0932695009
  0
VERTEX
  8
02___PRT_ALL_AXES
 62
7
  6
CONTINUOUS
 10
142.1887948183
 20
160.6235375899
  0
VERTEX
  8
02___PRT_ALL_AXES
 62
7
  6
CONTINUOUS
 10
141.5019156351
 20
161.9935886958
  0
VERTEX
  8
02___PRT_ALL_AXES
 62
7
  6
CONTINUOUS
 10
140.874974419
 20
163.1893810678
  0
VERTEX
  8
02___PRT_ALL_AXES
 62
7
  6
CONTINUOUS
 10
140.3196610577
 20
164.2117958724
  0
VERTEX
  8
02___PRT_ALL_AXES
 62
7
  6
CONTINUOUS
 10
139.8452525587
 20
165.0614402115
  0
VERTEX
  8
02___PRT_ALL_AXES
 62
7
  6
CONTINUOUS
 10
139.4552397272
 20
165.745223586
  0
VERTEX
  8
02___PRT_ALL_AXES
 62
7
  6
CONTINUOUS
 10
139.1514410547
 20
166.2694147738
  0
VERTEX
  8
02___PRT_ALL_AXES
 62
7
  6
CONTINUOUS
 10
138.9348470438
 20
166.6389070332
  0
VERTEX
  8
02___PRT_ALL_AXES
 62
7
  6
CONTINUOUS
 10
138.7616263722
 20
166.9319906567
  0
SEQEND
  0
POLYLINE
  8
02___PRT_ALL_AXES
 62
7
  6
CONTINUOUS
 66
1
 70
0
  0
VERTEX
  8
02___PRT_ALL_AXES
 62
7
  6
CONTINUOUS
 10
138.7616263722
 20
116.9015134417
  0
VERTEX
  8
02___PRT_ALL_AXES
 62
7
  6
CONTINUOUS
 10
138.806777056
 20
116.9745512657
  0
VERTEX
  8
02___PRT_ALL_AXES
 62
7
  6
CONTINUOUS
 10
139.1684446533
 20
117.5648294548
  0
SEQEND
  0
LINE
  8
02___PRT_ALL_AXES
 62
7
  6
CONTINUOUS
 10
108.0343175536
 20
117.9745347101
 11
138.7616263722
 21
116.9015134417
  0
LINE
  8
0
 62
7
  6
CONTINUOUS
 10
226.7616263722
 20
183.4167520492
 11
224.7616263722
 21
182.4167520492
  0
LINE
  8
02___PRT_ALL_AXES
 62
7
  6
CONTINUOUS
 10
135.2616263722
 20
171.9167520492
 11
138.7616263722
 21
168.4167520492
  0
LINE
  8
02___PRT_ALL_AXES
 62
7
  6
CENTER
 10
180.0116263722
 20
58.4167520492
 11
180.0116263722
 21
228.4167520492
  0
POLYLINE
  8
02___PRT_ALL_AXES
 62
7
  6
CONTINUOUS
 66
1
 70
0
  0
VERTEX
  8
02___PRT_ALL_AXES
 62
7
  6
CONTINUOUS
 10
223.4717759902
 20
171.9167520492
  0
VERTEX
  8
02___PRT_ALL_AXES
 62
7
  6
CONTINUOUS
 10
222.341715798
 20
171.2457963638
  0
VERTEX
  8
02___PRT_ALL_AXES
 62
7
  6
CONTINUOUS
 10
220.9837799961
 20
170.4474409468
  0
VERTEX
  8
02___PRT_ALL_AXES
 62
7
  6
CONTINUOUS
 10
219.367673945
 20
169.5092888814
  0
VERTEX
  8
02___PRT_ALL_AXES
 62
7
  6
CONTINUOUS
 10
217.4542549698
 20
168.4167520492
  0
SEQEND
  0
LINE
  8
02___PRT_ALL_AXES
 62
7
  6
CENTER
 10
256.3511056166
 20
143.1421036655
 11
201.3846101306
 21
141.2226313468
  0
LINE
  8
02___PRT_ALL_AXES
 62
7
  6
CENTER
 10
161.3748233896
 20
141.1270818087
 11
106.4083279036
 21
143.0465541273
  0
POLYLINE
  8
02___PRT_ALL_AXES
 62
7
  6
CONTINUOUS
 66
1
 70
0
  0
VERTEX
  8
02___PRT_ALL_AXES
 62
7
  6
CONTINUOUS
 10
217.4542549698
 20
168.4167520492
  0
VERTEX
  8
02___PRT_ALL_AXES
 62
7
  6
CONTINUOUS
 10
216.4016768748
 20
166.8768007644
  0
VERTEX
  8
02___PRT_ALL_AXES
 62
7
  6
CONTINUOUS
 10
215.2454628308
 20
165.1286911276
  0
VERTEX
  8
02___PRT_ALL_AXES
 62
7
  6
CONTINUOUS
 10
214.01032528
 20
163.1803946508
  0
VERTEX
  8
02___PRT_ALL_AXES
 62
7
  6
CONTINUOUS
 10
212.7317267322
 20
161.0499089501
  0
VERTEX
  8
02___PRT_ALL_AXES
 62
7
  6
CONTINUOUS
 10
211.4526118876
 20
158.7612831076
  0
VERTEX
  8
02___PRT_ALL_AXES
 62
7
  6
CONTINUOUS
 10
210.2392356275
 20
156.3803061356
  0
VERTEX
  8
02___PRT_ALL_AXES
 62
7
  6
CONTINUOUS
 10
209.1731424675
 20
154.0279822278
  0
VERTEX
  8
02___PRT_ALL_AXES
 62
7
  6
CONTINUOUS
 10
208.2805048288
 20
151.7473267554
  0
VERTEX
  8
02___PRT_ALL_AXES
 62
7
  6
CONTINUOUS
 10
207.5660959169
 20
149.5519989898
  0
VERTEX
  8
02___PRT_ALL_AXES
 62
7
  6
CONTINUOUS
 10
207.0256330855
 20
147.4446324193
  0
VERTEX
  8
02___PRT_ALL_AXES
 62
7
  6
CONTINUOUS
 10
206.6491758783
 20
145.4162903698
  0
VERTEX
  8
02___PRT_ALL_AXES
 62
7
  6
CONTINUOUS
 10
206.4251477057
 20
143.4429598237
  0
VERTEX
  8
02___PRT_ALL_AXES
 62
7
  6
CONTINUOUS
 10
206.3462583106
 20
141.5092757382
  0
VERTEX
  8
02___PRT_ALL_AXES
 62
7
  6
CONTINUOUS
 10
206.4081195666
 20
139.5872976161
  0
VERTEX
  8
02___PRT_ALL_AXES
 62
7
  6
CONTINUOUS
 10
206.6124193239
 20
137.6476137596
  0
VERTEX
  8
02___PRT_ALL_AXES
 62
7
  6
CONTINUOUS
 10
206.9638226776
 20
135.6762918794
  0
VERTEX
  8
02___PRT_ALL_AXES
 62
7
  6
CONTINUOUS
 10
207.4709191782
 20
133.6514334165
  0
VERTEX
  8
02___PRT_ALL_AXES
 62
7
  6
CONTINUOUS
 10
208.1431831038
 20
131.5589565082
  0
VERTEX
  8
02___PRT_ALL_AXES
 62
7
  6
CONTINUOUS
 10
208.9847243066
 20
129.4000899155
  0
VERTEX
  8
02___PRT_ALL_AXES
 62
7
  6
CONTINUOUS
 10
209.9951961573
 20
127.1788059208
  0
VERTEX
  8
02___PRT_ALL_AXES
 62
7
  6
CONTINUOUS
 10
211.1569365327
 20
124.9245506955
  0
VERTEX
  8
02___PRT_ALL_AXES
 62
7
  6
CONTINUOUS
 10
212.4113339636
 20
122.7218392276
  0
VERTEX
  8
02___PRT_ALL_AXES
 62
7
  6
CONTINUOUS
 10
213.6839306329
 20
120.6554421085
  0
VERTEX
  8
02___PRT_ALL_AXES
 62
7
  6
CONTINUOUS
 10
214.9285033724
 20
118.7537254736
  0
VERTEX
  8
02___PRT_ALL_AXES
 62
7
  6
CONTINUOUS
 10
216.1045170171
 20
117.0397056076
  0
VERTEX
  8
02___PRT_ALL_AXES
 62
7
  6
CONTINUOUS
 10
217.1867816156
 20
115.5193271476
  0
VERTEX
  8
02___PRT_ALL_AXES
 62
7
  6
CONTINUOUS
 10
218.1543881127
 20
114.1984869512
  0
VERTEX
  8
02___PRT_ALL_AXES
 62
7
  6
CONTINUOUS
 10
218.9905519641
 20
113.0822059118
  0
VERTEX
  8
02___PRT_ALL_AXES
 62
7
  6
CONTINUOUS
 10
219.691735953
 20
112.1620067955
  0
VERTEX
  8
02___PRT_ALL_AXES
 62
7
  6
CONTINUOUS
 10
220.2611217736
 20
111.4244379253
  0
VERTEX
  8
02___PRT_ALL_AXES
 62
7
  6
CONTINUOUS
 10
220.7013494873
 20
110.8596791962
  0
VERTEX
  8
02___PRT_ALL_AXES
 62
7
  6
CONTINUOUS
 10
221.2616263722
 20
110.1473990177
  0
SEQEND
  0
POLYLINE
  8
02___PRT_ALL_AXES
 62
7
  6
CONTINUOUS
 66
1
 70
0
  0
VERTEX
  8
02___PRT_ALL_AXES
 62
7
  6
CONTINUOUS
 10
180.0116263722
 20
158.94590358
  0
VERTEX
  8
02___PRT_ALL_AXES
 62
7
  6
CONTINUOUS
 10
178.0395615764
 20
158.8573919996
  0
VERTEX
  8
02___PRT_ALL_AXES
 62
7
  6
CONTINUOUS
 10
176.0833746867
 20
158.5925699017
  0
VERTEX
  8
02___PRT_ALL_AXES
 62
7
  6
CONTINUOUS
 10
174.1588157698
 20
158.153569478
  0
VERTEX
  8
02___PRT_ALL_AXES
 62
7
  6
CONTINUOUS
 10
172.2813802425
 20
157.5439253019
  0
VERTEX
  8
02___PRT_ALL_AXES
 62
7
  6
CONTINUOUS
 10
170.4661841117
 20
156.7685458698
  0
VERTEX
  8
02___PRT_ALL_AXES
 62
7
  6
CONTINUOUS
 10
168.7278422693
 20
155.833674081
  0
VERTEX
  8
02___PRT_ALL_AXES
 62
7
  6
CONTINUOUS
 10
167.0803508218
 20
154.7468369733
  0
VERTEX
  8
02___PRT_ALL_AXES
 62
7
  6
CONTINUOUS
 10
165.5369744016
 20
153.5167851203
  0
VERTEX
  8
02___PRT_ALL_AXES
 62
7
  6
CONTINUOUS
 10
164.110139368
 20
152.153422176
  0
VERTEX
  8
02___PRT_ALL_AXES
 62
7
  6
CONTINUOUS
 10
162.8113337579
 20
150.6677251373
  0
VERTEX
  8
02___PRT_ALL_AXES
 62
7
  6
CONTINUOUS
 10
161.6510147904
 20
149.0716559633
  0
VERTEX
  8
02___PRT_ALL_AXES
 62
7
  6
CONTINUOUS
 10
160.6385246714
 20
147.3780652643
  0
VERTEX
  8
02___PRT_ALL_AXES
 62
7
  6
CONTINUOUS
 10
159.7820153761
 20
145.6005888369
  0
VERTEX
  8
02___PRT_ALL_AXES
 62
7
  6
CONTINUOUS
 10
159.0883830137
 20
143.7535378761
  0
VERTEX
  8
02___PRT_ALL_AXES
 62
7
  6
CONTINUOUS
 10
158.5632123042
 20
141.8517837503
  0
VERTEX
  8
02___PRT_ALL_AXES
 62
7
  6
CONTINUOUS
 10
158.2107316133
 20
139.9106382654
  0
VERTEX
  8
02___PRT_ALL_AXES
 62
7
  6
CONTINUOUS
 10
158.0337789083
 20
137.9457303835
  0
VERTEX
  8
02___PRT_ALL_AXES
 62
7
  6
CONTINUOUS
 10
158.0116598202
 20
136.9593053855
  0
SEQEND
  0
POLYLINE
  8
02___PRT_ALL_AXES
 62
7
  6
CONTINUOUS
 66
1
 70
0
  0
VERTEX
  8
02___PRT_ALL_AXES
 62
7
  6
CONTINUOUS
 10
180.0116263722
 20
157.9301620238
  0
VERTEX
  8
02___PRT_ALL_AXES
 62
7
  6
CONTINUOUS
 10
181.7291351499
 20
157.8617277432
  0
VERTEX
  8
02___PRT_ALL_AXES
 62
7
  6
CONTINUOUS
 10
183.4496230667
 20
157.6546927172
  0
VERTEX
  8
02___PRT_ALL_AXES
 62
7
  6
CONTINUOUS
 10
185.1603229762
 20
157.3075622075
  0
VERTEX
  8
02___PRT_ALL_AXES
 62
7
  6
CONTINUOUS
 10
186.8601983759
 20
156.8163701805
  0
VERTEX
  8
02___PRT_ALL_AXES
 62
7
  6
CONTINUOUS
 10
188.5389907715
 20
156.1781377384
  0
VERTEX
  8
02___PRT_ALL_AXES
 62
7
  6
CONTINUOUS
 10
190.1906564218
 20
155.3876155558
  0
VERTEX
  8
02___PRT_ALL_AXES
 62
7
  6
CONTINUOUS
 10
191.8022112468
 20
154.4416701033
  0
VERTEX
  8
02___PRT_ALL_AXES
 62
7
  6
CONTINUOUS
 10
193.3533968879
 20
153.3427629165
  0
VERTEX
  8
02___PRT_ALL_AXES
 62
7
  6
CONTINUOUS
 10
194.8282284318
 20
152.0930146883
  0
VERTEX
  8
02___PRT_ALL_AXES
 62
7
  6
CONTINUOUS
 10
196.2001327426
 20
150.7076595638
  0
VERTEX
  8
02___PRT_ALL_AXES
 62
7
  6
CONTINUOUS
 10
197.4490894265
 20
149.2038747589
  0
VERTEX
  8
02___PRT_ALL_AXES
 62
7
  6
CONTINUOUS
 10
198.5536449837
 20
147.6105745449
  0
VERTEX
  8
02___PRT_ALL_AXES
 62
7
  6
CONTINUOUS
 10
199.5044612635
 20
145.9514664907
  0
VERTEX
  8
02___PRT_ALL_AXES
 62
7
  6
CONTINUOUS
 10
200.2956690008
 20
144.253830864
  0
VERTEX
  8
02___PRT_ALL_AXES
 62
7
  6
CONTINUOUS
 10
200.9283102404
 20
142.5405126576
  0
VERTEX
  8
02___PRT_ALL_AXES
 62
7
  6
CONTINUOUS
 10
201.4095236352
 20
140.8226533186
  0
VERTEX
  8
02___PRT_ALL_AXES
 62
7
  6
CONTINUOUS
 10
201.7457837877
 20
139.1124144951
  0
VERTEX
  8
02___PRT_ALL_AXES
 62
7
  6
CONTINUOUS
 10
201.9450561935
 20
137.407448915
  0
SEQEND
  0
POLYLINE
  8
02___PRT_ALL_AXES
 62
7
  6
CONTINUOUS
 66
1
 70
0
  0
VERTEX
  8
02___PRT_ALL_AXES
 62
7
  6
CONTINUOUS
 10
180.0116263722
 20
158.94590358
  0
VERTEX
  8
02___PRT_ALL_AXES
 62
7
  6
CONTINUOUS
 10
181.9836911681
 20
158.8573919996
  0
VERTEX
  8
02___PRT_ALL_AXES
 62
7
  6
CONTINUOUS
 10
183.9398780578
 20
158.5925699017
  0
VERTEX
  8
02___PRT_ALL_AXES
 62
7
  6
CONTINUOUS
 10
185.8644369747
 20
158.153569478
  0
VERTEX
  8
02___PRT_ALL_AXES
 62
7
  6
CONTINUOUS
 10
187.741872502
 20
157.5439253019
  0
VERTEX
  8
02___PRT_ALL_AXES
 62
7
  6
CONTINUOUS
 10
189.5570686328
 20
156.7685458698
  0
VERTEX
  8
02___PRT_ALL_AXES
 62
7
  6
CONTINUOUS
 10
191.2954104752
 20
155.833674081
  0
VERTEX
  8
02___PRT_ALL_AXES
 62
7
  6
CONTINUOUS
 10
192.9429019227
 20
154.7468369733
  0
VERTEX
  8
02___PRT_ALL_AXES
 62
7
  6
CONTINUOUS
 10
194.4862783429
 20
153.5167851203
  0
VERTEX
  8
02___PRT_ALL_AXES
 62
7
  6
CONTINUOUS
 10
195.9131133764
 20
152.153422176
  0
VERTEX
  8
02___PRT_ALL_AXES
 62
7
  6
CONTINUOUS
 10
197.2119189865
 20
150.6677251373
  0
VERTEX
  8
02___PRT_ALL_AXES
 62
7
  6
CONTINUOUS
 10
198.3722379541
 20
149.0716559633
  0
VERTEX
  8
02___PRT_ALL_AXES
 62
7
  6
CONTINUOUS
 10
199.3847280731
 20
147.3780652643
  0
VERTEX
  8
02___PRT_ALL_AXES
 62
7
  6
CONTINUOUS
 10
200.2412373684
 20
145.6005888369
  0
VERTEX
  8
02___PRT_ALL_AXES
 62
7
  6
CONTINUOUS
 10
200.9348697307
 20
143.7535378761
  0
VERTEX
  8
02___PRT_ALL_AXES
 62
7
  6
CONTINUOUS
 10
201.4600404402
 20
141.8517837503
  0
VERTEX
  8
02___PRT_ALL_AXES
 62
7
  6
CONTINUOUS
 10
201.8125211311
 20
139.9106382654
  0
VERTEX
  8
02___PRT_ALL_AXES
 62
7
  6
CONTINUOUS
 10
201.9894738362
 20
137.9457303835
  0
VERTEX
  8
02___PRT_ALL_AXES
 62
7
  6
CONTINUOUS
 10
202.0115929243
 20
136.9593053855
  0
SEQEND
  0
LINE
  8
0
 62
7
  6
CONTINUOUS
 10
133.2616263722
 20
183.4167520492
 11
135.2616263722
 21
182.4167520492
  0
LINE
  8
02___PRT_ALL_AXES
 62
7
  6
CONTINUOUS
 10
201.9450561935
 20
137.407448915
 11
201.993623955
 21
136.1579594898
  0
POLYLINE
  8
02___PRT_ALL_AXES
 62
7
  6
CONTINUOUS
 66
1
 70
0
  0
VERTEX
  8
02___PRT_ALL_AXES
 62
7
  6
CONTINUOUS
 10
202.0115929243
 20
136.9593053855
  0
VERTEX
  8
02___PRT_ALL_AXES
 62
7
  6
CONTINUOUS
 10
201.9894738362
 20
135.9728803876
  0
VERTEX
  8
02___PRT_ALL_AXES
 62
7
  6
CONTINUOUS
 10
201.8125211311
 20
134.0079725057
  0
VERTEX
  8
02___PRT_ALL_AXES
 62
7
  6
CONTINUOUS
 10
201.4600404402
 20
132.0668270208
  0
VERTEX
  8
02___PRT_ALL_AXES
 62
7
  6
CONTINUOUS
 10
200.9348697307
 20
130.165072895
  0
VERTEX
  8
02___PRT_ALL_AXES
 62
7
  6
CONTINUOUS
 10
200.2412373684
 20
128.3180219342
  0
VERTEX
  8
02___PRT_ALL_AXES
 62
7
  6
CONTINUOUS
 10
199.3847280731
 20
126.5405455068
  0
VERTEX
  8
02___PRT_ALL_AXES
 62
7
  6
CONTINUOUS
 10
198.3722379541
 20
124.8469548078
  0
VERTEX
  8
02___PRT_ALL_AXES
 62
7
  6
CONTINUOUS
 10
197.2119189865
 20
123.2508856338
  0
VERTEX
  8
02___PRT_ALL_AXES
 62
7
  6
CONTINUOUS
 10
195.9131133764
 20
121.7651885951
  0
VERTEX
  8
02___PRT_ALL_AXES
 62
7
  6
CONTINUOUS
 10
194.4862783429
 20
120.4018256508
  0
VERTEX
  8
02___PRT_ALL_AXES
 62
7
  6
CONTINUOUS
 10
192.9429019227
 20
119.1717737978
  0
VERTEX
  8
02___PRT_ALL_AXES
 62
7
  6
CONTINUOUS
 10
191.2954104752
 20
118.0849366901
  0
VERTEX
  8
02___PRT_ALL_AXES
 62
7
  6
CONTINUOUS
 10
189.5570686328
 20
117.1500649013
  0
VERTEX
  8
02___PRT_ALL_AXES
 62
7
  6
CONTINUOUS
 10
187.741872502
 20
116.3746854692
  0
VERTEX
  8
02___PRT_ALL_AXES
 62
7
  6
CONTINUOUS
 10
185.8644369747
 20
115.7650412931
  0
VERTEX
  8
02___PRT_ALL_AXES
 62
7
  6
CONTINUOUS
 10
183.9398780578
 20
115.3260408694
  0
VERTEX
  8
02___PRT_ALL_AXES
 62
7
  6
CONTINUOUS
 10
181.9836911681
 20
115.0612187715
  0
VERTEX
  8
02___PRT_ALL_AXES
 62
7
  6
CONTINUOUS
 10
180.0116263722
 20
114.9727071911
  0
SEQEND
  0
LINE
  8
02___PRT_ALL_AXES
 62
7
  6
CONTINUOUS
 10
223.9391802616
 20
172.6087892964
 11
223.4717759902
 21
171.9167520492
  0
LINE
  8
02___PRT_ALL_AXES
 62
7
  6
CONTINUOUS
 10
224.5573225366
 20
173.512407184
 11
223.9391802616
 21
172.6087892964
  0
LINE
  8
02___PRT_ALL_AXES
 62
7
  6
CONTINUOUS
 10
224.7616263722
 20
173.8083277739
 11
224.5573225366
 21
173.512407184
  0
POLYLINE
  8
02___PRT_ALL_AXES
 62
7
  6
CONTINUOUS
 66
1
 70
0
  0
VERTEX
  8
02___PRT_ALL_AXES
 62
7
  6
CONTINUOUS
 10
180.0116263722
 20
161.944076061
  0
VERTEX
  8
02___PRT_ALL_AXES
 62
7
  6
CONTINUOUS
 10
177.8914782604
 20
161.8540681384
  0
VERTEX
  8
02___PRT_ALL_AXES
 62
7
  6
CONTINUOUS
 10
175.7866058642
 20
161.5846928797
  0
VERTEX
  8
02___PRT_ALL_AXES
 62
7
  6
CONTINUOUS
 10
173.7121748376
 20
161.1378911398
  0
VERTEX
  8
02___PRT_ALL_AXES
 62
7
  6
CONTINUOUS
 10
171.6831315037
 20
160.5168821355
  0
VERTEX
  8
02___PRT_ALL_AXES
 62
7
  6
CONTINUOUS
 10
169.7140951661
 20
159.7261402509
  0
VERTEX
  8
02___PRT_ALL_AXES
 62
7
  6
CONTINUOUS
 10
167.8192527769
 20
158.7713627993
  0
VERTEX
  8
02___PRT_ALL_AXES
 62
7
  6
CONTINUOUS
 10
166.0122567188
 20
157.6594289743
  0
VERTEX
  8
02___PRT_ALL_AXES
 62
7
  6
CONTINUOUS
 10
164.3061264399
 20
156.3983502845
  0
VERTEX
  8
02___PRT_ALL_AXES
 62
7
  6
CONTINUOUS
 10
162.7131546478
 20
154.9972128308
  0
VERTEX
  8
02___PRT_ALL_AXES
 62
7
  6
CONTINUOUS
 10
161.2448187409
 20
153.4661118405
  0
VERTEX
  8
02___PRT_ALL_AXES
 62
7
  6
CONTINUOUS
 10
159.9116981131
 20
151.8160789315
  0
VERTEX
  8
02___PRT_ALL_AXES
 62
7
  6
CONTINUOUS
 10
158.7233979289
 20
150.0590026287
  0
VERTEX
  8
02___PRT_ALL_AXES
 62
7
  6
CONTINUOUS
 10
157.6884799185
 20
148.2075427071
  0
VERTEX
  8
02___PRT_ALL_AXES
 62
7
  6
CONTINUOUS
 10
156.8144006898
 20
146.2750389778
  0
VERTEX
  8
02___PRT_ALL_AXES
 62
7
  6
CONTINUOUS
 10
156.1074580038
 20
144.2754151744
  0
VERTEX
  8
02___PRT_ALL_AXES
 62
7
  6
CONTINUOUS
 10
155.5727453986
 20
142.2230786325
  0
VERTEX
  8
02___PRT_ALL_AXES
 62
7
  6
CONTINUOUS
 10
155.2141154908
 20
140.1328164836
  0
VERTEX
  8
02___PRT_ALL_AXES
 62
7
  6
CONTINUOUS
 10
155.0341522171
 20
138.0196891146
  0
VERTEX
  8
02___PRT_ALL_AXES
 62
7
  6
CONTINUOUS
 10
155.0116568079
 20
136.9593053855
  0
SEQEND
  0
LINE
  8
02___PRT_ALL_AXES
 62
7
  6
CONTINUOUS
 10
109.7792923887
 20
167.944076061
 11
138.7616263722
 21
166.9319906567
  0
POLYLINE
  8
02___PRT_ALL_AXES
 62
7
  6
CONTINUOUS
 66
1
 70
0
  0
VERTEX
  8
02___PRT_ALL_AXES
 62
7
  6
CONTINUOUS
 10
180.0116263722
 20
161.944076061
  0
VERTEX
  8
02___PRT_ALL_AXES
 62
7
  6
CONTINUOUS
 10
182.1317744841
 20
161.8540681384
  0
VERTEX
  8
02___PRT_ALL_AXES
 62
7
  6
CONTINUOUS
 10
184.2366468803
 20
161.5846928797
  0
VERTEX
  8
02___PRT_ALL_AXES
 62
7
  6
CONTINUOUS
 10
186.3110779069
 20
161.1378911398
  0
VERTEX
  8
02___PRT_ALL_AXES
 62
7
  6
CONTINUOUS
 10
188.3401212408
 20
160.5168821355
  0
VERTEX
  8
02___PRT_ALL_AXES
 62
7
  6
CONTINUOUS
 10
190.3091575783
 20
159.7261402509
  0
VERTEX
  8
02___PRT_ALL_AXES
 62
7
  6
CONTINUOUS
 10
192.2039999676
 20
158.7713627993
  0
VERTEX
  8
02___PRT_ALL_AXES
 62
7
  6
CONTINUOUS
 10
194.0109960257
 20
157.6594289743
  0
VERTEX
  8
02___PRT_ALL_AXES
 62
7
  6
CONTINUOUS
 10
195.7171263046
 20
156.3983502845
  0
VERTEX
  8
02___PRT_ALL_AXES
 62
7
  6
CONTINUOUS
 10
197.3100980967
 20
154.9972128308
  0
VERTEX
  8
02___PRT_ALL_AXES
 62
7
  6
CONTINUOUS
 10
198.7784340036
 20
153.4661118405
  0
VERTEX
  8
02___PRT_ALL_AXES
 62
7
  6
CONTINUOUS
 10
200.1115546314
 20
151.8160789315
  0
VERTEX
  8
02___PRT_ALL_AXES
 62
7
  6
CONTINUOUS
 10
201.2998548156
 20
150.0590026287
  0
VERTEX
  8
02___PRT_ALL_AXES
 62
7
  6
CONTINUOUS
 10
202.334772826
 20
148.2075427071
  0
VERTEX
  8
02___PRT_ALL_AXES
 62
7
  6
CONTINUOUS
 10
203.2088520547
 20
146.2750389778
  0
VERTEX
  8
02___PRT_ALL_AXES
 62
7
  6
CONTINUOUS
 10
203.9157947407
 20
144.2754151744
  0
VERTEX
  8
02___PRT_ALL_AXES
 62
7
  6
CONTINUOUS
 10
204.4505073459
 20
142.2230786325
  0
VERTEX
  8
02___PRT_ALL_AXES
 62
7
  6
CONTINUOUS
 10
204.8091372537
 20
140.1328164836
  0
VERTEX
  8
02___PRT_ALL_AXES
 62
7
  6
CONTINUOUS
 10
204.9891005274
 20
138.0196891146
  0
VERTEX
  8
02___PRT_ALL_AXES
 62
7
  6
CONTINUOUS
 10
205.0115959366
 20
136.9593053855
  0
SEQEND
  0
LINE
  8
02___PRT_ALL_AXES
 62
7
  6
CONTINUOUS
 10
205.0116263722
 20
136.9593053855
 11
205.0116263722
 21
135.6220751349
  0
POLYLINE
  8
02___PRT_ALL_AXES
 62
7
  6
CONTINUOUS
 66
1
 70
0
  0
VERTEX
  8
02___PRT_ALL_AXES
 62
7
  6
CONTINUOUS
 10
205.0115959366
 20
136.9593053855
  0
VERTEX
  8
02___PRT_ALL_AXES
 62
7
  6
CONTINUOUS
 10
204.9891005274
 20
135.8989216565
  0
VERTEX
  8
02___PRT_ALL_AXES
 62
7
  6
CONTINUOUS
 10
204.8091372537
 20
133.7857942875
  0
VERTEX
  8
02___PRT_ALL_AXES
 62
7
  6
CONTINUOUS
 10
204.4505073459
 20
131.6955321386
  0
VERTEX
  8
02___PRT_ALL_AXES
 62
7
  6
CONTINUOUS
 10
203.9157947407
 20
129.6431955966
  0
VERTEX
  8
02___PRT_ALL_AXES
 62
7
  6
CONTINUOUS
 10
203.2088520547
 20
127.6435717933
  0
VERTEX
  8
02___PRT_ALL_AXES
 62
7
  6
CONTINUOUS
 10
202.334772826
 20
125.711068064
  0
VERTEX
  8
02___PRT_ALL_AXES
 62
7
  6
CONTINUOUS
 10
201.2998548156
 20
123.8596081424
  0
VERTEX
  8
02___PRT_ALL_AXES
 62
7
  6
CONTINUOUS
 10
200.1115546314
 20
122.1025318396
  0
VERTEX
  8
02___PRT_ALL_AXES
 62
7
  6
CONTINUOUS
 10
198.7784340036
 20
120.4524989306
  0
VERTEX
  8
02___PRT_ALL_AXES
 62
7
  6
CONTINUOUS
 10
197.3100980967
 20
118.9213979403
  0
VERTEX
  8
02___PRT_ALL_AXES
 62
7
  6
CONTINUOUS
 10
195.7171263046
 20
117.5202604866
  0
VERTEX
  8
02___PRT_ALL_AXES
 62
7
  6
CONTINUOUS
 10
194.0109960257
 20
116.2591817968
  0
VERTEX
  8
02___PRT_ALL_AXES
 62
7
  6
CONTINUOUS
 10
192.2039999676
 20
115.1472479718
  0
VERTEX
  8
02___PRT_ALL_AXES
 62
7
  6
CONTINUOUS
 10
190.3091575783
 20
114.1924705202
  0
VERTEX
  8
02___PRT_ALL_AXES
 62
7
  6
CONTINUOUS
 10
188.3401212408
 20
113.4017286356
  0
VERTEX
  8
02___PRT_ALL_AXES
 62
7
  6
CONTINUOUS
 10
186.3110779069
 20
112.7807196313
  0
VERTEX
  8
02___PRT_ALL_AXES
 62
7
  6
CONTINUOUS
 10
184.2366468803
 20
112.3339178914
  0
VERTEX
  8
02___PRT_ALL_AXES
 62
7
  6
CONTINUOUS
 10
182.1317744841
 20
112.0645426327
  0
VERTEX
  8
02___PRT_ALL_AXES
 62
7
  6
CONTINUOUS
 10
180.0116263722
 20
111.9745347101
  0
SEQEND
  0
LINE
  8
02___PRT_ALL_AXES
 62
7
  6
CONTINUOUS
 10
224.7616263722
 20
173.8083277739
 11
252.7445695288
 21
174.7855136816
  0
LINE
  8
02___PRT_ALL_AXES
 62
7
  6
CONTINUOUS
 10
217.4542549698
 20
168.4167520492
 11
138.7616263722
 21
168.4167520492
  0
LINE
  8
02___PRT_ALL_AXES
 62
7
  6
CONTINUOUS
 10
223.4717759902
 20
171.9167520492
 11
135.2616263722
 21
171.9167520492
  0
LINE
  8
02___PRT_ALL_AXES
 62
7
  6
CONTINUOUS
 10
221.2616263722
 20
110.1473990177
 11
221.2616263722
 21
60.9167520492
  0
LINE
  8
02___PRT_ALL_AXES
 62
7
  6
CONTINUOUS
 10
224.7616263722
 20
223.9167520492
 11
224.7616263722
 21
214.4167520492
  0
LINE
  8
02___PRT_ALL_AXES
 62
7
  6
CONTINUOUS
 10
224.7616263722
 20
209.4167520492
 11
224.7616263722
 21
187.4167520492
  0
LINE
  8
02___PRT_ALL_AXES
 62
7
  6
CONTINUOUS
 10
224.7616263722
 20
182.4167520492
 11
224.7616263722
 21
173.8083277739
  0
LINE
  8
0
 62
7
  6
CONTINUOUS
 10
224.7616263722
 20
182.4167520492
 11
135.2616263722
 21
182.4167520492
  0
LINE
  8
0
 62
7
  6
CONTINUOUS
 10
226.7616263722
 20
183.4167520492
 11
133.2616263722
 21
183.4167520492
  0
LINE
  8
0
 62
7
  6
CONTINUOUS
 10
226.7616263722
 20
186.4167520492
 11
133.2616263722
 21
186.4167520492
  0
LINE
  8
0
 62
7
  6
CONTINUOUS
 10
224.7616263722
 20
187.4167520492
 11
135.2616263722
 21
187.4167520492
  0
LINE
  8
0
 62
7
  6
CONTINUOUS
 10
133.2616263722
 20
210.4167520492
 11
135.2616263722
 21
209.4167520492
  0
LINE
  8
0
 62
7
  6
CONTINUOUS
 10
226.7616263722
 20
213.4167520492
 11
226.7616263722
 21
210.4167520492
  0
LINE
  8
0
 62
7
  6
CONTINUOUS
 10
226.7616263722
 20
186.4167520492
 11
226.7616263722
 21
183.4167520492
  0
LINE
  8
0
 62
7
  6
CONTINUOUS
 10
224.7616263722
 20
187.4167520492
 11
226.7616263722
 21
186.4167520492
  0
LINE
  8
0
 62
7
  6
CONTINUOUS
 10
224.7616263722
 20
209.4167520492
 11
135.2616263722
 21
209.4167520492
  0
LINE
  8
0
 62
7
  6
CONTINUOUS
 10
226.7616263722
 20
210.4167520492
 11
133.2616263722
 21
210.4167520492
  0
LINE
  8
02___PRT_ALL_AXES
 62
7
  6
CONTINUOUS
 10
252.7445695288
 20
174.7855136816
 11
254.9606875694
 21
111.3241961658
  0
LINE
  8
0
 62
7
  6
CONTINUOUS
 10
226.7616263722
 20
213.4167520492
 11
133.2616263722
 21
213.4167520492
  0
LINE
  8
0
 62
7
  6
CONTINUOUS
 10
224.7616263722
 20
214.4167520492
 11
135.2616263722
 21
214.4167520492
  0
LINE
  8
0
 62
7
  6
CONTINUOUS
 10
135.2616263722
 20
223.9167520492
 11
224.7616263722
 21
223.9167520492
  0
LINE
  8
0
 62
7
  6
CONTINUOUS
 10
137.2616263722
 20
225.9167520492
 11
222.7616263722
 21
225.9167520492
  0
LINE
  8
0
 62
7
  6
CONTINUOUS
 10
224.7616263722
 20
214.4167520492
 11
226.7616263722
 21
213.4167520492
  0
LINE
  8
0
 62
7
  6
CONTINUOUS
 10
222.7616251201
 20
225.916750797
 11
224.7616250615
 21
223.9167507384
  0
ENDSEC
  0
EOF
