999
DXF file: 159-100-65p.dxf
999
Pro/ENGINEER 2006320 by Parametric Technology Corporation
  0
SECTION
  2
HEADER
  9
$EXTMAX
 10
420.0
 20
297.0
 30
0.0
  9
$EXTMIN
 10
0.0
 20
0.0
 30
0.0
  9
$LIMMIN
 10
0.0
 20
0.0
  9
$LIMMAX
 10
420.0
 20
297.0
  9
$VIEWCTR
 10
210.0
 20
148.5
  9
$VIEWSIZE
 40
297.0
  9
$CLAYER
  8
0
  9
$LTSCALE
 40
23.1
  9
$CELTYPE
  6
BYLAYER
  9
$DIMSCALE
 40
1.0
  9
$DIMASZ
 40
3.0
  9
$DIMEXO
 40
2.625
  9
$DIMDLI
 40
15.96
  9
$DIMEXE
 40
7.56
  9
$DIMCEN
 40
3.78
  9
$DIMLFAC
 40
1.0
  9
$DIMBLK
  1
_FILLED
  9
$DIMTXT
 40
3.0
  9
$PDMODE
 70
3
  9
$PDSIZE
 40
0.3125
  0
ENDSEC
  0
SECTION
  2
TABLES
  0
TABLE
  2
LTYPE
 70
6
  0
LTYPE
  2
BYBLOCK
 70
0
  3

 72
65
 73
0
 40
0.0
  0
LTYPE
  2
BYLAYER
 70
0
  3

 72
65
 73
0
 40
0.0
  0
LTYPE
  2
CONTINUOUS
 70
64
  3
Solid line
 72
65
 73
0
 40
0.0
  0
LTYPE
  2
CENTER
 70
64
  3
____ _ ____ _ ____ _ ____ _ ____ _ ____ _ ____
 72
65
 73
4
 40
0.6
 49
0.375
 49
-0.075
 49
0.075
 49
-0.075
  0
LTYPE
  2
HIDDEN
 70
64
  3
- - - - - - - - - - - - - - - - - - - -
 72
65
 73
2
 40
0.2
 49
0.1
 49
-0.1
  0
LTYPE
  2
PHANTOM
 70
64
  3
_____ _ _ _____ _ _ _____ _ _ _____
 72
65
 73
6
 40
0.8
 49
0.45
 49
-0.05
 49
0.1
 49
-0.05
 49
0.1
 49
-0.05
  0
LTYPE
  2
DOT
 70
64
  3
. . . . . . . . . . . . . . . . . . . .
 72
65
 73
2
 40
0.2
 49
0.1
 49
-0.1
  0
LTYPE
  2
DASHED
 70
64
  3
- - - - - - - - - - - - - - - - - - - -
 72
65
 73
2
 40
0.2
 49
0.1
 49
-0.1
  0
ENDTAB
  0
TABLE
  2
LAYER
 70
36
  0
LAYER
  2
0
 70
0
 62
7
  6
CONTINUOUS
  0
LAYER
  2
DEFAULT_1
 70
0
 62
7
  6
CENTER
  0
LAYER
  2
DEFAULT_2
 70
0
 62
8
  6
HIDDEN
  0
LAYER
  2
DEFAULT_3
 70
0
 62
7
  6
PHANTOM
  0
LAYER
  2
_2D_DELETED_OBJS
 70
0
 62
7
  6
CONTINUOUS
  0
LAYER
  2
_BLACK_HOLE
 70
0
 62
7
  6
CONTINUOUS
  0
LAYER
  2
01___PRT_ALL_DTM_PLN
 70
0
 62
7
  6
CONTINUOUS
  0
LAYER
  2
01___PRT_DEF_DTM_PLN
 70
0
 62
7
  6
CONTINUOUS
  0
LAYER
  2
02___PRT_ALL_AXES
 70
0
 62
7
  6
CONTINUOUS
  0
LAYER
  2
03___PRT_ALL_CURVES
 70
0
 62
7
  6
CONTINUOUS
  0
LAYER
  2
04___PRT_ALL_DTM_PNT
 70
0
 62
7
  6
CONTINUOUS
  0
LAYER
  2
05___PRT_ALL_DTM_CSYS
 70
0
 62
7
  6
CONTINUOUS
  0
LAYER
  2
05___PRT_DEF_DTM_CSYS
 70
0
 62
7
  6
CONTINUOUS
  0
LAYER
  2
06___PRT_ALL_SURFS
 70
0
 62
7
  6
CONTINUOUS
  0
LAYER
  2
CURVES
 70
0
 62
7
  6
CONTINUOUS
  0
LAYER
  2
DATUM_POINT
 70
0
 62
7
  6
CONTINUOUS
  0
LAYER
  2
QUILT
 70
0
 62
7
  6
CONTINUOUS
  0
LAYER
  2
SURFACE
 70
0
 62
7
  6
CONTINUOUS
  0
ENDTAB
  0
TABLE
  2
STYLE
 70
1
  0
STYLE
  2
STANDARD
 70
0
 40
0.0
 41
0.6
 50
0.0
 71
0
 42
0.2
  3
txt
  4

  0
ENDTAB
  0
ENDSEC
  0
SECTION
  2
BLOCKS
  0
BLOCK
  8
0
 62
7
  6
CONTINUOUS
  2
*D0
 70
65
 10
0.0
 20
0.0
  0
TEXT
  8
0
 62
7
  6
CONTINUOUS
 10
54.0768746677
 20
107.1613029668
  7
STANDARD
 40
3.0
  1
123
 41
0.6
 72
0
  0
LINE
  8
0
 62
7
  6
CONTINUOUS
 10
75.7768746681
 20
170.4091826535
 11
53.7768746677
 21
170.4091826535
  0
LINE
  8
0
 62
7
  6
CONTINUOUS
 10
191.3411458486
 20
46.9134232801
 11
53.7768746677
 21
46.9134232801
  0
LINE
  8
0
 62
7
  6
CONTINUOUS
 10
56.7768746677
 20
170.4091826535
 11
56.7768746677
 21
111.6613029668
  0
LINE
  8
0
 62
7
  6
CONTINUOUS
 10
56.7768746677
 20
46.9134232801
 11
56.7768746677
 21
105.6613029668
  0
INSERT
  8
0
 62
7
  6
CONTINUOUS
  2
_FILLED
 10
56.7768746677
 20
170.4091826535
 41
3.0
 42
3.0
 43
3.0
 50
90.0
  0
INSERT
  8
0
 62
7
  6
CONTINUOUS
  2
_FILLED
 10
56.7768746677
 20
46.9134232801
 41
3.0
 42
3.0
 43
3.0
 50
270.0
  0
ENDBLK
  8
0
  6
BYBLOCK
 62
0
  0
BLOCK
  8
0
 62
7
  6
CONTINUOUS
  2
*D1
 70
65
 10
0.0
 20
0.0
  0
TEXT
  8
0
 62
7
  6
CONTINUOUS
 10
168.0768746677
 20
35.3499562283
  7
STANDARD
 40
3.0
  1
192
 41
0.6
 72
0
  0
LINE
  8
0
 62
7
  6
CONTINUOUS
 10
266.7768746677
 20
128.7376097783
 11
266.7768746677
 21
33.8499562283
  0
LINE
  8
0
 62
7
  6
CONTINUOUS
 10
74.7768746677
 20
116.9090594141
 11
74.7768746677
 21
33.8499562283
  0
LINE
  8
0
 62
7
  6
CONTINUOUS
 10
266.7768746677
 20
36.8499562283
 11
174.9768746677
 21
36.8499562283
  0
LINE
  8
0
 62
7
  6
CONTINUOUS
 10
74.7768746677
 20
36.8499562283
 11
166.5768746677
 21
36.8499562283
  0
INSERT
  8
0
 62
7
  6
CONTINUOUS
  2
_FILLED
 10
266.7768746677
 20
36.8499562283
 41
3.0
 42
3.0
 43
3.0
  0
INSERT
  8
0
 62
7
  6
CONTINUOUS
  2
_FILLED
 10
74.7768746677
 20
36.8499562283
 41
3.0
 42
3.0
 43
3.0
 50
180.0
  0
ENDBLK
  8
0
  6
BYBLOCK
 62
0
  0
BLOCK
  8
0
 62
7
  6
CONTINUOUS
  2
*D2
 70
65
 10
0.0
 20
0.0
  0
TEXT
  8
0
 62
7
  6
CONTINUOUS
 10
193.0768746677
 20
27.3499562283
  7
STANDARD
 40
3.0
  1
242
 41
0.6
 72
0
  0
LINE
  8
0
 62
7
  6
CONTINUOUS
 10
74.7768746677
 20
116.9090594141
 11
74.7768746677
 21
25.8499562283
  0
LINE
  8
0
 62
7
  6
CONTINUOUS
 10
316.7768746677
 20
186.4091826598
 11
316.7768746677
 21
25.8499562283
  0
LINE
  8
0
 62
7
  6
CONTINUOUS
 10
74.7768746677
 20
28.8499562283
 11
191.5768746677
 21
28.8499562283
  0
LINE
  8
0
 62
7
  6
CONTINUOUS
 10
316.7768746677
 20
28.8499562283
 11
199.9768746677
 21
28.8499562283
  0
INSERT
  8
0
 62
7
  6
CONTINUOUS
  2
_FILLED
 10
74.7768746677
 20
28.8499562283
 41
3.0
 42
3.0
 43
3.0
 50
180.0
  0
INSERT
  8
0
 62
7
  6
CONTINUOUS
  2
_FILLED
 10
316.7768746677
 20
28.8499562283
 41
3.0
 42
3.0
 43
3.0
  0
ENDBLK
  8
0
  6
BYBLOCK
 62
0
  0
BLOCK
  8
0
 62
7
  6
CONTINUOUS
  2
*D3
 70
65
 10
0.0
 20
0.0
  0
TEXT
  8
0
 62
7
  6
CONTINUOUS
 10
203.2295829095
 20
247.6414993057
  7
STANDARD
 40
3.0
  1
88%%d
 41
0.6222222222
 72
0
  0
LINE
  8
0
 62
7
  6
CONTINUOUS
 10
229.7768746677
 20
226.0504588196
 11
229.7768746677
 21
261.7360279686
  0
LINE
  8
0
 62
7
  6
CONTINUOUS
 10
228.2777884272
 20
224.6028080647
 11
192.6139579627
 21
225.8482164675
  0
ARC
  8
0
 62
7
  6
CONTINUOUS
 10
229.7768746677
 20
224.5504588196
 40
34.185569149
 50
90.0
 51
126.1868221961
  0
ARC
  8
0
 62
7
  6
CONTINUOUS
 10
229.7768746677
 20
224.5504588196
 40
34.185569149
 50
140.832954845
 51
178.0
  0
SOLID
  8
0
 62
7
  6
CONTINUOUS
 10
226.8126602083
 20
257.8551575817
 11
229.7768746677
 21
258.7360279686
 12
226.7468640803
 22
259.3537138434
 13
226.7468640803
 23
259.3537138434
  0
SOLID
  8
0
 62
7
  6
CONTINUOUS
 10
195.1005666911
 20
228.7932396904
 11
195.6121304438
 21
225.7435179774
 12
196.595913821
 22
228.6751847843
 13
196.595913821
 23
228.6751847843
  0
ENDBLK
  8
0
  6
BYBLOCK
 62
0
  0
BLOCK
  8
0
 62
7
  6
CONTINUOUS
  2
*D4
 70
65
 10
0.0
 20
0.0
  0
TEXT
  8
0
 62
7
  6
CONTINUOUS
 10
333.2914398814
 20
151.4518910368
  7
STANDARD
 40
3.0
  1
212
 41
0.6
 72
0
  0
LINE
  8
0
 62
7
  6
CONTINUOUS
 10
319.5612388748
 20
258.9903587986
 11
338.9914398814
 21
258.9903587986
  0
LINE
  8
0
 62
7
  6
CONTINUOUS
 10
194.3411456983
 20
46.9134232749
 11
338.9914398814
 21
46.9134232749
  0
LINE
  8
0
 62
7
  6
CONTINUOUS
 10
335.9914398814
 20
258.9903587986
 11
335.9914398814
 21
155.9518910368
  0
LINE
  8
0
 62
7
  6
CONTINUOUS
 10
335.9914398814
 20
46.9134232749
 11
335.9914398814
 21
149.9518910368
  0
INSERT
  8
0
 62
7
  6
CONTINUOUS
  2
_FILLED
 10
335.9914398814
 20
258.9903587986
 41
3.0
 42
3.0
 43
3.0
 50
90.0
  0
INSERT
  8
0
 62
7
  6
CONTINUOUS
  2
_FILLED
 10
335.9914398814
 20
46.9134232749
 41
3.0
 42
3.0
 43
3.0
 50
270.0
  0
ENDBLK
  8
0
  6
BYBLOCK
 62
0
  0
BLOCK
  8
0
 62
7
  6
CONTINUOUS
  2
*D5
 70
65
 10
0.0
 20
0.0
  0
TEXT
  8
0
 62
7
  6
CONTINUOUS
 10
130.5768746677
 20
191.9506631127
  7
STANDARD
 40
3.0
  1
117
 41
0.6
 72
0
  0
LINE
  8
0
 62
7
  6
CONTINUOUS
 10
74.7768746677
 20
169.4091826535
 11
74.7768746677
 21
196.4506631127
  0
LINE
  8
0
 62
7
  6
CONTINUOUS
 10
191.7768746677
 20
169.4091826535
 11
191.7768746677
 21
196.4506631127
  0
LINE
  8
0
 62
7
  6
CONTINUOUS
 10
74.7768746677
 20
193.4506631127
 11
129.0768746677
 21
193.4506631127
  0
LINE
  8
0
 62
7
  6
CONTINUOUS
 10
191.7768746677
 20
193.4506631127
 11
137.4768746677
 21
193.4506631127
  0
INSERT
  8
0
 62
7
  6
CONTINUOUS
  2
_FILLED
 10
74.7768746677
 20
193.4506631127
 41
3.0
 42
3.0
 43
3.0
 50
180.0
  0
INSERT
  8
0
 62
7
  6
CONTINUOUS
  2
_FILLED
 10
191.7768746677
 20
193.4506631127
 41
3.0
 42
3.0
 43
3.0
  0
ENDBLK
  8
0
  6
BYBLOCK
 62
0
  0
BLOCK
  8
0
 62
7
  6
CONTINUOUS
  2
*D6
 70
65
 10
0.0
 20
0.0
  0
TEXT
  8
0
 62
7
  6
CONTINUOUS
 10
326.1914398814
 20
219.6207306271
  7
STANDARD
 40
3.0
  1
75
 41
0.6
 72
0
  0
LINE
  8
0
 62
7
  6
CONTINUOUS
 10
317.5615434613
 20
259.007808547
 11
332.2983434888
 21
258.4931881502
  0
LINE
  8
0
 62
7
  6
CONTINUOUS
 10
314.9440812086
 20
184.0534965206
 11
329.6808812362
 21
183.5388761238
  0
LINE
  8
0
 62
7
  6
CONTINUOUS
 10
329.3001710078
 20
258.5978866403
 11
328.0962021899
 21
224.1207306271
  0
LINE
  8
0
 62
7
  6
CONTINUOUS
 10
326.6827087551
 20
183.6435746139
 11
327.886677573
 21
218.1207306271
  0
INSERT
  8
0
 62
7
  6
CONTINUOUS
  2
_FILLED
 10
329.3001710078
 20
258.5978866403
 41
3.0
 42
3.0
 43
3.0
 50
88.0
  0
INSERT
  8
0
 62
7
  6
CONTINUOUS
  2
_FILLED
 10
326.6827087551
 20
183.6435746139
 41
3.0
 42
3.0
 43
3.0
 50
268.0
  0
ENDBLK
  8
0
  6
BYBLOCK
 62
0
  0
BLOCK
  8
0
  2
_FILLED
 70
64
 10
0.0
 20
0.0
  0
SOLID
  8
0
  6
BYBLOCK
 62
0
 10
0.0
 20
0.0
 11
-1.0
 21
0.25
 12
-1.0
 22
-0.25
 13
-1.0
 23
-0.25
  0
ENDBLK
  8
0
  6
BYBLOCK
 62
0
  0
ENDSEC
  0
SECTION
  2
ENTITIES
  0
DIMENSION
  8
0
 62
7
  6
CONTINUOUS
  2
*D0
 10
56.7768746677
 20
46.9134232801
 11
56.7768746677
 21
108.6613029668
 70
128
 13
75.7768746681
 23
170.4091826535
 14
191.3411458486
 24
46.9134232801
 50
270.0
  0
DIMENSION
  8
0
 62
7
  6
CONTINUOUS
  2
*D1
 10
74.7768746677
 20
36.8499562283
 11
170.7768746677
 21
36.8499562283
 70
128
 13
266.7768746677
 23
128.7376097783
 14
74.7768746677
 24
116.9090594141
 50
180.0
  0
DIMENSION
  8
0
 62
7
  6
CONTINUOUS
  2
*D2
 10
316.7768746677
 20
28.8499562283
 11
195.7768746677
 21
28.8499562283
 70
128
 13
74.7768746677
 23
116.9090594141
 14
316.7768746677
 24
186.4091826598
  0
DIMENSION
  8
0
 62
7
  6
CONTINUOUS
  2
*D3
 10
228.2777884272
 20
224.6028080647
 11
206.0295829095
 21
249.1414993057
 70
130
 13
229.7768746677
 23
226.0504588196
 14
229.7768746677
 24
261.7360279686
 15
192.6139579627
 25
225.8482164675
 16
206.0295829095
 26
249.1414993057
  0
DIMENSION
  8
0
 62
7
  6
CONTINUOUS
  2
*D4
 10
335.9914398814
 20
46.9134232749
 11
335.9914398814
 21
152.9518910368
 70
128
 13
319.5612388748
 23
258.9903587986
 14
194.3411456983
 24
46.9134232749
 50
270.0
  0
DIMENSION
  8
0
 62
7
  6
CONTINUOUS
  2
*D5
 10
191.7768746677
 20
193.4506631127
 11
133.2768746677
 21
193.4506631127
 70
128
 13
74.7768746677
 23
169.4091826535
 14
191.7768746677
 24
169.4091826535
  0
DIMENSION
  8
0
 62
7
  6
CONTINUOUS
  2
*D6
 10
326.6827087551
 20
183.6435746139
 11
327.9914398814
 21
221.1207306271
 70
128
 13
317.5615434613
 23
259.007808547
 14
314.9440812086
 24
184.0534965206
 50
268.0
  0
LINE
  8
0
 62
7
  6
CONTINUOUS
 10
0.0
 20
0.0
 11
0.0
 21
297.0
  0
LINE
  8
0
 62
7
  6
CONTINUOUS
 10
0.0
 20
0.0
 11
420.0
 21
0.0
  0
LINE
  8
0
 62
7
  6
CONTINUOUS
 10
0.0
 20
297.0
 11
420.0
 21
297.0
  0
LINE
  8
0
 62
7
  6
CONTINUOUS
 10
420.0
 20
0.0
 11
420.0
 21
297.0
  0
LINE
  8
02___PRT_ALL_AXES
 62
7
  6
CONTINUOUS
 10
74.7768746677
 20
167.9091826535
 11
74.7768746677
 21
118.4091826535
  0
POLYLINE
  8
0
 62
7
  6
CONTINUOUS
 66
1
 70
0
  0
VERTEX
  8
0
 62
7
  6
CONTINUOUS
 10
80.1432613731
 20
110.5380388093
  0
VERTEX
  8
0
 62
7
  6
CONTINUOUS
 10
85.5812948111
 20
103.198183591
  0
VERTEX
  8
0
 62
7
  6
CONTINUOUS
 10
91.0834142249
 20
96.3821469402
  0
VERTEX
  8
0
 62
7
  6
CONTINUOUS
 10
96.6400761481
 20
90.0825573895
  0
VERTEX
  8
0
 62
7
  6
CONTINUOUS
 10
102.2508583385
 20
84.2806123971
  0
VERTEX
  8
0
 62
7
  6
CONTINUOUS
 10
107.9259876988
 20
78.9485693597
  0
VERTEX
  8
0
 62
7
  6
CONTINUOUS
 10
113.6729212664
 20
74.0661133088
  0
VERTEX
  8
0
 62
7
  6
CONTINUOUS
 10
119.4940434347
 20
69.6201263582
  0
VERTEX
  8
0
 62
7
  6
CONTINUOUS
 10
125.3816753367
 20
65.6049564902
  0
VERTEX
  8
0
 62
7
  6
CONTINUOUS
 10
131.3324015128
 20
62.0109195544
  0
VERTEX
  8
0
 62
7
  6
CONTINUOUS
 10
134.9617831086
 20
60.036735208
  0
SEQEND
  0
POLYLINE
  8
06___PRT_ALL_SURFS
 62
7
  6
CONTINUOUS
 66
1
 70
0
  0
VERTEX
  8
06___PRT_ALL_SURFS
 62
7
  6
CONTINUOUS
 10
74.7768746677
 20
118.4091826535
  0
VERTEX
  8
06___PRT_ALL_SURFS
 62
7
  6
CONTINUOUS
 10
80.1739765435
 20
110.4945689753
  0
VERTEX
  8
06___PRT_ALL_SURFS
 62
7
  6
CONTINUOUS
 10
85.6357570781
 20
103.1276101296
  0
VERTEX
  8
06___PRT_ALL_SURFS
 62
7
  6
CONTINUOUS
 10
91.1462042114
 20
96.3076580143
  0
VERTEX
  8
06___PRT_ALL_SURFS
 62
7
  6
CONTINUOUS
 10
96.6844719814
 20
90.0344294034
  0
VERTEX
  8
06___PRT_ALL_SURFS
 62
7
  6
CONTINUOUS
 10
102.2252290672
 20
84.3058590898
  0
VERTEX
  8
06___PRT_ALL_SURFS
 62
7
  6
CONTINUOUS
 10
107.7423040116
 20
79.113011538
  0
VERTEX
  8
06___PRT_ALL_SURFS
 62
7
  6
CONTINUOUS
 10
113.2137363283
 20
74.4377879587
  0
VERTEX
  8
06___PRT_ALL_SURFS
 62
7
  6
CONTINUOUS
 10
118.6555973568
 20
70.2307071566
  0
VERTEX
  8
06___PRT_ALL_SURFS
 62
7
  6
CONTINUOUS
 10
124.0852838959
 20
66.4488772118
  0
VERTEX
  8
06___PRT_ALL_SURFS
 62
7
  6
CONTINUOUS
 10
129.5365719973
 20
63.0479721167
  0
VERTEX
  8
06___PRT_ALL_SURFS
 62
7
  6
CONTINUOUS
 10
134.961783109
 20
60.0367352077
  0
SEQEND
  0
POLYLINE
  8
0
 62
7
  6
CONTINUOUS
 66
1
 70
0
  0
VERTEX
  8
0
 62
7
  6
CONTINUOUS
 10
74.7768746677
 20
118.4091826535
  0
VERTEX
  8
0
 62
7
  6
CONTINUOUS
 10
80.1424667891
 20
110.5389065065
  0
VERTEX
  8
0
 62
7
  6
CONTINUOUS
 10
85.6479389937
 20
103.1118692678
  0
VERTEX
  8
0
 62
7
  6
CONTINUOUS
 10
91.2027816571
 20
96.2406953514
  0
VERTEX
  8
0
 62
7
  6
CONTINUOUS
 10
96.7856245711
 20
89.9250435195
  0
VERTEX
  8
0
 62
7
  6
CONTINUOUS
 10
102.3705152538
 20
84.1626967587
  0
VERTEX
  8
0
 62
7
  6
CONTINUOUS
 10
107.9307387364
 20
78.9443058778
  0
VERTEX
  8
0
 62
7
  6
CONTINUOUS
 10
113.4446320288
 20
74.2504994865
  0
VERTEX
  8
0
 62
7
  6
CONTINUOUS
 10
118.9292918451
 20
70.030309556
  0
VERTEX
  8
0
 62
7
  6
CONTINUOUS
 10
124.4030076606
 20
66.2399829217
  0
VERTEX
  8
0
 62
7
  6
CONTINUOUS
 10
129.8981214754
 20
62.8359277667
  0
VERTEX
  8
0
 62
7
  6
CONTINUOUS
 10
134.9617831086
 20
60.036735208
  0
SEQEND
  0
POLYLINE
  8
06___PRT_ALL_SURFS
 62
7
  6
CONTINUOUS
 66
1
 70
0
  0
VERTEX
  8
06___PRT_ALL_SURFS
 62
7
  6
CONTINUOUS
 10
140.9611980293
 20
57.1177927301
  0
VERTEX
  8
06___PRT_ALL_SURFS
 62
7
  6
CONTINUOUS
 10
146.4940760411
 20
54.7888040915
  0
VERTEX
  8
06___PRT_ALL_SURFS
 62
7
  6
CONTINUOUS
 10
152.0875376547
 20
52.7701792229
  0
VERTEX
  8
06___PRT_ALL_SURFS
 62
7
  6
CONTINUOUS
 10
157.7683684263
 20
51.049079246
  0
VERTEX
  8
06___PRT_ALL_SURFS
 62
7
  6
CONTINUOUS
 10
163.565727586
 20
49.6176296472
  0
VERTEX
  8
06___PRT_ALL_SURFS
 62
7
  6
CONTINUOUS
 10
169.5115637687
 20
48.4738922716
  0
VERTEX
  8
06___PRT_ALL_SURFS
 62
7
  6
CONTINUOUS
 10
175.5412342246
 20
47.6336592525
  0
VERTEX
  8
06___PRT_ALL_SURFS
 62
7
  6
CONTINUOUS
 10
181.5222857938
 20
47.1010283471
  0
VERTEX
  8
06___PRT_ALL_SURFS
 62
7
  6
CONTINUOUS
 10
187.3333531948
 20
46.8649984336
  0
VERTEX
  8
06___PRT_ALL_SURFS
 62
7
  6
CONTINUOUS
 10
192.8411458486
 20
46.9132791932
  0
SEQEND
  0
POLYLINE
  8
0
 62
7
  6
CONTINUOUS
 66
1
 70
0
  0
VERTEX
  8
0
 62
7
  6
CONTINUOUS
 10
140.9611980293
 20
57.1177927302
  0
VERTEX
  8
0
 62
7
  6
CONTINUOUS
 10
146.4038514918
 20
54.8240862333
  0
VERTEX
  8
0
 62
7
  6
CONTINUOUS
 10
152.016538081
 20
52.7937561745
  0
VERTEX
  8
0
 62
7
  6
CONTINUOUS
 10
157.7168668743
 20
51.0632439794
  0
VERTEX
  8
0
 62
7
  6
CONTINUOUS
 10
163.5342827906
 20
49.6245369538
  0
VERTEX
  8
0
 62
7
  6
CONTINUOUS
 10
169.5011513171
 20
48.4756166691
  0
VERTEX
  8
0
 62
7
  6
CONTINUOUS
 10
175.552504159
 20
47.6323794145
  0
VERTEX
  8
0
 62
7
  6
CONTINUOUS
 10
181.5546935959
 20
47.0989393574
  0
VERTEX
  8
0
 62
7
  6
CONTINUOUS
 10
187.3849901845
 20
46.8641703897
  0
VERTEX
  8
0
 62
7
  6
CONTINUOUS
 10
192.8411458571
 20
46.9132791935
  0
SEQEND
  0
POLYLINE
  8
0
 62
7
  6
CONTINUOUS
 66
1
 70
0
  0
VERTEX
  8
0
 62
7
  6
CONTINUOUS
 10
140.9611980293
 20
57.1177927302
  0
VERTEX
  8
0
 62
7
  6
CONTINUOUS
 10
143.2075071703
 20
56.1313132679
  0
VERTEX
  8
0
 62
7
  6
CONTINUOUS
 10
149.1792467776
 20
53.7786861921
  0
VERTEX
  8
0
 62
7
  6
CONTINUOUS
 10
155.216221276
 20
51.7823185608
  0
VERTEX
  8
0
 62
7
  6
CONTINUOUS
 10
161.3335699715
 20
50.1309020624
  0
VERTEX
  8
0
 62
7
  6
CONTINUOUS
 10
167.557600898
 20
48.8144395541
  0
VERTEX
  8
0
 62
7
  6
CONTINUOUS
 10
173.9133299568
 20
47.8297918923
  0
VERTEX
  8
0
 62
7
  6
CONTINUOUS
 10
180.4598055044
 20
47.1743568153
  0
VERTEX
  8
0
 62
7
  6
CONTINUOUS
 10
186.8764510953
 20
46.8734356462
  0
VERTEX
  8
0
 62
7
  6
CONTINUOUS
 10
192.8411458486
 20
46.9134232801
  0
SEQEND
  0
LINE
  8
06___PRT_ALL_SURFS
 62
7
  6
CONTINUOUS
 10
137.9487417512
 20
58.5309392375
 11
140.9611980293
 21
57.1177927301
  0
LINE
  8
06___PRT_ALL_SURFS
 62
7
  6
CONTINUOUS
 10
134.961783109
 20
60.0367352077
 11
137.9540853828
 21
58.5283396068
  0
POLYLINE
  8
0
 62
7
  6
CONTINUOUS
 66
1
 70
0
  0
VERTEX
  8
0
 62
7
  6
CONTINUOUS
 10
134.9617831086
 20
60.036735208
  0
VERTEX
  8
0
 62
7
  6
CONTINUOUS
 10
137.2785414084
 20
58.8596313485
  0
VERTEX
  8
0
 62
7
  6
CONTINUOUS
 10
140.9611980293
 20
57.1177927302
  0
SEQEND
  0
POLYLINE
  8
0
 62
9
  6
CONTINUOUS
 66
1
 70
0
  0
VERTEX
  8
0
 62
9
  6
CONTINUOUS
 10
131.3324015128
 20
62.0109195544
  0
VERTEX
  8
0
 62
9
  6
CONTINUOUS
 10
137.2785414084
 20
58.8596313485
  0
VERTEX
  8
0
 62
9
  6
CONTINUOUS
 10
143.2075071703
 20
56.1313132679
  0
SEQEND
  0
POLYLINE
  8
0
 62
7
  6
CONTINUOUS
 66
1
 70
0
  0
VERTEX
  8
0
 62
7
  6
CONTINUOUS
 10
211.3901223936
 20
49.4091826535
  0
VERTEX
  8
0
 62
7
  6
CONTINUOUS
 10
215.6643260285
 20
50.5982784346
  0
VERTEX
  8
0
 62
7
  6
CONTINUOUS
 10
219.8546750065
 20
52.0555780521
  0
VERTEX
  8
0
 62
7
  6
CONTINUOUS
 10
223.944263388
 20
53.7753970055
  0
VERTEX
  8
0
 62
7
  6
CONTINUOUS
 10
227.9166458387
 20
55.750964355
  0
VERTEX
  8
0
 62
7
  6
CONTINUOUS
 10
231.7560161074
 20
57.9740016172
  0
VERTEX
  8
0
 62
7
  6
CONTINUOUS
 10
235.4467283491
 20
60.4359441297
  0
VERTEX
  8
0
 62
7
  6
CONTINUOUS
 10
238.9741230697
 20
63.1267021012
  0
VERTEX
  8
0
 62
7
  6
CONTINUOUS
 10
242.3240491399
 20
66.0353999417
  0
VERTEX
  8
0
 62
7
  6
CONTINUOUS
 10
245.4828303092
 20
69.1506378149
  0
VERTEX
  8
0
 62
7
  6
CONTINUOUS
 10
248.4380912329
 20
72.4595848029
  0
VERTEX
  8
0
 62
7
  6
CONTINUOUS
 10
251.1777280665
 20
75.9491266227
  0
VERTEX
  8
0
 62
7
  6
CONTINUOUS
 10
253.6907554002
 20
79.6052708917
  0
VERTEX
  8
0
 62
7
  6
CONTINUOUS
 10
255.9673062759
 20
83.4131471492
  0
VERTEX
  8
0
 62
7
  6
CONTINUOUS
 10
257.99785344
 20
87.3576884429
  0
VERTEX
  8
0
 62
7
  6
CONTINUOUS
 10
259.7745685792
 20
91.422903725
  0
VERTEX
  8
0
 62
7
  6
CONTINUOUS
 10
261.2902453519
 20
95.5924650577
  0
VERTEX
  8
0
 62
7
  6
CONTINUOUS
 10
262.5385614154
 20
99.8497371578
  0
VERTEX
  8
0
 62
7
  6
CONTINUOUS
 10
263.5149100733
 20
104.1774885353
  0
VERTEX
  8
0
 62
7
  6
CONTINUOUS
 10
264.2150007012
 20
108.5583997962
  0
VERTEX
  8
0
 62
7
  6
CONTINUOUS
 10
264.6361588207
 20
112.9748885113
  0
VERTEX
  8
0
 62
7
  6
CONTINUOUS
 10
264.7768746677
 20
117.4091826535
  0
SEQEND
  0
POLYLINE
  8
06___PRT_ALL_SURFS
 62
9
  6
CONTINUOUS
 66
1
 70
0
  0
VERTEX
  8
06___PRT_ALL_SURFS
 62
9
  6
CONTINUOUS
 10
211.3901223936
 20
49.4091826535
  0
VERTEX
  8
06___PRT_ALL_SURFS
 62
9
  6
CONTINUOUS
 10
215.6643260285
 20
50.5982784346
  0
VERTEX
  8
06___PRT_ALL_SURFS
 62
9
  6
CONTINUOUS
 10
219.8546750065
 20
52.0555780521
  0
VERTEX
  8
06___PRT_ALL_SURFS
 62
9
  6
CONTINUOUS
 10
223.944263388
 20
53.7753970055
  0
VERTEX
  8
06___PRT_ALL_SURFS
 62
9
  6
CONTINUOUS
 10
227.9166458387
 20
55.750964355
  0
VERTEX
  8
06___PRT_ALL_SURFS
 62
9
  6
CONTINUOUS
 10
231.7560161074
 20
57.9740016172
  0
VERTEX
  8
06___PRT_ALL_SURFS
 62
9
  6
CONTINUOUS
 10
235.4467283491
 20
60.4359441297
  0
VERTEX
  8
06___PRT_ALL_SURFS
 62
9
  6
CONTINUOUS
 10
238.9741230697
 20
63.1267021012
  0
VERTEX
  8
06___PRT_ALL_SURFS
 62
9
  6
CONTINUOUS
 10
242.3240491399
 20
66.0353999417
  0
VERTEX
  8
06___PRT_ALL_SURFS
 62
9
  6
CONTINUOUS
 10
245.4828303092
 20
69.1506378149
  0
VERTEX
  8
06___PRT_ALL_SURFS
 62
9
  6
CONTINUOUS
 10
248.4380912329
 20
72.4595848029
  0
VERTEX
  8
06___PRT_ALL_SURFS
 62
9
  6
CONTINUOUS
 10
251.1777280665
 20
75.9491266227
  0
VERTEX
  8
06___PRT_ALL_SURFS
 62
9
  6
CONTINUOUS
 10
253.6907554002
 20
79.6052708917
  0
VERTEX
  8
06___PRT_ALL_SURFS
 62
9
  6
CONTINUOUS
 10
255.9673062759
 20
83.4131471492
  0
VERTEX
  8
06___PRT_ALL_SURFS
 62
9
  6
CONTINUOUS
 10
257.99785344
 20
87.3576884429
  0
VERTEX
  8
06___PRT_ALL_SURFS
 62
9
  6
CONTINUOUS
 10
259.7745685792
 20
91.422903725
  0
VERTEX
  8
06___PRT_ALL_SURFS
 62
9
  6
CONTINUOUS
 10
261.2902453519
 20
95.5924650577
  0
VERTEX
  8
06___PRT_ALL_SURFS
 62
9
  6
CONTINUOUS
 10
262.5385614154
 20
99.8497371578
  0
VERTEX
  8
06___PRT_ALL_SURFS
 62
9
  6
CONTINUOUS
 10
263.5149100733
 20
104.1774885353
  0
VERTEX
  8
06___PRT_ALL_SURFS
 62
9
  6
CONTINUOUS
 10
264.2150007012
 20
108.5583997962
  0
VERTEX
  8
06___PRT_ALL_SURFS
 62
9
  6
CONTINUOUS
 10
264.6361588207
 20
112.9748885113
  0
VERTEX
  8
06___PRT_ALL_SURFS
 62
9
  6
CONTINUOUS
 10
264.7768746677
 20
117.4091826535
  0
SEQEND
  0
POLYLINE
  8
06___PRT_ALL_SURFS
 62
7
  6
CONTINUOUS
 66
1
 70
0
  0
VERTEX
  8
06___PRT_ALL_SURFS
 62
7
  6
CONTINUOUS
 10
211.3901223936
 20
49.4091826535
  0
VERTEX
  8
06___PRT_ALL_SURFS
 62
7
  6
CONTINUOUS
 10
215.2897701989
 20
50.4823196488
  0
VERTEX
  8
06___PRT_ALL_SURFS
 62
7
  6
CONTINUOUS
 10
219.1245162541
 20
51.7800864433
  0
VERTEX
  8
06___PRT_ALL_SURFS
 62
7
  6
CONTINUOUS
 10
222.8804743455
 20
53.2984413919
  0
VERTEX
  8
06___PRT_ALL_SURFS
 62
7
  6
CONTINUOUS
 10
226.543991834
 20
55.032645957
  0
VERTEX
  8
06___PRT_ALL_SURFS
 62
7
  6
CONTINUOUS
 10
230.1020463183
 20
56.976406145
  0
VERTEX
  8
06___PRT_ALL_SURFS
 62
7
  6
CONTINUOUS
 10
233.5417834629
 20
59.1229932971
  0
VERTEX
  8
06___PRT_ALL_SURFS
 62
7
  6
CONTINUOUS
 10
236.8508304693
 20
61.4648957956
  0
VERTEX
  8
06___PRT_ALL_SURFS
 62
7
  6
CONTINUOUS
 10
240.017701375
 20
63.9932811981
  0
VERTEX
  8
06___PRT_ALL_SURFS
 62
7
  6
CONTINUOUS
 10
243.031555293
 20
66.6994033577
  0
VERTEX
  8
06___PRT_ALL_SURFS
 62
7
  6
CONTINUOUS
 10
245.8828008645
 20
69.5744184022
  0
VERTEX
  8
06___PRT_ALL_SURFS
 62
7
  6
CONTINUOUS
 10
248.5626676296
 20
72.6087141159
  0
VERTEX
  8
06___PRT_ALL_SURFS
 62
7
  6
CONTINUOUS
 10
251.0623984035
 20
75.7926796318
  0
VERTEX
  8
06___PRT_ALL_SURFS
 62
7
  6
CONTINUOUS
 10
253.3739822475
 20
79.1161108695
  0
VERTEX
  8
06___PRT_ALL_SURFS
 62
7
  6
CONTINUOUS
 10
255.4901624531
 20
82.5682210633
  0
VERTEX
  8
06___PRT_ALL_SURFS
 62
7
  6
CONTINUOUS
 10
257.4036838386
 20
86.1382104456
  0
VERTEX
  8
06___PRT_ALL_SURFS
 62
7
  6
CONTINUOUS
 10
259.1082317618
 20
89.814663575
  0
VERTEX
  8
06___PRT_ALL_SURFS
 62
7
  6
CONTINUOUS
 10
260.5978825555
 20
93.584973453
  0
VERTEX
  8
06___PRT_ALL_SURFS
 62
7
  6
CONTINUOUS
 10
261.8667819954
 20
97.4358863878
  0
VERTEX
  8
06___PRT_ALL_SURFS
 62
7
  6
CONTINUOUS
 10
262.9105694698
 20
101.3536012014
  0
VERTEX
  8
06___PRT_ALL_SURFS
 62
7
  6
CONTINUOUS
 10
263.7257590768
 20
105.324034801
  0
VERTEX
  8
06___PRT_ALL_SURFS
 62
7
  6
CONTINUOUS
 10
264.309326835
 20
109.3330439751
  0
VERTEX
  8
06___PRT_ALL_SURFS
 62
7
  6
CONTINUOUS
 10
264.6599091476
 20
113.3662423202
  0
VERTEX
  8
06___PRT_ALL_SURFS
 62
7
  6
CONTINUOUS
 10
264.7768746677
 20
117.4091826535
  0
SEQEND
  0
POLYLINE
  8
0
 62
7
  6
CONTINUOUS
 66
1
 70
0
  0
VERTEX
  8
0
 62
7
  6
CONTINUOUS
 10
192.8411458486
 20
46.9132791932
  0
VERTEX
  8
0
 62
7
  6
CONTINUOUS
 10
197.8362011889
 20
47.2113271158
  0
VERTEX
  8
0
 62
7
  6
CONTINUOUS
 10
202.5441158122
 20
47.7330746582
  0
VERTEX
  8
0
 62
7
  6
CONTINUOUS
 10
207.0368564015
 20
48.4656216438
  0
VERTEX
  8
0
 62
7
  6
CONTINUOUS
 10
211.3901223936
 20
49.4091826535
  0
SEQEND
  0
POLYLINE
  8
06___PRT_ALL_SURFS
 62
7
  6
CONTINUOUS
 66
1
 70
0
  0
VERTEX
  8
06___PRT_ALL_SURFS
 62
7
  6
CONTINUOUS
 10
192.8411458486
 20
46.9132791932
  0
VERTEX
  8
06___PRT_ALL_SURFS
 62
7
  6
CONTINUOUS
 10
197.7811943254
 20
47.2066489312
  0
VERTEX
  8
06___PRT_ALL_SURFS
 62
7
  6
CONTINUOUS
 10
202.5263369139
 20
47.7306418032
  0
VERTEX
  8
06___PRT_ALL_SURFS
 62
7
  6
CONTINUOUS
 10
207.0658569854
 20
48.4711295551
  0
VERTEX
  8
06___PRT_ALL_SURFS
 62
7
  6
CONTINUOUS
 10
211.3901223936
 20
49.4091826535
  0
SEQEND
  0
POLYLINE
  8
0
 62
9
  6
CONTINUOUS
 66
1
 70
0
  0
VERTEX
  8
0
 62
9
  6
CONTINUOUS
 10
202.3117795644
 20
82.6596379811
  0
VERTEX
  8
0
 62
9
  6
CONTINUOUS
 10
204.8818490698
 20
83.3738480508
  0
VERTEX
  8
0
 62
9
  6
CONTINUOUS
 10
207.3914785068
 20
84.2763645453
  0
VERTEX
  8
0
 62
9
  6
CONTINUOUS
 10
209.8248833831
 20
85.3615005568
  0
VERTEX
  8
0
 62
9
  6
CONTINUOUS
 10
212.1692907029
 20
86.6230059551
  0
VERTEX
  8
0
 62
9
  6
CONTINUOUS
 10
214.4112262613
 20
88.0534347112
  0
VERTEX
  8
0
 62
9
  6
CONTINUOUS
 10
216.5383477819
 20
89.644467996
  0
VERTEX
  8
0
 62
9
  6
CONTINUOUS
 10
218.5391228314
 20
91.3869442552
  0
VERTEX
  8
0
 62
9
  6
CONTINUOUS
 10
220.4023393828
 20
93.2707188504
  0
VERTEX
  8
0
 62
9
  6
CONTINUOUS
 10
222.1191552605
 20
95.2860741863
  0
VERTEX
  8
0
 62
9
  6
CONTINUOUS
 10
223.6789785327
 20
97.4203039924
  0
VERTEX
  8
0
 62
9
  6
CONTINUOUS
 10
225.0760305636
 20
99.6646134742
  0
VERTEX
  8
0
 62
9
  6
CONTINUOUS
 10
226.3010263015
 20
102.0041252916
  0
VERTEX
  8
0
 62
9
  6
CONTINUOUS
 10
227.3497841145
 20
104.430232407
  0
VERTEX
  8
0
 62
9
  6
CONTINUOUS
 10
228.2156527904
 20
106.9282049688
  0
VERTEX
  8
0
 62
9
  6
CONTINUOUS
 10
228.8946728595
 20
109.4869921366
  0
VERTEX
  8
0
 62
9
  6
CONTINUOUS
 10
229.38340737
 20
112.0959595007
  0
VERTEX
  8
0
 62
9
  6
CONTINUOUS
 10
229.6778928352
 20
114.7373390455
  0
VERTEX
  8
0
 62
9
  6
CONTINUOUS
 10
229.7768746677
 20
117.4091826535
  0
SEQEND
  0
POLYLINE
  8
06___PRT_ALL_SURFS
 62
9
  6
CONTINUOUS
 66
1
 70
0
  0
VERTEX
  8
06___PRT_ALL_SURFS
 62
9
  6
CONTINUOUS
 10
202.3117795644
 20
82.6596379811
  0
VERTEX
  8
06___PRT_ALL_SURFS
 62
9
  6
CONTINUOUS
 10
204.8818490698
 20
83.3738480508
  0
VERTEX
  8
06___PRT_ALL_SURFS
 62
9
  6
CONTINUOUS
 10
207.3914785068
 20
84.2763645453
  0
VERTEX
  8
06___PRT_ALL_SURFS
 62
9
  6
CONTINUOUS
 10
209.8248833831
 20
85.3615005568
  0
VERTEX
  8
06___PRT_ALL_SURFS
 62
9
  6
CONTINUOUS
 10
212.1692907029
 20
86.6230059551
  0
VERTEX
  8
06___PRT_ALL_SURFS
 62
9
  6
CONTINUOUS
 10
214.4112262613
 20
88.0534347112
  0
VERTEX
  8
06___PRT_ALL_SURFS
 62
9
  6
CONTINUOUS
 10
216.5383477819
 20
89.644467996
  0
VERTEX
  8
06___PRT_ALL_SURFS
 62
9
  6
CONTINUOUS
 10
218.5391228314
 20
91.3869442552
  0
VERTEX
  8
06___PRT_ALL_SURFS
 62
9
  6
CONTINUOUS
 10
220.4023393828
 20
93.2707188504
  0
VERTEX
  8
06___PRT_ALL_SURFS
 62
9
  6
CONTINUOUS
 10
222.1191552605
 20
95.2860741863
  0
VERTEX
  8
06___PRT_ALL_SURFS
 62
9
  6
CONTINUOUS
 10
223.6789785327
 20
97.4203039924
  0
VERTEX
  8
06___PRT_ALL_SURFS
 62
9
  6
CONTINUOUS
 10
225.0760305636
 20
99.6646134742
  0
VERTEX
  8
06___PRT_ALL_SURFS
 62
9
  6
CONTINUOUS
 10
226.3010263015
 20
102.0041252916
  0
VERTEX
  8
06___PRT_ALL_SURFS
 62
9
  6
CONTINUOUS
 10
227.3497841145
 20
104.430232407
  0
VERTEX
  8
06___PRT_ALL_SURFS
 62
9
  6
CONTINUOUS
 10
228.2156527904
 20
106.9282049688
  0
VERTEX
  8
06___PRT_ALL_SURFS
 62
9
  6
CONTINUOUS
 10
228.8946728595
 20
109.4869921366
  0
VERTEX
  8
06___PRT_ALL_SURFS
 62
9
  6
CONTINUOUS
 10
229.38340737
 20
112.0959595007
  0
VERTEX
  8
06___PRT_ALL_SURFS
 62
9
  6
CONTINUOUS
 10
229.6778928352
 20
114.7373390455
  0
VERTEX
  8
06___PRT_ALL_SURFS
 62
9
  6
CONTINUOUS
 10
229.7768746677
 20
117.4091826535
  0
SEQEND
  0
POLYLINE
  8
0
 62
9
  6
CONTINUOUS
 66
1
 70
0
  0
VERTEX
  8
0
 62
9
  6
CONTINUOUS
 10
192.8411458486
 20
81.4430539981
  0
VERTEX
  8
0
 62
9
  6
CONTINUOUS
 10
196.1967202768
 20
81.6492443546
  0
VERTEX
  8
0
 62
9
  6
CONTINUOUS
 10
199.3281749131
 20
82.0579898834
  0
VERTEX
  8
0
 62
9
  6
CONTINUOUS
 10
202.3117795644
 20
82.6596379811
  0
SEQEND
  0
POLYLINE
  8
0
 62
9
  6
CONTINUOUS
 66
1
 70
0
  0
VERTEX
  8
0
 62
9
  6
CONTINUOUS
 10
144.7371673009
 20
103.3895913036
  0
VERTEX
  8
0
 62
9
  6
CONTINUOUS
 10
148.4902289505
 20
99.5604796218
  0
VERTEX
  8
0
 62
9
  6
CONTINUOUS
 10
152.2106176978
 20
96.2191801043
  0
VERTEX
  8
0
 62
9
  6
CONTINUOUS
 10
155.9030512695
 20
93.3145293958
  0
VERTEX
  8
0
 62
9
  6
CONTINUOUS
 10
159.5676954574
 20
90.8055420069
  0
VERTEX
  8
0
 62
9
  6
CONTINUOUS
 10
163.2257984831
 20
88.6437118984
  0
VERTEX
  8
0
 62
9
  6
CONTINUOUS
 10
166.9575632321
 20
86.7654796677
  0
VERTEX
  8
0
 62
9
  6
CONTINUOUS
 10
170.7339954696
 20
85.1814765351
  0
VERTEX
  8
0
 62
9
  6
CONTINUOUS
 10
174.5194228566
 20
83.8951129403
  0
VERTEX
  8
0
 62
9
  6
CONTINUOUS
 10
178.2847709397
 20
82.8984889259
  0
VERTEX
  8
0
 62
9
  6
CONTINUOUS
 10
182.0178172539
 20
82.1740935745
  0
VERTEX
  8
0
 62
9
  6
CONTINUOUS
 10
185.7524739765
 20
81.6969199653
  0
VERTEX
  8
0
 62
9
  6
CONTINUOUS
 10
189.4082239428
 20
81.4571493781
  0
SEQEND
  0
POLYLINE
  8
0
 62
9
  6
CONTINUOUS
 66
1
 70
0
  0
VERTEX
  8
0
 62
9
  6
CONTINUOUS
 10
144.7114098882
 20
103.4171309026
  0
VERTEX
  8
0
 62
9
  6
CONTINUOUS
 10
148.4498319452
 20
99.5987713981
  0
VERTEX
  8
0
 62
9
  6
CONTINUOUS
 10
152.1557001432
 20
96.2650541938
  0
VERTEX
  8
0
 62
9
  6
CONTINUOUS
 10
155.8324326573
 20
93.3661971247
  0
VERTEX
  8
0
 62
9
  6
CONTINUOUS
 10
159.4794148351
 20
90.8616972465
  0
VERTEX
  8
0
 62
9
  6
CONTINUOUS
 10
163.1052461491
 20
88.7097735954
  0
VERTEX
  8
0
 62
9
  6
CONTINUOUS
 10
166.8150030379
 20
86.8315117867
  0
VERTEX
  8
0
 62
9
  6
CONTINUOUS
 10
170.5795200511
 20
85.2405003864
  0
VERTEX
  8
0
 62
9
  6
CONTINUOUS
 10
174.3705848867
 20
83.9405297678
  0
VERTEX
  8
0
 62
9
  6
CONTINUOUS
 10
178.153333941
 20
82.9290756842
  0
VERTEX
  8
0
 62
9
  6
CONTINUOUS
 10
181.9177200738
 20
82.1905917468
  0
VERTEX
  8
0
 62
9
  6
CONTINUOUS
 10
185.6902152419
 20
81.7032442395
  0
VERTEX
  8
0
 62
9
  6
CONTINUOUS
 10
189.3830709077
 20
81.4582079865
  0
VERTEX
  8
0
 62
9
  6
CONTINUOUS
 10
192.8411458486
 20
81.4430539981
  0
SEQEND
  0
LINE
  8
0
 62
9
  6
CONTINUOUS
 10
140.9384384142
 20
107.7770678978
 11
144.7371673009
 21
103.3895913036
  0
LINE
  8
0
 62
9
  6
CONTINUOUS
 10
137.0988094612
 20
112.7872246185
 11
140.9519874709
 21
107.7608324477
  0
LINE
  8
0
 62
9
  6
CONTINUOUS
 10
133.2768746677
 20
118.4091826535
 11
137.1022128409
 21
112.7827705472
  0
LINE
  8
02___PRT_ALL_AXES
 62
7
  6
CENTER
 10
133.2768746677
 20
115.9091826535
 11
133.2768746677
 21
172.9091826535
  0
POLYLINE
  8
0
 62
7
  6
CONTINUOUS
 66
1
 70
0
  0
VERTEX
  8
0
 62
7
  6
CONTINUOUS
 10
193.2334367352
 20
115.9100933087
  0
VERTEX
  8
0
 62
7
  6
CONTINUOUS
 10
193.5250902726
 20
115.923212925
  0
VERTEX
  8
0
 62
7
  6
CONTINUOUS
 10
193.7919839308
 20
115.9772848676
  0
VERTEX
  8
0
 62
7
  6
CONTINUOUS
 10
194.0250612882
 20
116.0650531573
  0
VERTEX
  8
0
 62
7
  6
CONTINUOUS
 10
194.2213177021
 20
116.1793149508
  0
VERTEX
  8
0
 62
7
  6
CONTINUOUS
 10
194.3836590897
 20
116.3156627112
  0
VERTEX
  8
0
 62
7
  6
CONTINUOUS
 10
194.5169411833
 20
116.4739801407
  0
VERTEX
  8
0
 62
7
  6
CONTINUOUS
 10
194.6252482766
 20
116.6595700917
  0
VERTEX
  8
0
 62
7
  6
CONTINUOUS
 10
194.7045861713
 20
116.8676763311
  0
VERTEX
  8
0
 62
7
  6
CONTINUOUS
 10
194.7572824876
 20
117.1142044025
  0
VERTEX
  8
0
 62
7
  6
CONTINUOUS
 10
194.7768746677
 20
117.4091826535
  0
SEQEND
  0
POLYLINE
  8
06___PRT_ALL_SURFS
 62
9
  6
CONTINUOUS
 66
1
 70
0
  0
VERTEX
  8
06___PRT_ALL_SURFS
 62
9
  6
CONTINUOUS
 10
193.2334367352
 20
115.9100933087
  0
VERTEX
  8
06___PRT_ALL_SURFS
 62
9
  6
CONTINUOUS
 10
193.5250902726
 20
115.923212925
  0
VERTEX
  8
06___PRT_ALL_SURFS
 62
9
  6
CONTINUOUS
 10
193.7919839308
 20
115.9772848676
  0
VERTEX
  8
06___PRT_ALL_SURFS
 62
9
  6
CONTINUOUS
 10
194.0250612882
 20
116.0650531573
  0
VERTEX
  8
06___PRT_ALL_SURFS
 62
9
  6
CONTINUOUS
 10
194.2213177021
 20
116.1793149508
  0
VERTEX
  8
06___PRT_ALL_SURFS
 62
9
  6
CONTINUOUS
 10
194.3836590897
 20
116.3156627112
  0
VERTEX
  8
06___PRT_ALL_SURFS
 62
9
  6
CONTINUOUS
 10
194.5169411833
 20
116.4739801407
  0
VERTEX
  8
06___PRT_ALL_SURFS
 62
9
  6
CONTINUOUS
 10
194.6252482766
 20
116.6595700917
  0
VERTEX
  8
06___PRT_ALL_SURFS
 62
9
  6
CONTINUOUS
 10
194.7045861713
 20
116.8676763311
  0
VERTEX
  8
06___PRT_ALL_SURFS
 62
9
  6
CONTINUOUS
 10
194.7572824876
 20
117.1142044025
  0
VERTEX
  8
06___PRT_ALL_SURFS
 62
9
  6
CONTINUOUS
 10
194.7768746677
 20
117.4091826535
  0
SEQEND
  0
LINE
  8
0
 62
9
  6
CONTINUOUS
 10
264.7768746677
 20
117.4091826535
 11
229.7768746677
 21
117.4091826535
  0
LINE
  8
0
 62
7
  6
CONTINUOUS
 10
194.7768746677
 20
117.4091826535
 11
229.7768746677
 21
117.4091826535
  0
LINE
  8
0
 62
9
  6
CONTINUOUS
 10
191.7766305572
 20
118.4091826535
 11
191.6409441763
 21
118.4091826535
  0
LINE
  8
06___PRT_ALL_SURFS
 62
7
  6
CONTINUOUS
 10
191.7768746677
 20
118.4091826535
 11
74.7771187783
 21
118.4091826535
  0
LINE
  8
0
 62
7
  6
CONTINUOUS
 10
191.6409441763
 20
118.4091826535
 11
82.6718409086
 21
118.4094727573
  0
LINE
  8
0
 62
7
  6
CONTINUOUS
 10
82.6718409086
 20
118.4094727573
 11
74.7771187783
 21
118.4091826535
  0
LINE
  8
06___PRT_ALL_SURFS
 62
7
  6
CONTINUOUS
 10
193.2334367352
 20
115.9100933087
 11
193.0893674571
 21
115.9208754546
  0
LINE
  8
06___PRT_ALL_SURFS
 62
7
  6
CONTINUOUS
 10
193.0893679779
 20
115.9208753924
 11
192.9583087869
 21
115.9424183197
  0
POLYLINE
  8
0
 62
7
  6
CONTINUOUS
 66
1
 70
0
  0
VERTEX
  8
0
 62
7
  6
CONTINUOUS
 10
192.8411458486
 20
115.972828803
  0
VERTEX
  8
0
 62
7
  6
CONTINUOUS
 10
192.9611187107
 20
115.9418255499
  0
VERTEX
  8
0
 62
7
  6
CONTINUOUS
 10
193.0913616318
 20
115.9206389104
  0
VERTEX
  8
0
 62
7
  6
CONTINUOUS
 10
193.2334367352
 20
115.9100933087
  0
SEQEND
  0
LINE
  8
06___PRT_ALL_SURFS
 62
7
  6
CONTINUOUS
 10
192.9583083401
 20
115.9424184144
 11
192.8411458486
 21
115.972828803
  0
POLYLINE
  8
0
 62
7
  6
CONTINUOUS
 66
1
 70
0
  0
VERTEX
  8
0
 62
7
  6
CONTINUOUS
 10
192.8411458486
 20
115.9728288025
  0
VERTEX
  8
0
 62
7
  6
CONTINUOUS
 10
192.723330312
 20
116.0160440512
  0
VERTEX
  8
0
 62
7
  6
CONTINUOUS
 10
192.5574165321
 20
116.1032268867
  0
VERTEX
  8
0
 62
7
  6
CONTINUOUS
 10
192.4059615216
 20
116.2181715684
  0
VERTEX
  8
0
 62
7
  6
CONTINUOUS
 10
192.2634200135
 20
116.3692304977
  0
SEQEND
  0
POLYLINE
  8
06___PRT_ALL_SURFS
 62
7
  6
CONTINUOUS
 66
1
 70
0
  0
VERTEX
  8
06___PRT_ALL_SURFS
 62
7
  6
CONTINUOUS
 10
192.8411458486
 20
115.9728288025
  0
VERTEX
  8
06___PRT_ALL_SURFS
 62
7
  6
CONTINUOUS
 10
192.6784296884
 20
116.0363241131
  0
VERTEX
  8
06___PRT_ALL_SURFS
 62
7
  6
CONTINUOUS
 10
192.5265765573
 20
116.1235344288
  0
VERTEX
  8
06___PRT_ALL_SURFS
 62
7
  6
CONTINUOUS
 10
192.3877212943
 20
116.2348486342
  0
VERTEX
  8
06___PRT_ALL_SURFS
 62
7
  6
CONTINUOUS
 10
192.2634200135
 20
116.3692304977
  0
SEQEND
  0
LINE
  8
0
 62
7
  6
CONTINUOUS
 10
194.7768746677
 20
127.4091826535
 11
264.7768746677
 21
127.4091826535
  0
LINE
  8
0
 62
9
  6
CONTINUOUS
 10
192.7768746677
 20
130.2376097796
 11
265.6680082293
 21
130.237640484
  0
LINE
  8
0
 62
9
  6
CONTINUOUS
 10
265.6680082293
 20
130.237640484
 11
266.7768746677
 21
130.2376097796
  0
POLYLINE
  8
0
 62
7
  6
CONTINUOUS
 66
1
 70
0
  0
VERTEX
  8
0
 62
7
  6
CONTINUOUS
 10
192.2634200135
 20
116.3692304977
  0
VERTEX
  8
0
 62
7
  6
CONTINUOUS
 10
192.3427488822
 20
116.2790321675
  0
VERTEX
  8
0
 62
7
  6
CONTINUOUS
 10
192.4926831174
 20
116.1475606091
  0
VERTEX
  8
0
 62
7
  6
CONTINUOUS
 10
192.6561755421
 20
116.0471666642
  0
VERTEX
  8
0
 62
7
  6
CONTINUOUS
 10
192.8411458486
 20
115.9726847161
  0
SEQEND
  0
LINE
  8
0
 62
9
  6
CONTINUOUS
 10
192.2056463979
 20
116.4464702829
 11
192.3426688469
 21
116.2789613325
  0
LINE
  8
0
 62
7
  6
CONTINUOUS
 10
192.2632911528
 20
116.3693914683
 11
192.2634200135
 21
116.3692304977
  0
POLYLINE
  8
0
 62
7
  6
CONTINUOUS
 66
1
 70
0
  0
VERTEX
  8
0
 62
7
  6
CONTINUOUS
 10
192.2632911528
 20
116.3693914683
  0
VERTEX
  8
0
 62
7
  6
CONTINUOUS
 10
192.2214192184
 20
116.4244714692
  0
VERTEX
  8
0
 62
7
  6
CONTINUOUS
 10
192.1157099051
 20
116.592453306
  0
VERTEX
  8
0
 62
7
  6
CONTINUOUS
 10
192.025807321
 20
116.7810972662
  0
VERTEX
  8
0
 62
7
  6
CONTINUOUS
 10
191.9470613831
 20
117.0018129194
  0
SEQEND
  0
POLYLINE
  8
06___PRT_ALL_SURFS
 62
7
  6
CONTINUOUS
 66
1
 70
0
  0
VERTEX
  8
06___PRT_ALL_SURFS
 62
7
  6
CONTINUOUS
 10
192.2632911545
 20
116.3693914662
  0
VERTEX
  8
06___PRT_ALL_SURFS
 62
7
  6
CONTINUOUS
 10
192.1666717365
 20
116.5056912272
  0
VERTEX
  8
06___PRT_ALL_SURFS
 62
7
  6
CONTINUOUS
 10
192.08189904
 20
116.6572849706
  0
VERTEX
  8
06___PRT_ALL_SURFS
 62
7
  6
CONTINUOUS
 10
192.0087786147
 20
116.8234930672
  0
VERTEX
  8
06___PRT_ALL_SURFS
 62
7
  6
CONTINUOUS
 10
191.9470613831
 20
117.0018129195
  0
SEQEND
  0
POLYLINE
  8
0
 62
7
  6
CONTINUOUS
 66
1
 70
0
  0
VERTEX
  8
0
 62
7
  6
CONTINUOUS
 10
191.9471414776
 20
117.0015513219
  0
VERTEX
  8
0
 62
7
  6
CONTINUOUS
 10
191.9749524336
 20
116.9158631127
  0
VERTEX
  8
0
 62
7
  6
CONTINUOUS
 10
192.0815280464
 20
116.6580294317
  0
VERTEX
  8
0
 62
7
  6
CONTINUOUS
 10
192.2057271197
 20
116.4466186933
  0
VERTEX
  8
0
 62
7
  6
CONTINUOUS
 10
192.2632911528
 20
116.3693914683
  0
SEQEND
  0
LINE
  8
0
 62
7
  6
CONTINUOUS
 10
191.9470613831
 20
117.0018129194
 11
191.9471414776
 21
117.0015513219
  0
LINE
  8
0
 62
9
  6
CONTINUOUS
 10
191.889439682
 20
117.2198226967
 11
191.9749524336
 21
116.9158631127
  0
LINE
  8
0
 62
9
  6
CONTINUOUS
 10
210.9745577604
 20
50.8886408477
 11
211.3901223936
 21
49.4091826535
  0
LINE
  8
06___PRT_ALL_SURFS
 62
9
  6
CONTINUOUS
 10
210.9745577604
 20
50.8886408477
 11
211.3901223936
 21
49.4091826535
  0
LINE
  8
0
 62
9
  6
CONTINUOUS
 10
193.2334367352
 20
115.9100933087
 11
193.6474181075
 21
114.4363035576
  0
LINE
  8
06___PRT_ALL_SURFS
 62
9
  6
CONTINUOUS
 10
193.6490013684
 20
114.4306351145
 11
193.2334367352
 21
115.9100933087
  0
LINE
  8
0
 62
7
  6
CONTINUOUS
 10
191.9471414776
 20
117.0015513219
 11
191.9076625475
 21
117.1434211996
  0
LINE
  8
0
 62
9
  6
CONTINUOUS
 10
210.4644241952
 20
52.722415941
 11
210.9745577604
 21
50.8886408477
  0
LINE
  8
06___PRT_ALL_SURFS
 62
9
  6
CONTINUOUS
 10
210.4644241952
 20
52.722415941
 11
210.9761410212
 21
50.8829724047
  0
LINE
  8
0
 62
9
  6
CONTINUOUS
 10
193.6474181075
 20
114.4363035576
 11
194.1558147757
 21
112.6088354086
  0
LINE
  8
06___PRT_ALL_SURFS
 62
9
  6
CONTINUOUS
 10
194.1591349335
 20
112.5968600212
 11
193.6474181075
 21
114.4363035576
  0
LINE
  8
0
 62
9
  6
CONTINUOUS
 10
209.7691583646
 20
55.2386267083
 11
210.4644241952
 21
52.722415941
  0
LINE
  8
06___PRT_ALL_SURFS
 62
9
  6
CONTINUOUS
 10
209.7691583646
 20
55.2386267083
 11
210.4677443531
 21
52.7104405537
  0
LINE
  8
0
 62
9
  6
CONTINUOUS
 10
194.1558147757
 20
112.6088354086
 11
194.8496153737
 21
110.0980187553
  0
LINE
  8
06___PRT_ALL_SURFS
 62
9
  6
CONTINUOUS
 10
194.8544007641
 20
110.0806492539
 11
194.1558147757
 21
112.6088354086
  0
LINE
  8
0
 62
9
  6
CONTINUOUS
 10
208.9077212537
 20
58.3742442426
 11
209.7691583646
 21
55.2386267083
  0
LINE
  8
06___PRT_ALL_SURFS
 62
9
  6
CONTINUOUS
 10
208.9077212537
 20
58.3742442426
 11
209.7739437551
 21
55.221257207
  0
LINE
  8
0
 62
9
  6
CONTINUOUS
 10
194.8496153737
 20
110.0980187553
 11
195.7105816056
 21
106.9642115283
  0
LINE
  8
06___PRT_ALL_SURFS
 62
9
  6
CONTINUOUS
 10
195.715837875
 20
106.9450317196
 11
194.8496153737
 21
110.0980187553
  0
LINE
  8
0
 62
9
  6
CONTINUOUS
 10
207.9032946395
 20
62.0478446831
 11
208.9077212537
 21
58.3742442426
  0
LINE
  8
06___PRT_ALL_SURFS
 62
9
  6
CONTINUOUS
 10
207.9032946395
 20
62.0478446831
 11
208.9129775232
 21
58.355064434
  0
LINE
  8
0
 62
9
  6
CONTINUOUS
 10
195.7105816056
 20
106.9642115283
 11
196.7157822883
 21
103.2878576999
  0
LINE
  8
06___PRT_ALL_SURFS
 62
9
  6
CONTINUOUS
 10
196.7202644893
 20
103.2714312791
 11
195.7105816056
 21
106.9642115283
  0
LINE
  8
0
 62
9
  6
CONTINUOUS
 10
206.7818095966
 20
66.1653103004
 11
207.9032946395
 21
62.0478446831
  0
LINE
  8
06___PRT_ALL_SURFS
 62
9
  6
CONTINUOUS
 10
206.7818095966
 20
66.1653103004
 11
207.9077768404
 21
62.0314182623
  0
LINE
  8
0
 62
9
  6
CONTINUOUS
 10
196.7157822883
 20
103.2878576999
 11
197.8390226595
 21
99.1639932035
  0
LINE
  8
06___PRT_ALL_SURFS
 62
9
  6
CONTINUOUS
 10
197.8417495322
 20
99.1539656619
 11
196.7157822883
 21
103.2878576999
  0
LINE
  8
0
 62
9
  6
CONTINUOUS
 10
197.8390226595
 20
99.1639932035
 11
199.0531000632
 21
94.6935260621
  0
LINE
  8
06___PRT_ALL_SURFS
 62
9
  6
CONTINUOUS
 10
206.7845364693
 20
66.1552827588
 11
204.9371864501
 21
72.961445691
  0
LINE
  8
0
 62
9
  6
CONTINUOUS
 10
204.9373041672
 20
72.961011323
 11
206.7818095966
 21
66.1653103004
  0
LINE
  8
06___PRT_ALL_SURFS
 62
9
  6
CONTINUOUS
 10
197.8390226595
 20
99.1639932035
 11
199.6863726787
 21
92.3578302713
  0
LINE
  8
06___PRT_ALL_SURFS
 62
9
  6
CONTINUOUS
 10
205.5697530228
 20
70.6283527321
 11
203.6368225396
 21
77.7629814457
  0
LINE
  8
0
 62
9
  6
CONTINUOUS
 10
199.0531000632
 20
94.6935260621
 11
200.9867365892
 21
87.5562945165
  0
LINE
  8
06___PRT_ALL_SURFS
 62
9
  6
CONTINUOUS
 10
199.0538061059
 20
94.6909232301
 11
200.9867365892
 21
87.5562945165
  0
LINE
  8
06___PRT_ALL_SURFS
 62
9
  6
CONTINUOUS
 10
203.6377273086
 20
77.7596388066
 11
200.9858318202
 21
87.5596371556
  0
LINE
  8
0
 62
9
  6
CONTINUOUS
 10
200.9867365892
 20
87.5562945165
 11
204.9373041672
 21
72.961011323
  0
POLYLINE
  8
06___PRT_ALL_SURFS
 62
7
  6
CONTINUOUS
 66
1
 70
0
  0
VERTEX
  8
06___PRT_ALL_SURFS
 62
7
  6
CONTINUOUS
 10
191.9471414776
 20
117.0015513219
  0
VERTEX
  8
06___PRT_ALL_SURFS
 62
7
  6
CONTINUOUS
 10
191.8939780649
 20
117.2000166395
  0
VERTEX
  8
06___PRT_ALL_SURFS
 62
7
  6
CONTINUOUS
 10
191.8516586862
 20
117.4108403051
  0
VERTEX
  8
06___PRT_ALL_SURFS
 62
7
  6
CONTINUOUS
 10
191.8188668592
 20
117.6367261531
  0
VERTEX
  8
06___PRT_ALL_SURFS
 62
7
  6
CONTINUOUS
 10
191.795629675
 20
117.876545249
  0
VERTEX
  8
06___PRT_ALL_SURFS
 62
7
  6
CONTINUOUS
 10
191.781616357
 20
118.1330546074
  0
VERTEX
  8
06___PRT_ALL_SURFS
 62
7
  6
CONTINUOUS
 10
191.7768746711
 20
118.4089406698
  0
SEQEND
  0
LINE
  8
0
 62
7
  6
CONTINUOUS
 10
191.889439682
 20
117.2198226967
 11
191.9470613831
 21
117.0018129194
  0
LINE
  8
0
 62
7
  6
CONTINUOUS
 10
191.9076625475
 20
117.1434211996
 11
191.857389328
 21
117.3783181035
  0
LINE
  8
0
 62
7
  6
CONTINUOUS
 10
191.8273565684
 20
117.5697046206
 11
191.889439682
 21
117.2198226967
  0
POLYLINE
  8
0
 62
7
  6
CONTINUOUS
 66
1
 70
0
  0
VERTEX
  8
0
 62
7
  6
CONTINUOUS
 10
191.857389328
 20
117.3783181035
  0
VERTEX
  8
0
 62
7
  6
CONTINUOUS
 10
191.8194357328
 20
117.6320105429
  0
VERTEX
  8
0
 62
7
  6
CONTINUOUS
 10
191.793663199
 20
117.9036122535
  0
SEQEND
  0
LINE
  8
0
 62
7
  6
CONTINUOUS
 10
191.7894938298
 20
117.9657220517
 11
191.8273565684
 21
117.5697046206
  0
LINE
  8
0
 62
7
  6
CONTINUOUS
 10
191.793663199
 20
117.9036122535
 11
191.7796271847
 21
118.197023667
  0
LINE
  8
0
 62
7
  6
CONTINUOUS
 10
191.7766305572
 20
118.4091826535
 11
191.7894938298
 21
117.9657220517
  0
LINE
  8
0
 62
7
  6
CONTINUOUS
 10
191.7796271847
 20
118.197023667
 11
191.7768746677
 21
118.4091823591
  0
LINE
  8
02___PRT_ALL_AXES
 62
7
  6
CONTINUOUS
 10
191.7768746677
 20
167.9091826535
 11
191.7768746677
 21
118.4091826535
  0
LINE
  8
02___PRT_ALL_AXES
 62
7
  6
CONTINUOUS
 10
192.7768746677
 20
167.9596929105
 11
192.7768746677
 21
130.2376097796
  0
LINE
  8
0
 62
7
  6
CONTINUOUS
 10
192.841145833
 20
46.9134237296
 11
192.8411458486
 21
46.9132791932
  0
LINE
  8
0
 62
9
  6
CONTINUOUS
 10
192.8411456988
 20
47.0170493589
 11
192.841145833
 21
46.9134237296
  0
LINE
  8
0
 62
9
  6
CONTINUOUS
 10
192.8411458128
 20
115.9728288141
 11
192.8411458128
 21
115.9726842772
  0
LINE
  8
0
 62
7
  6
CONTINUOUS
 10
194.7768746677
 20
117.4091826535
 11
194.7768746677
 21
127.4091826535
  0
LINE
  8
0
 62
7
  6
CONTINUOUS
 10
192.8411457214
 20
115.9726843055
 11
192.8411456988
 21
47.0170493589
  0
POLYLINE
  8
06___PRT_ALL_SURFS
 62
7
  6
CONTINUOUS
 66
1
 70
0
  0
VERTEX
  8
06___PRT_ALL_SURFS
 62
7
  6
CONTINUOUS
 10
194.7768746677
 20
117.4091826535
  0
VERTEX
  8
06___PRT_ALL_SURFS
 62
7
  6
CONTINUOUS
 10
194.7618480042
 20
117.1493211297
  0
VERTEX
  8
06___PRT_ALL_SURFS
 62
7
  6
CONTINUOUS
 10
194.7175362205
 20
116.9140798752
  0
VERTEX
  8
06___PRT_ALL_SURFS
 62
7
  6
CONTINUOUS
 10
194.6455191571
 20
116.7042071011
  0
VERTEX
  8
06___PRT_ALL_SURFS
 62
7
  6
CONTINUOUS
 10
194.5471223414
 20
116.5188345976
  0
VERTEX
  8
06___PRT_ALL_SURFS
 62
7
  6
CONTINUOUS
 10
194.4235557555
 20
116.3575031127
  0
VERTEX
  8
06___PRT_ALL_SURFS
 62
7
  6
CONTINUOUS
 10
194.2771707424
 20
116.2209898586
  0
VERTEX
  8
06___PRT_ALL_SURFS
 62
7
  6
CONTINUOUS
 10
194.1092658882
 20
116.1086746695
  0
VERTEX
  8
06___PRT_ALL_SURFS
 62
7
  6
CONTINUOUS
 10
193.9210526513
 20
116.020464187
  0
VERTEX
  8
06___PRT_ALL_SURFS
 62
7
  6
CONTINUOUS
 10
193.7135348441
 20
115.9568005962
  0
VERTEX
  8
06___PRT_ALL_SURFS
 62
7
  6
CONTINUOUS
 10
193.4848098131
 20
115.918679738
  0
VERTEX
  8
06___PRT_ALL_SURFS
 62
7
  6
CONTINUOUS
 10
193.2334367352
 20
115.9100933087
  0
SEQEND
  0
LINE
  8
06___PRT_ALL_SURFS
 62
7
  6
CONTINUOUS
 10
274.0594288335
 20
187.018027987
 11
275.39157139
 21
187.7671913901
  0
POLYLINE
  8
02___PRT_ALL_AXES
 62
7
  6
CONTINUOUS
 66
1
 70
0
  0
VERTEX
  8
02___PRT_ALL_AXES
 62
7
  6
CONTINUOUS
 10
275.5525338244
 20
187.848648158
  0
VERTEX
  8
02___PRT_ALL_AXES
 62
7
  6
CONTINUOUS
 10
274.4362614511
 20
187.2440345508
  0
VERTEX
  8
02___PRT_ALL_AXES
 62
7
  6
CONTINUOUS
 10
273.3617177946
 20
186.5680367741
  0
VERTEX
  8
02___PRT_ALL_AXES
 62
7
  6
CONTINUOUS
 10
272.3334175548
 20
185.8235735439
  0
VERTEX
  8
02___PRT_ALL_AXES
 62
7
  6
CONTINUOUS
 10
271.3557483032
 20
185.0137708064
  0
VERTEX
  8
02___PRT_ALL_AXES
 62
7
  6
CONTINUOUS
 10
270.432841698
 20
184.1420650356
  0
VERTEX
  8
02___PRT_ALL_AXES
 62
7
  6
CONTINUOUS
 10
269.5686002403
 20
183.2121697707
  0
VERTEX
  8
02___PRT_ALL_AXES
 62
7
  6
CONTINUOUS
 10
268.7667189471
 20
182.2279886892
  0
VERTEX
  8
02___PRT_ALL_AXES
 62
7
  6
CONTINUOUS
 10
268.0305432489
 20
181.1937416531
  0
VERTEX
  8
02___PRT_ALL_AXES
 62
7
  6
CONTINUOUS
 10
267.3632631836
 20
180.1137604702
  0
VERTEX
  8
02___PRT_ALL_AXES
 62
7
  6
CONTINUOUS
 10
266.7676303268
 20
178.9926691637
  0
VERTEX
  8
02___PRT_ALL_AXES
 62
7
  6
CONTINUOUS
 10
266.2462411081
 20
177.8351842996
  0
VERTEX
  8
02___PRT_ALL_AXES
 62
7
  6
CONTINUOUS
 10
265.8012476375
 20
176.6462319524
  0
VERTEX
  8
02___PRT_ALL_AXES
 62
7
  6
CONTINUOUS
 10
265.4345699838
 20
175.4308448729
  0
VERTEX
  8
02___PRT_ALL_AXES
 62
7
  6
CONTINUOUS
 10
265.1477567758
 20
174.1941689978
  0
VERTEX
  8
02___PRT_ALL_AXES
 62
7
  6
CONTINUOUS
 10
264.9419987378
 20
172.9414587592
  0
VERTEX
  8
02___PRT_ALL_AXES
 62
7
  6
CONTINUOUS
 10
264.8182216483
 20
171.6780089205
  0
VERTEX
  8
02___PRT_ALL_AXES
 62
7
  6
CONTINUOUS
 10
264.7768746677
 20
170.4091826535
  0
SEQEND
  0
POLYLINE
  8
06___PRT_ALL_SURFS
 62
9
  6
CONTINUOUS
 66
1
 70
0
  0
VERTEX
  8
06___PRT_ALL_SURFS
 62
9
  6
CONTINUOUS
 10
276.7768746677
 20
188.4091826535
  0
VERTEX
  8
06___PRT_ALL_SURFS
 62
9
  6
CONTINUOUS
 10
275.3901594232
 20
187.7664685609
  0
VERTEX
  8
06___PRT_ALL_SURFS
 62
9
  6
CONTINUOUS
 10
274.0580227282
 20
187.0171628678
  0
VERTEX
  8
06___PRT_ALL_SURFS
 62
9
  6
CONTINUOUS
 10
272.7886856445
 20
186.1657893218
  0
VERTEX
  8
06___PRT_ALL_SURFS
 62
9
  6
CONTINUOUS
 10
271.5899062827
 20
185.2176476447
  0
VERTEX
  8
06___PRT_ALL_SURFS
 62
9
  6
CONTINUOUS
 10
270.4690866374
 20
184.1785056602
  0
VERTEX
  8
06___PRT_ALL_SURFS
 62
9
  6
CONTINUOUS
 10
269.4330813253
 20
183.0547913113
  0
VERTEX
  8
06___PRT_ALL_SURFS
 62
9
  6
CONTINUOUS
 10
268.4882756348
 20
181.8533764546
  0
VERTEX
  8
06___PRT_ALL_SURFS
 62
9
  6
CONTINUOUS
 10
267.6404653772
 20
180.5816610681
  0
VERTEX
  8
06___PRT_ALL_SURFS
 62
9
  6
CONTINUOUS
 10
266.8948538519
 20
179.2474501012
  0
VERTEX
  8
06___PRT_ALL_SURFS
 62
9
  6
CONTINUOUS
 10
266.2560426499
 20
177.8589396789
  0
VERTEX
  8
06___PRT_ALL_SURFS
 62
9
  6
CONTINUOUS
 10
265.7279191432
 20
176.4246669354
  0
VERTEX
  8
06___PRT_ALL_SURFS
 62
9
  6
CONTINUOUS
 10
265.3137804266
 20
174.9534314949
  0
VERTEX
  8
06___PRT_ALL_SURFS
 62
9
  6
CONTINUOUS
 10
265.016103724
 20
173.4542843615
  0
VERTEX
  8
06___PRT_ALL_SURFS
 62
9
  6
CONTINUOUS
 10
264.8367971977
 20
171.9364252226
  0
VERTEX
  8
06___PRT_ALL_SURFS
 62
9
  6
CONTINUOUS
 10
264.7768746677
 20
170.4091826535
  0
SEQEND
  0
LINE
  8
0
 62
9
  6
CONTINUOUS
 10
191.7768746677
 20
167.9091826535
 11
74.7768746677
 21
167.9091826535
  0
LINE
  8
0
 62
9
  6
CONTINUOUS
 10
266.7768746677
 20
167.9596929105
 11
192.7768746677
 21
167.9596929105
  0
LINE
  8
0
 62
7
  6
CONTINUOUS
 10
264.7768746677
 20
170.4091826535
 11
194.7768746677
 21
170.4091826535
  0
LINE
  8
06___PRT_ALL_SURFS
 62
7
  6
CONTINUOUS
 10
264.7768746677
 20
170.4091826535
 11
194.7768746677
 21
170.4091826535
  0
LINE
  8
0
 62
7
  6
CONTINUOUS
 10
189.2768746677
 20
170.4091826535
 11
77.2768746677
 21
170.4091826535
  0
LINE
  8
0
 62
9
  6
CONTINUOUS
 10
229.7768746677
 20
117.4091826535
 11
229.7768746677
 21
130.2376097783
  0
LINE
  8
0
 62
9
  6
CONTINUOUS
 10
229.7768746677
 20
167.9596929107
 11
229.7768746677
 21
170.4091826791
  0
LINE
  8
02___PRT_ALL_AXES
 62
7
  6
CENTER
 10
229.7768746677
 20
124.9091826535
 11
229.7768746677
 21
266.7202288941
  0
LINE
  8
02___PRT_ALL_AXES
 62
7
  6
CONTINUOUS
 10
277.4669251954
 20
185.3622276469
 11
313.4449949681
 21
184.1058457656
  0
POLYLINE
  8
02___PRT_ALL_AXES
 62
9
  6
CONTINUOUS
 66
1
 70
0
  0
VERTEX
  8
02___PRT_ALL_AXES
 62
9
  6
CONTINUOUS
 10
276.7768746677
 20
222.9091826535
  0
VERTEX
  8
02___PRT_ALL_AXES
 62
9
  6
CONTINUOUS
 10
273.4674934199
 20
222.4420070865
  0
VERTEX
  8
02___PRT_ALL_AXES
 62
9
  6
CONTINUOUS
 10
270.194322486
 20
221.7653240813
  0
VERTEX
  8
02___PRT_ALL_AXES
 62
9
  6
CONTINUOUS
 10
266.9709552268
 20
220.8820305842
  0
VERTEX
  8
02___PRT_ALL_AXES
 62
9
  6
CONTINUOUS
 10
263.8077258504
 20
219.7944980835
  0
VERTEX
  8
02___PRT_ALL_AXES
 62
9
  6
CONTINUOUS
 10
260.7185534109
 20
218.5076767733
  0
VERTEX
  8
02___PRT_ALL_AXES
 62
9
  6
CONTINUOUS
 10
257.7166933454
 20
217.0268088929
  0
VERTEX
  8
02___PRT_ALL_AXES
 62
9
  6
CONTINUOUS
 10
254.8130208211
 20
215.3567802409
  0
VERTEX
  8
02___PRT_ALL_AXES
 62
9
  6
CONTINUOUS
 10
252.0200032093
 20
213.5049537357
  0
VERTEX
  8
02___PRT_ALL_AXES
 62
9
  6
CONTINUOUS
 10
249.3498347835
 20
211.4789932697
  0
VERTEX
  8
02___PRT_ALL_AXES
 62
9
  6
CONTINUOUS
 10
246.8126177534
 20
209.2862546573
  0
VERTEX
  8
02___PRT_ALL_AXES
 62
9
  6
CONTINUOUS
 10
244.4187463608
 20
206.9359817323
  0
VERTEX
  8
02___PRT_ALL_AXES
 62
9
  6
CONTINUOUS
 10
242.1787171508
 20
204.4378745866
  0
VERTEX
  8
02___PRT_ALL_AXES
 62
9
  6
CONTINUOUS
 10
240.1011753227
 20
201.801421393
  0
VERTEX
  8
02___PRT_ALL_AXES
 62
9
  6
CONTINUOUS
 10
238.1944790651
 20
199.0375031157
  0
VERTEX
  8
02___PRT_ALL_AXES
 62
9
  6
CONTINUOUS
 10
236.4671730081
 20
196.157674995
  0
VERTEX
  8
02___PRT_ALL_AXES
 62
9
  6
CONTINUOUS
 10
234.9258492409
 20
193.1730347527
  0
VERTEX
  8
02___PRT_ALL_AXES
 62
9
  6
CONTINUOUS
 10
233.576651346
 20
190.0957349625
  0
VERTEX
  8
02___PRT_ALL_AXES
 62
9
  6
CONTINUOUS
 10
232.4258120814
 20
186.9387819112
  0
VERTEX
  8
02___PRT_ALL_AXES
 62
9
  6
CONTINUOUS
 10
231.4775761041
 20
183.7144022262
  0
VERTEX
  8
02___PRT_ALL_AXES
 62
9
  6
CONTINUOUS
 10
230.7357372345
 20
180.4356928802
  0
VERTEX
  8
02___PRT_ALL_AXES
 62
9
  6
CONTINUOUS
 10
230.2039049324
 20
177.1164583167
  0
VERTEX
  8
02___PRT_ALL_AXES
 62
9
  6
CONTINUOUS
 10
229.8838489936
 20
173.7697403114
  0
VERTEX
  8
02___PRT_ALL_AXES
 62
9
  6
CONTINUOUS
 10
229.7768746677
 20
170.4091826535
  0
SEQEND
  0
POLYLINE
  8
06___PRT_ALL_SURFS
 62
9
  6
CONTINUOUS
 66
1
 70
0
  0
VERTEX
  8
06___PRT_ALL_SURFS
 62
9
  6
CONTINUOUS
 10
276.7768746677
 20
222.9091826535
  0
VERTEX
  8
06___PRT_ALL_SURFS
 62
9
  6
CONTINUOUS
 10
273.467616684
 20
222.4420285093
  0
VERTEX
  8
06___PRT_ALL_SURFS
 62
9
  6
CONTINUOUS
 10
270.1928679444
 20
221.7649748133
  0
VERTEX
  8
06___PRT_ALL_SURFS
 62
9
  6
CONTINUOUS
 10
266.9663298261
 20
220.8806030285
  0
VERTEX
  8
06___PRT_ALL_SURFS
 62
9
  6
CONTINUOUS
 10
263.8045198719
 20
219.7932804712
  0
VERTEX
  8
06___PRT_ALL_SURFS
 62
9
  6
CONTINUOUS
 10
260.7155360409
 20
218.5063057159
  0
VERTEX
  8
06___PRT_ALL_SURFS
 62
9
  6
CONTINUOUS
 10
257.7128509274
 20
217.0247585256
  0
VERTEX
  8
06___PRT_ALL_SURFS
 62
9
  6
CONTINUOUS
 10
254.8105927103
 20
215.355279025
  0
VERTEX
  8
06___PRT_ALL_SURFS
 62
9
  6
CONTINUOUS
 10
252.0176991695
 20
213.5033183432
  0
VERTEX
  8
06___PRT_ALL_SURFS
 62
9
  6
CONTINUOUS
 10
249.3471789701
 20
211.4768414645
  0
VERTEX
  8
06___PRT_ALL_SURFS
 62
9
  6
CONTINUOUS
 10
246.8108020855
 20
209.2845818226
  0
VERTEX
  8
06___PRT_ALL_SURFS
 62
9
  6
CONTINUOUS
 10
244.4170218084
 20
206.9341773995
  0
VERTEX
  8
06___PRT_ALL_SURFS
 62
9
  6
CONTINUOUS
 10
242.1770516594
 20
204.4358937464
  0
VERTEX
  8
06___PRT_ALL_SURFS
 62
9
  6
CONTINUOUS
 10
240.1000437431
 20
201.7998875869
  0
VERTEX
  8
06___PRT_ALL_SURFS
 62
9
  6
CONTINUOUS
 10
238.1934506471
 20
199.0359059897
  0
VERTEX
  8
06___PRT_ALL_SURFS
 62
9
  6
CONTINUOUS
 10
236.4663042118
 20
196.1561160738
  0
VERTEX
  8
06___PRT_ALL_SURFS
 62
9
  6
CONTINUOUS
 10
234.9252781807
 20
193.1718371448
  0
VERTEX
  8
06___PRT_ALL_SURFS
 62
9
  6
CONTINUOUS
 10
233.5761953158
 20
190.0945978186
  0
VERTEX
  8
06___PRT_ALL_SURFS
 62
9
  6
CONTINUOUS
 10
232.4254878284
 20
186.9377960479
  0
VERTEX
  8
06___PRT_ALL_SURFS
 62
9
  6
CONTINUOUS
 10
231.4773906748
 20
183.7136887637
  0
VERTEX
  8
06___PRT_ALL_SURFS
 62
9
  6
CONTINUOUS
 10
230.7356310137
 20
180.4351426559
  0
VERTEX
  8
06___PRT_ALL_SURFS
 62
9
  6
CONTINUOUS
 10
230.2038576214
 20
177.1160880386
  0
VERTEX
  8
06___PRT_ALL_SURFS
 62
9
  6
CONTINUOUS
 10
229.8838379204
 20
173.7695664408
  0
VERTEX
  8
06___PRT_ALL_SURFS
 62
9
  6
CONTINUOUS
 10
229.7768746677
 20
170.4091826535
  0
SEQEND
  0
LINE
  8
0
 62
7
  6
CONTINUOUS
 10
264.7768746677
 20
117.4091826535
 11
264.7768746677
 21
127.4091826535
  0
LINE
  8
02___PRT_ALL_AXES
 62
7
  6
CONTINUOUS
 10
266.7768746677
 20
167.9596929105
 11
266.7768746677
 21
130.2376097796
  0
LINE
  8
02___PRT_ALL_AXES
 62
7
  6
CENTER
 10
319.2509848161
 20
221.4259540437
 11
180.5275871699
 21
226.270281836
  0
LINE
  8
06___PRT_ALL_SURFS
 62
7
  6
CONTINUOUS
 10
276.7768746677
 20
257.4091826535
 11
276.7768746677
 21
188.4091826535
  0
LINE
  8
0
 62
7
  6
CONTINUOUS
 10
278.0158068007
 20
258.3875570127
 11
275.5379425348
 21
187.4308082943
  0
LINE
  8
0
 62
9
  6
CONTINUOUS
 10
280.0843874481
 20
260.3165396733
 11
277.4669251954
 21
185.3622276469
  0
POLYLINE
  8
06___PRT_ALL_SURFS
 62
9
  6
CONTINUOUS
 66
1
 70
0
  0
VERTEX
  8
06___PRT_ALL_SURFS
 62
9
  6
CONTINUOUS
 10
276.7768746677
 20
257.4091826535
  0
VERTEX
  8
06___PRT_ALL_SURFS
 62
9
  6
CONTINUOUS
 10
271.9166465079
 20
256.9843461504
  0
VERTEX
  8
06___PRT_ALL_SURFS
 62
9
  6
CONTINUOUS
 10
267.0877814967
 20
256.288338533
  0
VERTEX
  8
06___PRT_ALL_SURFS
 62
9
  6
CONTINUOUS
 10
262.3054026642
 20
255.3235037933
  0
VERTEX
  8
06___PRT_ALL_SURFS
 62
9
  6
CONTINUOUS
 10
257.584604777
 20
254.0922998461
  0
VERTEX
  8
06___PRT_ALL_SURFS
 62
9
  6
CONTINUOUS
 10
252.9400998528
 20
252.5987326179
  0
VERTEX
  8
06___PRT_ALL_SURFS
 62
9
  6
CONTINUOUS
 10
248.3863240749
 20
250.8479235967
  0
VERTEX
  8
06___PRT_ALL_SURFS
 62
9
  6
CONTINUOUS
 10
243.9377043094
 20
248.8450255981
  0
VERTEX
  8
06___PRT_ALL_SURFS
 62
9
  6
CONTINUOUS
 10
239.6082802098
 20
246.596016126
  0
VERTEX
  8
06___PRT_ALL_SURFS
 62
9
  6
CONTINUOUS
 10
235.411339511
 20
244.1084743249
  0
VERTEX
  8
06___PRT_ALL_SURFS
 62
9
  6
CONTINUOUS
 10
231.3600837063
 20
241.3901630711
  0
VERTEX
  8
06___PRT_ALL_SURFS
 62
9
  6
CONTINUOUS
 10
227.4675257616
 20
238.4491065999
  0
VERTEX
  8
06___PRT_ALL_SURFS
 62
9
  6
CONTINUOUS
 10
223.7455767019
 20
235.294856908
  0
VERTEX
  8
06___PRT_ALL_SURFS
 62
9
  6
CONTINUOUS
 10
220.2057486039
 20
231.9375191311
  0
VERTEX
  8
06___PRT_ALL_SURFS
 62
9
  6
CONTINUOUS
 10
216.8595090772
 20
228.3872406089
  0
VERTEX
  8
06___PRT_ALL_SURFS
 62
9
  6
CONTINUOUS
 10
213.7173177487
 20
224.6551187503
  0
VERTEX
  8
06___PRT_ALL_SURFS
 62
9
  6
CONTINUOUS
 10
210.7886262459
 20
220.7532010162
  0
VERTEX
  8
06___PRT_ALL_SURFS
 62
9
  6
CONTINUOUS
 10
208.0828414374
 20
216.6935767615
  0
VERTEX
  8
06___PRT_ALL_SURFS
 62
9
  6
CONTINUOUS
 10
205.6087944345
 20
212.48870089
  0
VERTEX
  8
06___PRT_ALL_SURFS
 62
9
  6
CONTINUOUS
 10
203.3737261123
 20
208.1520379982
  0
VERTEX
  8
06___PRT_ALL_SURFS
 62
9
  6
CONTINUOUS
 10
201.3846052991
 20
203.6972254286
  0
VERTEX
  8
06___PRT_ALL_SURFS
 62
9
  6
CONTINUOUS
 10
199.6482123136
 20
199.1379757523
  0
VERTEX
  8
06___PRT_ALL_SURFS
 62
9
  6
CONTINUOUS
 10
198.1696841822
 20
194.4886574551
  0
VERTEX
  8
06___PRT_ALL_SURFS
 62
9
  6
CONTINUOUS
 10
196.9533117935
 20
189.7639768026
  0
VERTEX
  8
06___PRT_ALL_SURFS
 62
9
  6
CONTINUOUS
 10
196.0033542126
 20
184.9786475093
  0
VERTEX
  8
06___PRT_ALL_SURFS
 62
9
  6
CONTINUOUS
 10
195.3229405868
 20
180.1475926897
  0
VERTEX
  8
06___PRT_ALL_SURFS
 62
9
  6
CONTINUOUS
 10
194.9136321316
 20
175.2860260195
  0
VERTEX
  8
06___PRT_ALL_SURFS
 62
9
  6
CONTINUOUS
 10
194.7768746677
 20
170.4091826535
  0
SEQEND
  0
POLYLINE
  8
02___PRT_ALL_AXES
 62
7
  6
CONTINUOUS
 66
1
 70
0
  0
VERTEX
  8
02___PRT_ALL_AXES
 62
7
  6
CONTINUOUS
 10
277.9838432116
 20
257.4722395792
  0
VERTEX
  8
02___PRT_ALL_AXES
 62
7
  6
CONTINUOUS
 10
273.0736555482
 20
257.1103951253
  0
VERTEX
  8
02___PRT_ALL_AXES
 62
7
  6
CONTINUOUS
 10
268.1917345324
 20
256.4718123024
  0
VERTEX
  8
02___PRT_ALL_AXES
 62
7
  6
CONTINUOUS
 10
263.3536232763
 20
255.5589001021
  0
VERTEX
  8
02___PRT_ALL_AXES
 62
7
  6
CONTINUOUS
 10
258.5748566419
 20
254.3741005536
  0
VERTEX
  8
02___PRT_ALL_AXES
 62
7
  6
CONTINUOUS
 10
253.8706693918
 20
252.921069384
  0
VERTEX
  8
02___PRT_ALL_AXES
 62
7
  6
CONTINUOUS
 10
249.2559168523
 20
251.2049971114
  0
VERTEX
  8
02___PRT_ALL_AXES
 62
7
  6
CONTINUOUS
 10
244.7454297579
 20
249.2311726728
  0
VERTEX
  8
02___PRT_ALL_AXES
 62
7
  6
CONTINUOUS
 10
240.3537838979
 20
247.005427216
  0
VERTEX
  8
02___PRT_ALL_AXES
 62
7
  6
CONTINUOUS
 10
236.094718892
 20
244.535374011
  0
VERTEX
  8
02___PRT_ALL_AXES
 62
7
  6
CONTINUOUS
 10
231.9818031495
 20
241.82899156
  0
VERTEX
  8
02___PRT_ALL_AXES
 62
7
  6
CONTINUOUS
 10
228.0284970427
 20
238.8944093714
  0
VERTEX
  8
02___PRT_ALL_AXES
 62
7
  6
CONTINUOUS
 10
224.2472184805
 20
235.7412016182
  0
VERTEX
  8
02___PRT_ALL_AXES
 62
7
  6
CONTINUOUS
 10
220.649804915
 20
232.3797462626
  0
VERTEX
  8
02___PRT_ALL_AXES
 62
7
  6
CONTINUOUS
 10
217.2480680747
 20
228.820448266
  0
VERTEX
  8
02___PRT_ALL_AXES
 62
7
  6
CONTINUOUS
 10
214.0529556761
 20
225.0745269553
  0
VERTEX
  8
02___PRT_ALL_AXES
 62
7
  6
CONTINUOUS
 10
211.0742237792
 20
221.1543248311
  0
VERTEX
  8
02___PRT_ALL_AXES
 62
7
  6
CONTINUOUS
 10
208.3215412217
 20
217.0722663971
  0
VERTEX
  8
02___PRT_ALL_AXES
 62
7
  6
CONTINUOUS
 10
205.8041161431
 20
212.8410682514
  0
VERTEX
  8
02___PRT_ALL_AXES
 62
7
  6
CONTINUOUS
 10
203.5294884812
 20
208.4745066633
  0
VERTEX
  8
02___PRT_ALL_AXES
 62
7
  6
CONTINUOUS
 10
201.5048207464
 20
203.9865978792
  0
VERTEX
  8
02___PRT_ALL_AXES
 62
7
  6
CONTINUOUS
 10
199.7371255615
 20
199.3914180912
  0
VERTEX
  8
02___PRT_ALL_AXES
 62
7
  6
CONTINUOUS
 10
198.2318015419
 20
194.7036876652
  0
VERTEX
  8
02___PRT_ALL_AXES
 62
7
  6
CONTINUOUS
 10
196.9932654545
 20
189.9385187564
  0
VERTEX
  8
02___PRT_ALL_AXES
 62
7
  6
CONTINUOUS
 10
196.0259004319
 20
185.1110327523
  0
VERTEX
  8
02___PRT_ALL_AXES
 62
7
  6
CONTINUOUS
 10
195.3329878621
 20
180.2365552196
  0
VERTEX
  8
02___PRT_ALL_AXES
 62
7
  6
CONTINUOUS
 10
194.9161506331
 20
175.3307190615
  0
VERTEX
  8
02___PRT_ALL_AXES
 62
7
  6
CONTINUOUS
 10
194.7768746677
 20
170.4091826535
  0
SEQEND
  0
LINE
  8
0
 62
9
  6
CONTINUOUS
 10
316.0624572208
 20
259.060157792
 11
313.4449949681
 21
184.1058457656
  0
LINE
  8
0
 62
7
  6
CONTINUOUS
 10
317.9914398814
 20
256.9915771446
 11
315.5135756156
 21
186.0348284262
  0
LINE
  8
02___PRT_ALL_AXES
 62
7
  6
CONTINUOUS
 10
280.0843874481
 20
260.3165396733
 11
316.0624572208
 21
259.060157792
  0
ARC
  8
0
 62
7
  6
CONTINUOUS
 10
195.776874648
 20
130.2376097347
 40
3.0000000021
 50
179.9999991695
 51
250.5287794441
  0
ARC
  8
0
 62
7
  6
CONTINUOUS
 10
263.7768746875
 20
130.2376097347
 40
3.0000000021
 50
289.4712205559
 51
0.0000008305
  0
ARC
  8
0
 62
7
  6
CONTINUOUS
 10
195.2768746466
 20
167.9596929333
 40
2.5000000002
 50
101.5369586621
 51
180.0000005173
  0
ARC
  8
0
 62
7
  6
CONTINUOUS
 10
264.2768746889
 20
167.9596929333
 40
2.5000000002
 50
359.9999994827
 51
78.4630413379
  0
ARC
  8
0
 62
7
  6
CONTINUOUS
 10
189.2768746677
 20
167.9091826535
 40
2.5
 50
0.0
 51
90.0
  0
ARC
  8
0
 62
7
  6
CONTINUOUS
 10
77.2768746677
 20
167.9091826535
 40
2.5
 50
90.0
 51
180.0
  0
ARC
  8
0
 62
7
  6
CONTINUOUS
 10
315.9926582274
 20
257.061376138
 40
2.0
 50
358.0
 51
88.0
  0
ARC
  8
0
 62
7
  6
CONTINUOUS
 10
313.5147939615
 20
186.1046274197
 40
2.0
 50
268.0
 51
358.0
  0
ARC
  8
0
 62
7
  6
CONTINUOUS
 10
280.0145884547
 20
258.3177580193
 40
2.0
 50
88.0
 51
178.0
  0
ARC
  8
0
 62
7
  6
CONTINUOUS
 10
277.5367241888
 20
187.3610093009
 40
2.0
 50
178.0
 51
268.0
  0
ENDSEC
  0
EOF
